osu file format v14

[General]
AudioFilename: audio.mp3
AudioLeadIn: 0
PreviewTime: 89240
Countdown: 0
SampleSet: Normal
StackLeniency: 0.7
Mode: 1
LetterboxInBreaks: 0
WidescreenStoryboard: 0

[Editor]
Bookmarks: 34469,56412,100297,122240,166126,188069,231955,253897,275840
DistanceSpacing: 2.8
BeatDivisor: 4
GridSize: 32
TimelineZoom: 1

[Metadata]
Title:For Your Christmas
TitleUnicode:For Your Christmas
Artist:Zekk
ArtistUnicode:Zekk
Creator:Nardoxyribonucleic
Version:Muzukashii
Source:osu!
Tags:Taiko Featured Artist FA Mappers' Guild MG Electronic Instrumental Mistletoe EP J-core hardcore 2015 Remasterd Remastered
BeatmapID:2735148
BeatmapSetID:1174299

[Difficulty]
HPDrainRate:6.5
CircleSize:5
OverallDifficulty:5
ApproachRate:5
SliderMultiplier:1.4
SliderTickRate:1

[Events]
//Background and Video events
0,0,"bg.jpg",0,-135
//Break Periods
//Storyboard Layer 0 (Background)
//Storyboard Layer 1 (Fail)
//Storyboard Layer 2 (Pass)
//Storyboard Layer 3 (Foreground)
//Storyboard Layer 4 (Overlay)
//Storyboard Sound Samples

[TimingPoints]
1555,342.857142857143,4,1,0,60,1,0
1555,-117.647058823529,4,1,0,60,0,0
12526,-111.731843575419,4,1,0,75,0,0
18012,-107.52688172043,4,1,0,75,0,0
18355,-106.382978723404,4,1,0,75,0,0
18526,-105.263157894737,4,1,0,75,0,0
18697,-104.166666666667,4,1,0,75,0,0
18869,-103.092783505155,4,1,0,75,0,0
19040,-102.040816326531,4,1,0,75,0,0
19383,-101.010101010101,4,1,0,75,0,0
19726,-100,4,1,0,75,0,0
19897,-99.009900990099,4,1,0,75,0,0
20069,-98.0392156862745,4,1,0,75,0,0
20240,-97.0873786407767,4,1,0,75,0,0
20412,-96.1538461538461,4,1,0,75,0,0
20755,-95.2380952380952,4,1,0,75,0,0
22126,-90.9090909090909,4,1,0,75,0,0
22812,-95.2380952380952,4,1,0,75,0,0
23155,-97.5609756097561,4,1,0,75,0,0
23326,-98.7654320987654,4,1,0,75,0,0
23497,-100,4,1,0,90,0,0
45440,-100,4,1,0,75,0,0
46297,-125,4,1,0,60,0,0
67383,-111.111111111111,4,1,0,70,0,0
77840,-106.382978723404,4,1,0,70,0,0
78012,-104.166666666667,4,1,0,70,0,0
78183,-102.040816326531,4,1,0,70,0,0
78269,-100,4,1,0,70,0,0
78355,-100,4,1,0,85,0,0
84097,-99.009900990099,4,1,0,85,0,0
84355,-98.0392156862745,4,1,0,85,0,0
84612,-97.0873786407767,4,1,0,85,0,0
84869,-96.1538461538461,4,1,0,85,0,0
85040,-95.2380952380952,4,1,0,85,0,0
85212,-94.3396226415094,4,1,0,85,0,0
85383,-93.4579439252336,4,1,0,85,0,0
85555,-92.5925925925926,4,1,0,85,0,0
85726,-91.743119266055,4,1,0,85,0,0
85983,-90.9090909090909,4,1,0,85,0,0
86240,-90.0900900900901,4,1,0,85,0,0
86412,-89.2857142857143,4,1,0,85,0,0
86583,-88.4955752212389,4,1,0,85,0,0
87869,-86.9565217391304,4,1,0,85,0,0
89326,-97.5609756097561,4,1,0,100,0,1
109897,-97.5609756097561,4,1,0,90,0,0
110583,-95.2380952380952,4,1,0,90,0,0
110926,-96.3855421686747,4,1,0,90,0,0
111269,-97.5609756097561,4,1,0,100,0,1
133212,-97.5609756097561,4,1,0,85,0,0
134069,-125,4,1,0,70,0,0
144183,-114.942528735632,4,1,0,70,0,0
149669,-108.695652173913,4,1,0,80,0,0
149840,-107.52688172043,4,1,0,80,0,0
150183,-106.382978723404,4,1,0,80,0,0
150355,-105.263157894737,4,1,0,80,0,0
150526,-104.166666666667,4,1,0,80,0,0
150697,-103.092783505155,4,1,0,80,0,0
150869,-102.040816326531,4,1,0,80,0,0
151212,-101.010101010101,4,1,0,80,0,0
151383,-100,4,1,0,80,0,0
151726,-99.009900990099,4,1,0,80,0,0
151897,-98.0392156862745,4,1,0,80,0,0
152069,-97.0873786407767,4,1,0,80,0,0
152240,-96.1538461538461,4,1,0,80,0,0
152412,-95.2380952380952,4,1,0,80,0,0
153783,-90.9090909090909,4,1,0,80,0,0
155069,-100,4,1,0,80,0,0
155155,-100,4,1,0,85,0,0
177097,-100,4,1,0,90,0,0
177355,-95.2380952380952,4,1,0,90,0,0
177526,-100,4,1,0,90,0,0
178040,-90.9090909090909,4,1,0,90,0,0
178555,-100,4,1,0,90,0,0
179755,-95.2380952380952,4,1,0,90,0,0
179926,-100,4,1,0,90,0,0
180440,-95.2380952380952,4,1,0,90,0,0
180612,-100,4,1,0,90,0,0
180783,-90.9090909090909,4,1,0,90,0,0
181297,-95.2380952380952,4,1,0,90,0,0
182583,-100,4,1,0,90,0,0
199040,-111.111111111111,4,1,0,80,0,0
209497,-106.382978723404,4,1,0,70,0,0
209669,-104.166666666667,4,1,0,70,0,0
209840,-102.040816326531,4,1,0,70,0,0
209926,-100,4,1,0,70,0,0
210012,-100,4,1,0,85,0,0
215755,-99.009900990099,4,1,0,85,0,0
216012,-98.0392156862745,4,1,0,85,0,0
216269,-97.0873786407767,4,1,0,85,0,0
216526,-96.1538461538461,4,1,0,85,0,0
216697,-95.2380952380952,4,1,0,85,0,0
216869,-94.3396226415094,4,1,0,85,0,0
217040,-93.4579439252336,4,1,0,85,0,0
217212,-92.5925925925926,4,1,0,85,0,0
217383,-91.743119266055,4,1,0,85,0,0
217640,-90.9090909090909,4,1,0,85,0,0
217897,-90.0900900900901,4,1,0,85,0,0
218069,-89.2857142857143,4,1,0,85,0,0
218240,-88.4955752212389,4,1,0,85,0,0
219612,-86.9565217391304,4,1,0,85,0,0
220983,-95.2380952380952,4,1,0,100,0,1
241555,-95.2380952380952,4,1,0,90,0,0
242240,-90.9090909090909,4,1,0,90,0,0
242583,-93.0232558139535,4,1,0,90,0,0
242926,-95.2380952380952,4,1,0,100,0,1
264869,-95.2380952380952,4,1,0,90,0,0
265212,-100,4,1,0,80,0,0
281326,-100,4,1,0,80,0,0
281497,-99.009900990099,4,1,0,80,0,0
281669,-98.0392156862745,4,1,0,80,0,0
282012,-97.0873786407767,4,1,0,80,0,0
282183,-96.1538461538461,4,1,0,80,0,0
282355,-95.2380952380952,4,1,0,80,0,0
282526,-94.3396226415094,4,1,0,80,0,0
282869,-93.4579439252336,4,1,0,80,0,0
283040,-92.5925925925926,4,1,0,80,0,0
283383,-91.743119266055,4,1,0,80,0,0
283555,-90.9090909090909,4,1,0,80,0,0
283726,-90.0900900900901,4,1,0,80,0,0
283897,-89.2857142857143,4,1,0,80,0,0
284069,-88.4955752212389,4,1,0,80,0,0
285440,-86.9565217391304,4,1,0,80,0,0
286126,-90.9090909090909,4,1,0,80,0,0
286469,-93.0232558139535,4,1,0,80,0,0
286812,-95.2380952380952,4,1,0,80,0,0

[HitObjects]
256,192,1555,5,4,0:0:0:0:
256,192,2240,1,0,0:0:0:0:
256,192,2926,1,0,0:0:0:0:
256,192,3269,1,8,0:0:0:0:
256,192,3612,1,0,0:0:0:0:
256,192,3955,1,8,0:0:0:0:
256,192,4297,1,0,0:0:0:0:
256,192,4983,1,0,0:0:0:0:
256,192,5669,1,0,0:0:0:0:
256,192,6012,1,8,0:0:0:0:
256,192,6355,1,0,0:0:0:0:
256,192,6697,1,8,0:0:0:0:
256,192,7040,1,0,0:0:0:0:
256,192,7726,1,0,0:0:0:0:
256,192,8412,1,0,0:0:0:0:
256,192,8755,1,8,0:0:0:0:
256,192,9097,1,0,0:0:0:0:
256,192,9440,1,8,0:0:0:0:
256,192,9783,1,0,0:0:0:0:
256,192,10469,1,0,0:0:0:0:
256,192,11155,1,0,0:0:0:0:
256,192,11497,1,8,0:0:0:0:
256,192,11840,1,0,0:0:0:0:
256,192,12012,1,8,0:0:0:0:
256,192,12097,1,8,0:0:0:0:
256,192,12183,1,8,0:0:0:0:
256,192,12355,1,0,0:0:0:0:
256,192,12526,1,12,0:0:0:0:
256,192,13897,1,0,0:0:0:0:
256,192,15269,1,8,0:0:0:0:
256,192,15955,1,0,0:0:0:0:
256,192,16640,1,8,0:0:0:0:
256,192,18012,1,4,0:0:0:0:
256,192,18355,1,8,0:0:0:0:
256,192,18526,1,0,0:0:0:0:
256,192,18697,1,8,0:0:0:0:
256,192,18869,1,0,0:0:0:0:
256,192,19040,1,8,0:0:0:0:
256,192,19383,1,8,0:0:0:0:
256,192,19726,1,0,0:0:0:0:
256,192,19897,1,8,0:0:0:0:
256,192,20069,1,0,0:0:0:0:
256,192,20240,1,8,0:0:0:0:
256,192,20412,1,0,0:0:0:0:
256,192,20755,1,8,0:0:0:0:
256,192,20926,1,0,0:0:0:0:
256,192,21012,1,0,0:0:0:0:
256,192,21097,1,0,0:0:0:0:
256,192,21440,1,8,0:0:0:0:
256,192,21526,1,8,0:0:0:0:
256,192,21612,1,8,0:0:0:0:
256,192,21783,1,0,0:0:0:0:
256,192,21955,1,8,0:0:0:0:
256,192,22126,1,4,0:0:0:0:
256,192,22812,1,0,0:0:0:0:
256,192,23155,1,8,0:0:0:0:
256,192,23326,1,0,0:0:0:0:
256,192,23497,1,4,0:0:0:0:
256,192,23840,1,8,0:0:0:0:
256,192,24183,1,0,0:0:0:0:
256,192,24355,1,0,0:0:0:0:
256,192,24526,1,8,0:0:0:0:
256,192,24697,1,0,0:0:0:0:
256,192,24869,1,8,0:0:0:0:
256,192,25212,1,8,0:0:0:0:
256,192,25383,1,0,0:0:0:0:
256,192,25469,1,0,0:0:0:0:
256,192,25555,1,0,0:0:0:0:
256,192,25726,1,0,0:0:0:0:
256,192,25897,1,8,0:0:0:0:
256,192,26069,1,8,0:0:0:0:
256,192,26240,1,0,0:0:0:0:
256,192,26583,1,8,0:0:0:0:
256,192,26755,1,0,0:0:0:0:
256,192,27097,1,0,0:0:0:0:
256,192,27269,1,8,0:0:0:0:
256,192,27440,1,8,0:0:0:0:
256,192,27612,1,0,0:0:0:0:
256,192,27955,1,8,0:0:0:0:
256,192,28126,1,0,0:0:0:0:
256,192,28297,1,0,0:0:0:0:
256,192,28469,1,8,0:0:0:0:
256,192,28555,1,8,0:0:0:0:
256,192,28640,1,8,0:0:0:0:
256,192,28812,1,0,0:0:0:0:
256,192,28983,1,8,0:0:0:0:
256,192,29326,1,8,0:0:0:0:
256,192,29669,1,0,0:0:0:0:
256,192,29840,1,0,0:0:0:0:
256,192,30012,1,8,0:0:0:0:
256,192,30183,1,0,0:0:0:0:
256,192,30355,1,8,0:0:0:0:
256,192,30697,1,8,0:0:0:0:
256,192,30869,1,0,0:0:0:0:
256,192,30955,1,0,0:0:0:0:
256,192,31040,1,0,0:0:0:0:
256,192,31212,1,8,0:0:0:0:
256,192,31383,1,8,0:0:0:0:
256,192,31555,1,0,0:0:0:0:
256,192,31726,1,0,0:0:0:0:
256,192,32069,1,8,0:0:0:0:
256,192,32240,1,0,0:0:0:0:
256,192,32583,1,0,0:0:0:0:
256,192,32755,1,8,0:0:0:0:
256,192,32926,1,8,0:0:0:0:
256,192,33097,1,0,0:0:0:0:
256,192,33612,1,0,0:0:0:0:
256,192,33955,1,0,0:0:0:0:
256,192,34126,1,8,0:0:0:0:
256,192,34212,1,8,0:0:0:0:
256,192,34297,1,8,0:0:0:0:
256,192,34469,1,0,0:0:0:0:
256,192,34812,1,8,0:0:0:0:
256,192,35155,1,0,0:0:0:0:
256,192,35326,1,0,0:0:0:0:
256,192,35497,1,8,0:0:0:0:
256,192,35669,1,0,0:0:0:0:
256,192,35840,1,8,0:0:0:0:
256,192,36183,1,8,0:0:0:0:
256,192,36355,1,0,0:0:0:0:
256,192,36440,1,0,0:0:0:0:
256,192,36526,1,0,0:0:0:0:
256,192,36697,1,0,0:0:0:0:
256,192,36869,1,8,0:0:0:0:
256,192,37040,1,8,0:0:0:0:
256,192,37212,1,0,0:0:0:0:
256,192,37555,1,8,0:0:0:0:
256,192,37726,1,0,0:0:0:0:
256,192,37812,1,0,0:0:0:0:
256,192,37897,1,0,0:0:0:0:
256,192,38069,1,0,0:0:0:0:
256,192,38240,1,8,0:0:0:0:
256,192,38326,1,8,0:0:0:0:
256,192,38412,1,8,0:0:0:0:
256,192,38583,1,0,0:0:0:0:
256,192,38755,1,8,0:0:0:0:
256,192,39097,1,8,0:0:0:0:
256,192,39440,1,0,0:0:0:0:
256,192,39955,1,8,0:0:0:0:
256,192,40297,1,8,0:0:0:0:
256,192,40469,1,8,0:0:0:0:
256,192,40640,1,0,0:0:0:0:
256,192,40812,1,0,0:0:0:0:
256,192,40983,1,8,0:0:0:0:
256,192,41326,1,0,0:0:0:0:
256,192,41669,1,8,0:0:0:0:
256,192,41840,1,0,0:0:0:0:
256,192,41926,1,0,0:0:0:0:
256,192,42012,1,0,0:0:0:0:
256,192,42183,1,8,0:0:0:0:
256,192,42355,1,8,0:0:0:0:
256,192,42697,1,0,0:0:0:0:
256,192,42783,1,0,0:0:0:0:
256,192,42869,1,0,0:0:0:0:
256,192,43040,1,8,0:0:0:0:
256,192,43212,1,8,0:0:0:0:
256,192,43297,1,8,0:0:0:0:
256,192,43383,1,8,0:0:0:0:
256,192,43555,1,0,0:0:0:0:
256,192,43726,1,8,0:0:0:0:
256,192,43897,1,0,0:0:0:0:
256,192,44069,1,12,0:0:0:0:
256,192,44412,1,8,0:0:0:0:
256,192,44583,1,0,0:0:0:0:
256,192,44755,1,8,0:0:0:0:
256,192,44840,1,8,0:0:0:0:
256,192,44926,1,8,0:0:0:0:
256,192,45097,1,8,0:0:0:0:
256,192,45440,1,4,0:0:0:0:
256,192,46297,1,8,0:0:0:0:
256,192,46640,1,0,0:0:0:0:
256,192,47497,1,0,0:0:0:0:
256,192,47840,1,0,0:0:0:0:
256,192,48183,1,8,0:0:0:0:
256,192,48869,1,8,0:0:0:0:
256,192,49555,1,0,0:0:0:0:
256,192,50926,1,8,0:0:0:0:
256,192,51783,1,8,0:0:0:0:
256,192,52126,1,0,0:0:0:0:
256,192,52983,1,0,0:0:0:0:
256,192,53326,1,0,0:0:0:0:
256,192,53669,1,8,0:0:0:0:
256,192,54355,1,0,0:0:0:0:
256,192,55040,1,8,0:0:0:0:
256,192,56412,1,8,0:0:0:0:
256,192,57269,1,8,0:0:0:0:
256,192,57612,1,0,0:0:0:0:
256,192,58469,1,0,0:0:0:0:
256,192,58812,1,8,0:0:0:0:
256,192,59155,1,8,0:0:0:0:
256,192,59840,1,0,0:0:0:0:
256,192,60526,1,8,0:0:0:0:
256,192,61897,1,8,0:0:0:0:
256,192,62755,1,8,0:0:0:0:
256,192,63097,1,0,0:0:0:0:
256,192,63955,1,0,0:0:0:0:
256,192,64297,1,8,0:0:0:0:
256,192,64640,1,0,0:0:0:0:
256,192,65326,1,8,0:0:0:0:
256,192,66012,1,8,0:0:0:0:
256,192,67383,1,4,0:0:0:0:
256,192,67897,1,0,0:0:0:0:
256,192,68240,1,0,0:0:0:0:
256,192,68583,1,8,0:0:0:0:
256,192,68926,1,0,0:0:0:0:
256,192,69269,1,8,0:0:0:0:
256,192,69612,1,8,0:0:0:0:
256,192,69955,1,0,0:0:0:0:
256,192,70640,1,0,0:0:0:0:
256,192,70983,1,0,0:0:0:0:
256,192,71326,1,8,0:0:0:0:
256,192,71669,1,8,0:0:0:0:
256,192,71840,1,8,0:0:0:0:
256,192,72012,1,0,0:0:0:0:
256,192,72355,1,8,0:0:0:0:
256,192,72526,1,0,0:0:0:0:
256,192,72697,1,8,0:0:0:0:
256,192,73040,1,8,0:0:0:0:
256,192,73383,1,0,0:0:0:0:
256,192,73726,1,0,0:0:0:0:
256,192,73897,1,8,0:0:0:0:
256,192,74069,1,0,0:0:0:0:
256,192,74412,1,0,0:0:0:0:
256,192,74583,1,0,0:0:0:0:
256,192,74755,1,8,0:0:0:0:
256,192,75097,1,8,0:0:0:0:
256,192,75440,1,0,0:0:0:0:
256,192,75612,1,8,0:0:0:0:
256,192,76126,1,0,0:0:0:0:
256,192,76469,1,0,0:0:0:0:
256,192,76812,1,8,0:0:0:0:
256,192,76983,1,0,0:0:0:0:
256,192,77155,1,8,0:0:0:0:
256,192,77326,1,8,0:0:0:0:
256,192,77497,1,0,0:0:0:0:
256,192,77840,1,8,0:0:0:0:
256,192,78012,1,8,0:0:0:0:
256,192,78183,1,0,0:0:0:0:
256,192,78355,1,12,0:0:0:0:
256,192,78697,1,8,0:0:0:0:
256,192,78869,1,0,0:0:0:0:
256,192,78955,1,0,0:0:0:0:
256,192,79040,1,0,0:0:0:0:
256,192,79212,1,0,0:0:0:0:
256,192,79383,1,8,0:0:0:0:
256,192,79555,1,8,0:0:0:0:
256,192,79726,1,4,0:0:0:0:
256,192,80069,1,8,0:0:0:0:
256,192,80240,1,8,0:0:0:0:
256,192,80326,1,8,0:0:0:0:
256,192,80412,1,8,0:0:0:0:
256,192,80583,1,0,0:0:0:0:
256,192,80755,1,8,0:0:0:0:
256,192,80926,1,0,0:0:0:0:
256,192,81097,1,12,0:0:0:0:
256,192,81440,1,8,0:0:0:0:
256,192,81612,1,0,0:0:0:0:
256,192,81783,1,0,0:0:0:0:
256,192,81955,1,8,0:0:0:0:
256,192,82040,1,8,0:0:0:0:
256,192,82126,1,8,0:0:0:0:
256,192,82297,1,8,0:0:0:0:
256,192,82469,1,4,0:0:0:0:
256,192,82812,1,8,0:0:0:0:
256,192,83326,1,8,0:0:0:0:
256,192,83497,1,8,0:0:0:0:
256,192,83669,1,0,0:0:0:0:
256,192,83840,1,8,0:0:0:0:
256,192,84097,1,8,0:0:0:0:
256,192,84355,1,8,0:0:0:0:
256,192,84612,1,8,0:0:0:0:
256,192,84869,1,8,0:0:0:0:
256,192,85040,1,8,0:0:0:0:
256,192,85212,1,0,0:0:0:0:
256,192,85383,1,8,0:0:0:0:
256,192,85555,1,0,0:0:0:0:
256,192,85726,1,8,0:0:0:0:
256,192,85983,1,8,0:0:0:0:
256,192,86240,1,8,0:0:0:0:
256,192,86412,1,8,0:0:0:0:
256,192,86583,1,8,0:0:0:0:
256,192,86755,1,0,0:0:0:0:
256,192,86840,1,0,0:0:0:0:
256,192,86926,1,0,0:0:0:0:
256,192,87097,1,0,0:0:0:0:
256,192,87269,1,8,0:0:0:0:
256,192,87355,1,8,0:0:0:0:
256,192,87440,1,8,0:0:0:0:
256,192,87612,1,0,0:0:0:0:
256,192,87783,1,8,0:0:0:0:
256,192,87955,1,4,0:0:0:0:
256,192,89326,1,4,0:0:0:0:
256,192,89669,1,8,0:0:0:0:
256,192,89926,1,8,0:0:0:0:
256,192,90183,1,0,0:0:0:0:
256,192,90355,1,8,0:0:0:0:
256,192,90440,1,8,0:0:0:0:
256,192,90526,1,8,0:0:0:0:
256,192,90697,1,0,0:0:0:0:
256,192,90869,1,0,0:0:0:0:
256,192,91040,1,8,0:0:0:0:
256,192,91297,1,8,0:0:0:0:
256,192,91555,1,0,0:0:0:0:
256,192,91726,1,8,0:0:0:0:
256,192,91897,1,0,0:0:0:0:
256,192,92069,1,0,0:0:0:0:
256,192,92412,1,8,0:0:0:0:
256,192,92926,1,0,0:0:0:0:
256,192,93097,1,8,0:0:0:0:
256,192,93269,1,8,0:0:0:0:
256,192,93612,1,8,0:0:0:0:
256,192,93783,1,8,0:0:0:0:
256,192,93955,1,0,0:0:0:0:
256,192,94040,1,0,0:0:0:0:
256,192,94126,1,0,0:0:0:0:
256,192,94297,1,8,0:0:0:0:
256,192,94469,1,8,0:0:0:0:
256,192,94640,1,0,0:0:0:0:
256,192,94812,1,8,0:0:0:0:
256,192,95155,1,8,0:0:0:0:
256,192,95412,1,8,0:0:0:0:
256,192,95669,1,0,0:0:0:0:
256,192,95840,1,8,0:0:0:0:
256,192,95926,1,8,0:0:0:0:
256,192,96012,1,8,0:0:0:0:
256,192,96183,1,0,0:0:0:0:
256,192,96355,1,0,0:0:0:0:
256,192,96526,1,8,0:0:0:0:
256,192,96783,1,8,0:0:0:0:
256,192,97040,1,0,0:0:0:0:
256,192,97212,1,8,0:0:0:0:
256,192,97383,1,0,0:0:0:0:
256,192,97555,1,0,0:0:0:0:
256,192,97897,1,8,0:0:0:0:
256,192,98069,1,0,0:0:0:0:
256,192,98412,1,0,0:0:0:0:
256,192,98583,1,8,0:0:0:0:
256,192,98755,1,8,0:0:0:0:
256,192,98926,1,0,0:0:0:0:
256,192,99012,1,0,0:0:0:0:
256,192,99097,1,0,0:0:0:0:
256,192,99269,1,8,0:0:0:0:
256,192,99440,1,8,0:0:0:0:
256,192,99612,1,0,0:0:0:0:
256,192,100297,1,4,0:0:0:0:
256,192,100640,1,8,0:0:0:0:
256,192,100897,1,8,0:0:0:0:
256,192,101155,1,0,0:0:0:0:
256,192,101326,1,8,0:0:0:0:
256,192,101412,1,8,0:0:0:0:
256,192,101497,1,8,0:0:0:0:
256,192,101669,1,0,0:0:0:0:
256,192,101840,1,0,0:0:0:0:
256,192,102012,1,8,0:0:0:0:
256,192,102269,1,8,0:0:0:0:
256,192,102526,1,0,0:0:0:0:
256,192,102697,1,8,0:0:0:0:
256,192,102869,1,0,0:0:0:0:
256,192,103040,1,0,0:0:0:0:
256,192,103383,1,8,0:0:0:0:
256,192,103555,1,0,0:0:0:0:
256,192,103640,1,0,0:0:0:0:
256,192,103726,1,0,0:0:0:0:
256,192,103897,1,0,0:0:0:0:
256,192,104069,1,8,0:0:0:0:
256,192,104240,1,8,0:0:0:0:
256,192,104583,1,8,0:0:0:0:
256,192,104669,1,8,0:0:0:0:
256,192,104755,1,8,0:0:0:0:
256,192,104926,1,8,0:0:0:0:
256,192,105097,1,0,0:0:0:0:
256,192,105269,1,8,0:0:0:0:
256,192,105440,1,8,0:0:0:0:
256,192,105612,1,0,0:0:0:0:
256,192,105783,1,8,0:0:0:0:
256,192,106126,1,8,0:0:0:0:
256,192,106640,1,0,0:0:0:0:
256,192,106812,1,8,0:0:0:0:
256,192,106897,1,8,0:0:0:0:
256,192,106983,1,8,0:0:0:0:
256,192,107155,1,0,0:0:0:0:
256,192,107497,1,8,0:0:0:0:
256,192,107669,1,0,0:0:0:0:
256,192,107755,1,0,0:0:0:0:
256,192,107840,1,0,0:0:0:0:
256,192,108012,1,0,0:0:0:0:
256,192,108183,1,8,0:0:0:0:
256,192,108526,1,0,0:0:0:0:
256,192,108612,1,0,0:0:0:0:
256,192,108697,1,0,0:0:0:0:
256,192,108869,1,8,0:0:0:0:
256,192,108955,1,8,0:0:0:0:
256,192,109040,1,8,0:0:0:0:
256,192,109212,1,0,0:0:0:0:
256,192,109383,1,8,0:0:0:0:
256,192,109555,1,0,0:0:0:0:
256,192,109726,1,8,0:0:0:0:
256,192,109897,1,4,0:0:0:0:
256,192,110583,1,8,0:0:0:0:
256,192,110926,1,0,0:0:0:0:
256,192,111269,1,4,0:0:0:0:
256,192,111612,1,8,0:0:0:0:
256,192,111869,1,8,0:0:0:0:
256,192,112126,1,0,0:0:0:0:
256,192,112297,1,8,0:0:0:0:
256,192,112469,1,0,0:0:0:0:
256,192,112555,1,0,0:0:0:0:
256,192,112640,1,0,0:0:0:0:
256,192,112812,1,0,0:0:0:0:
256,192,112983,1,8,0:0:0:0:
256,192,113240,1,8,0:0:0:0:
256,192,113497,1,0,0:0:0:0:
256,192,113669,1,8,0:0:0:0:
256,192,113840,1,0,0:0:0:0:
256,192,114012,1,0,0:0:0:0:
256,192,114355,1,8,0:0:0:0:
256,192,114526,1,0,0:0:0:0:
256,192,114697,1,0,0:0:0:0:
256,192,114783,1,0,0:0:0:0:
256,192,114869,1,0,0:0:0:0:
256,192,115040,1,8,0:0:0:0:
256,192,115212,1,8,0:0:0:0:
256,192,115555,1,8,0:0:0:0:
256,192,115726,1,8,0:0:0:0:
256,192,115897,1,0,0:0:0:0:
256,192,116069,1,0,0:0:0:0:
256,192,116240,1,8,0:0:0:0:
256,192,116326,1,8,0:0:0:0:
256,192,116412,1,8,0:0:0:0:
256,192,116583,1,0,0:0:0:0:
256,192,116755,1,8,0:0:0:0:
256,192,117097,1,8,0:0:0:0:
256,192,117355,1,8,0:0:0:0:
256,192,117612,1,0,0:0:0:0:
256,192,117783,1,8,0:0:0:0:
256,192,117955,1,0,0:0:0:0:
256,192,118040,1,0,0:0:0:0:
256,192,118126,1,0,0:0:0:0:
256,192,118297,1,0,0:0:0:0:
256,192,118469,1,8,0:0:0:0:
256,192,118726,1,8,0:0:0:0:
256,192,118983,1,0,0:0:0:0:
256,192,119155,1,8,0:0:0:0:
256,192,119326,1,0,0:0:0:0:
256,192,119497,1,0,0:0:0:0:
256,192,119840,1,8,0:0:0:0:
256,192,120012,1,0,0:0:0:0:
256,192,120183,1,8,0:0:0:0:
256,192,120355,1,8,0:0:0:0:
256,192,120440,1,8,0:0:0:0:
256,192,120526,1,8,0:0:0:0:
256,192,120697,1,8,0:0:0:0:
256,192,120869,1,0,0:0:0:0:
256,192,120955,1,0,0:0:0:0:
256,192,121040,1,0,0:0:0:0:
256,192,121212,1,8,0:0:0:0:
256,192,121383,1,8,0:0:0:0:
256,192,121555,1,0,0:0:0:0:
256,192,122240,1,4,0:0:0:0:
256,192,122583,1,8,0:0:0:0:
256,192,122840,1,8,0:0:0:0:
256,192,123097,1,0,0:0:0:0:
256,192,123269,1,8,0:0:0:0:
256,192,123440,1,0,0:0:0:0:
256,192,123526,1,0,0:0:0:0:
256,192,123612,1,0,0:0:0:0:
256,192,123783,1,0,0:0:0:0:
256,192,123955,1,8,0:0:0:0:
256,192,124212,1,8,0:0:0:0:
256,192,124469,1,0,0:0:0:0:
256,192,124640,1,8,0:0:0:0:
256,192,124812,1,0,0:0:0:0:
256,192,124983,1,0,0:0:0:0:
256,192,125326,1,8,0:0:0:0:
256,192,125497,1,0,0:0:0:0:
256,192,125669,1,0,0:0:0:0:
256,192,125840,1,8,0:0:0:0:
256,192,125926,1,8,0:0:0:0:
256,192,126012,1,8,0:0:0:0:
256,192,126183,1,8,0:0:0:0:
256,192,126526,1,8,0:0:0:0:
256,192,126697,1,8,0:0:0:0:
256,192,126869,1,0,0:0:0:0:
256,192,126955,1,0,0:0:0:0:
256,192,127040,1,0,0:0:0:0:
256,192,127212,1,8,0:0:0:0:
256,192,127383,1,8,0:0:0:0:
256,192,127555,1,0,0:0:0:0:
256,192,127726,1,8,0:0:0:0:
256,192,128069,1,8,0:0:0:0:
256,192,128583,1,0,0:0:0:0:
256,192,128755,1,8,0:0:0:0:
256,192,128840,1,8,0:0:0:0:
256,192,128926,1,8,0:0:0:0:
256,192,129097,1,0,0:0:0:0:
256,192,129440,1,8,0:0:0:0:
256,192,129612,1,0,0:0:0:0:
256,192,129697,1,0,0:0:0:0:
256,192,129783,1,0,0:0:0:0:
256,192,129955,1,0,0:0:0:0:
256,192,130126,1,8,0:0:0:0:
256,192,130469,1,0,0:0:0:0:
256,192,130555,1,0,0:0:0:0:
256,192,130640,1,0,0:0:0:0:
256,192,130812,1,8,0:0:0:0:
256,192,130897,1,8,0:0:0:0:
256,192,130983,1,8,0:0:0:0:
256,192,131155,1,0,0:0:0:0:
256,192,131326,1,8,0:0:0:0:
256,192,131412,1,8,0:0:0:0:
256,192,131497,1,8,0:0:0:0:
256,192,131669,1,8,0:0:0:0:
256,192,131840,1,0,0:0:0:0:
256,192,132183,1,8,0:0:0:0:
256,192,132355,1,0,0:0:0:0:
256,192,132526,1,8,0:0:0:0:
256,192,132612,1,8,0:0:0:0:
256,192,132697,1,8,0:0:0:0:
256,192,132869,1,8,0:0:0:0:
256,192,133212,1,4,0:0:0:0:
256,192,134069,1,8,0:0:0:0:
256,192,134583,1,0,0:0:0:0:
256,192,135097,1,0,0:0:0:0:
256,192,135440,1,8,0:0:0:0:
256,192,135955,1,8,0:0:0:0:
256,192,136469,1,0,0:0:0:0:
256,192,136983,1,0,0:0:0:0:
256,192,137326,1,8,0:0:0:0:
256,192,138012,1,8,0:0:0:0:
256,192,138355,1,8,0:0:0:0:
256,192,138697,1,0,0:0:0:0:
256,192,139212,1,8,0:0:0:0:
256,192,139726,1,0,0:0:0:0:
256,192,140412,1,8,0:0:0:0:
256,192,140755,1,0,0:0:0:0:
256,192,141097,1,8,0:0:0:0:
256,192,141440,1,8,0:0:0:0:
256,192,141955,1,0,0:0:0:0:
256,192,142469,1,8,0:0:0:0:
256,192,143840,1,8,0:0:0:0:
256,192,144183,1,4,0:0:0:0:
256,192,145040,1,8,0:0:0:0:
256,192,145555,1,0,0:0:0:0:
256,192,146069,1,0,0:0:0:0:
256,192,146412,1,8,0:0:0:0:
256,192,146926,1,8,0:0:0:0:
256,192,147440,1,0,0:0:0:0:
256,192,147955,1,8,0:0:0:0:
256,192,148297,1,0,0:0:0:0:
256,192,148469,1,8,0:0:0:0:
256,192,148812,1,8,0:0:0:0:
256,192,149155,1,0,0:0:0:0:
256,192,149669,1,4,0:0:0:0:
256,192,149840,1,8,0:0:0:0:
256,192,150183,1,0,0:0:0:0:
256,192,150355,1,8,0:0:0:0:
256,192,150526,1,0,0:0:0:0:
256,192,150697,1,8,0:0:0:0:
256,192,150869,1,0,0:0:0:0:
256,192,151212,1,0,0:0:0:0:
256,192,151383,1,8,0:0:0:0:
256,192,151726,1,0,0:0:0:0:
256,192,151897,1,8,0:0:0:0:
256,192,152069,1,8,0:0:0:0:
256,192,152240,1,0,0:0:0:0:
256,192,152412,1,0,0:0:0:0:
256,192,152497,1,0,0:0:0:0:
256,192,152583,1,0,0:0:0:0:
256,192,152755,1,8,0:0:0:0:
256,192,152926,1,8,0:0:0:0:
256,192,153097,1,0,0:0:0:0:
256,192,153269,1,8,0:0:0:0:
256,192,153355,1,8,0:0:0:0:
256,192,153440,1,8,0:0:0:0:
256,192,153612,1,0,0:0:0:0:
256,192,153783,1,12,0:0:0:0:
256,192,155155,1,4,0:0:0:0:
256,192,155497,1,8,0:0:0:0:
256,192,155669,1,0,0:0:0:0:
256,192,155755,1,0,0:0:0:0:
256,192,155840,1,0,0:0:0:0:
256,192,156012,1,0,0:0:0:0:
256,192,156183,1,8,0:0:0:0:
256,192,156526,1,0,0:0:0:0:
256,192,156697,1,8,0:0:0:0:
256,192,156783,1,8,0:0:0:0:
256,192,156869,1,8,0:0:0:0:
256,192,157040,1,8,0:0:0:0:
256,192,157212,1,0,0:0:0:0:
256,192,157555,1,8,0:0:0:0:
256,192,157726,1,8,0:0:0:0:
256,192,157897,1,0,0:0:0:0:
256,192,158069,1,0,0:0:0:0:
256,192,158240,1,8,0:0:0:0:
256,192,158412,1,0,0:0:0:0:
256,192,158497,1,0,0:0:0:0:
256,192,158583,1,0,0:0:0:0:
256,192,158755,1,0,0:0:0:0:
256,192,158926,1,8,0:0:0:0:
256,192,159269,1,0,0:0:0:0:
256,192,159440,1,0,0:0:0:0:
256,192,159612,1,8,0:0:0:0:
256,192,159783,1,8,0:0:0:0:
256,192,159955,1,0,0:0:0:0:
256,192,160126,1,8,0:0:0:0:
256,192,160212,1,8,0:0:0:0:
256,192,160297,1,8,0:0:0:0:
256,192,160640,1,0,0:0:0:0:
256,192,160983,1,8,0:0:0:0:
256,192,161155,1,0,0:0:0:0:
256,192,161240,1,0,0:0:0:0:
256,192,161326,1,0,0:0:0:0:
256,192,161497,1,0,0:0:0:0:
256,192,161669,1,8,0:0:0:0:
256,192,162012,1,0,0:0:0:0:
256,192,162183,1,0,0:0:0:0:
256,192,162269,1,0,0:0:0:0:
256,192,162355,1,8,0:0:0:0:
256,192,162526,1,8,0:0:0:0:
256,192,162697,1,0,0:0:0:0:
256,192,163040,1,8,0:0:0:0:
256,192,163212,1,0,0:0:0:0:
256,192,163383,1,0,0:0:0:0:
256,192,163726,1,8,0:0:0:0:
256,192,163897,1,8,0:0:0:0:
256,192,163983,1,8,0:0:0:0:
256,192,164069,1,0,0:0:0:0:
256,192,164240,1,0,0:0:0:0:
256,192,164412,1,8,0:0:0:0:
256,192,164583,1,8,0:0:0:0:
256,192,164755,1,0,0:0:0:0:
256,192,164926,1,8,0:0:0:0:
256,192,165012,1,8,0:0:0:0:
256,192,165097,1,8,0:0:0:0:
256,192,165269,1,0,0:0:0:0:
256,192,165440,1,0,0:0:0:0:
256,192,166126,1,0,0:0:0:0:
256,192,166469,1,8,0:0:0:0:
256,192,166640,1,0,0:0:0:0:
256,192,166726,1,0,0:0:0:0:
256,192,166812,1,0,0:0:0:0:
256,192,166983,1,0,0:0:0:0:
256,192,167155,1,8,0:0:0:0:
256,192,167497,1,0,0:0:0:0:
256,192,167669,1,8,0:0:0:0:
256,192,167755,1,8,0:0:0:0:
256,192,167840,1,8,0:0:0:0:
256,192,168012,1,8,0:0:0:0:
256,192,168183,1,0,0:0:0:0:
256,192,168526,1,8,0:0:0:0:
256,192,168697,1,8,0:0:0:0:
256,192,168869,1,0,0:0:0:0:
256,192,169040,1,0,0:0:0:0:
256,192,169212,1,8,0:0:0:0:
256,192,169383,1,0,0:0:0:0:
256,192,169469,1,0,0:0:0:0:
256,192,169555,1,0,0:0:0:0:
256,192,169726,1,0,0:0:0:0:
256,192,169897,1,8,0:0:0:0:
256,192,170240,1,0,0:0:0:0:
256,192,170412,1,0,0:0:0:0:
256,192,170583,1,8,0:0:0:0:
256,192,170755,1,8,0:0:0:0:
256,192,170926,1,0,0:0:0:0:
256,192,171097,1,8,0:0:0:0:
256,192,171183,1,8,0:0:0:0:
256,192,171269,1,8,0:0:0:0:
256,192,171612,1,0,0:0:0:0:
256,192,171955,1,8,0:0:0:0:
256,192,172126,1,0,0:0:0:0:
256,192,172212,1,0,0:0:0:0:
256,192,172297,1,0,0:0:0:0:
256,192,172469,1,0,0:0:0:0:
256,192,172640,1,8,0:0:0:0:
256,192,172983,1,0,0:0:0:0:
256,192,173155,1,0,0:0:0:0:
256,192,173240,1,0,0:0:0:0:
256,192,173326,1,8,0:0:0:0:
256,192,173497,1,8,0:0:0:0:
256,192,173669,1,0,0:0:0:0:
256,192,173840,1,0,0:0:0:0:
256,192,174012,1,8,0:0:0:0:
256,192,174355,1,8,0:0:0:0:
256,192,174526,1,0,0:0:0:0:
256,192,174697,1,8,0:0:0:0:
256,192,174869,1,8,0:0:0:0:
256,192,174955,1,8,0:0:0:0:
256,192,175040,1,0,0:0:0:0:
256,192,175212,1,0,0:0:0:0:
256,192,175383,1,8,0:0:0:0:
256,192,175469,1,8,0:0:0:0:
256,192,175555,1,8,0:0:0:0:
256,192,175726,1,4,0:0:0:0:
256,192,177097,1,0,0:0:0:0:
256,192,177440,1,12,0:0:0:0:
256,192,177783,1,0,0:0:0:0:
256,192,178126,1,12,0:0:0:0:
256,192,178297,1,12,0:0:0:0:
256,192,178469,1,4,0:0:0:0:
256,192,178983,1,0,0:0:0:0:
256,192,179155,1,8,0:0:0:0:
256,192,179497,1,0,0:0:0:0:
256,192,179840,1,12,0:0:0:0:
256,192,180183,1,0,0:0:0:0:
256,192,180526,1,12,0:0:0:0:
256,192,180869,1,12,0:0:0:0:
256,192,181040,1,4,0:0:0:0:
256,192,181212,1,12,0:0:0:0:
256,192,181726,1,0,0:0:0:0:
256,192,181897,1,8,0:0:0:0:
256,192,181983,1,8,0:0:0:0:
256,192,182069,1,8,0:0:0:0:
256,192,182240,1,8,0:0:0:0:
256,192,182583,1,4,0:0:0:0:
256,192,182926,1,8,0:0:0:0:
256,192,183097,1,0,0:0:0:0:
256,192,183183,1,0,0:0:0:0:
256,192,183269,1,0,0:0:0:0:
256,192,183440,1,0,0:0:0:0:
256,192,183612,1,8,0:0:0:0:
256,192,183955,1,0,0:0:0:0:
256,192,184126,1,0,0:0:0:0:
256,192,184297,1,8,0:0:0:0:
256,192,184469,1,0,0:0:0:0:
256,192,184640,1,0,0:0:0:0:
256,192,184812,1,8,0:0:0:0:
256,192,184897,1,8,0:0:0:0:
256,192,184983,1,8,0:0:0:0:
256,192,185326,1,0,0:0:0:0:
256,192,185497,1,0,0:0:0:0:
256,192,185669,1,8,0:0:0:0:
256,192,185840,1,0,0:0:0:0:
256,192,186183,1,0,0:0:0:0:
256,192,186355,1,8,0:0:0:0:
256,192,186697,1,0,0:0:0:0:
256,192,186869,1,8,0:0:0:0:
256,192,186955,1,8,0:0:0:0:
256,192,187040,1,8,0:0:0:0:
256,192,187212,1,0,0:0:0:0:
256,192,187297,1,0,0:0:0:0:
256,192,187383,1,0,0:0:0:0:
256,192,187555,1,0,0:0:0:0:
256,192,187726,1,8,0:0:0:0:
256,192,188069,1,4,0:0:0:0:
256,192,188412,1,8,0:0:0:0:
256,192,188926,1,0,0:0:0:0:
256,192,189097,1,8,0:0:0:0:
256,192,189440,1,4,0:0:0:0:
256,192,189783,1,0,0:0:0:0:
256,192,189955,1,8,0:0:0:0:
256,192,190126,1,0,0:0:0:0:
256,192,190297,1,8,0:0:0:0:
256,192,190469,1,8,0:0:0:0:
256,192,190812,1,4,0:0:0:0:
256,192,191155,1,8,0:0:0:0:
256,192,191326,1,8,0:0:0:0:
256,192,191412,1,8,0:0:0:0:
256,192,191497,1,0,0:0:0:0:
256,192,191669,1,0,0:0:0:0:
256,192,191840,1,8,0:0:0:0:
256,192,191926,1,8,0:0:0:0:
256,192,192012,1,8,0:0:0:0:
256,192,192183,1,4,0:0:0:0:
256,192,192526,1,8,0:0:0:0:
256,192,192697,1,0,0:0:0:0:
256,192,192783,1,0,0:0:0:0:
256,192,192869,1,8,0:0:0:0:
256,192,193040,1,0,0:0:0:0:
256,192,193212,1,8,0:0:0:0:
256,192,193555,1,8,0:0:0:0:
256,192,194069,1,8,0:0:0:0:
256,192,194326,1,8,0:0:0:0:
256,192,194583,1,8,0:0:0:0:
256,192,194755,1,8,0:0:0:0:
256,192,194926,1,0,0:0:0:0:
256,192,195097,1,8,0:0:0:0:
256,192,195269,1,0,0:0:0:0:
256,192,195440,1,8,0:0:0:0:
256,192,195697,1,8,0:0:0:0:
256,192,195955,1,8,0:0:0:0:
256,192,196126,1,8,0:0:0:0:
256,192,196297,1,0,0:0:0:0:
256,192,196383,1,0,0:0:0:0:
256,192,196469,1,0,0:0:0:0:
256,192,196640,1,8,0:0:0:0:
256,192,196726,1,8,0:0:0:0:
256,192,196812,1,8,0:0:0:0:
256,192,196983,1,0,0:0:0:0:
256,192,197069,1,0,0:0:0:0:
256,192,197155,1,0,0:0:0:0:
256,192,197326,1,8,0:0:0:0:
256,192,197497,1,0,0:0:0:0:
256,192,197669,1,12,0:0:0:0:
256,192,198012,1,8,0:0:0:0:
256,192,198183,1,0,0:0:0:0:
256,192,198355,1,8,0:0:0:0:
256,192,198440,1,8,0:0:0:0:
256,192,198526,1,8,0:0:0:0:
256,192,198697,1,8,0:0:0:0:
256,192,199040,1,4,0:0:0:0:
256,192,199555,1,0,0:0:0:0:
256,192,199897,1,0,0:0:0:0:
256,192,200240,1,8,0:0:0:0:
256,192,200583,1,0,0:0:0:0:
256,192,200926,1,8,0:0:0:0:
256,192,201269,1,8,0:0:0:0:
256,192,201612,1,0,0:0:0:0:
256,192,202297,1,0,0:0:0:0:
256,192,202640,1,0,0:0:0:0:
256,192,202983,1,8,0:0:0:0:
256,192,203326,1,8,0:0:0:0:
256,192,203497,1,8,0:0:0:0:
256,192,203669,1,0,0:0:0:0:
256,192,204012,1,8,0:0:0:0:
256,192,204183,1,0,0:0:0:0:
256,192,204355,1,8,0:0:0:0:
256,192,204697,1,8,0:0:0:0:
256,192,205040,1,0,0:0:0:0:
256,192,205383,1,0,0:0:0:0:
256,192,205555,1,8,0:0:0:0:
256,192,205726,1,0,0:0:0:0:
256,192,206069,1,0,0:0:0:0:
256,192,206240,1,0,0:0:0:0:
256,192,206412,1,8,0:0:0:0:
256,192,206755,1,8,0:0:0:0:
256,192,207097,1,0,0:0:0:0:
256,192,207269,1,8,0:0:0:0:
256,192,207783,1,0,0:0:0:0:
256,192,208126,1,0,0:0:0:0:
256,192,208469,1,8,0:0:0:0:
256,192,208640,1,0,0:0:0:0:
256,192,208812,1,8,0:0:0:0:
256,192,208983,1,8,0:0:0:0:
256,192,209155,1,0,0:0:0:0:
256,192,209497,1,8,0:0:0:0:
256,192,209669,1,8,0:0:0:0:
256,192,209840,1,0,0:0:0:0:
256,192,210012,1,12,0:0:0:0:
256,192,210355,1,8,0:0:0:0:
256,192,210526,1,0,0:0:0:0:
256,192,210612,1,0,0:0:0:0:
256,192,210697,1,0,0:0:0:0:
256,192,210869,1,0,0:0:0:0:
256,192,211040,1,8,0:0:0:0:
256,192,211212,1,8,0:0:0:0:
256,192,211383,1,4,0:0:0:0:
256,192,211726,1,8,0:0:0:0:
256,192,211897,1,8,0:0:0:0:
256,192,211983,1,8,0:0:0:0:
256,192,212069,1,8,0:0:0:0:
256,192,212240,1,0,0:0:0:0:
256,192,212412,1,8,0:0:0:0:
256,192,212583,1,0,0:0:0:0:
256,192,212755,1,12,0:0:0:0:
256,192,213097,1,8,0:0:0:0:
256,192,213269,1,0,0:0:0:0:
256,192,213440,1,0,0:0:0:0:
256,192,213612,1,8,0:0:0:0:
256,192,213697,1,8,0:0:0:0:
256,192,213783,1,8,0:0:0:0:
256,192,213955,1,8,0:0:0:0:
256,192,214126,1,4,0:0:0:0:
256,192,214469,1,8,0:0:0:0:
256,192,214983,1,8,0:0:0:0:
256,192,215155,1,8,0:0:0:0:
256,192,215326,1,0,0:0:0:0:
256,192,215497,1,8,0:0:0:0:
256,192,215755,1,8,0:0:0:0:
256,192,216012,1,8,0:0:0:0:
256,192,216269,1,8,0:0:0:0:
256,192,216526,1,8,0:0:0:0:
256,192,216697,1,8,0:0:0:0:
256,192,216869,1,0,0:0:0:0:
256,192,217040,1,8,0:0:0:0:
256,192,217212,1,0,0:0:0:0:
256,192,217383,1,8,0:0:0:0:
256,192,217640,1,8,0:0:0:0:
256,192,217897,1,8,0:0:0:0:
256,192,218069,1,8,0:0:0:0:
256,192,218240,1,8,0:0:0:0:
256,192,218412,1,0,0:0:0:0:
256,192,218497,1,0,0:0:0:0:
256,192,218583,1,0,0:0:0:0:
256,192,218755,1,0,0:0:0:0:
256,192,218926,1,8,0:0:0:0:
256,192,219012,1,8,0:0:0:0:
256,192,219097,1,8,0:0:0:0:
256,192,219269,1,0,0:0:0:0:
256,192,219440,1,8,0:0:0:0:
256,192,219612,1,4,0:0:0:0:
256,192,220983,1,12,0:0:0:0:
256,192,221326,1,8,0:0:0:0:
256,192,221583,1,8,0:0:0:0:
256,192,221840,1,0,0:0:0:0:
256,192,222012,1,8,0:0:0:0:
256,192,222097,1,8,0:0:0:0:
256,192,222183,1,8,0:0:0:0:
256,192,222355,1,0,0:0:0:0:
256,192,222526,1,0,0:0:0:0:
256,192,222697,1,8,0:0:0:0:
256,192,222955,1,8,0:0:0:0:
256,192,223212,1,0,0:0:0:0:
256,192,223383,1,8,0:0:0:0:
256,192,223555,1,8,0:0:0:0:
256,192,223726,1,0,0:0:0:0:
256,192,224069,1,8,0:0:0:0:
256,192,224583,1,8,0:0:0:0:
256,192,224669,1,8,0:0:0:0:
256,192,224755,1,8,0:0:0:0:
256,192,224926,1,8,0:0:0:0:
256,192,225269,1,8,0:0:0:0:
256,192,225440,1,8,0:0:0:0:
256,192,225612,1,0,0:0:0:0:
256,192,225697,1,0,0:0:0:0:
256,192,225783,1,0,0:0:0:0:
256,192,225955,1,8,0:0:0:0:
256,192,226126,1,8,0:0:0:0:
256,192,226297,1,0,0:0:0:0:
256,192,226469,1,8,0:0:0:0:
256,192,226812,1,8,0:0:0:0:
256,192,227069,1,8,0:0:0:0:
256,192,227326,1,0,0:0:0:0:
256,192,227497,1,8,0:0:0:0:
256,192,227583,1,8,0:0:0:0:
256,192,227669,1,8,0:0:0:0:
256,192,227840,1,0,0:0:0:0:
256,192,228012,1,0,0:0:0:0:
256,192,228183,1,8,0:0:0:0:
256,192,228440,1,8,0:0:0:0:
256,192,228697,1,0,0:0:0:0:
256,192,228869,1,8,0:0:0:0:
256,192,229040,1,8,0:0:0:0:
256,192,229212,1,0,0:0:0:0:
256,192,229555,1,8,0:0:0:0:
256,192,229726,1,0,0:0:0:0:
256,192,229897,1,0,0:0:0:0:
256,192,230069,1,8,0:0:0:0:
256,192,230155,1,8,0:0:0:0:
256,192,230240,1,8,0:0:0:0:
256,192,230412,1,8,0:0:0:0:
256,192,230583,1,0,0:0:0:0:
256,192,230669,1,0,0:0:0:0:
256,192,230755,1,0,0:0:0:0:
256,192,230926,1,8,0:0:0:0:
256,192,231097,1,8,0:0:0:0:
256,192,231269,1,0,0:0:0:0:
256,192,231955,1,12,0:0:0:0:
256,192,232297,1,8,0:0:0:0:
256,192,232555,1,8,0:0:0:0:
256,192,232812,1,0,0:0:0:0:
256,192,232983,1,8,0:0:0:0:
256,192,233069,1,8,0:0:0:0:
256,192,233155,1,8,0:0:0:0:
256,192,233326,1,0,0:0:0:0:
256,192,233497,1,0,0:0:0:0:
256,192,233669,1,8,0:0:0:0:
256,192,233926,1,8,0:0:0:0:
256,192,234183,1,0,0:0:0:0:
256,192,234355,1,8,0:0:0:0:
256,192,234526,1,8,0:0:0:0:
256,192,234697,1,0,0:0:0:0:
256,192,235040,1,8,0:0:0:0:
256,192,235212,1,0,0:0:0:0:
256,192,235297,1,0,0:0:0:0:
256,192,235383,1,0,0:0:0:0:
256,192,235555,1,0,0:0:0:0:
256,192,235726,1,8,0:0:0:0:
256,192,235897,1,8,0:0:0:0:
256,192,236069,1,0,0:0:0:0:
256,192,236240,1,8,0:0:0:0:
256,192,236326,1,8,0:0:0:0:
256,192,236412,1,8,0:0:0:0:
256,192,236583,1,8,0:0:0:0:
256,192,236926,1,8,0:0:0:0:
256,192,237012,1,8,0:0:0:0:
256,192,237097,1,8,0:0:0:0:
256,192,237269,1,0,0:0:0:0:
256,192,237440,1,8,0:0:0:0:
256,192,237783,1,8,0:0:0:0:
256,192,238297,1,0,0:0:0:0:
256,192,238469,1,8,0:0:0:0:
256,192,238555,1,8,0:0:0:0:
256,192,238640,1,8,0:0:0:0:
256,192,238812,1,0,0:0:0:0:
256,192,239155,1,8,0:0:0:0:
256,192,239326,1,0,0:0:0:0:
256,192,239412,1,0,0:0:0:0:
256,192,239497,1,0,0:0:0:0:
256,192,239669,1,0,0:0:0:0:
256,192,239840,1,8,0:0:0:0:
256,192,240183,1,0,0:0:0:0:
256,192,240269,1,0,0:0:0:0:
256,192,240355,1,0,0:0:0:0:
256,192,240526,1,8,0:0:0:0:
256,192,240612,1,8,0:0:0:0:
256,192,240697,1,8,0:0:0:0:
256,192,240869,1,0,0:0:0:0:
256,192,241040,1,8,0:0:0:0:
256,192,241212,1,0,0:0:0:0:
256,192,241383,1,8,0:0:0:0:
256,192,241555,1,4,0:0:0:0:
256,192,242240,1,8,0:0:0:0:
256,192,242583,1,0,0:0:0:0:
256,192,242926,1,12,0:0:0:0:
256,192,243269,1,8,0:0:0:0:
256,192,243526,1,8,0:0:0:0:
256,192,243783,1,0,0:0:0:0:
256,192,243955,1,8,0:0:0:0:
256,192,244126,1,0,0:0:0:0:
256,192,244212,1,0,0:0:0:0:
256,192,244297,1,0,0:0:0:0:
256,192,244469,1,0,0:0:0:0:
256,192,244640,1,8,0:0:0:0:
256,192,244897,1,8,0:0:0:0:
256,192,245155,1,0,0:0:0:0:
256,192,245326,1,8,0:0:0:0:
256,192,245497,1,8,0:0:0:0:
256,192,245669,1,0,0:0:0:0:
256,192,246012,1,8,0:0:0:0:
256,192,246183,1,0,0:0:0:0:
256,192,246355,1,0,0:0:0:0:
256,192,246440,1,0,0:0:0:0:
256,192,246526,1,0,0:0:0:0:
256,192,246697,1,8,0:0:0:0:
256,192,246869,1,8,0:0:0:0:
256,192,247040,1,0,0:0:0:0:
256,192,247212,1,8,0:0:0:0:
256,192,247297,1,8,0:0:0:0:
256,192,247383,1,8,0:0:0:0:
256,192,247555,1,0,0:0:0:0:
256,192,247726,1,0,0:0:0:0:
256,192,247897,1,8,0:0:0:0:
256,192,247983,1,8,0:0:0:0:
256,192,248069,1,8,0:0:0:0:
256,192,248240,1,0,0:0:0:0:
256,192,248412,1,8,0:0:0:0:
256,192,248755,1,8,0:0:0:0:
256,192,249012,1,8,0:0:0:0:
256,192,249269,1,0,0:0:0:0:
256,192,249440,1,8,0:0:0:0:
256,192,249612,1,0,0:0:0:0:
256,192,249697,1,0,0:0:0:0:
256,192,249783,1,0,0:0:0:0:
256,192,249955,1,0,0:0:0:0:
256,192,250126,1,8,0:0:0:0:
256,192,250383,1,8,0:0:0:0:
256,192,250640,1,0,0:0:0:0:
256,192,250812,1,8,0:0:0:0:
256,192,250983,1,8,0:0:0:0:
256,192,251155,1,0,0:0:0:0:
256,192,251497,1,8,0:0:0:0:
256,192,251669,1,0,0:0:0:0:
256,192,251840,1,8,0:0:0:0:
256,192,252012,1,8,0:0:0:0:
256,192,252097,1,8,0:0:0:0:
256,192,252183,1,8,0:0:0:0:
256,192,252355,1,8,0:0:0:0:
256,192,252526,1,0,0:0:0:0:
256,192,252612,1,0,0:0:0:0:
256,192,252697,1,0,0:0:0:0:
256,192,252869,1,8,0:0:0:0:
256,192,253040,1,8,0:0:0:0:
256,192,253212,1,0,0:0:0:0:
256,192,253897,1,12,0:0:0:0:
256,192,254240,1,8,0:0:0:0:
256,192,254497,1,8,0:0:0:0:
256,192,254755,1,0,0:0:0:0:
256,192,254926,1,8,0:0:0:0:
256,192,255097,1,0,0:0:0:0:
256,192,255183,1,0,0:0:0:0:
256,192,255269,1,0,0:0:0:0:
256,192,255440,1,0,0:0:0:0:
256,192,255612,1,8,0:0:0:0:
256,192,255869,1,8,0:0:0:0:
256,192,256126,1,0,0:0:0:0:
256,192,256297,1,8,0:0:0:0:
256,192,256469,1,8,0:0:0:0:
256,192,256640,1,0,0:0:0:0:
256,192,256983,1,8,0:0:0:0:
256,192,257155,1,0,0:0:0:0:
256,192,257326,1,0,0:0:0:0:
256,192,257497,1,8,0:0:0:0:
256,192,257583,1,8,0:0:0:0:
256,192,257669,1,8,0:0:0:0:
256,192,257840,1,8,0:0:0:0:
256,192,258012,1,0,0:0:0:0:
256,192,258183,1,8,0:0:0:0:
256,192,258269,1,8,0:0:0:0:
256,192,258355,1,8,0:0:0:0:
256,192,258526,1,0,0:0:0:0:
256,192,258612,1,0,0:0:0:0:
256,192,258697,1,0,0:0:0:0:
256,192,258869,1,8,0:0:0:0:
256,192,259040,1,8,0:0:0:0:
256,192,259212,1,0,0:0:0:0:
256,192,259383,1,8,0:0:0:0:
256,192,259726,1,8,0:0:0:0:
256,192,260240,1,0,0:0:0:0:
256,192,260412,1,8,0:0:0:0:
256,192,260497,1,8,0:0:0:0:
256,192,260583,1,8,0:0:0:0:
256,192,260755,1,0,0:0:0:0:
256,192,261097,1,8,0:0:0:0:
256,192,261269,1,0,0:0:0:0:
256,192,261355,1,0,0:0:0:0:
256,192,261440,1,0,0:0:0:0:
256,192,261612,1,0,0:0:0:0:
256,192,261783,1,8,0:0:0:0:
256,192,262126,1,0,0:0:0:0:
256,192,262212,1,0,0:0:0:0:
256,192,262297,1,0,0:0:0:0:
256,192,262469,1,8,0:0:0:0:
256,192,262555,1,8,0:0:0:0:
256,192,262640,1,8,0:0:0:0:
256,192,262812,1,0,0:0:0:0:
256,192,262983,1,8,0:0:0:0:
256,192,263069,1,8,0:0:0:0:
256,192,263155,1,8,0:0:0:0:
256,192,263326,1,8,0:0:0:0:
256,192,263497,1,0,0:0:0:0:
256,192,263583,1,0,0:0:0:0:
256,192,263669,1,0,0:0:0:0:
256,192,263840,1,8,0:0:0:0:
256,192,264012,1,0,0:0:0:0:
256,192,264183,1,8,0:0:0:0:
256,192,264269,1,8,0:0:0:0:
256,192,264355,1,8,0:0:0:0:
256,192,264526,1,8,0:0:0:0:
256,192,264869,1,4,0:0:0:0:
256,192,265212,1,8,0:0:0:0:
256,192,265726,1,0,0:0:0:0:
256,192,265897,1,8,0:0:0:0:
256,192,266240,1,0,0:0:0:0:
256,192,266583,1,8,0:0:0:0:
256,192,266755,1,0,0:0:0:0:
256,192,267097,1,0,0:0:0:0:
256,192,267269,1,8,0:0:0:0:
256,192,267440,1,0,0:0:0:0:
256,192,267612,1,0,0:0:0:0:
256,192,267955,1,8,0:0:0:0:
256,192,268469,1,0,0:0:0:0:
256,192,268640,1,8,0:0:0:0:
256,192,268812,1,8,0:0:0:0:
256,192,268983,1,0,0:0:0:0:
256,192,269326,1,8,0:0:0:0:
256,192,269669,1,0,0:0:0:0:
256,192,269840,1,0,0:0:0:0:
256,192,270012,1,8,0:0:0:0:
256,192,270355,1,0,0:0:0:0:
256,192,270697,1,8,0:0:0:0:
256,192,270869,1,0,0:0:0:0:
256,192,271212,1,0,0:0:0:0:
256,192,271383,1,8,0:0:0:0:
256,192,271726,1,0,0:0:0:0:
256,192,272069,1,8,0:0:0:0:
256,192,272240,1,0,0:0:0:0:
256,192,272412,1,0,0:0:0:0:
256,192,272583,1,8,0:0:0:0:
256,192,272755,1,8,0:0:0:0:
256,192,273097,1,0,0:0:0:0:
256,192,273440,1,8,0:0:0:0:
256,192,273612,1,0,0:0:0:0:
256,192,273955,1,0,0:0:0:0:
256,192,274126,1,8,0:0:0:0:
256,192,274469,1,0,0:0:0:0:
256,192,274812,1,8,0:0:0:0:
256,192,275155,1,0,0:0:0:0:
256,192,275840,1,4,0:0:0:0:
256,192,276183,1,8,0:0:0:0:
256,192,276697,1,0,0:0:0:0:
256,192,276869,1,8,0:0:0:0:
256,192,277212,1,0,0:0:0:0:
256,192,277555,1,8,0:0:0:0:
256,192,277726,1,0,0:0:0:0:
256,192,278069,1,0,0:0:0:0:
256,192,278240,1,8,0:0:0:0:
256,192,278583,1,0,0:0:0:0:
256,192,278926,1,8,0:0:0:0:
256,192,279440,1,0,0:0:0:0:
256,192,279612,1,8,0:0:0:0:
256,192,279783,1,8,0:0:0:0:
256,192,279955,1,0,0:0:0:0:
256,192,280297,1,8,0:0:0:0:
256,192,280640,1,0,0:0:0:0:
256,192,280812,1,0,0:0:0:0:
256,192,280983,1,8,0:0:0:0:
256,192,281326,1,0,0:0:0:0:
256,192,281497,1,8,0:0:0:0:
256,192,281669,1,8,0:0:0:0:
256,192,282012,1,8,0:0:0:0:
256,192,282183,1,0,0:0:0:0:
256,192,282355,1,8,0:0:0:0:
256,192,282526,1,8,0:0:0:0:
256,192,282869,1,0,0:0:0:0:
256,192,283040,1,8,0:0:0:0:
256,192,283383,1,0,0:0:0:0:
256,192,283555,1,8,0:0:0:0:
256,192,283726,1,8,0:0:0:0:
256,192,283897,1,0,0:0:0:0:
256,192,284069,1,0,0:0:0:0:
256,192,284155,1,0,0:0:0:0:
256,192,284240,1,0,0:0:0:0:
256,192,284412,1,8,0:0:0:0:
256,192,284497,1,8,0:0:0:0:
256,192,284583,1,8,0:0:0:0:
256,192,284755,1,0,0:0:0:0:
256,192,284926,1,8,0:0:0:0:
256,192,285012,1,8,0:0:0:0:
256,192,285097,1,8,0:0:0:0:
256,192,285269,1,0,0:0:0:0:
256,192,285440,1,12,0:0:0:0:
256,192,286126,1,8,0:0:0:0:
256,192,286469,1,0,0:0:0:0:
256,192,286812,1,4,0:0:0:0:
