osu file format v14

[General]
AudioFilename: audio.mp3
AudioLeadIn: 0
PreviewTime: 89240
Countdown: 0
SampleSet: Normal
StackLeniency: 0.7
Mode: 1
LetterboxInBreaks: 0
WidescreenStoryboard: 0

[Editor]
Bookmarks: 34469,56412,100297,122240,166126,188069,231955,253897,275840
DistanceSpacing: 2.8
BeatDivisor: 4
GridSize: 32
TimelineZoom: 0.9

[Metadata]
Title:For Your Christmas
TitleUnicode:For Your Christmas
Artist:Zekk
ArtistUnicode:Zekk
Creator:Nardoxyribonucleic
Version:Kantan
Source:osu!
Tags:Taiko Featured Artist FA Mappers' Guild MG Electronic Instrumental Mistletoe EP J-core hardcore 2015 Remasterd Remastered
BeatmapID:2739738
BeatmapSetID:1174299

[Difficulty]
HPDrainRate:7.5
CircleSize:5
OverallDifficulty:4
ApproachRate:3
SliderMultiplier:1.4
SliderTickRate:1

[Events]
//Background and Video events
0,0,"bg.jpg",0,-135
//Break Periods
//Storyboard Layer 0 (Background)
//Storyboard Layer 1 (Fail)
//Storyboard Layer 2 (Pass)
//Storyboard Layer 3 (Foreground)
//Storyboard Layer 4 (Overlay)
//Storyboard Sound Samples

[TimingPoints]
1555,342.857142857143,4,1,0,60,1,0
1555,-117.647058823529,4,1,0,60,0,0
12526,-114.285714285714,4,1,0,75,0,0
18012,-111.111111111111,4,1,0,75,0,0
18697,-108.695652173913,4,1,0,75,0,0
19040,-106.382978723404,4,1,0,75,0,0
19383,-105.263157894737,4,1,0,75,0,0
20069,-103.092783505155,4,1,0,75,0,0
20412,-101.010101010101,4,1,0,75,0,0
20755,-100,4,1,0,75,0,0
22126,-95.2380952380952,4,1,0,75,0,0
23155,-98.7654320987654,4,1,0,75,0,0
23497,-100,4,1,0,90,0,0
45440,-100,4,1,0,75,0,0
46297,-117.647058823529,4,1,0,60,0,0
67383,-111.111111111111,4,1,0,70,0,0
78012,-104.166666666667,4,1,0,70,0,0
78269,-100,4,1,0,70,0,0
78355,-100,4,1,0,85,0,0
84869,-98.0392156862745,4,1,0,85,0,0
85212,-97.0873786407767,4,1,0,85,0,0
85383,-96.1538461538461,4,1,0,85,0,0
85726,-95.2380952380952,4,1,0,85,0,0
86240,-94.3396226415094,4,1,0,85,0,0
86583,-92.5925925925926,4,1,0,85,0,0
87869,-90.9090909090909,4,1,0,85,0,0
89326,-97.5609756097561,4,1,0,100,0,1
109897,-97.5609756097561,4,1,0,90,0,0
110583,-95.2380952380952,4,1,0,90,0,0
110926,-96.3855421686747,4,1,0,90,0,0
111269,-97.5609756097561,4,1,0,100,0,1
133212,-97.5609756097561,4,1,0,85,0,0
134069,-117.647058823529,4,1,0,70,0,0
144183,-114.942528735632,4,1,0,70,0,0
149669,-112.359550561798,4,1,0,80,0,0
150355,-109.89010989011,4,1,0,80,0,0
150697,-107.52688172043,4,1,0,80,0,0
151040,-106.382978723404,4,1,0,80,0,0
151726,-104.166666666667,4,1,0,80,0,0
152069,-102.040816326531,4,1,0,80,0,0
152412,-100,4,1,0,80,0,0
153783,-95.2380952380952,4,1,0,80,0,0
155069,-100,4,1,0,80,0,0
155155,-100,4,1,0,85,0,0
177097,-100,4,1,0,90,0,0
177355,-97.5609756097561,4,1,0,90,0,0
177526,-100,4,1,0,90,0,0
178040,-95.2380952380952,4,1,0,90,0,0
178555,-100,4,1,0,90,0,0
179755,-97.5609756097561,4,1,0,90,0,0
179926,-100,4,1,0,90,0,0
180440,-97.5609756097561,4,1,0,90,0,0
180612,-100,4,1,0,90,0,0
180783,-95.2380952380952,4,1,0,90,0,0
181297,-97.5609756097561,4,1,0,90,0,0
182583,-100,4,1,0,90,0,0
199040,-100,4,1,0,80,0,0
200412,-111.111111111111,4,1,0,70,0,0
209669,-104.166666666667,4,1,0,70,0,0
209926,-100,4,1,0,70,0,0
210012,-100,4,1,0,85,0,0
216526,-98.0392156862745,4,1,0,85,0,0
216869,-97.0873786407767,4,1,0,85,0,0
217040,-96.1538461538461,4,1,0,85,0,0
217383,-95.2380952380952,4,1,0,85,0,0
217897,-94.3396226415094,4,1,0,85,0,0
218240,-92.5925925925926,4,1,0,85,0,0
219612,-90.9090909090909,4,1,0,85,0,0
220983,-97.5609756097561,4,1,0,100,0,1
241555,-97.5609756097561,4,1,0,90,0,0
242240,-95.2380952380952,4,1,0,90,0,0
242583,-96.3855421686747,4,1,0,90,0,0
242926,-97.5609756097561,4,1,0,100,0,1
264869,-97.5609756097561,4,1,0,90,0,0
265212,-100,4,1,0,80,0,0
281326,-99.009900990099,4,1,0,80,0,0
281669,-98.0392156862745,4,1,0,80,0,0
282012,-97.0873786407767,4,1,0,80,0,0
282355,-96.1538461538461,4,1,0,80,0,0
282697,-95.2380952380952,4,1,0,80,0,0
283383,-91.743119266055,4,1,0,80,0,0
283726,-90.0900900900901,4,1,0,80,0,0
284069,-88.8888888888889,4,1,0,80,0,0
285440,-86.9565217391304,4,1,0,80,0,0
286126,-90.9090909090909,4,1,0,80,0,0
286469,-93.0232558139535,4,1,0,80,0,0
286812,-95.2380952380952,4,1,0,80,0,0

[HitObjects]
256,192,1555,5,4,0:0:0:0:
256,192,4297,1,0,0:0:0:0:
256,192,5669,1,0,0:0:0:0:
256,192,7040,1,0,0:0:0:0:
256,192,9783,1,0,0:0:0:0:
256,192,11155,1,0,0:0:0:0:
256,192,11840,1,0,0:0:0:0:
256,192,12183,1,8,0:0:0:0:
256,192,12526,1,12,0:0:0:0:
256,192,13897,1,0,0:0:0:0:
256,192,15269,1,8,0:0:0:0:
256,192,15955,1,0,0:0:0:0:
256,192,16640,1,8,0:0:0:0:
256,192,18012,1,4,0:0:0:0:
256,192,18697,1,8,0:0:0:0:
256,192,19040,1,8,0:0:0:0:
256,192,19383,1,8,0:0:0:0:
256,192,20069,1,0,0:0:0:0:
256,192,20412,1,0,0:0:0:0:
256,192,20755,2,0,L|320:192,12,35
256,192,22126,1,4,0:0:0:0:
256,192,23155,1,8,0:0:0:0:
256,192,23497,1,4,0:0:0:0:
256,192,24526,1,8,0:0:0:0:
256,192,24869,1,0,0:0:0:0:
256,192,25212,1,8,0:0:0:0:
256,192,25897,1,8,0:0:0:0:
256,192,26240,1,0,0:0:0:0:
256,192,26926,1,0,0:0:0:0:
256,192,27612,1,8,0:0:0:0:
256,192,27955,1,8,0:0:0:0:
256,192,28297,1,0,0:0:0:0:
256,192,28640,1,8,0:0:0:0:
256,192,28983,1,0,0:0:0:0:
256,192,30012,1,8,0:0:0:0:
256,192,30355,1,0,0:0:0:0:
256,192,30697,1,8,0:0:0:0:
256,192,31383,1,8,0:0:0:0:
256,192,31726,1,0,0:0:0:0:
256,192,32412,1,8,0:0:0:0:
256,192,32755,1,8,0:0:0:0:
256,192,33097,1,0,0:0:0:0:
256,192,34126,1,8,0:0:0:0:
256,192,34469,1,0,0:0:0:0:
256,192,35497,1,8,0:0:0:0:
256,192,35840,1,0,0:0:0:0:
256,192,36183,1,8,0:0:0:0:
256,192,36869,1,8,0:0:0:0:
256,192,37212,1,8,0:0:0:0:
256,192,37555,1,8,0:0:0:0:
256,192,37897,1,0,0:0:0:0:
256,192,38583,1,0,0:0:0:0:
256,192,38926,1,8,0:0:0:0:
256,192,39269,1,0,0:0:0:0:
256,192,39955,1,8,0:0:0:0:
256,192,40297,1,8,0:0:0:0:
256,192,40640,1,0,0:0:0:0:
256,192,40983,1,8,0:0:0:0:
256,192,41669,1,8,0:0:0:0:
256,192,42355,1,8,0:0:0:0:
256,192,42697,1,0,0:0:0:0:
256,192,43040,1,8,0:0:0:0:
256,192,43726,1,8,0:0:0:0:
256,192,44069,1,12,0:0:0:0:
256,192,44755,1,8,0:0:0:0:
256,192,45097,1,8,0:0:0:0:
256,192,45440,1,4,0:0:0:0:
256,192,48183,1,8,0:0:0:0:
256,192,48869,1,8,0:0:0:0:
256,192,49555,1,0,0:0:0:0:
256,192,50926,1,8,0:0:0:0:
256,192,53669,1,0,0:0:0:0:
256,192,54355,1,8,0:0:0:0:
256,192,55040,1,8,0:0:0:0:
256,192,56412,1,8,0:0:0:0:
256,192,59155,1,8,0:0:0:0:
256,192,59840,1,0,0:0:0:0:
256,192,60526,1,8,0:0:0:0:
256,192,61897,1,8,0:0:0:0:
256,192,64640,1,0,0:0:0:0:
256,192,65326,1,8,0:0:0:0:
256,192,66012,1,8,0:0:0:0:
256,192,67383,1,4,0:0:0:0:
256,192,68755,1,8,0:0:0:0:
256,192,70126,1,0,0:0:0:0:
256,192,71497,1,8,0:0:0:0:
256,192,72183,1,8,0:0:0:0:
256,192,72869,1,0,0:0:0:0:
256,192,74240,1,8,0:0:0:0:
256,192,75612,1,0,0:0:0:0:
256,192,76126,1,8,0:0:0:0:
256,192,76983,1,0,0:0:0:0:
256,192,77497,1,8,0:0:0:0:
256,192,78012,1,0,0:0:0:0:
256,192,78355,1,12,0:0:0:0:
256,192,79040,1,0,0:0:0:0:
256,192,79383,1,8,0:0:0:0:
256,192,79726,1,4,0:0:0:0:
256,192,80412,1,8,0:0:0:0:
256,192,80755,1,0,0:0:0:0:
256,192,81097,1,12,0:0:0:0:
256,192,81783,1,0,0:0:0:0:
256,192,82126,1,8,0:0:0:0:
256,192,82469,1,4,0:0:0:0:
256,192,82812,1,8,0:0:0:0:
256,192,83155,1,0,0:0:0:0:
256,192,83840,1,8,0:0:0:0:
256,192,84869,1,8,0:0:0:0:
256,192,85383,1,8,0:0:0:0:
256,192,85726,1,8,0:0:0:0:
256,192,86240,1,8,0:0:0:0:
256,192,86583,2,0,L|320:192,12,37.8000009228516
256,192,87955,1,4,0:0:0:0:
256,192,89326,1,4,0:0:0:0:
256,192,90355,1,8,0:0:0:0:
256,192,90697,1,0,0:0:0:0:
256,192,91040,1,8,0:0:0:0:
256,192,91726,1,8,0:0:0:0:
256,192,92069,1,0,0:0:0:0:
256,192,92755,1,0,0:0:0:0:
256,192,93097,1,8,0:0:0:0:
256,192,93440,1,8,0:0:0:0:
256,192,94126,1,0,0:0:0:0:
256,192,94469,1,8,0:0:0:0:
256,192,94812,1,0,0:0:0:0:
256,192,95840,1,8,0:0:0:0:
256,192,96183,1,0,0:0:0:0:
256,192,96526,1,8,0:0:0:0:
256,192,97212,1,8,0:0:0:0:
256,192,97555,1,0,0:0:0:0:
256,192,98240,1,8,0:0:0:0:
256,192,98583,1,8,0:0:0:0:
256,192,98926,1,0,0:0:0:0:
256,192,99269,1,8,0:0:0:0:
256,192,99612,1,0,0:0:0:0:
256,192,100297,1,4,0:0:0:0:
256,192,101326,1,8,0:0:0:0:
256,192,101669,1,0,0:0:0:0:
256,192,102012,1,8,0:0:0:0:
256,192,102697,1,8,0:0:0:0:
256,192,103040,1,0,0:0:0:0:
256,192,103726,1,0,0:0:0:0:
256,192,104069,1,8,0:0:0:0:
256,192,104412,1,8,0:0:0:0:
256,192,104755,1,8,0:0:0:0:
256,192,105097,1,0,0:0:0:0:
256,192,105783,1,0,0:0:0:0:
256,192,106126,1,8,0:0:0:0:
256,192,106812,1,8,0:0:0:0:
256,192,107155,1,0,0:0:0:0:
256,192,107497,1,8,0:0:0:0:
256,192,107840,1,0,0:0:0:0:
256,192,108183,1,8,0:0:0:0:
256,192,108526,2,0,L|320:192,12,35.8750005474091
256,192,109897,1,4,0:0:0:0:
256,192,110583,1,8,0:0:0:0:
256,192,110926,1,0,0:0:0:0:
256,192,111269,1,4,0:0:0:0:
256,192,112297,1,8,0:0:0:0:
256,192,112640,1,0,0:0:0:0:
256,192,112983,1,8,0:0:0:0:
256,192,113326,1,8,0:0:0:0:
256,192,114012,1,0,0:0:0:0:
256,192,114355,1,8,0:0:0:0:
256,192,115040,1,8,0:0:0:0:
256,192,115383,1,0,0:0:0:0:
256,192,116069,1,0,0:0:0:0:
256,192,116412,1,8,0:0:0:0:
256,192,116755,1,0,0:0:0:0:
256,192,117783,1,8,0:0:0:0:
256,192,118126,1,0,0:0:0:0:
256,192,118469,1,8,0:0:0:0:
256,192,118812,1,8,0:0:0:0:
256,192,119497,1,0,0:0:0:0:
256,192,119840,1,8,0:0:0:0:
256,192,120526,1,8,0:0:0:0:
256,192,120869,1,0,0:0:0:0:
256,192,121212,1,8,0:0:0:0:
256,192,121555,1,0,0:0:0:0:
256,192,122240,1,4,0:0:0:0:
256,192,123269,1,8,0:0:0:0:
256,192,123612,1,0,0:0:0:0:
256,192,123955,1,8,0:0:0:0:
256,192,124297,1,8,0:0:0:0:
256,192,124983,1,0,0:0:0:0:
256,192,125326,1,8,0:0:0:0:
256,192,126012,1,8,0:0:0:0:
256,192,126355,1,8,0:0:0:0:
256,192,126697,1,8,0:0:0:0:
256,192,127040,1,0,0:0:0:0:
256,192,127726,1,0,0:0:0:0:
256,192,128069,1,8,0:0:0:0:
256,192,128755,1,8,0:0:0:0:
256,192,129097,1,0,0:0:0:0:
256,192,129440,1,8,0:0:0:0:
256,192,129783,1,0,0:0:0:0:
256,192,130126,1,8,0:0:0:0:
256,192,130469,2,0,L|320:192,12,35.8750005474091
256,192,131840,1,0,0:0:0:0:
256,192,132526,1,8,0:0:0:0:
256,192,132869,1,8,0:0:0:0:
256,192,133212,1,4,0:0:0:0:
256,192,134583,1,0,0:0:0:0:
256,192,135955,1,8,0:0:0:0:
256,192,137326,1,8,0:0:0:0:
256,192,138697,1,0,0:0:0:0:
256,192,139726,1,0,0:0:0:0:
256,192,141440,1,8,0:0:0:0:
256,192,142469,1,8,0:0:0:0:
256,192,144183,1,4,0:0:0:0:
256,192,145555,1,0,0:0:0:0:
256,192,146926,1,8,0:0:0:0:
256,192,148297,1,0,0:0:0:0:
256,192,149669,1,4,0:0:0:0:
256,192,150355,1,8,0:0:0:0:
256,192,150697,1,8,0:0:0:0:
256,192,151040,1,0,0:0:0:0:
256,192,151726,1,0,0:0:0:0:
256,192,152069,1,8,0:0:0:0:
256,192,152412,2,0,L|320:192,12,35
256,192,153783,1,12,0:0:0:0:
256,192,155155,1,4,0:0:0:0:
256,192,155840,1,0,0:0:0:0:
256,192,156183,1,8,0:0:0:0:
256,192,156526,1,0,0:0:0:0:
256,192,156869,1,8,0:0:0:0:
256,192,157212,1,8,0:0:0:0:
256,192,157897,1,0,0:0:0:0:
256,192,158240,1,8,0:0:0:0:
256,192,158583,1,0,0:0:0:0:
256,192,159269,1,8,0:0:0:0:
256,192,159612,1,8,0:0:0:0:
256,192,159955,1,0,0:0:0:0:
256,192,160640,1,0,0:0:0:0:
256,192,161326,1,0,0:0:0:0:
256,192,161669,1,8,0:0:0:0:
256,192,162012,1,0,0:0:0:0:
256,192,162697,1,8,0:0:0:0:
256,192,163040,1,8,0:0:0:0:
256,192,163383,1,0,0:0:0:0:
256,192,163726,1,8,0:0:0:0:
256,192,164069,1,0,0:0:0:0:
256,192,164412,1,8,0:0:0:0:
256,192,164755,1,8,0:0:0:0:
256,192,166126,1,0,0:0:0:0:
256,192,166812,1,0,0:0:0:0:
256,192,167155,1,8,0:0:0:0:
256,192,167497,1,0,0:0:0:0:
256,192,167840,1,8,0:0:0:0:
256,192,168183,1,8,0:0:0:0:
256,192,168869,1,0,0:0:0:0:
256,192,169212,1,8,0:0:0:0:
256,192,169555,1,0,0:0:0:0:
256,192,170240,1,8,0:0:0:0:
256,192,170583,1,8,0:0:0:0:
256,192,170926,1,0,0:0:0:0:
256,192,171612,1,0,0:0:0:0:
256,192,172297,1,0,0:0:0:0:
256,192,172640,1,8,0:0:0:0:
256,192,172983,1,8,0:0:0:0:
256,192,173326,1,8,0:0:0:0:
256,192,173669,1,0,0:0:0:0:
256,192,174012,1,8,0:0:0:0:
256,192,174355,2,0,L|320:192,12,35
256,192,175726,1,4,0:0:0:0:
256,192,177097,1,0,0:0:0:0:
256,192,177440,1,12,0:0:0:0:
256,192,178126,1,12,0:0:0:0:
256,192,178469,1,4,0:0:0:0:
256,192,179497,1,0,0:0:0:0:
256,192,179840,1,12,0:0:0:0:
256,192,180526,1,12,0:0:0:0:
256,192,180869,1,12,0:0:0:0:
256,192,181212,1,12,0:0:0:0:
256,192,181897,1,8,0:0:0:0:
256,192,182240,1,8,0:0:0:0:
256,192,182583,1,4,0:0:0:0:
256,192,183612,1,8,0:0:0:0:
256,192,183955,1,0,0:0:0:0:
256,192,184297,1,8,0:0:0:0:
256,192,184983,1,8,0:0:0:0:
256,192,185326,1,0,0:0:0:0:
256,192,186012,1,0,0:0:0:0:
256,192,186355,1,8,0:0:0:0:
256,192,186697,2,0,L|320:192,12,35
256,192,188069,1,4,0:0:0:0:
256,192,189097,1,8,0:0:0:0:
256,192,189440,1,4,0:0:0:0:
256,192,190126,1,0,0:0:0:0:
256,192,190469,1,8,0:0:0:0:
256,192,190812,1,4,0:0:0:0:
256,192,191155,1,8,0:0:0:0:
256,192,191497,1,0,0:0:0:0:
256,192,192183,1,4,0:0:0:0:
256,192,192526,1,8,0:0:0:0:
256,192,192869,1,8,0:0:0:0:
256,192,193555,1,8,0:0:0:0:
256,192,194583,1,8,0:0:0:0:
256,192,195097,1,8,0:0:0:0:
256,192,195440,1,8,0:0:0:0:
256,192,195955,1,8,0:0:0:0:
256,192,196297,2,0,L|320:192,12,35
256,192,197669,1,4,0:0:0:0:
256,192,198355,1,8,0:0:0:0:
256,192,198697,1,8,0:0:0:0:
256,192,199040,1,4,0:0:0:0:
256,192,200412,1,8,0:0:0:0:
256,192,201783,1,0,0:0:0:0:
256,192,203155,1,8,0:0:0:0:
256,192,203840,1,8,0:0:0:0:
256,192,204526,1,0,0:0:0:0:
256,192,205897,1,8,0:0:0:0:
256,192,207269,1,0,0:0:0:0:
256,192,207783,1,8,0:0:0:0:
256,192,208640,1,0,0:0:0:0:
256,192,209155,1,8,0:0:0:0:
256,192,209669,1,0,0:0:0:0:
256,192,210012,1,12,0:0:0:0:
256,192,210697,1,0,0:0:0:0:
256,192,211040,1,8,0:0:0:0:
256,192,211383,1,4,0:0:0:0:
256,192,212069,1,8,0:0:0:0:
256,192,212412,1,0,0:0:0:0:
256,192,212755,1,12,0:0:0:0:
256,192,213440,1,0,0:0:0:0:
256,192,213783,1,8,0:0:0:0:
256,192,214126,1,4,0:0:0:0:
256,192,214469,1,8,0:0:0:0:
256,192,214812,1,0,0:0:0:0:
256,192,215497,1,8,0:0:0:0:
256,192,216526,1,8,0:0:0:0:
256,192,217040,1,8,0:0:0:0:
256,192,217383,1,8,0:0:0:0:
256,192,217897,1,8,0:0:0:0:
256,192,218240,2,0,L|320:192,12,37.8000009228516
256,192,219612,1,4,0:0:0:0:
256,192,220983,1,12,0:0:0:0:
256,192,222012,1,8,0:0:0:0:
256,192,222355,1,0,0:0:0:0:
256,192,222697,1,8,0:0:0:0:
256,192,223383,1,8,0:0:0:0:
256,192,223726,1,0,0:0:0:0:
256,192,224412,1,0,0:0:0:0:
256,192,224755,1,8,0:0:0:0:
256,192,225097,1,8,0:0:0:0:
256,192,225783,1,0,0:0:0:0:
256,192,226126,1,8,0:0:0:0:
256,192,226469,1,0,0:0:0:0:
256,192,227497,1,8,0:0:0:0:
256,192,227840,1,0,0:0:0:0:
256,192,228183,1,8,0:0:0:0:
256,192,228869,1,8,0:0:0:0:
256,192,229212,1,0,0:0:0:0:
256,192,229897,1,8,0:0:0:0:
256,192,230240,1,8,0:0:0:0:
256,192,230583,1,0,0:0:0:0:
256,192,230926,1,8,0:0:0:0:
256,192,231269,1,0,0:0:0:0:
256,192,231955,1,12,0:0:0:0:
256,192,232983,1,8,0:0:0:0:
256,192,233326,1,0,0:0:0:0:
256,192,233669,1,8,0:0:0:0:
256,192,234355,1,8,0:0:0:0:
256,192,234697,1,0,0:0:0:0:
256,192,235383,1,0,0:0:0:0:
256,192,235726,1,8,0:0:0:0:
256,192,236069,1,8,0:0:0:0:
256,192,236412,1,8,0:0:0:0:
256,192,236755,1,0,0:0:0:0:
256,192,237440,1,0,0:0:0:0:
256,192,237783,1,8,0:0:0:0:
256,192,238469,1,8,0:0:0:0:
256,192,238812,1,0,0:0:0:0:
256,192,239155,1,8,0:0:0:0:
256,192,239497,1,0,0:0:0:0:
256,192,239840,1,8,0:0:0:0:
256,192,240183,2,0,L|320:192,12,35.8750005474091
256,192,241555,1,4,0:0:0:0:
256,192,242240,1,8,0:0:0:0:
256,192,242583,1,0,0:0:0:0:
256,192,242926,1,12,0:0:0:0:
256,192,243955,1,8,0:0:0:0:
256,192,244297,1,0,0:0:0:0:
256,192,244640,1,8,0:0:0:0:
256,192,244983,1,8,0:0:0:0:
256,192,245669,1,0,0:0:0:0:
256,192,246012,1,8,0:0:0:0:
256,192,246697,1,8,0:0:0:0:
256,192,247040,1,8,0:0:0:0:
256,192,247383,1,8,0:0:0:0:
256,192,247726,1,0,0:0:0:0:
256,192,248069,1,8,0:0:0:0:
256,192,248412,1,0,0:0:0:0:
256,192,249440,1,8,0:0:0:0:
256,192,249783,1,0,0:0:0:0:
256,192,250126,1,8,0:0:0:0:
256,192,250469,1,8,0:0:0:0:
256,192,251155,1,0,0:0:0:0:
256,192,251497,1,8,0:0:0:0:
256,192,251840,1,0,0:0:0:0:
256,192,252183,1,8,0:0:0:0:
256,192,252526,1,8,0:0:0:0:
256,192,252869,1,8,0:0:0:0:
256,192,253212,1,0,0:0:0:0:
256,192,253897,1,12,0:0:0:0:
256,192,254926,1,8,0:0:0:0:
256,192,255269,1,0,0:0:0:0:
256,192,255612,1,8,0:0:0:0:
256,192,255955,1,8,0:0:0:0:
256,192,256640,1,0,0:0:0:0:
256,192,256983,1,8,0:0:0:0:
256,192,257669,1,8,0:0:0:0:
256,192,258012,1,8,0:0:0:0:
256,192,258355,1,8,0:0:0:0:
256,192,258697,1,0,0:0:0:0:
256,192,259383,1,0,0:0:0:0:
256,192,259726,1,8,0:0:0:0:
256,192,260412,1,8,0:0:0:0:
256,192,260755,1,0,0:0:0:0:
256,192,261097,1,8,0:0:0:0:
256,192,261440,1,0,0:0:0:0:
256,192,261783,1,8,0:0:0:0:
256,192,262126,2,0,L|320:192,12,35.8750005474091
256,192,263497,1,0,0:0:0:0:
256,192,264183,1,8,0:0:0:0:
256,192,264526,1,8,0:0:0:0:
256,192,264869,1,4,0:0:0:0:
256,192,265897,1,8,0:0:0:0:
256,192,266240,1,0,0:0:0:0:
256,192,266926,1,8,0:0:0:0:
256,192,267612,1,0,0:0:0:0:
256,192,267955,1,8,0:0:0:0:
256,192,268640,1,8,0:0:0:0:
256,192,268983,1,0,0:0:0:0:
256,192,269669,1,0,0:0:0:0:
256,192,270012,1,8,0:0:0:0:
256,192,270355,1,0,0:0:0:0:
256,192,271383,1,8,0:0:0:0:
256,192,271726,1,0,0:0:0:0:
256,192,272412,1,8,0:0:0:0:
256,192,272755,1,8,0:0:0:0:
256,192,273097,1,0,0:0:0:0:
256,192,273783,1,0,0:0:0:0:
256,192,274126,1,8,0:0:0:0:
256,192,274469,1,0,0:0:0:0:
256,192,274812,1,8,0:0:0:0:
256,192,275155,1,0,0:0:0:0:
256,192,275840,1,4,0:0:0:0:
256,192,276869,1,8,0:0:0:0:
256,192,277212,1,0,0:0:0:0:
256,192,277897,1,8,0:0:0:0:
256,192,278583,1,0,0:0:0:0:
256,192,278926,1,8,0:0:0:0:
256,192,279612,1,8,0:0:0:0:
256,192,279955,1,0,0:0:0:0:
256,192,280297,1,8,0:0:0:0:
256,192,281326,1,0,0:0:0:0:
256,192,281669,1,8,0:0:0:0:
256,192,282012,1,8,0:0:0:0:
256,192,282355,1,8,0:0:0:0:
256,192,282697,1,0,0:0:0:0:
256,192,283383,1,0,0:0:0:0:
256,192,283726,1,8,0:0:0:0:
256,192,284069,2,0,L|320:192,12,39.3750015020371
256,192,285440,1,12,0:0:0:0:
256,192,286126,1,8,0:0:0:0:
256,192,286469,1,0,0:0:0:0:
256,192,286812,1,4,0:0:0:0:
