osu file format v14

[General]
AudioFilename: Fluctuation.mp3
AudioLeadIn: 1500
PreviewTime: 96677
Countdown: 0
SampleSet: Soft
StackLeniency: 0.7
Mode: 3
LetterboxInBreaks: 0
SpecialStyle: 0
WidescreenStoryboard: 1

[Editor]
DistanceSpacing: 2.8
BeatDivisor: 4
GridSize: 16
TimelineZoom: 2.1

[Metadata]
Title:Fluctuation
TitleUnicode:Fluctuation
Artist:Zekk
ArtistUnicode:Zekk
Creator:Reyi
Version:Normal
Source:音灵 INVAXION
Tags:nimis feraligatr famoss revv revv- featured artist fa zyon drumstep electronic instrumental neurofunk artcore tech
BeatmapID:3770586
BeatmapSetID:1606431

[Difficulty]
HPDrainRate:7
CircleSize:4
OverallDifficulty:7
ApproachRate:9
SliderMultiplier:1.4
SliderTickRate:1

[Events]
//Background and Video events
0,0,"wp5049299.jpg",0,0
//Break Periods
//Storyboard Layer 0 (Background)
//Storyboard Layer 1 (Fail)
//Storyboard Layer 2 (Pass)
//Storyboard Layer 3 (Foreground)
//Storyboard Layer 4 (Overlay)
//Storyboard Sound Samples

[TimingPoints]
2659,309.278350515464,4,2,1,40,1,0
12555,-100,4,2,1,50,0,0
22452,-100,4,2,1,60,0,0
41009,-100,4,2,1,40,0,0
47195,-100,4,2,1,50,0,0
52143,-100,4,2,1,60,0,0
71937,-100,4,2,1,50,0,0
81834,-100,4,2,1,60,0,0
86782,-100,4,2,1,50,0,0
96679,-100,4,2,1,60,0,1
116473,-100,4,2,1,60,0,0

[HitObjects]
64,192,2659,5,2,0:0:0:0:
320,192,2659,1,0,0:0:0:0:
192,192,2968,1,0,0:0:0:0:
448,192,3122,1,0,0:0:0:0:
320,192,3277,1,0,0:0:0:0:
64,192,3586,1,0,0:0:0:0:
448,192,3896,1,0,0:0:0:0:
320,192,4050,1,0,0:0:0:0:
192,192,4205,1,0,0:0:0:0:
64,192,4360,1,0,0:0:0:0:
192,192,4514,1,0,0:0:0:0:
320,192,4669,1,0,0:0:0:0:
448,192,4823,1,0,0:0:0:0:
64,192,4978,1,0,0:0:0:0:
192,192,5133,1,2,0:0:0:0:
320,192,5133,1,0,0:0:0:0:
64,192,5287,1,0,0:0:0:0:
448,192,5442,1,0,0:0:0:0:
192,192,5597,1,0,0:0:0:0:
448,192,5751,1,0,0:0:0:0:
64,192,5906,1,0,0:0:0:0:
320,192,6061,1,0,0:0:0:0:
192,192,6215,1,0,0:0:0:0:
64,192,6370,128,0,6834:0:0:0:0:
192,192,6834,128,0,7298:0:0:0:0:
320,192,7298,128,0,7607:0:0:0:0:
64,192,7607,1,2,0:0:0:0:
448,192,7607,1,0,0:0:0:0:
192,192,7916,128,0,8226:0:0:0:0:
448,192,8226,128,0,8844:0:0:0:0:
64,192,8535,1,0,0:0:0:0:
192,192,9153,128,0,9308:0:0:0:0:
320,192,9308,128,0,9463:0:0:0:0:
64,192,9463,128,0,10081:0:0:0:0:
448,192,10081,1,0,0:0:0:0:
320,192,10236,1,0,0:0:0:0:
192,192,10390,128,0,10700:0:0:0:0:
448,192,10700,128,0,10932:0:0:0:0:
64,192,10932,128,0,11164:0:0:0:0:
320,192,11164,128,0,11473:0:0:0:0:
64,192,11473,1,0,0:0:0:0:
448,192,11782,1,0,0:0:0:0:
192,192,11937,1,0,0:0:0:0:
320,192,12091,1,0,0:0:0:0:
64,192,12246,128,0,12555:0:0:0:0:
320,192,12555,1,2,0:0:0:0:
448,192,12555,1,4,0:0:0:0:
64,192,12865,1,8,0:0:0:0:
192,192,12865,1,0,0:0:0:0:
320,192,13019,1,2,0:0:0:0:
448,192,13019,1,4,0:0:0:0:
64,192,13174,1,0,0:0:0:0:
448,192,13329,1,8,0:0:0:0:
320,192,13406,1,0,0:0:0:0:
192,192,13483,128,0,13793:0:0:0:0:
64,192,13793,1,2,0:0:0:0:
448,192,13793,1,4,0:0:0:0:
64,192,14102,1,8,0:0:0:0:
192,192,14102,1,0,0:0:0:0:
320,192,14256,1,2,0:0:0:0:
448,192,14256,1,4,0:0:0:0:
64,192,14411,1,0,0:0:0:0:
192,192,14566,1,8,0:0:0:0:
448,192,14566,1,0,0:0:0:0:
320,192,14720,128,0,14875:0:0:0:0:
192,192,14875,128,0,15030:0:0:0:0:
64,192,15030,1,2,0:0:0:0:
448,192,15030,1,4,0:0:0:0:
64,192,15339,1,8,0:0:0:0:
192,192,15339,1,0,0:0:0:0:
320,192,15494,1,2,0:0:0:0:
448,192,15494,1,4,0:0:0:0:
64,192,15648,1,0,0:0:0:0:
320,192,15803,128,8,15957:0:0:0:0:
448,192,15803,1,0,0:0:0:0:
192,192,15957,128,0,16112:0:0:0:0:
448,192,16112,128,0,16267:0:0:0:0:
64,192,16267,128,2,16885:0:0:0:0:
320,192,16267,1,4,0:0:0:0:
320,192,16885,1,0,0:0:0:0:
448,192,17040,1,0,0:0:0:0:
192,192,17195,1,0,0:0:0:0:
64,192,17349,1,0,0:0:0:0:
320,192,17504,1,2,0:0:0:0:
448,192,17504,1,4,0:0:0:0:
64,192,17659,1,2,0:0:0:0:
192,192,17813,1,2,0:0:0:0:
320,192,17968,1,2,0:0:0:0:
192,192,18122,1,2,0:0:0:0:
64,192,18277,1,2,0:0:0:0:
192,192,18432,1,0,0:0:0:0:
320,192,18586,1,2,0:0:0:0:
64,192,18741,1,2,0:0:0:0:
448,192,18741,1,4,0:0:0:0:
320,192,18896,1,2,0:0:0:0:
192,192,19050,1,2,0:0:0:0:
320,192,19205,1,2,0:0:0:0:
448,192,19360,1,2,0:0:0:0:
320,192,19514,1,2,0:0:0:0:
192,192,19669,128,2,19823:0:0:0:0:
448,192,19823,128,0,19978:0:0:0:0:
64,192,19978,1,2,0:0:0:0:
192,192,19978,1,4,0:0:0:0:
448,192,20133,1,2,0:0:0:0:
320,192,20287,1,2,0:0:0:0:
192,192,20442,1,2,0:0:0:0:
448,192,20597,1,2,0:0:0:0:
192,192,20751,1,2,0:0:0:0:
320,192,20906,128,2,21061:0:0:0:0:
64,192,21061,128,2,21215:0:0:0:0:
320,192,21215,1,2,0:0:0:0:
448,192,21215,1,4,0:0:0:0:
192,192,21524,1,0,0:0:0:0:
320,192,21834,1,0,0:0:0:0:
448,192,22143,128,8,22298:0:0:0:0:
192,192,22452,128,2,23071:0:0:0:0:
320,192,22452,128,0,23071:0:0:0:0:
64,192,23071,1,8,0:0:0:0:
448,192,23071,1,0,0:0:0:0:
192,192,23226,1,2,0:0:0:0:
320,192,23226,1,4,0:0:0:0:
64,192,23380,128,0,23535:0:0:0:0:
320,192,23535,1,8,0:0:0:0:
448,192,23535,1,0,0:0:0:0:
192,192,23689,1,2,0:0:0:0:
64,192,23844,1,8,0:0:0:0:
320,192,23844,1,0,0:0:0:0:
448,192,23999,1,2,0:0:0:0:
192,192,24153,1,2,0:0:0:0:
64,192,24308,1,8,0:0:0:0:
448,192,24308,1,0,0:0:0:0:
448,192,24463,1,0,0:0:0:0:
64,192,24617,1,2,0:0:0:0:
64,192,24772,1,8,0:0:0:0:
448,192,24772,1,0,0:0:0:0:
192,192,24927,1,2,0:0:0:0:
320,192,25004,1,0,0:0:0:0:
448,192,25081,1,0,0:0:0:0:
320,192,25313,128,0,25545:0:0:0:0:
64,192,25545,1,8,0:0:0:0:
448,192,25545,1,0,0:0:0:0:
192,192,25700,1,2,0:0:0:0:
320,192,25700,1,4,0:0:0:0:
64,192,25854,1,0,0:0:0:0:
320,192,26009,1,8,0:0:0:0:
448,192,26009,1,2,0:0:0:0:
64,192,26164,1,8,0:0:0:0:
192,192,26164,1,4,0:0:0:0:
320,192,26318,1,8,0:0:0:0:
448,192,26318,1,2,0:0:0:0:
192,192,26473,1,0,0:0:0:0:
64,192,26628,1,2,0:0:0:0:
448,192,26628,1,8,0:0:0:0:
320,192,26782,1,0,0:0:0:0:
64,192,26937,1,8,0:0:0:0:
192,192,26937,1,0,0:0:0:0:
448,192,27091,128,2,27401:0:0:0:0:
64,192,27401,1,2,0:0:0:0:
320,192,27401,1,4,0:0:0:0:
64,192,27710,128,0,27865:0:0:0:0:
320,192,27865,128,2,28019:0:0:0:0:
192,192,28019,128,8,28174:0:0:0:0:
448,192,28174,128,2,28329:0:0:0:0:
64,192,28329,1,0,0:0:0:0:
192,192,28483,1,8,0:0:0:0:
448,192,28638,128,2,28793:0:0:0:0:
192,192,28793,128,8,28947:0:0:0:0:
320,192,28947,128,2,29102:0:0:0:0:
64,192,29102,128,2,29256:0:0:0:0:
448,192,29256,1,8,0:0:0:0:
320,192,29411,1,0,0:0:0:0:
192,192,29566,1,2,0:0:0:0:
448,192,29720,1,8,0:0:0:0:
64,192,29875,1,2,0:0:0:0:
192,192,29952,1,0,0:0:0:0:
320,192,30030,1,0,0:0:0:0:
192,192,30262,128,0,30494:0:0:0:0:
64,192,30494,1,8,0:0:0:0:
448,192,30494,1,0,0:0:0:0:
192,192,30648,1,4,0:0:0:0:
320,192,30648,1,2,0:0:0:0:
64,192,30803,1,0,0:0:0:0:
320,192,30957,1,2,0:0:0:0:
448,192,30957,1,8,0:0:0:0:
64,192,31112,1,2,0:0:0:0:
192,192,31112,128,4,31267:0:0:0:0:
320,192,31267,1,8,0:0:0:0:
448,192,31421,128,0,31576:0:0:0:0:
64,192,31576,1,4,0:0:0:0:
192,192,31576,1,2,0:0:0:0:
320,192,31731,128,0,31885:0:0:0:0:
192,192,31885,1,0,0:0:0:0:
64,192,32040,1,2,0:0:0:0:
448,192,32040,128,4,32349:0:0:0:0:
320,192,32195,128,0,32349:0:0:0:0:
64,192,32349,128,6,32659:0:0:0:0:
192,192,32659,1,0,0:0:0:0:
448,192,32813,128,2,32968:0:0:0:0:
192,192,32968,128,8,33122:0:0:0:0:
320,192,33122,1,2,0:0:0:0:
64,192,33277,128,0,33432:0:0:0:0:
192,192,33432,128,8,33586:0:0:0:0:
320,192,33586,1,2,0:0:0:0:
448,192,33741,128,8,33896:0:0:0:0:
192,192,33896,128,2,34050:0:0:0:0:
320,192,34050,1,2,0:0:0:0:
64,192,34205,1,8,0:0:0:0:
192,192,34205,1,0,0:0:0:0:
64,192,34360,1,0,0:0:0:0:
448,192,34514,1,2,0:0:0:0:
320,192,34669,1,8,0:0:0:0:
448,192,34669,1,0,0:0:0:0:
64,192,34823,1,2,0:0:0:0:
192,192,34901,1,0,0:0:0:0:
320,192,34978,1,0,0:0:0:0:
192,192,35210,128,0,35442:0:0:0:0:
64,192,35442,1,8,0:0:0:0:
448,192,35442,1,0,0:0:0:0:
192,192,35597,1,4,0:0:0:0:
320,192,35597,1,2,0:0:0:0:
448,192,35751,1,0,0:0:0:0:
64,192,35906,1,2,0:0:0:0:
192,192,35906,1,8,0:0:0:0:
320,192,36061,1,8,0:0:0:0:
448,192,36061,1,4,0:0:0:0:
64,192,36215,1,2,0:0:0:0:
192,192,36215,1,8,0:0:0:0:
320,192,36370,1,0,0:0:0:0:
192,192,36524,1,8,0:0:0:0:
448,192,36524,1,2,0:0:0:0:
64,192,36679,1,0,0:0:0:0:
320,192,36834,1,8,0:0:0:0:
192,192,36988,128,2,37143:0:0:0:0:
64,192,37298,1,4,0:0:0:0:
448,192,37298,1,2,0:0:0:0:
320,192,37607,128,0,37762:0:0:0:0:
448,192,37762,128,2,37916:0:0:0:0:
64,192,37916,128,8,38071:0:0:0:0:
192,192,38071,128,2,38226:0:0:0:0:
448,192,38226,1,0,0:0:0:0:
320,192,38380,1,8,0:0:0:0:
192,192,38535,128,2,38689:0:0:0:0:
448,192,38689,128,8,38844:0:0:0:0:
320,192,38844,128,2,38999:0:0:0:0:
64,192,38999,128,2,39153:0:0:0:0:
448,192,39153,1,8,0:0:0:0:
320,192,39308,1,0,0:0:0:0:
192,192,39463,1,2,0:0:0:0:
320,192,39617,1,8,0:0:0:0:
64,192,39772,1,4,0:0:0:0:
448,192,39772,1,2,0:0:0:0:
192,192,40081,1,0,0:0:0:0:
320,192,40159,1,0,0:0:0:0:
448,192,40236,1,0,0:0:0:0:
64,192,40390,1,0,0:0:0:0:
192,192,40545,1,0,0:0:0:0:
448,192,40700,1,0,0:0:0:0:
320,192,40854,1,0,0:0:0:0:
64,192,41009,1,2,0:0:0:0:
192,192,41086,1,2,0:0:0:0:
320,192,41164,128,2,41628:0:0:0:0:
192,192,41628,1,0,0:0:0:0:
64,192,41782,1,0,0:0:0:0:
320,192,41937,1,0,0:0:0:0:
448,192,42091,1,0,0:0:0:0:
64,192,42246,128,4,44720:0:0:0:0:
192,192,42246,1,2,0:0:0:0:
320,192,44720,128,0,46576:0:0:0:0:
192,192,46576,128,0,47195:0:0:0:0:
64,192,47195,1,4,0:0:0:0:
448,192,47195,1,2,0:0:0:0:
64,192,47504,1,0,0:0:0:0:
192,192,47659,1,0,0:0:0:0:
320,192,47813,1,0,0:0:0:0:
448,192,48122,1,0,0:0:0:0:
192,192,48329,1,0,0:0:0:0:
320,192,48432,1,0,0:0:0:0:
64,192,48741,1,0,0:0:0:0:
192,192,48844,1,0,0:0:0:0:
448,192,48947,1,0,0:0:0:0:
320,192,49050,1,0,0:0:0:0:
192,192,49256,1,0,0:0:0:0:
64,192,49360,1,0,0:0:0:0:
320,192,49566,1,0,0:0:0:0:
192,192,49669,128,6,49978:0:0:0:0:
320,192,50133,128,2,50442:0:0:0:0:
448,192,50597,128,2,50906:0:0:0:0:
64,192,50906,1,4,0:0:0:0:
192,192,50906,1,2,0:0:0:0:
64,192,51834,128,0,51988:0:0:0:0:
320,192,51988,128,0,52143:0:0:0:0:
192,192,52143,128,6,52762:0:0:0:0:
64,192,52762,1,2,0:0:0:0:
448,192,52762,128,4,52916:0:0:0:0:
320,192,52916,128,0,53071:0:0:0:0:
192,192,53071,128,0,53226:0:0:0:0:
448,192,53226,1,6,0:0:0:0:
64,192,53380,128,0,53535:0:0:0:0:
192,192,53535,128,0,53689:0:0:0:0:
320,192,53689,1,6,0:0:0:0:
448,192,53844,128,8,53999:0:0:0:0:
192,192,53999,1,8,0:0:0:0:
64,192,54153,1,0,0:0:0:0:
448,192,54308,1,0,0:0:0:0:
448,192,54463,1,8,0:0:0:0:
64,192,54617,1,2,0:0:0:0:
192,192,54695,1,0,0:0:0:0:
320,192,54772,1,0,0:0:0:0:
192,192,54927,128,0,55081:0:0:0:0:
448,192,55081,1,2,0:0:0:0:
320,192,55236,1,12,0:0:0:0:
192,192,55313,1,0,0:0:0:0:
64,192,55390,128,0,55622:0:0:0:0:
320,192,55622,128,0,55854:0:0:0:0:
192,192,55854,128,2,56009:0:0:0:0:
448,192,56009,128,0,56164:0:0:0:0:
64,192,56164,1,0,0:0:0:0:
320,192,56318,1,2,0:0:0:0:
64,192,56473,1,8,0:0:0:0:
448,192,56628,1,0,0:0:0:0:
320,192,56782,1,0,0:0:0:0:
64,192,56937,1,8,0:0:0:0:
192,192,57091,128,6,57710:0:0:0:0:
320,192,57401,1,8,0:0:0:0:
64,192,57710,1,2,0:0:0:0:
448,192,57710,128,4,57865:0:0:0:0:
320,192,57865,128,0,58019:0:0:0:0:
192,192,58019,128,0,58174:0:0:0:0:
448,192,58174,1,6,0:0:0:0:
320,192,58329,128,0,58483:0:0:0:0:
192,192,58483,128,0,58638:0:0:0:0:
64,192,58638,1,6,0:0:0:0:
448,192,58793,128,8,58947:0:0:0:0:
192,192,58947,1,8,0:0:0:0:
64,192,59102,1,0,0:0:0:0:
320,192,59256,1,0,0:0:0:0:
320,192,59411,1,0,0:0:0:0:
64,192,59566,128,8,59720:0:0:0:0:
448,192,59720,1,14,0:0:0:0:
320,192,59875,128,0,60030:0:0:0:0:
64,192,60030,1,8,0:0:0:0:
192,192,60184,128,2,60339:0:0:0:0:
448,192,60339,1,0,0:0:0:0:
64,192,60494,128,8,60648:0:0:0:0:
320,192,60648,1,2,0:0:0:0:
192,192,60803,128,0,60957:0:0:0:0:
320,192,60957,128,8,61112:0:0:0:0:
64,192,61112,1,2,0:0:0:0:
192,192,61267,1,2,0:0:0:0:
448,192,61421,1,2,0:0:0:0:
320,192,61653,1,2,0:0:0:0:
192,192,61885,1,2,0:0:0:0:
320,192,62040,128,6,62659:0:0:0:0:
64,192,62659,128,2,62813:0:0:0:0:
448,192,62659,1,4,0:0:0:0:
192,192,62813,128,0,62968:0:0:0:0:
320,192,62968,128,0,63122:0:0:0:0:
64,192,63122,1,6,0:0:0:0:
192,192,63277,128,0,63432:0:0:0:0:
320,192,63432,128,0,63586:0:0:0:0:
448,192,63586,1,6,0:0:0:0:
64,192,63741,128,8,63896:0:0:0:0:
320,192,63896,1,8,0:0:0:0:
448,192,64050,1,0,0:0:0:0:
64,192,64205,1,0,0:0:0:0:
64,192,64360,1,8,0:0:0:0:
448,192,64514,1,2,0:0:0:0:
320,192,64591,1,0,0:0:0:0:
192,192,64669,1,0,0:0:0:0:
320,192,64823,128,0,64978:0:0:0:0:
64,192,64978,1,2,0:0:0:0:
192,192,65133,1,12,0:0:0:0:
320,192,65210,1,0,0:0:0:0:
448,192,65287,128,0,65519:0:0:0:0:
192,192,65519,128,0,65751:0:0:0:0:
320,192,65751,128,2,65906:0:0:0:0:
64,192,65906,128,0,66061:0:0:0:0:
448,192,66061,1,0,0:0:0:0:
192,192,66215,1,2,0:0:0:0:
448,192,66370,1,8,0:0:0:0:
64,192,66524,1,0,0:0:0:0:
192,192,66679,1,0,0:0:0:0:
448,192,66834,1,8,0:0:0:0:
320,192,66988,128,6,67607:0:0:0:0:
192,192,67298,1,8,0:0:0:0:
64,192,67607,128,2,67762:0:0:0:0:
448,192,67607,1,4,0:0:0:0:
192,192,67762,128,0,67916:0:0:0:0:
320,192,67916,128,0,68071:0:0:0:0:
64,192,68071,1,6,0:0:0:0:
192,192,68226,128,0,68380:0:0:0:0:
320,192,68380,128,0,68535:0:0:0:0:
448,192,68535,1,6,0:0:0:0:
64,192,68689,128,8,68844:0:0:0:0:
320,192,68844,1,8,0:0:0:0:
448,192,68999,1,0,0:0:0:0:
192,192,69153,1,0,0:0:0:0:
192,192,69308,1,8,0:0:0:0:
448,192,69463,128,6,69772:0:0:0:0:
320,192,69772,128,0,70081:0:0:0:0:
192,192,70081,128,0,70390:0:0:0:0:
64,192,70390,1,0,0:0:0:0:
448,192,70390,128,0,70545:0:0:0:0:
320,192,70545,128,0,70700:0:0:0:0:
192,192,70700,1,0,0:0:0:0:
64,192,70854,1,0,0:0:0:0:
320,192,71009,1,0,0:0:0:0:
192,192,71164,1,0,0:0:0:0:
448,192,71318,1,0,0:0:0:0:
320,192,71473,1,0,0:0:0:0:
192,192,71628,1,0,0:0:0:0:
320,192,71782,1,0,0:0:0:0:
64,192,71937,1,2,0:0:0:0:
448,192,71937,1,4,0:0:0:0:
192,192,72246,1,0,0:0:0:0:
448,192,72401,1,0,0:0:0:0:
320,192,72555,1,0,0:0:0:0:
64,192,72865,1,0,0:0:0:0:
448,192,73174,1,0,0:0:0:0:
320,192,73329,1,0,0:0:0:0:
192,192,73483,1,0,0:0:0:0:
64,192,73638,1,0,0:0:0:0:
192,192,73793,1,0,0:0:0:0:
320,192,73947,1,0,0:0:0:0:
448,192,74102,1,0,0:0:0:0:
64,192,74256,1,0,0:0:0:0:
192,192,74411,1,2,0:0:0:0:
320,192,74411,1,0,0:0:0:0:
64,192,74566,1,0,0:0:0:0:
448,192,74720,1,0,0:0:0:0:
192,192,74875,1,0,0:0:0:0:
448,192,75030,1,0,0:0:0:0:
64,192,75184,1,0,0:0:0:0:
320,192,75339,1,0,0:0:0:0:
192,192,75494,1,0,0:0:0:0:
64,192,75648,128,0,76112:0:0:0:0:
192,192,76112,128,0,76576:0:0:0:0:
320,192,76576,128,0,76885:0:0:0:0:
64,192,76885,1,4,0:0:0:0:
448,192,76885,1,2,0:0:0:0:
192,192,77195,128,0,77504:0:0:0:0:
448,192,77504,128,0,78122:0:0:0:0:
64,192,77813,1,0,0:0:0:0:
192,192,78432,128,0,78586:0:0:0:0:
320,192,78586,128,0,78741:0:0:0:0:
64,192,78741,128,0,79360:0:0:0:0:
448,192,79360,1,2,0:0:0:0:
320,192,79514,1,0,0:0:0:0:
192,192,79669,128,0,79978:0:0:0:0:
448,192,79978,128,0,80210:0:0:0:0:
64,192,80210,128,0,80442:0:0:0:0:
320,192,80442,128,0,80751:0:0:0:0:
64,192,80751,1,0,0:0:0:0:
448,192,81061,1,0,0:0:0:0:
192,192,81215,1,0,0:0:0:0:
320,192,81370,1,0,0:0:0:0:
64,192,81524,128,0,81834:0:0:0:0:
320,192,81834,1,2,0:0:0:0:
448,192,81834,1,4,0:0:0:0:
64,192,82143,1,8,0:0:0:0:
192,192,82143,1,0,0:0:0:0:
320,192,82298,1,2,0:0:0:0:
448,192,82298,1,4,0:0:0:0:
64,192,82452,1,0,0:0:0:0:
448,192,82607,1,8,0:0:0:0:
320,192,82684,1,0,0:0:0:0:
192,192,82762,128,0,83071:0:0:0:0:
64,192,83071,1,2,0:0:0:0:
448,192,83071,1,4,0:0:0:0:
64,192,83380,1,8,0:0:0:0:
192,192,83380,1,0,0:0:0:0:
320,192,83535,1,2,0:0:0:0:
448,192,83535,1,4,0:0:0:0:
64,192,83689,1,0,0:0:0:0:
192,192,83844,1,8,0:0:0:0:
448,192,83844,1,0,0:0:0:0:
320,192,83999,128,0,84153:0:0:0:0:
192,192,84153,128,0,84308:0:0:0:0:
64,192,84308,1,2,0:0:0:0:
448,192,84308,1,4,0:0:0:0:
64,192,84617,1,8,0:0:0:0:
192,192,84617,1,0,0:0:0:0:
320,192,84772,1,2,0:0:0:0:
448,192,84772,1,4,0:0:0:0:
64,192,84927,1,0,0:0:0:0:
320,192,85081,128,8,85236:0:0:0:0:
448,192,85081,1,0,0:0:0:0:
192,192,85236,128,0,85390:0:0:0:0:
448,192,85390,128,0,85545:0:0:0:0:
64,192,85545,128,2,86164:0:0:0:0:
320,192,85545,1,4,0:0:0:0:
320,192,86164,1,0,0:0:0:0:
448,192,86318,1,0,0:0:0:0:
192,192,86473,1,0,0:0:0:0:
64,192,86628,1,0,0:0:0:0:
320,192,86782,1,2,0:0:0:0:
448,192,86782,1,4,0:0:0:0:
64,192,86937,1,2,0:0:0:0:
192,192,87091,1,2,0:0:0:0:
320,192,87246,1,2,0:0:0:0:
192,192,87401,1,2,0:0:0:0:
64,192,87555,1,2,0:0:0:0:
192,192,87710,1,0,0:0:0:0:
320,192,87865,1,2,0:0:0:0:
64,192,88019,1,2,0:0:0:0:
448,192,88019,1,4,0:0:0:0:
320,192,88174,1,2,0:0:0:0:
192,192,88329,1,2,0:0:0:0:
320,192,88483,1,2,0:0:0:0:
448,192,88638,1,2,0:0:0:0:
320,192,88793,1,2,0:0:0:0:
192,192,88947,1,2,0:0:0:0:
320,192,89102,1,0,0:0:0:0:
64,192,89256,1,2,0:0:0:0:
192,192,89256,1,4,0:0:0:0:
448,192,89411,1,2,0:0:0:0:
320,192,89566,1,2,0:0:0:0:
192,192,89720,1,2,0:0:0:0:
448,192,89875,1,2,0:0:0:0:
320,192,90030,1,2,0:0:0:0:
64,192,90184,1,2,0:0:0:0:
192,192,90339,1,2,0:0:0:0:
64,192,90494,1,2,0:0:0:0:
448,192,90494,1,4,0:0:0:0:
320,192,90726,1,2,0:0:0:0:
448,192,90726,1,4,0:0:0:0:
192,192,90957,1,2,0:0:0:0:
320,192,90957,1,4,0:0:0:0:
64,192,91189,1,2,0:0:0:0:
320,192,91189,1,4,0:0:0:0:
448,192,91421,128,2,91576:0:0:0:0:
192,192,91576,128,2,91731:0:0:0:0:
320,192,91731,1,2,0:0:0:0:
448,192,91731,1,4,0:0:0:0:
64,192,92040,1,0,0:0:0:0:
320,192,92349,1,0,0:0:0:0:
192,192,92659,1,0,0:0:0:0:
320,192,92968,128,2,93122:0:0:0:0:
448,192,93122,1,2,0:0:0:0:
64,192,93277,128,2,93432:0:0:0:0:
192,192,93432,1,2,0:0:0:0:
448,192,93586,128,2,93741:0:0:0:0:
320,192,93741,1,2,0:0:0:0:
192,192,93896,128,2,94050:0:0:0:0:
448,192,94050,128,2,94205:0:0:0:0:
64,192,94205,1,2,0:0:0:0:
192,192,94205,1,4,0:0:0:0:
320,192,94437,1,0,0:0:0:0:
192,192,94669,1,0,0:0:0:0:
448,192,94901,128,0,95133:0:0:0:0:
64,192,95133,1,0,0:0:0:0:
320,192,95287,1,0,0:0:0:0:
192,192,95442,1,0,0:0:0:0:
448,192,95674,1,0,0:0:0:0:
320,192,95906,1,0,0:0:0:0:
64,192,96061,1,0,0:0:0:0:
448,192,96215,1,0,0:0:0:0:
320,192,96293,1,0,0:0:0:0:
192,192,96370,128,0,96679:0:0:0:0:
320,192,96679,1,2,0:0:0:0:
448,192,96679,1,4,0:0:0:0:
192,192,96988,1,2,0:0:0:0:
320,192,96988,1,8,0:0:0:0:
448,192,97143,1,0,0:0:0:0:
192,192,97298,1,2,0:0:0:0:
64,192,97452,1,0,0:0:0:0:
320,192,97607,1,2,0:0:0:0:
448,192,97607,1,8,0:0:0:0:
192,192,97916,1,2,0:0:0:0:
320,192,98071,1,0,0:0:0:0:
64,192,98226,1,8,0:0:0:0:
192,192,98226,1,2,0:0:0:0:
320,192,98380,1,0,0:0:0:0:
64,192,98535,1,2,0:0:0:0:
192,192,98689,1,0,0:0:0:0:
320,192,98844,1,8,0:0:0:0:
448,192,98844,1,2,0:0:0:0:
192,192,98999,1,0,0:0:0:0:
64,192,99153,1,2,0:0:0:0:
320,192,99463,1,2,0:0:0:0:
448,192,99463,1,8,0:0:0:0:
64,192,99617,1,0,0:0:0:0:
192,192,99772,1,2,0:0:0:0:
320,192,99927,1,0,0:0:0:0:
192,192,100081,1,2,0:0:0:0:
448,192,100081,1,8,0:0:0:0:
64,192,100390,1,2,0:0:0:0:
320,192,100545,1,0,0:0:0:0:
64,192,100700,1,8,0:0:0:0:
192,192,100700,1,2,0:0:0:0:
448,192,100854,1,0,0:0:0:0:
192,192,101009,1,2,0:0:0:0:
320,192,101164,1,0,0:0:0:0:
64,192,101318,1,8,0:0:0:0:
448,192,101318,1,2,0:0:0:0:
192,192,101473,1,0,0:0:0:0:
64,192,101628,1,4,0:0:0:0:
448,192,101628,1,2,0:0:0:0:
64,192,101937,1,8,0:0:0:0:
192,192,101937,1,2,0:0:0:0:
320,192,102091,1,0,0:0:0:0:
448,192,102246,1,2,0:0:0:0:
192,192,102401,1,0,0:0:0:0:
64,192,102555,1,8,0:0:0:0:
320,192,102555,1,2,0:0:0:0:
448,192,102865,1,2,0:0:0:0:
192,192,103019,1,0,0:0:0:0:
320,192,103174,1,2,0:0:0:0:
448,192,103174,1,8,0:0:0:0:
64,192,103329,1,0,0:0:0:0:
192,192,103483,1,2,0:0:0:0:
320,192,103638,1,0,0:0:0:0:
192,192,103793,1,2,0:0:0:0:
448,192,103793,1,8,0:0:0:0:
64,192,103947,1,0,0:0:0:0:
320,192,104102,1,4,0:0:0:0:
448,192,104102,1,2,0:0:0:0:
64,192,104411,1,8,0:0:0:0:
192,192,104411,1,2,0:0:0:0:
320,192,104566,1,0,0:0:0:0:
192,192,104720,1,2,0:0:0:0:
64,192,104875,1,0,0:0:0:0:
320,192,105030,1,8,0:0:0:0:
448,192,105030,1,2,0:0:0:0:
192,192,105184,1,0,0:0:0:0:
64,192,105339,1,2,0:0:0:0:
448,192,105339,1,4,0:0:0:0:
64,192,105571,1,4,0:0:0:0:
320,192,105571,1,2,0:0:0:0:
192,192,105803,1,2,0:0:0:0:
448,192,105803,1,4,0:0:0:0:
320,192,105957,128,0,106112:0:0:0:0:
64,192,106112,1,2,0:0:0:0:
448,192,106267,1,0,0:0:0:0:
320,192,106421,1,2,0:0:0:0:
64,192,106576,1,2,0:0:0:0:
448,192,106576,1,4,0:0:0:0:
64,192,106885,1,2,0:0:0:0:
192,192,106885,1,8,0:0:0:0:
448,192,107040,1,0,0:0:0:0:
320,192,107195,1,2,0:0:0:0:
192,192,107349,1,0,0:0:0:0:
64,192,107504,1,2,0:0:0:0:
448,192,107504,1,8,0:0:0:0:
320,192,107813,1,2,0:0:0:0:
64,192,107968,1,0,0:0:0:0:
192,192,108122,1,8,0:0:0:0:
448,192,108122,1,2,0:0:0:0:
320,192,108277,1,0,0:0:0:0:
448,192,108432,1,2,0:0:0:0:
64,192,108586,1,0,0:0:0:0:
192,192,108741,1,8,0:0:0:0:
320,192,108741,1,2,0:0:0:0:
448,192,108896,1,0,0:0:0:0:
64,192,109050,1,2,0:0:0:0:
192,192,109050,1,4,0:0:0:0:
320,192,109360,1,2,0:0:0:0:
448,192,109360,1,8,0:0:0:0:
192,192,109514,1,0,0:0:0:0:
64,192,109669,1,2,0:0:0:0:
320,192,109823,1,0,0:0:0:0:
192,192,109978,1,2,0:0:0:0:
448,192,109978,1,8,0:0:0:0:
64,192,110287,1,2,0:0:0:0:
448,192,110442,1,0,0:0:0:0:
64,192,110597,1,8,0:0:0:0:
320,192,110597,1,2,0:0:0:0:
192,192,110751,1,0,0:0:0:0:
320,192,110906,1,2,0:0:0:0:
448,192,111061,1,0,0:0:0:0:
64,192,111215,1,8,0:0:0:0:
192,192,111215,1,2,0:0:0:0:
320,192,111370,1,0,0:0:0:0:
64,192,111524,1,4,0:0:0:0:
448,192,111524,1,2,0:0:0:0:
192,192,111756,1,6,0:0:0:0:
64,192,111834,1,0,0:0:0:0:
320,192,111988,1,6,0:0:0:0:
448,192,112066,1,0,0:0:0:0:
64,192,112143,1,6,0:0:0:0:
192,192,112298,1,0,0:0:0:0:
320,192,112452,1,8,0:0:0:0:
448,192,112452,1,0,0:0:0:0:
64,192,112530,1,0,0:0:0:0:
64,192,112762,1,2,0:0:0:0:
192,192,112762,1,0,0:0:0:0:
320,192,112916,1,2,0:0:0:0:
64,192,112994,128,2,113148:0:0:0:0:
448,192,113148,128,2,113380:0:0:0:0:
64,192,113380,1,8,0:0:0:0:
192,192,113380,1,0,0:0:0:0:
192,192,113612,1,8,0:0:0:0:
448,192,113612,1,0,0:0:0:0:
320,192,113844,1,8,0:0:0:0:
448,192,113844,1,0,0:0:0:0:
64,192,113999,128,8,114153:0:0:0:0:
320,192,114153,1,6,0:0:0:0:
192,192,114308,128,8,114463:0:0:0:0:
448,192,114463,1,6,0:0:0:0:
320,192,114617,128,8,114772:0:0:0:0:
64,192,114772,1,6,0:0:0:0:
192,192,114927,1,8,0:0:0:0:
448,192,115081,1,2,0:0:0:0:
320,192,115159,1,2,0:0:0:0:
64,192,115236,1,4,0:0:0:0:
192,192,115236,1,2,0:0:0:0:
320,192,115390,1,8,0:0:0:0:
448,192,115390,1,2,0:0:0:0:
64,192,115545,1,2,0:0:0:0:
192,192,115700,1,2,0:0:0:0:
448,192,115854,1,2,0:0:0:0:
320,192,116009,1,2,0:0:0:0:
64,192,116164,1,8,0:0:0:0:
192,192,116164,128,2,116318:0:0:0:0:
448,192,116318,128,0,116473:0:0:0:0:
64,192,116576,128,0,116782:0:0:0:0:
320,192,116782,128,0,116937:0:0:0:0:
192,192,116937,128,0,117091:0:0:0:0:
64,192,117091,1,8,0:0:0:0:
448,192,117091,1,0,0:0:0:0:
320,192,117246,128,6,117401:0:0:0:0:
64,192,117401,128,0,117555:0:0:0:0:
192,192,117555,128,8,117710:0:0:0:0:
448,192,117710,1,2,0:0:0:0:
320,192,117865,128,8,118019:0:0:0:0:
64,192,118019,128,2,118174:0:0:0:0:
192,192,118174,1,2,0:0:0:0:
320,192,118329,1,8,0:0:0:0:
448,192,118329,1,0,0:0:0:0:
448,192,118483,1,0,0:0:0:0:
64,192,118638,1,2,0:0:0:0:
64,192,118793,1,8,0:0:0:0:
192,192,118793,1,0,0:0:0:0:
448,192,118947,1,2,0:0:0:0:
320,192,119024,1,0,0:0:0:0:
192,192,119102,128,0,119334:0:0:0:0:
320,192,119334,128,0,119566:0:0:0:0:
64,192,119566,1,8,0:0:0:0:
448,192,119566,1,0,0:0:0:0:
192,192,119720,1,4,0:0:0:0:
320,192,119720,1,2,0:0:0:0:
64,192,119875,1,0,0:0:0:0:
320,192,120030,1,2,0:0:0:0:
448,192,120030,1,8,0:0:0:0:
64,192,120184,1,8,0:0:0:0:
192,192,120184,1,4,0:0:0:0:
448,192,120339,1,10,0:0:0:0:
192,192,120494,1,0,0:0:0:0:
64,192,120648,1,10,0:0:0:0:
320,192,120803,1,0,0:0:0:0:
192,192,120957,1,8,0:0:0:0:
448,192,121112,128,2,121267:0:0:0:0:
64,192,121421,1,4,0:0:0:0:
320,192,121421,1,2,0:0:0:0:
64,192,121731,128,0,121885:0:0:0:0:
320,192,121885,128,2,122040:0:0:0:0:
192,192,122040,128,8,122195:0:0:0:0:
448,192,122195,128,2,122349:0:0:0:0:
64,192,122349,1,0,0:0:0:0:
192,192,122504,1,8,0:0:0:0:
320,192,122659,128,2,122813:0:0:0:0:
192,192,122813,128,8,122968:0:0:0:0:
448,192,122968,128,2,123122:0:0:0:0:
64,192,123122,128,2,123277:0:0:0:0:
320,192,123277,1,8,0:0:0:0:
192,192,123432,1,0,0:0:0:0:
320,192,123586,1,2,0:0:0:0:
448,192,123741,1,8,0:0:0:0:
64,192,123896,1,2,0:0:0:0:
192,192,123973,1,0,0:0:0:0:
320,192,124050,128,0,124282:0:0:0:0:
192,192,124282,128,0,124514:0:0:0:0:
64,192,124514,1,8,0:0:0:0:
448,192,124514,1,0,0:0:0:0:
192,192,124669,1,2,0:0:0:0:
320,192,124669,1,4,0:0:0:0:
64,192,124823,1,0,0:0:0:0:
448,192,124823,1,0,0:0:0:0:
192,192,124978,1,10,0:0:0:0:
320,192,125133,128,6,125287:0:0:0:0:
64,192,125287,1,8,0:0:0:0:
448,192,125442,128,0,125597:0:0:0:0:
192,192,125597,1,6,0:0:0:0:
64,192,125751,128,0,125906:0:0:0:0:
320,192,125906,1,0,0:0:0:0:
192,192,126061,128,6,126215:0:0:0:0:
64,192,126215,128,0,126370:0:0:0:0:
320,192,126473,128,0,126679:0:0:0:0:
64,192,126679,1,0,0:0:0:0:
448,192,126834,128,2,126988:0:0:0:0:
192,192,126988,128,8,127143:0:0:0:0:
320,192,127143,1,6,0:0:0:0:
64,192,127298,128,0,127452:0:0:0:0:
192,192,127452,128,8,127607:0:0:0:0:
320,192,127607,1,2,0:0:0:0:
448,192,127762,128,8,127916:0:0:0:0:
192,192,127916,128,2,128071:0:0:0:0:
320,192,128071,1,2,0:0:0:0:
64,192,128226,1,8,0:0:0:0:
192,192,128226,1,0,0:0:0:0:
64,192,128380,1,0,0:0:0:0:
448,192,128535,1,2,0:0:0:0:
320,192,128689,1,8,0:0:0:0:
448,192,128689,1,0,0:0:0:0:
64,192,128844,1,2,0:0:0:0:
192,192,128921,1,0,0:0:0:0:
320,192,128999,128,0,129231:0:0:0:0:
192,192,129231,128,0,129463:0:0:0:0:
64,192,129463,1,8,0:0:0:0:
448,192,129463,1,0,0:0:0:0:
192,192,129617,1,2,0:0:0:0:
320,192,129617,1,4,0:0:0:0:
448,192,129772,1,0,0:0:0:0:
64,192,129927,1,8,0:0:0:0:
192,192,129927,1,2,0:0:0:0:
320,192,130081,1,8,0:0:0:0:
448,192,130081,1,4,0:0:0:0:
64,192,130236,1,10,0:0:0:0:
320,192,130390,1,0,0:0:0:0:
192,192,130545,1,10,0:0:0:0:
448,192,130700,1,0,0:0:0:0:
320,192,130854,1,8,0:0:0:0:
192,192,131009,128,2,131164:0:0:0:0:
64,192,131318,1,2,0:0:0:0:
448,192,131318,1,4,0:0:0:0:
320,192,131628,128,0,131782:0:0:0:0:
448,192,131782,128,2,131937:0:0:0:0:
64,192,131937,128,8,132091:0:0:0:0:
192,192,132091,128,2,132246:0:0:0:0:
448,192,132246,1,0,0:0:0:0:
320,192,132401,1,8,0:0:0:0:
192,192,132555,128,2,132710:0:0:0:0:
448,192,132710,128,8,132865:0:0:0:0:
320,192,132865,128,2,133019:0:0:0:0:
64,192,133019,128,2,133174:0:0:0:0:
448,192,133174,1,8,0:0:0:0:
320,192,133329,1,0,0:0:0:0:
192,192,133483,1,2,0:0:0:0:
320,192,133638,1,8,0:0:0:0:
64,192,133793,1,4,0:0:0:0:
448,192,133793,1,2,0:0:0:0:
192,192,134102,1,0,0:0:0:0:
320,192,134179,1,0,0:0:0:0:
448,192,134256,1,0,0:0:0:0:
64,192,134411,1,0,0:0:0:0:
192,192,134566,1,0,0:0:0:0:
448,192,134720,1,0,0:0:0:0:
320,192,134875,1,0,0:0:0:0:
64,192,135030,1,0,0:0:0:0:
192,192,135107,1,0,0:0:0:0:
320,192,135184,128,0,135648:0:0:0:0:
192,192,135648,1,0,0:0:0:0:
64,192,135803,1,0,0:0:0:0:
320,192,135957,1,0,0:0:0:0:
448,192,136112,1,0,0:0:0:0:
64,192,136267,1,4,0:0:0:0:
192,192,136267,1,2,0:0:0:0:
