osu file format v14

[General]
AudioFilename: audio.mp3
AudioLeadIn: 0
PreviewTime: 50829
Countdown: 0
SampleSet: Drum
StackLeniency: 0.7
Mode: 2
LetterboxInBreaks: 0
WidescreenStoryboard: 1

[Editor]
Bookmarks: 22452,42246,52143,62040,71937,85545,96679,106576,117091,126988,136267
DistanceSpacing: 1.3
BeatDivisor: 4
GridSize: 32
TimelineZoom: 4.499998

[Metadata]
Title:Fluctuation
TitleUnicode:Fluctuation
Artist:Zekk
ArtistUnicode:Zekk
Creator:Jemzuu
Version:Platter
Source:osu!
Tags:ajamez jbhyperion jbh hyperion neonlights featured artist fa mappers guild electronic instrumental tech Dubstep Melodic Artcore Neurofunk experimental glitch
BeatmapID:2414163
BeatmapSetID:1148215

[Difficulty]
HPDrainRate:5
CircleSize:3.3
OverallDifficulty:8.3
ApproachRate:8.3
SliderMultiplier:1.5
SliderTickRate:1

[Events]
//Background and Video events
0,0,"fluctuation.jpg",0,0
//Break Periods
2,42446,45253
2,72137,74944
//Storyboard Layer 0 (Background)
//Storyboard Layer 1 (Fail)
//Storyboard Layer 2 (Pass)
//Storyboard Layer 3 (Foreground)
//Storyboard Layer 4 (Overlay)
//Storyboard Sound Samples

[TimingPoints]
2659,309.278350515464,4,2,1,60,1,0
2659,-100,4,2,1,60,0,0
5133,-100,4,2,1,65,0,0
5906,-100,4,2,1,45,0,0
6215,-100,4,2,1,70,0,0
6447,-100,4,2,1,70,0,0
7143,-100,4,2,1,70,0,0
7607,-100,4,2,99,70,0,0
7684,-100,4,2,1,60,0,0
7916,-100,4,2,99,70,0,0
8226,-100,4,2,1,60,0,0
8245,-100,4,2,1,30,0,0
8535,-100,4,2,1,60,0,0
8844,-100,4,2,1,60,0,0
10390,-100,4,2,99,70,0,0
10700,-100,4,2,1,60,0,0
11473,-100,4,2,1,80,0,0
11782,-100,4,2,1,60,0,0
11937,-100,4,2,1,60,0,0
12091,-100,4,2,1,50,0,0
12246,-100,4,2,99,80,0,0
12555,-100,4,2,2,80,0,0
12633,-100,4,3,1,70,0,0
12865,-100,4,3,1,80,0,0
13329,-100,4,3,0,80,0,0
13483,-100,4,3,0,80,0,0
13793,-100,4,2,2,90,0,0
13870,-100,4,3,1,90,0,0
14102,-100,4,3,1,90,0,0
14720,-100,4,2,99,90,0,0
15030,-100,4,2,2,90,0,0
15107,-100,4,3,1,90,0,0
15339,-100,4,3,1,90,0,0
15610,-100,4,3,1,50,0,0
15803,-100,4,3,1,90,0,0
16267,-100,4,2,2,80,0,0
16344,-100,4,3,1,80,0,0
16576,-100,4,2,1,70,0,0
16615,-100,4,2,1,40,0,0
16885,-100,4,2,1,70,0,0
17040,-100,4,2,1,80,0,0
17504,-100,4,3,1,70,0,0
18122,-100,4,3,1,75,0,0
18741,-100,4,2,2,60,0,0
18818,-100,4,3,1,80,0,0
19360,-100,4,3,1,85,0,0
19978,-100,4,3,1,70,0,0
20055,-100,4,3,1,90,0,0
20597,-100,4,3,1,95,0,0
21215,-100,4,3,1,100,0,0
21370,-100,4,2,1,50,0,0
21834,-100,4,2,1,70,0,0
22143,-100,4,2,1,60,0,0
22452,-100,4,2,99,80,0,0
22607,-100,4,2,1,70,0,0
23071,-100,4,3,1,90,0,0
24308,-100,4,2,99,100,0,0
24617,-100,4,3,1,90,0,0
24772,-100,4,2,99,100,0,0
24927,-100,4,3,1,80,0,0
25081,-100,4,3,0,100,0,0
25236,-100,4,3,0,60,0,0
25545,-100,4,3,1,90,0,0
25854,-100,4,2,99,100,0,0
25932,-100,4,3,1,90,0,0
26473,-100,4,2,99,100,0,0
26551,-100,4,3,1,90,0,0
27130,-100,4,3,1,60,0,0
27246,-100,4,2,99,100,0,0
27324,-100,4,3,1,90,0,0
27401,-100,4,2,99,90,0,0
27633,-100,4,2,99,50,0,0
27710,-100,4,2,99,100,0,0
27787,-100,4,3,1,90,0,0
28329,-100,4,2,99,100,0,0
28406,-100,4,3,1,90,0,0
29102,-100,4,2,99,100,0,0
29256,-100,4,3,1,90,0,0
30030,-100,4,3,0,100,0,0
30262,-100,4,2,0,50,0,0
30339,-100,4,3,1,90,0,0
30803,-100,4,2,99,100,0,0
30880,-100,4,3,1,90,0,0
31421,-100,4,2,99,100,0,0
31498,-100,4,3,1,90,0,0
31731,-100,4,2,99,100,0,0
31885,-100,4,3,1,90,0,0
32040,-100,4,2,2,90,0,0
32272,-100,4,2,0,50,0,0
32349,-100,4,2,99,90,0,0
32581,-100,4,2,0,50,0,0
32659,-100,4,2,99,100,0,0
32736,-100,4,3,1,90,0,0
33277,-100,4,2,99,100,0,0
33432,-100,4,3,1,90,0,0
34205,-100,4,2,99,100,0,0
34514,-100,4,3,1,90,0,0
34669,-100,4,2,99,100,0,0
34823,-100,4,3,1,80,0,0
34978,-100,4,3,0,100,0,0
35133,-100,4,3,0,60,0,0
35442,-100,4,3,1,90,0,0
35751,-100,4,2,99,100,0,0
35829,-100,4,3,1,90,0,0
36370,-100,4,2,99,100,0,0
36448,-100,4,3,1,90,0,0
36602,-100,4,2,99,100,0,0
36680,-100,4,3,1,90,0,0
36988,-100,4,3,1,90,0,0
37027,-100,4,3,1,50,0,0
37143,-100,4,2,99,100,0,0
37221,-100,4,3,1,90,0,0
37298,-100,4,2,99,100,0,0
37530,-100,4,2,99,50,0,0
37607,-100,4,2,99,100,0,0
37762,-100,4,3,1,90,0,0
38226,-100,4,2,99,100,0,0
38303,-100,4,3,1,90,0,0
38999,-100,4,2,99,100,0,0
39153,-100,4,3,1,90,0,0
39772,-100,4,2,99,100,0,0
40004,-100,4,2,0,50,0,0
40081,-100,4,2,1,80,0,0
40700,-100,4,2,1,80,0,0
40738,-100,4,2,1,50,0,0
40932,-100,4,2,1,80,0,0
41164,-100,4,2,99,100,0,0
41628,-100,4,2,99,90,0,0
42091,-100,4,2,1,90,0,0
42246,-100,4,2,99,100,0,0
45957,-100,4,2,1,70,0,0
46035,-100,4,2,1,70,0,0
46267,-100,4,2,1,70,0,0
46499,-100,4,2,1,70,0,0
46679,-100,4,2,0,60,0,0
46730,-100,4,2,1,70,0,0
46963,-100,4,2,1,80,0,0
47195,-100,4,2,99,90,0,0
47272,-100,4,2,1,30,0,0
47504,-100,4,2,1,32,0,0
47813,-100,4,2,1,36,0,0
48122,-100,4,2,1,40,0,0
48432,-100,4,2,1,44,0,0
48741,-100,4,2,1,51,0,0
49050,-100,4,2,1,58,0,0
49360,-100,4,2,1,65,0,0
49514,-100,4,2,0,5,0,0
49669,-100,4,2,99,60,0,0
50133,-100,4,2,99,70,0,0
50597,-100,4,2,99,80,0,0
51834,-100,4,1,1,80,0,0
52143,-100,4,2,99,100,0,0
52684,-100,4,3,1,50,0,0
52762,-100,4,3,2,100,0,0
52839,-100,4,3,1,100,0,0
53226,-100,4,3,2,100,0,0
53303,-100,4,3,1,100,0,0
53767,-100,4,3,1,50,0,0
53844,-100,4,3,1,65,0,0
53921,-100,4,3,1,80,0,0
53999,-100,4,3,1,95,0,0
54076,-100,4,3,1,100,0,0
54695,-100,4,3,1,85,0,0
54772,-100,4,3,1,70,0,0
54927,-100,4,2,1,80,0,0
55081,-100,4,3,1,80,0,0
55236,-100,4,3,1,90,0,0
55854,-100,4,3,1,100,0,0
56164,-100,4,2,99,100,0,0
56318,-100,4,3,1,90,0,0
56473,-100,4,3,1,100,0,0
57091,-100,4,2,99,90,0,0
57401,-100,4,3,1,90,0,0
57439,-100,4,3,1,70,0,0
57633,-100,4,3,1,70,0,0
57710,-100,4,3,2,100,0,0
57787,-100,4,3,1,100,0,0
58174,-100,4,3,2,100,0,0
58251,-100,4,3,1,100,0,0
58793,-100,4,3,1,70,0,0
58870,-100,4,3,1,85,0,0
58947,-100,4,3,1,100,0,0
59720,-100,4,3,2,100,0,0
59798,-100,4,3,1,100,0,0
61267,-100,4,3,1,70,0,0
61344,-100,4,3,1,85,0,0
61421,-100,4,3,1,100,0,0
62040,-100,4,2,99,90,0,0
62581,-100,4,2,0,50,0,0
62659,-100,4,3,2,100,0,0
62736,-100,4,3,1,100,0,0
63123,-100,4,3,2,100,0,0
63200,-100,4,3,1,100,0,0
63664,-100,4,3,1,50,0,0
63741,-100,4,3,1,65,0,0
63818,-100,4,3,1,80,0,0
63896,-100,4,3,1,95,0,0
64591,-100,4,3,1,85,0,0
64668,-100,4,3,1,70,0,0
64823,-100,4,2,1,80,0,0
64977,-100,4,3,1,80,0,0
65132,-100,4,3,1,90,0,0
65442,-100,4,3,1,60,0,0
65597,-100,4,3,1,75,0,0
65751,-100,4,3,1,90,0,0
66061,-100,4,2,99,100,0,0
66215,-100,4,3,1,90,0,0
66370,-100,4,3,1,100,0,0
66679,-100,4,2,99,100,0,0
66756,-100,4,3,1,100,0,0
66988,-100,4,2,99,90,0,0
67298,-100,4,3,1,90,0,0
67336,-100,4,3,1,50,0,0
67530,-100,4,3,1,90,0,0
67607,-100,4,3,2,100,0,0
67684,-100,4,3,1,100,0,0
68071,-100,4,3,2,100,0,0
68148,-100,4,3,1,100,0,0
68690,-100,4,3,1,70,0,0
68767,-100,4,3,1,85,0,0
68844,-100,4,3,1,100,0,0
68999,-100,4,3,1,70,0,0
69076,-100,4,3,1,85,0,0
69153,-100,4,3,1,100,0,0
69540,-100,4,2,1,80,0,0
70700,-100,4,3,1,60,0,0
71009,-100,4,3,1,70,0,0
71318,-100,4,3,1,80,0,0
71628,-100,4,3,1,90,0,0
71937,-100,4,2,99,100,0,0
72091,-100,4,2,1,60,0,0
75184,-100,4,2,1,45,0,0
75494,-100,4,2,1,70,0,0
75726,-100,4,2,1,70,0,0
75957,-100,4,2,1,70,0,0
76344,-100,4,2,1,70,0,0
76421,-100,4,2,99,70,0,0
76473,-100,4,2,1,60,0,0
76730,-100,4,2,99,70,0,0
76769,-100,4,2,99,40,0,0
76885,-100,4,2,99,80,0,0
76963,-100,4,2,1,70,0,0
77195,-100,4,2,99,100,0,0
77349,-100,4,2,1,60,0,0
77504,-100,4,2,1,60,0,0
77523,-100,4,2,1,30,0,0
77813,-100,4,2,1,60,0,0
78122,-100,4,2,1,60,0,0
79360,-100,4,2,99,60,0,0
79437,-100,4,2,1,60,0,0
79669,-100,4,2,99,70,0,0
79823,-100,4,2,1,70,0,0
80751,-100,4,2,98,80,0,0
80906,-100,4,2,1,70,0,0
81215,-100,4,2,1,70,0,0
81524,-100,4,2,99,90,0,0
81563,-100,4,2,1,80,0,0
81834,-100,4,3,1,70,0,0
82066,-100,4,3,1,80,0,0
82530,-100,4,3,0,80,0,0
82994,-100,4,2,1,50,0,0
83071,-90.9090909090909,4,3,2,90,0,0
83148,-100,4,3,1,90,0,0
83303,-100,4,2,1,50,0,0
83380,-100,4,3,1,90,0,0
83689,-100,4,3,1,80,0,0
83844,-100,4,2,0,60,0,0
83999,-100,4,2,99,90,0,0
84308,-83.3333333333333,4,2,2,90,0,0
84386,-100,4,3,1,90,0,0
84849,-100,4,3,1,80,0,0
85081,-100,4,2,0,60,0,0
85236,-100,4,2,99,90,0,0
85545,-100,4,2,2,90,0,0
85854,-100,4,2,1,80,0,0
85893,-100,4,2,1,40,0,0
86009,-100,4,2,1,50,0,0
86086,-100,4,2,1,50,0,0
86164,-100,4,2,1,60,0,0
86318,-100,4,2,1,70,0,0
86473,-100,4,2,1,80,0,0
86782,-100,4,2,2,60,0,0
86860,-100,4,3,1,70,0,0
87400,-100,4,3,1,75,0,0
88019,-100,4,2,2,60,0,0
88096,-100,4,3,1,80,0,0
88638,-100,4,3,1,85,0,0
89256,-100,4,3,1,70,0,0
89333,-100,4,3,1,90,0,0
89875,-100,4,3,1,95,0,0
90493,-100,4,3,1,100,0,0
91731,-100,4,2,99,100,0,0
91808,-100,4,2,1,30,0,0
92040,-100,4,2,1,32,0,0
92349,-100,4,2,1,36,0,0
92658,-100,4,2,1,40,0,0
92968,-100,4,2,1,44,0,0
93277,-100,4,2,1,51,0,0
93586,-100,4,2,1,58,0,0
93896,-100,4,2,1,65,0,0
94050,-100,4,2,0,5,0,0
94205,-100,4,2,99,80,0,0
94282,-100,4,2,1,70,0,0
95442,-100,4,2,1,90,0,0
95906,-100,4,2,1,80,0,0
96061,-100,4,2,1,80,0,0
96370,-100,4,2,99,80,0,0
96679,-100,4,2,2,100,0,1
96756,-100,4,3,1,100,0,1
97684,-100,4,3,1,60,0,1
97916,-100,4,3,1,100,0,1
98612,-100,4,3,1,70,0,1
98689,-100,4,2,99,100,0,1
98767,-100,4,3,1,100,0,1
99153,-100,4,2,99,100,0,1
99231,-100,4,3,1,100,0,1
100197,-100,4,3,1,60,0,1
100390,-100,4,3,1,100,0,1
100854,-100,4,2,99,100,0,1
100932,-100,4,3,1,100,0,1
101628,-100,4,2,99,100,0,1
101705,-100,4,3,1,100,0,1
103019,-100,4,2,99,100,0,1
103096,-100,4,3,1,100,0,1
103561,-100,4,3,1,70,0,1
103638,-100,4,3,1,100,0,1
104102,-100,4,2,99,100,0,1
104179,-100,4,3,1,100,0,1
105339,-100,4,2,99,100,0,1
105416,-100,4,3,1,90,0,1
105803,-100,4,3,1,80,0,1
105957,-100,4,3,1,80,0,0
106267,-100,4,3,1,70,0,0
106576,-100,4,2,2,100,0,1
106653,-100,4,3,1,100,0,1
107040,-100,4,2,99,100,0,1
107117,-100,4,3,1,100,0,1
107620,-100,4,3,1,70,0,1
107813,-100,4,3,1,100,0,1
108509,-100,4,3,1,70,0,1
108586,-100,4,2,99,100,0,1
108664,-100,4,3,1,100,0,1
109050,-100,4,2,99,100,0,1
109128,-100,4,3,1,100,0,1
110094,-100,4,3,1,60,0,1
110287,-100,4,3,1,100,0,1
110751,-100,4,2,99,100,0,1
110829,-100,4,3,1,100,0,1
111370,-100,4,3,1,70,0,1
111525,-100,4,2,99,100,0,1
111602,-100,4,3,1,100,0,1
112762,-100,4,2,99,100,0,1
112839,-100,4,3,1,100,0,1
112994,-100,4,2,99,100,0,1
113071,-100,4,3,1,100,0,1
113226,-100,4,2,99,100,0,1
113303,-100,4,3,1,100,0,1
115700,-100,4,3,1,80,0,1
115854,-100,4,3,1,70,0,1
116009,-100,4,3,1,85,0,1
116164,-100,4,3,1,80,0,0
116318,-100,4,2,99,80,0,0
116396,-100,4,2,1,70,0,0
116782,-100,4,3,1,70,0,0
116937,-100,4,3,1,85,0,0
117091,-100,4,2,99,100,0,0
117169,-100,4,3,1,100,0,0
118329,-100,4,3,1,100,0,0
118947,-100,4,3,1,100,0,0
119102,-100,4,3,0,90,0,0
119566,-100,4,3,1,100,0,0
121267,-100,4,2,99,100,0,0
121421,-100,4,2,99,100,0,0
121653,-100,4,2,0,50,0,0
121731,-100,4,2,99,90,0,0
121808,-100,4,3,1,90,0,0
123432,-100,4,2,1,90,0,0
123586,-100,4,3,1,90,0,0
124050,-100,4,3,1,70,0,0
124128,-100,4,2,99,90,0,0
124282,-100,4,2,0,50,0,0
124360,-100,4,3,1,90,0,0
124823,-100,4,2,99,90,0,0
124901,-100,4,3,1,90,0,0
125133,-100,4,2,2,90,0,0
125210,-100,4,3,1,90,0,0
125906,-100,4,2,99,90,0,0
125984,-100,4,3,1,90,0,0
126061,-100,4,3,1,100,0,0
126215,-100,4,2,0,40,0,0
126370,-100,4,2,1,60,0,0
126679,-100,4,2,99,80,0,0
126718,-100,4,2,1,50,0,0
126834,-100,4,2,1,80,0,0
126872,-100,4,2,1,50,0,0
126988,-100,4,3,1,90,0,0
128226,-100,4,3,1,90,0,0
128689,-100,4,3,1,90,0,0
128844,-100,4,3,1,70,0,0
128999,-100,4,3,0,90,0,0
129463,-100,4,2,1,100,0,0
129772,-100,4,2,99,90,0,0
129850,-100,4,3,1,90,0,0
130390,-100,4,2,99,90,0,0
130468,-100,4,3,1,90,0,0
130700,-100,4,2,99,90,0,0
130778,-100,4,3,1,90,0,0
131048,-100,4,3,1,70,0,0
131241,-100,4,3,1,90,0,0
131318,-100,4,2,99,100,0,0
131550,-100,4,2,0,50,0,0
131628,-100,4,2,99,100,0,0
131783,-100,4,3,1,90,0,0
132247,-100,4,2,99,100,0,0
132324,-100,4,3,1,90,0,0
133020,-100,4,2,99,100,0,0
133174,-100,4,3,1,90,0,0
133793,-100,4,2,99,100,0,0
133947,-100,4,2,0,50,0,0
134102,-100,4,3,1,90,0,0
134256,-100,4,2,99,90,0,0
134411,-100,4,3,1,80,0,0
134720,-100,4,3,1,70,0,0
135030,-100,4,3,1,70,0,0
135339,-100,4,3,1,80,0,0
135494,-100,4,2,99,80,0,0
135648,-100,4,2,99,90,0,0
135957,-100,4,3,1,90,0,0
136267,-100,4,2,99,100,0,0

[Colours]
Combo1 : 205,205,205
Combo2 : 255,83,83
Combo3 : 176,255,176
Combo4 : 107,107,107

[HitObjects]
381,363,2659,6,0,P|419:308|314:206,1,225,2|2,0:0|0:0,0:0:0:0:
254,183,3277,1,4,0:0:0:0:
424,104,3586,1,2,0:0:0:0:
147,51,3896,2,0,L|57:60,2,75,2|0|0,0:0|0:0|0:0,0:0:0:0:
312,117,4514,1,2,0:0:0:0:
386,126,4668,1,2,0:0:0:0:
460,135,4823,1,8,0:0:0:0:
187,256,5133,6,0,L|36:175,2,150,2|0|4,0:0|0:0|0:0,0:0:0:0:
264,274,5906,1,2,0:1:0:0:
190,255,6061,1,2,0:1:0:0:
457,225,6370,2,0,L|475:183,1,37.5,4|2,0:0|0:0,0:0:0:0:
455,169,6524,2,0,L|363:161,1,75,0|2,0:0|0:0,0:0:0:0:
215,121,6834,6,0,L|110:123,1,75,0|0,0:0|0:0,0:0:0:0:
148,202,7065,1,0,0:0:0:0:
173,236,7143,1,2,0:0:0:0:
203,256,7220,1,0,0:0:0:0:
240,258,7298,2,0,L|328:247,1,75,8|2,0:0|0:0,0:0:0:0:
91,340,7607,6,0,L|3:329,1,75,8|2,0:0|0:0,0:0:0:0:
172,362,7916,2,0,L|192:202,1,150,2|2,0:0|0:0,0:0:0:0:
180,191,8303,1,2,0:0:0:0:
168,166,8380,1,2,0:0:0:0:
77,123,8535,5,8,0:0:0:0:
107,118,8612,1,2,0:0:0:0:
144,113,8689,1,2,0:0:0:0:
182,109,8767,1,2,0:0:0:0:
219,105,8844,1,4,0:0:0:0:
382,45,9153,6,0,L|294:38,2,75,2|2|8,0:0|0:0|0:0,0:0:0:0:
418,44,9540,1,0,0:0:0:0:
455,53,9617,1,0,0:0:0:0:
413,102,9695,1,0,0:0:0:0:
370,121,9772,1,2,0:0:0:0:
297,145,9926,1,2,0:0:0:0:
464,206,10081,6,0,L|473:304,1,75,2|2,0:0|0:0,0:0:0:0:
388,316,10390,2,0,L|226:346,1,150,2|4,0:0|0:0,0:0:0:0:
351,269,10932,1,4,0:0:0:0:
476,244,11164,2,0,L|463:152,1,75,0|2,0:0|0:0,0:0:0:0:
307,361,11473,6,0,L|213:345,1,75,8|8,0:0|0:0,0:0:0:0:
318,294,11782,1,2,0:0:0:0:
153,242,11937,2,0,L|53:240,1,75,2|2,0:0|0:0,0:0:0:0:
246,155,12246,2,0,L|348:152,1,75,2|0,0:0|0:0,0:0:0:0:
92,53,12555,6,0,P|34:82|92:139,1,150,6|8,0:0|0:0,0:0:0:0:
222,160,13019,2,0,L|271:166,1,37.5,2|8,0:0|0:0,0:0:0:0:
222,160,13174,2,0,L|137:180,1,75,2|8,0:0|0:0,0:0:0:0:
308,252,13483,2,0,L|319:356,1,75,4|0,0:0|0:0,0:0:0:0:
88,368,13793,6,0,P|139:306|226:293,1,150,6|8,0:0|0:0,0:0:0:0:
50,229,14256,2,0,L|10:225,1,37.5,6|2,0:0|0:0,0:0:0:0:
52,198,14411,2,0,L|143:191,1,75,2|2,0:0|0:0,0:0:0:0:
289,74,14720,2,0,L|192:71,1,75,2|2,0:0|0:0,0:0:0:0:
436,74,15030,6,0,P|477:119|410:190,1,150,6|8,0:0|0:0,0:0:0:0:
283,212,15494,2,0,L|324:250,1,37.5,2|8,0:0|0:0,0:0:0:0:
352,253,15648,2,0,L|432:263,1,75,2|8,0:0|0:0,0:0:0:0:
258,328,15957,1,2,0:0:0:0:
218,333,16034,1,0,0:0:0:0:
179,339,16111,1,2,0:0:0:0:
415,368,16267,6,0,P|471:338|461:244,1,150,6|2,0:0|0:0,0:0:0:0:
290,178,16885,2,0,L|192:174,1,75,4|2,0:0|0:0,0:0:0:0:
266,152,17117,1,2,0:0:0:0:
324,140,17195,2,0,L|419:138,1,75,8|2,0:0|0:0,0:0:0:0:
169,76,17504,6,0,P|103:91|99:178,1,150,2|2,0:0|0:1,0:0:0:0:
172,197,17968,1,0,0:0:0:0:
258,217,18122,2,0,L|264:299,1,75,2|0,0:1|0:0,0:0:0:0:
173,312,18432,2,0,L|84:315,1,75,2|0,0:1|0:0,0:0:0:0:
325,361,18741,6,0,P|384:343|380:253,1,150,6|2,0:0|0:1,0:0:0:0:
308,234,19205,1,0,0:0:0:0:
224,223,19360,2,0,L|205:137,1,75,2|0,0:1|0:0,0:0:0:0:
295,120,19669,2,0,L|396:108,1,75,2|0,0:1|0:0,0:0:0:0:
142,56,19978,6,0,L|29:101,2,112.5,6|0|2,0:0|0:0|0:0,0:0:0:0:
237,88,20597,2,0,L|327:88,1,75,2|2,0:0|0:0,0:0:0:0:
139,201,20906,2,0,L|86:205,2,37.5,8|0|0,0:0|0:0|0:0,0:0:0:0:
386,277,21215,5,6,0:0:0:0:
465,340,22143,2,0,L|365:348,1,75,4|0,0:0|0:0,0:0:0:0:
217,358,22452,2,0,B|257:299|257:299|332:272|332:272|250:256,1,225,8|0,0:0|0:0,0:0:0:0:
29,248,23071,6,0,L|37:152,1,75,8|2,0:0|0:0,0:0:0:0:
120,148,23380,1,2,0:0:0:0:
277,60,23535,2,0,L|182:61,1,75,8|2,0:0|0:0,0:0:0:0:
362,150,23844,2,0,L|451:155,2,75,8|2|2,0:0|0:0|0:0,0:0:0:0:
198,169,24308,2,0,L|232:250,1,75,10|2,0:0|0:0,0:0:0:0:
390,272,24617,2,0,L|357:359,1,75,2|10,0:0|0:0,0:0:0:0:
188,366,24927,5,2,0:0:0:0:
109,366,25081,2,0,B|25:319|25:319|25:235,1,150,8|0,0:0|0:0,0:0:0:0:
251,179,25545,6,0,L|347:174,2,75,8|2|2,0:0|0:0|0:0,0:0:0:0:
92,109,26009,2,0,L|41:105,1,37.5,2|2,0:0|0:0,0:0:0:0:
98,88,26164,2,0,L|194:86,1,75,8|2,0:0|0:0,0:0:0:0:
218,83,26396,1,2,0:0:0:0:
266,84,26473,1,2,0:0:0:0:
108,189,26628,2,0,L|97:270,1,75,2|2,0:0|0:0,0:0:0:0:
251,276,26937,1,8,0:0:0:0:
96,345,27091,1,2,0:0:0:0:
59,347,27168,1,2,0:0:0:0:
22,349,27245,1,2,0:0:0:0:
253,365,27401,6,0,L|407:341,1,150,4|2,0:0|0:0,0:0:0:0:
362,322,27787,1,0,0:0:0:0:
274,288,27865,2,0,L|259:238,1,37.5,2|0,0:0|0:0,0:0:0:0:
348,228,28019,2,0,L|420:215,2,56.25,8|0|0,0:0|0:0|0:0,0:0:0:0:
272,118,28329,2,0,L|367:108,1,75,0|0,0:0|0:0,0:0:0:0:
183,53,28638,5,2,0:0:0:0:
147,59,28715,1,0,0:0:0:0:
128,89,28792,1,8,0:0:0:0:
139,124,28869,1,0,0:0:0:0:
225,155,28947,2,0,L|294:151,2,56.25,2|0|0,0:0|0:0|0:0,0:0:0:0:
54,251,29256,6,0,L|47:342,1,75,8|2,0:0|0:1,0:0:0:0:
152,361,29566,1,2,0:0:0:0:
285,360,29720,1,8,0:0:0:0:
118,225,29875,1,2,0:0:0:0:
36,183,30030,2,0,B|37:129|37:129|147:104,1,150,4|2,0:0|0:0,0:0:0:0:
364,66,30494,6,0,L|455:59,2,75,8|0|2,0:0|0:0|0:0,0:0:0:0:
197,175,30957,2,0,L|134:176,1,37.5,2|2,0:0|0:0,0:0:0:0:
203,196,31112,2,0,L|295:190,1,75,2|8,0:0|0:0,0:0:0:0:
186,285,31421,1,2,0:0:0:0:
357,342,31576,2,0,L|455:342,1,75,2|2,0:0|0:0,0:0:0:0:
391,320,31808,1,2,0:0:0:0:
345,310,31885,1,2,0:0:0:0:
109,162,32040,6,0,L|21:164,1,75,6|0,0:0|0:0,0:0:0:0:
267,73,32349,6,0,L|432:62,1,150,8|2,0:0|0:0,0:0:0:0:
339,137,32813,1,2,0:0:0:0:
171,168,32968,2,0,L|157:263,1,75,8|2,0:0|0:0,0:0:0:0:
243,278,33277,1,2,0:0:0:0:
406,345,33432,6,0,L|297:364,1,75,8|2,0:0|0:0,0:0:0:0:
171,193,33741,2,0,L|248:138,1,75,8|2,0:0|0:0,0:0:0:0:
322,133,34050,1,2,0:0:0:0:
153,59,34205,2,0,L|122:156,1,75,2|2,0:0|0:0,0:0:0:0:
295,217,34514,2,0,L|326:314,1,75,0|10,0:0|0:0,0:0:0:0:
146,344,34823,5,2,0:0:0:0:
60,348,34978,2,0,B|54:266|54:266|144:260,1,150,8|0,0:0|0:0,0:0:0:0:
352,139,35442,6,0,L|438:134,2,75,8|2|2,0:0|0:0|0:0,0:0:0:0:
190,69,35906,2,0,L|141:80,1,37.5,2|2,0:0|0:0,0:0:0:0:
199,95,36061,2,0,L|299:98,1,75,8|2,0:0|0:0,0:0:0:0:
321,117,36293,1,2,0:0:0:0:
273,97,36370,1,2,0:0:0:0:
110,131,36524,2,0,L|103:221,1,75,2|0,0:0|0:0,0:0:0:0:
243,242,36834,1,8,0:0:0:0:
88,304,36988,2,0,L|21:311,2,37.5,2|2|2,0:0|0:0|0:0,0:0:0:0:
328,355,37298,6,0,P|387:340|418:242,1,150,4|2,0:0|0:0,0:0:0:0:
384,249,37684,1,2,0:0:0:0:
299,231,37762,2,0,L|290:172,1,37.5,2|0,0:0|0:0,0:0:0:0:
377,166,37916,2,0,L|383:117,1,37.5,8|0,0:0|0:0,0:0:0:0:
291,97,38071,2,0,L|234:83,1,37.5,2|0,0:0|0:0,0:0:0:0:
297,66,38226,2,0,L|388:56,1,75,2|8,0:0|0:0,0:0:0:0:
211,60,38535,5,2,0:0:0:0:
175,66,38612,1,2,0:0:0:0:
154,96,38689,1,8,0:0:0:0:
163,132,38766,1,0,0:0:0:0:
248,160,38844,2,0,L|319:160,2,56.25,2|0|2,0:0|0:0|0:0,0:0:0:0:
151,260,39153,6,0,L|75:267,1,75,8|2,0:0|0:1,0:0:0:0:
217,349,39463,2,0,L|308:349,1,75,2|8,0:0|0:0,0:0:0:0:
67,363,39772,6,0,L|40:183,1,150,4|2,0:0|0:0,0:0:0:0:
133,162,40236,1,4,0:0:0:0:
224,152,40390,2,0,L|239:76,1,75,8|2,0:0|0:0,0:0:0:0:
79,37,40700,2,0,L|156:34,1,75,8|2,0:0|0:0,0:0:0:0:
320,130,41009,6,0,L|364:134,1,37.5,2|2,0:0|0:0,0:0:0:0:
320,130,41164,2,0,L|148:143,1,150,8|0,0:0|0:0,0:0:0:0:
400,219,41628,2,0,L|417:311,1,75,4|2,0:0|0:0,0:0:0:0:
241,338,41937,2,0,L|155:341,1,75,2|2,0:0|0:0,0:0:0:0:
417,378,42246,5,8,0:0:0:0:
67,241,45957,6,0,L|18:242,1,37.5,4|2,0:0|0:0,0:0:0:0:
77,222,46112,2,0,L|169:214,1,75,0|2,0:0|0:0,0:0:0:0:
321,101,46421,6,0,L|235:102,1,75,0|0,0:0|0:0,0:0:0:0:
208,91,46652,1,0,0:0:0:0:
245,89,46730,1,2,0:0:0:0:
283,87,46807,1,0,0:0:0:0:
321,84,46885,2,0,L|410:79,1,75,8|2,0:0|0:0,0:0:0:0:
148,200,47195,5,8,0:0:0:0:
256,192,47349,12,8,49669,0:0:0:0:
65,198,50133,5,8,0:0:0:0:
438,154,50597,1,8,0:0:0:0:
44,79,50906,5,6,0:0:0:0:
34,217,51834,1,2,0:0:0:0:
71,218,51911,1,2,0:0:0:0:
108,220,51988,1,2,0:0:0:0:
330,69,52143,6,0,P|416:90|374:210,1,225,4|0,0:0|0:0,0:0:0:0:
163,224,52762,5,12,0:0:0:0:
127,232,52839,1,0,0:0:0:0:
111,265,52916,1,8,0:1:0:0:
126,298,52993,1,0,0:0:0:0:
162,307,53071,1,8,0:1:0:0:
337,109,53226,5,12,0:0:0:0:
372,117,53303,1,0,0:0:0:0:
388,150,53380,1,8,0:1:0:0:
373,183,53457,1,0,0:0:0:0:
337,192,53535,1,8,0:1:0:0:
158,154,53689,6,0,L|57:152,1,75,2|2,0:0|0:0,0:0:0:0:
128,180,53921,1,2,0:0:0:0:
176,190,53999,2,0,L|298:186,2,112.5,8|8|8,0:0|0:0|0:0,0:0:0:0:
86,271,54617,2,0,L|196:280,1,75,2|2,0:0|0:0,0:0:0:0:
327,352,54927,2,0,L|228:371,1,75,4|2,0:0|0:0,0:0:0:0:
33,349,55236,6,0,L|21:248,1,75,8|2,0:0|0:0,0:0:0:0:
170,247,55545,2,0,L|185:146,1,75,2|2,0:0|0:0,0:0:0:0:
353,94,55854,1,8,0:0:0:0:
312,92,55931,1,2,0:1:0:0:
273,90,56008,1,2,0:1:0:0:
314,90,56085,1,2,0:1:0:0:
355,90,56163,1,2,0:0:0:0:
195,286,56318,5,2,0:0:0:0:
153,298,56396,1,2,0:0:0:0:
109,299,56473,2,0,L|8:235,2,112.5,8|8|8,0:0|0:0|0:0,0:0:0:0:
338,83,57091,6,0,L|210:190,1,150,8|8,0:0|0:0,0:0:0:0:
184,204,57478,1,2,0:0:0:0:
222,179,57555,1,2,0:0:0:0:
456,194,57710,5,12,0:0:0:0:
476,224,57787,1,0,0:0:0:0:
476,261,57864,1,8,0:1:0:0:
456,292,57941,1,0,0:0:0:0:
423,308,58019,1,8,0:1:0:0:
239,224,58174,5,12,0:0:0:0:
218,254,58251,1,0,0:0:0:0:
218,291,58328,1,8,0:1:0:0:
238,322,58405,1,0,0:0:0:0:
271,338,58483,1,8,0:1:0:0:
446,153,58638,6,0,L|360:145,1,75,2|2,0:0|0:0,0:0:0:0:
331,132,58870,1,2,0:0:0:0:
281,125,58947,1,8,0:0:0:0:
445,54,59102,2,0,L|489:131,2,75,8|8|8,0:0|0:0|0:0,0:0:0:0:
355,37,59566,1,2,0:0:0:0:
127,169,59720,6,0,P|146:215|257:229,1,150,12|8,0:0|0:0,0:0:0:0:
147,289,60184,2,0,L|101:286,2,37.5,2|2|2,0:0|0:0|0:0,0:0:0:0:
314,354,60494,2,0,L|218:367,1,75,8|2,0:0|0:0,0:0:0:0:
63,357,60803,5,2,0:1:0:0:
33,334,60880,1,2,0:1:0:0:
25,299,60957,1,8,0:0:0:0:
41,266,61034,1,2,0:1:0:0:
75,251,61112,6,0,L|172:245,1,75,2|2,0:0|0:0,0:0:0:0:
330,219,61421,2,0,L|307:137,1,75,2|2,0:0|0:1,0:0:0:0:
250,136,61653,1,2,0:0:0:0:
186,131,61731,2,0,L|98:118,1,75,8|2,0:0|0:0,0:0:0:0:
336,45,62040,6,0,P|409:55|421:190,1,225,4|0,0:0|0:0,0:0:0:0:
190,208,62659,5,6,0:0:0:0:
154,216,62736,1,0,0:0:0:0:
140,249,62813,1,8,0:1:0:0:
160,280,62890,1,0,0:0:0:0:
195,283,62968,1,8,0:1:0:0:
374,298,63122,5,6,0:0:0:0:
409,306,63199,1,0,0:0:0:0:
423,339,63276,1,8,0:1:0:0:
403,370,63353,1,0,0:0:0:0:
368,373,63431,1,8,0:1:0:0:
190,368,63586,6,0,L|103:367,1,75,2|2,0:0|0:0,0:0:0:0:
72,345,63818,1,2,0:0:0:0:
115,333,63896,2,0,L|256:327,2,112.5,8|8|8,0:0|0:0|0:0,0:0:0:0:
201,153,64514,6,0,L|290:138,1,75,2|2,0:0|0:0,0:0:0:0:
106,110,64823,2,0,L|89:21,1,75,4|2,0:0|0:0,0:0:0:0:
325,42,65133,6,0,L|410:46,1,75,8|2,0:0|0:0,0:0:0:0:
235,178,65442,2,0,L|150:186,1,75,2|2,0:0|0:0,0:0:0:0:
329,295,65751,1,8,0:0:0:0:
370,293,65829,1,2,0:1:0:0:
409,291,65906,1,2,0:1:0:0:
368,291,65983,1,2,0:1:0:0:
327,291,66061,1,2,0:0:0:0:
155,358,66215,6,0,L|107:347,1,37.5,2|2,0:0|0:0,0:0:0:0:
170,315,66370,2,0,L|294:300,2,112.5,8|8|8,0:0|0:0|0:0,0:0:0:0:
397,358,66988,6,0,B|476:351|476:351|478:259,1,150,8|8,0:0|0:0,0:0:0:0:
438,266,67375,1,0,0:0:0:0:
398,266,67452,1,0,0:0:0:0:
166,191,67607,5,6,0:0:0:0:
128,191,67684,1,0,0:0:0:0:
91,191,67761,1,8,0:1:0:0:
87,157,67838,1,0,0:0:0:0:
86,120,67916,1,8,0:1:0:0:
265,115,68071,5,6,0:0:0:0:
302,115,68148,1,0,0:0:0:0:
339,115,68225,1,8,0:1:0:0:
343,81,68302,1,0,0:0:0:0:
344,44,68380,1,8,0:1:0:0:
179,38,68535,6,0,L|73:53,1,75,2|8,0:0|0:0,0:0:0:0:
143,80,68767,1,8,0:0:0:0:
184,87,68844,1,8,0:0:0:0:
27,186,68999,2,0,L|16:235,1,37.5,8|8,0:0|0:0,0:0:0:0:
45,251,69153,2,0,L|132:268,1,75,8|8,0:0|0:0,0:0:0:0:
363,209,69463,6,0,P|390:248|315:311,1,150,2|4,0:0|0:0,0:0:0:0:
249,315,69927,1,0,0:0:0:0:
339,349,70081,2,0,L|426:340,1,75,2|2,0:1|0:1,0:0:0:0:
249,225,70390,2,0,L|237:133,1,75,2|8,0:0|0:0,0:0:0:0:
412,53,70700,5,2,0:0:0:0:
445,68,70777,1,2,0:0:0:0:
458,102,70854,1,2,0:0:0:0:
444,136,70931,1,2,0:0:0:0:
411,151,71009,2,0,L|319:157,1,75,10|2,0:0|0:0,0:0:0:0:
152,144,71318,5,10,0:0:0:0:
190,159,71395,1,10,0:0:0:0:
230,171,71472,1,2,0:0:0:0:
272,184,71549,1,0,0:0:0:0:
315,199,71627,2,0,L|325:281,1,75,10|10,0:0|0:0,0:0:0:0:
56,331,71937,5,12,0:0:0:0:
418,205,75648,6,0,L|464:196,1,37.5,4|2,0:0|0:0,0:0:0:0:
411,149,75802,2,0,L|319:141,1,75,0|2,0:0|0:0,0:0:0:0:
159,42,76112,6,0,L|133:141,1,75,0|0,0:0|0:0,0:0:0:0:
285,172,76421,2,0,L|300:252,1,75,2|10,0:0|0:0,0:0:0:0:
257,273,76653,1,2,0:0:0:0:
215,288,76731,1,2,0:0:0:0:
447,384,76885,6,0,L|450:284,1,75,8|2,0:0|0:0,0:0:0:0:
279,329,77195,2,0,P|218:316|234:229,1,150,2|2,0:0|0:0,0:0:0:0:
312,193,77658,1,2,0:0:0:0:
349,186,77735,1,2,0:0:0:0:
385,179,77813,5,8,0:0:0:0:
296,120,77967,1,2,0:0:0:0:
258,118,78045,1,2,0:0:0:0:
221,115,78122,1,4,0:0:0:0:
37,40,78432,6,0,L|139:38,2,75,2|2|8,0:0|0:0|0:0,0:0:0:0:
37,77,78818,1,0,0:0:0:0:
38,114,78895,1,4,0:0:0:0:
66,126,78972,1,0,0:0:0:0:
103,128,79050,1,2,0:0:0:0:
39,145,79204,1,2,0:0:0:0:
272,284,79359,6,0,L|371:296,1,75,8|2,0:0|0:0,0:0:0:0:
175,354,79669,2,0,L|165:197,1,150,2|4,0:0|0:0,0:0:0:0:
290,182,80210,1,4,0:0:0:0:
165,204,80442,2,0,L|66:206,1,75,0|2,0:0|0:0,0:0:0:0:
253,98,80751,6,0,L|341:85,2,75,8|2|2,0:0|0:0|0:0,0:0:0:0:
419,165,81215,2,0,L|430:260,1,75,2|2,0:0|0:0,0:0:0:0:
258,283,81524,2,0,L|156:280,1,75,2|2,0:0|0:0,0:0:0:0:
420,358,81834,6,0,P|472:345|460:239,1,150,6|8,0:0|0:0,0:0:0:0:
319,171,82298,2,0,L|266:170,1,37.5,2|8,0:0|0:0,0:0:0:0:
327,156,82452,2,0,L|404:147,1,75,2|8,0:0|0:0,0:0:0:0:
240,82,82762,2,0,L|148:79,1,75,4|0,0:0|0:0,0:0:0:0:
390,60,83071,6,0,B|446:102|446:102|336:158,1,165.000005035401,6|8,0:0|0:0,0:0:0:0:
200,202,83535,2,0,L|178:241,1,37.5,2|2,0:0|0:0,0:0:0:0:
216,257,83689,2,0,L|305:263,1,75,2|2,0:0|0:0,0:0:0:0:
457,352,83999,2,0,L|361:358,1,75,2|2,0:0|0:0,0:0:0:0:
157,378,84308,6,0,B|88:348|88:348|210:284,1,179.999994506836,6|8,0:0|0:0,0:0:0:0:
25,260,84772,2,0,L|60:220,1,37.5,2|2,0:0|0:0,0:0:0:0:
89,214,84927,2,0,L|169:208,1,75,2|8,0:0|0:0,0:0:0:0:
338,110,85236,2,0,L|390:100,2,37.5,2|0|2,0:0|0:0|0:0,0:0:0:0:
102,59,85545,6,0,P|42:76|52:171,1,150,6|2,0:0|0:0,0:0:0:0:
209,186,86164,2,0,L|227:270,1,75,4|2,0:0|0:0,0:0:0:0:
168,282,86396,1,2,0:0:0:0:
103,282,86473,2,0,L|81:365,1,75,8|2,0:0|0:0,0:0:0:0:
323,354,86782,6,0,P|384:338|382:237,1,150,6|2,0:0|0:1,0:0:0:0:
317,233,87246,1,0,0:0:0:0:
228,244,87401,2,0,L|210:142,1,75,2|0,0:1|0:0,0:0:0:0:
306,138,87710,2,0,L|388:133,1,75,2|0,0:1|0:0,0:0:0:0:
156,57,88019,6,0,P|108:68|94:160,1,150,6|2,0:0|0:1,0:0:0:0:
173,184,88483,1,0,0:0:0:0:
261,211,88638,2,0,L|179:224,1,75,2|0,0:1|0:0,0:0:0:0:
95,275,88947,2,0,L|178:286,1,75,2|0,0:1|0:0,0:0:0:0:
405,342,89256,5,6,0:0:0:0:
438,326,89333,1,0,0:0:0:0:
451,292,89410,1,0,0:0:0:0:
435,259,89487,1,0,0:0:0:0:
401,246,89565,1,2,0:1:0:0:
240,237,89720,2,0,L|231:161,1,75,2|8,0:0|0:0,0:0:0:0:
401,147,90030,5,2,0:0:0:0:
418,114,90107,1,2,0:0:0:0:
413,78,90184,1,10,0:0:0:0:
387,52,90261,1,2,0:0:0:0:
350,48,90339,1,2,0:0:0:0:
119,104,90494,6,0,L|33:117,1,75,8|2,0:0|0:0,0:0:0:0:
85,140,90726,1,8,0:0:0:0:
128,155,90803,1,2,0:0:0:0:
301,178,90957,6,0,L|310:278,1,75,8|2,0:0|0:0,0:0:0:0:
268,273,91189,1,8,0:0:0:0:
225,281,91267,1,2,0:0:0:0:
50,362,91421,1,8,0:0:0:0:
90,343,91499,1,8,0:0:0:0:
135,336,91576,1,8,0:0:0:0:
387,325,91731,5,6,0:0:0:0:
256,192,91885,12,0,93896,0:0:0:0:
265,123,94205,6,0,L|406:114,1,112.5,4|2,0:0|0:0,0:0:0:0:
247,212,94669,2,0,L|128:240,1,112.5,2|2,0:0|0:1,0:0:0:0:
158,268,94978,1,2,0:1:0:0:
191,286,95055,1,2,0:1:0:0:
228,287,95133,2,0,L|308:264,1,75,4|0,0:0|0:0,0:0:0:0:
130,357,95442,6,0,L|20:285,2,112.5,2|2|2,0:1|0:1|0:1,0:0:0:0:
298,339,96061,2,0,L|313:229,1,75,4|2,0:0|0:1,0:0:0:0:
138,222,96370,2,0,L|233:213,1,75,2|0,0:0|0:0,0:0:0:0:
452,174,96679,6,0,L|461:89,1,75,6|0,0:0|0:0,0:0:0:0:
421,83,96911,1,0,0:0:0:0:
380,78,96988,1,8,0:0:0:0:
213,155,97143,2,0,L|204:70,1,75,0|2,0:0|0:0,0:0:0:0:
244,64,97375,1,0,0:0:0:0:
285,59,97452,1,0,0:0:0:0:
123,255,97607,6,0,L|41:274,1,75,8|2,0:0|0:0,0:0:0:0:
91,299,97839,1,2,0:0:0:0:
134,312,97916,1,2,0:0:0:0:
361,336,98071,2,0,L|370:246,1,75,2|8,0:1|0:0,0:0:0:0:
276,235,98380,1,2,0:1:0:0:
441,113,98535,5,2,0:0:0:0:
474,127,98612,1,2,0:1:0:0:
486,162,98689,1,2,0:0:0:0:
470,194,98766,1,0,0:0:0:0:
435,205,98844,2,0,L|348:198,1,75,10|2,0:0|0:0,0:0:0:0:
127,174,99153,6,0,L|114:89,1,75,4|0,0:0|0:0,0:0:0:0:
157,81,99385,1,0,0:0:0:0:
199,74,99463,1,8,0:0:0:0:
369,184,99617,2,0,L|382:99,1,75,2|2,0:1|0:0,0:0:0:0:
339,91,99849,1,2,0:0:0:0:
297,84,99927,1,2,0:0:0:0:
128,153,100081,6,0,L|214:169,1,75,8|2,0:0|0:0,0:0:0:0:
241,176,100312,1,2,0:0:0:0:
281,183,100390,1,2,0:0:0:0:
49,311,100545,6,0,L|32:220,1,75,2|8,0:1|0:0,0:0:0:0:
199,191,100854,2,0,L|284:198,2,75,2|2|2,0:0|0:0|0:0,0:0:0:0:
30,90,101318,2,0,L|122:73,1,75,8|2,0:0|0:0,0:0:0:0:
346,83,101628,6,0,L|449:89,1,75,6|0,0:0|0:0,0:0:0:0:
461,99,101860,1,0,0:0:0:0:
420,87,101937,1,8,0:0:0:0:
255,139,102091,2,0,L|269:223,1,75,2|2,0:1|0:0,0:0:0:0:
308,223,102323,1,0,0:0:0:0:
349,227,102401,1,0,0:0:0:0:
182,302,102555,6,0,L|92:306,1,75,8|2,0:0|0:0,0:0:0:0:
66,279,102787,1,2,0:0:0:0:
107,305,102865,1,2,0:0:0:0:
331,348,103019,6,0,L|428:342,1,75,2|10,0:0|0:0,0:0:0:0:
242,306,103329,2,0,L|225:216,1,75,2|2,0:0|0:0,0:0:0:0:
278,215,103561,1,2,0:0:0:0:
330,215,103638,1,2,0:0:0:0:
493,86,103793,2,0,L|406:73,1,75,8|2,0:0|0:0,0:0:0:0:
195,54,104102,5,4,0:0:0:0:
274,120,104256,2,0,L|323:124,2,37.5,2|2|8,0:0|0:0|0:0,0:0:0:0:
102,166,104566,2,0,L|82:267,1,75,2|2,0:0|0:0,0:0:0:0:
259,266,104875,2,0,L|368:271,2,75,2|10|2,0:0|0:0|0:0,0:0:0:0:
25,336,105339,6,0,L|28:195,1,112.5,4|2,0:0|0:0,0:0:0:0:
254,212,105803,2,0,L|263:123,1,75,2|2,0:0|0:0,0:0:0:0:
221,125,106035,1,2,0:0:0:0:
177,116,106112,1,2,0:0:0:0:
347,56,106267,1,10,0:0:0:0:
387,52,106344,1,2,0:0:0:0:
427,49,106421,1,2,0:0:0:0:
192,251,106576,6,0,L|92:262,1,75,6|2,0:0|0:0,0:0:0:0:
157,295,106808,1,2,0:0:0:0:
199,301,106885,1,8,0:0:0:0:
39,344,107040,2,0,L|30:244,1,75,2|2,0:0|0:0,0:0:0:0:
74,251,107272,1,2,0:0:0:0:
116,244,107349,1,2,0:0:0:0:
340,137,107504,6,0,L|240:133,1,75,8|2,0:0|0:0,0:0:0:0:
223,104,107736,1,2,0:0:0:0:
265,134,107813,1,2,0:0:0:0:
430,178,107968,2,0,L|438:277,1,75,0|10,0:0|0:0,0:0:0:0:
270,321,108277,2,0,L|375:338,1,75,2|2,0:0|0:0,0:0:0:0:
384,337,108509,1,2,0:0:0:0:
424,333,108586,1,2,0:0:0:0:
253,228,108741,2,0,L|151:237,1,75,8|2,0:0|0:0,0:0:0:0:
414,151,109050,6,0,L|437:43,1,75,4|0,0:0|0:0,0:0:0:0:
390,62,109282,1,0,0:0:0:0:
348,57,109360,1,8,0:0:0:0:
184,161,109514,2,0,L|161:53,1,75,0|2,0:0|0:0,0:0:0:0:
208,72,109746,1,2,0:0:0:0:
250,67,109824,1,2,0:0:0:0:
85,51,109978,5,8,0:0:0:0:
51,65,110055,1,2,0:0:0:0:
38,99,110132,1,2,0:0:0:0:
53,132,110209,1,2,0:0:0:0:
88,144,110287,1,8,0:0:0:0:
326,228,110442,6,0,L|425:231,1,75,0|8,0:0|0:0,0:0:0:0:
234,320,110751,2,0,L|142:318,2,75,2|2|2,0:0|0:0|0:0,0:0:0:0:
406,137,111215,2,0,L|331:139,1,75,8|2,0:0|0:0,0:0:0:0:
100,211,111524,6,0,P|47:196|29:134,1,112.5,6|2,0:0|0:0,0:0:0:0:
178,102,111911,1,2,0:0:0:0:
213,109,111988,1,0,0:0:0:0:
232,140,112065,1,0,0:0:0:0:
223,175,112142,1,2,0:0:0:0:
61,260,112298,1,0,0:0:0:0:
17,291,112375,1,2,0:0:0:0:
56,306,112452,2,0,L|145:310,1,75,8|2,0:0|0:0,0:0:0:0:
312,347,112762,5,2,0:0:0:0:
344,330,112839,1,2,0:0:0:0:
355,296,112916,1,2,0:0:0:0:
337,264,112993,1,2,0:0:0:0:
302,255,113071,2,0,L|213:247,1,75,2|2,0:0|0:0,0:0:0:0:
451,156,113380,6,0,L|330:101,2,112.5,8|8|8,0:0|0:0|0:0,0:0:0:0:
204,191,113999,6,0,L|107:212,1,75,10|2,0:0|0:0,0:0:0:0:
292,285,114308,2,0,L|403:287,1,75,8|2,0:0|0:0,0:0:0:0:
199,357,114617,2,0,L|194:272,1,75,8|2,0:0|0:0,0:0:0:0:
28,265,114927,6,0,L|38:174,1,75,8|2,0:0|0:0,0:0:0:0:
75,171,115159,1,2,0:0:0:0:
115,168,115236,1,2,0:0:0:0:
291,111,115390,2,0,L|387:103,2,75,8|2|2,0:0|0:0|0:0,0:0:0:0:
108,54,115854,2,0,L|65:49,2,37.5,2|2|2,0:0|0:0|0:0,0:0:0:0:
347,55,116164,6,0,P|412:67|441:186,1,200,8|2,0:0|0:0,0:0:0:0:
394,218,116679,1,2,0:0:0:0:
342,230,116782,2,0,L|430:241,1,75,2|2,0:0|0:0,0:0:0:0:
181,314,117091,6,0,L|77:326,2,75,6|2|2,0:0|0:0|0:0,0:0:0:0:
350,286,117555,2,0,L|366:190,1,75,8|2,0:0|0:0,0:0:0:0:
195,206,117865,2,0,L|179:127,1,75,8|2,0:0|0:0,0:0:0:0:
272,99,118174,1,2,0:0:0:0:
108,46,118329,2,0,L|25:37,1,75,8|2,0:0|0:0,0:0:0:0:
182,155,118638,2,0,L|100:161,1,75,2|8,0:0|0:0,0:0:0:0:
267,311,118947,5,2,0:0:0:0:
352,334,119102,2,0,B|362:251|362:251|286:229,1,150,8|0,0:0|0:0,0:0:0:0:
67,232,119566,6,0,L|46:139,1,75,8|2,0:0|0:0,0:0:0:0:
135,126,119875,1,2,0:0:0:0:
294,84,120030,2,0,L|331:86,1,37.5,10|2,0:0|0:0,0:0:0:0:
288,72,120185,2,0,L|213:73,1,75,2|2,0:0|0:0,0:0:0:0:
254,104,120417,1,8,0:0:0:0:
296,118,120494,1,2,0:0:0:0:
460,180,120649,6,0,L|471:261,1,75,8|2,0:0|0:0,0:0:0:0:
327,285,120958,1,8,0:0:0:0:
475,357,121112,1,2,0:0:0:0:
438,359,121189,1,2,0:0:0:0:
401,361,121266,1,2,0:0:0:0:
157,372,121421,6,0,P|108:360|113:264,1,150,4|6,0:0|0:0,0:0:0:0:
140,257,121808,1,0,0:0:0:0:
222,235,121885,2,0,L|226:189,1,37.5,2|0,0:0|0:0,0:0:0:0:
146,178,122040,2,0,L|86:158,2,56.25,8|0|0,0:0|0:0|0:0,0:0:0:0:
215,111,122349,2,0,L|126:112,1,75,2|8,0:0|0:0,0:0:0:0:
304,51,122659,5,2,0:0:0:0:
340,54,122736,1,0,0:0:0:0:
362,83,122813,1,8,0:0:0:0:
357,119,122890,1,0,0:0:0:0:
275,143,122968,2,0,L|213:130,2,56.25,2|0|0,0:0|0:0|0:0,0:0:0:0:
366,186,123277,6,0,L|454:192,1,75,8|2,0:0|0:1,0:0:0:0:
360,266,123586,1,2,0:0:0:0:
209,311,123741,1,10,0:0:0:0:
375,364,123896,1,2,0:0:0:0:
457,352,124050,2,0,B|455:253|455:253|384:248,1,150,2|2,0:0|0:0,0:0:0:0:
167,92,124514,6,0,L|76:85,2,75,8|2|2,0:0|0:0|0:0,0:0:0:0:
331,214,124977,2,0,L|268:215,1,37.5,8|0,0:0|0:0,0:0:0:0:
248,209,125132,2,0,L|146:223,1,75,6|2,0:0|0:0,0:0:0:0:
264,301,125441,1,2,0:0:0:0:
98,354,125596,2,0,L|0:354,1,75,8|2,0:0|0:0,0:0:0:0:
64,332,125828,1,2,0:0:0:0:
110,322,125905,1,2,0:0:0:0:
349,215,126061,6,0,L|445:209,2,75,8|0|0,0:0|0:0|0:0,0:0:0:0:
297,175,126473,1,2,0:0:0:0:
353,156,126576,1,2,0:0:0:0:
410,154,126679,2,0,L|495:145,1,75,2|2,0:0|0:0,0:0:0:0:
254,81,126988,6,0,L|158:75,1,75,8|2,0:0|0:0,0:0:0:0:
265,166,127297,1,2,0:0:0:0:
97,261,127452,2,0,L|84:175,1,75,8|2,0:0|0:0,0:0:0:0:
253,225,127762,2,0,L|270:142,1,75,8|2,0:0|0:0,0:0:0:0:
181,124,128070,1,2,0:0:0:0:
351,84,128226,2,0,L|442:71,1,75,8|2,0:0|0:0,0:0:0:0:
281,189,128535,2,0,L|371:193,1,75,2|8,0:0|0:0,0:0:0:0:
198,310,128843,5,2,0:0:0:0:
112,314,128998,2,0,B|106:232|106:232|196:226,1,150,8|0,0:0|0:0,0:0:0:0:
410,205,129462,6,0,L|496:200,2,75,8|2|2,0:0|0:0|0:0,0:0:0:0:
242,73,129926,2,0,L|193:84,1,37.5,2|2,0:0|0:0,0:0:0:0:
251,99,130081,2,0,L|351:102,1,75,8|2,0:0|0:0,0:0:0:0:
367,121,130313,1,8,0:0:0:0:
325,101,130390,1,2,0:0:0:0:
158,169,130545,6,0,L|56:183,1,75,8|2,0:0|0:0,0:0:0:0:
179,244,130854,1,8,0:0:0:0:
31,306,131009,1,2,0:0:0:0:
66,318,131086,1,2,0:0:0:0:
103,324,131163,1,2,0:0:0:0:
340,361,131318,6,0,P|399:346|430:248,1,150,4|2,0:0|0:0,0:0:0:0:
397,262,131704,1,0,0:0:0:0:
314,246,131782,2,0,L|305:187,1,37.5,2|0,0:0|0:0,0:0:0:0:
393,183,131936,2,0,L|399:134,1,37.5,8|0,0:0|0:0,0:0:0:0:
309,108,132091,2,0,L|252:94,1,37.5,2|0,0:0|0:0,0:0:0:0:
315,77,132246,2,0,L|406:67,1,75,2|8,0:0|0:0,0:0:0:0:
226,53,132555,5,2,0:0:0:0:
190,59,132632,1,0,0:0:0:0:
169,89,132709,1,8,0:0:0:0:
178,125,132786,1,0,0:0:0:0:
263,153,132864,2,0,L|266:201,1,37.5,2|0,0:0|0:0,0:0:0:0:
181,215,133019,2,0,L|117:226,1,37.5,2|0,0:0|0:0,0:0:0:0:
232,284,133174,6,0,L|308:291,1,75,2|2,0:0|0:1,0:0:0:0:
135,352,133483,2,0,L|44:352,1,75,2|8,0:0|0:0,0:0:0:0:
310,101,133793,6,0,P|370:98|466:145,1,150,4|2,0:0|0:0,0:0:0:0:
366,184,134256,1,2,0:0:0:0:
274,206,134411,2,0,L|265:283,1,75,2|2,0:0|0:0,0:0:0:0:
433,340,134720,2,0,L|341:357,1,75,2|2,0:0|0:0,0:0:0:0:
187,320,135030,6,0,L|160:275,2,37.5,2|2|2,0:0|0:0|0:0,0:0:0:0:
357,179,135339,2,0,L|270:174,1,75,2|2,0:0|0:0,0:0:0:0:
40,175,135648,2,0,L|27:69,1,75,4|2,0:0|0:0,0:0:0:0:
255,53,135957,2,0,L|348:38,1,75,2|2,0:0|0:0,0:0:0:0:
77,26,136267,5,6,0:0:0:0:
