osu file format v14

[General]
AudioFilename: audio.mp3
AudioLeadIn: 0
PreviewTime: 50829
Countdown: 0
SampleSet: Soft
StackLeniency: 0.7
Mode: 2
LetterboxInBreaks: 0
WidescreenStoryboard: 0

[Editor]
Bookmarks: 22452,42246,52143,62040,71937,85545,96679,106576,117091,126988,136267
DistanceSpacing: 0.9
BeatDivisor: 8
GridSize: 32
TimelineZoom: 2.699999

[Metadata]
Title:Fluctuation
TitleUnicode:Fluctuation
Artist:Zekk
ArtistUnicode:Zekk
Creator:Jemzuu
Version:Deviation
Source:osu!
Tags:ajamez jbhyperion jbh hyperion neonlights featured artist fa mappers guild electronic instrumental tech Dubstep Melodic Artcore Neurofunk experimental glitch
BeatmapID:2397357
BeatmapSetID:1148215

[Difficulty]
HPDrainRate:6
CircleSize:4.2
OverallDifficulty:9.7
ApproachRate:9.7
SliderMultiplier:2.1
SliderTickRate:1

[Events]
//Background and Video events
0,0,"fluctuation.jpg",0,0
//Break Periods
2,42446,45448
//Storyboard Layer 0 (Background)
//Storyboard Layer 1 (Fail)
//Storyboard Layer 2 (Pass)
//Storyboard Layer 3 (Foreground)
//Storyboard Layer 4 (Overlay)
//Storyboard Sound Samples

[TimingPoints]
2659,309.278350515464,4,2,1,60,1,0
2659,-133.333333333333,4,2,1,60,0,0
5133,-133.333333333333,4,2,1,65,0,0
5906,-117.647058823529,4,2,1,45,0,0
6215,-133.333333333333,4,2,1,70,0,0
6370,-133.333333333333,4,2,1,70,0,0
6447,-90.9090909090909,4,2,1,70,0,0
7143,-90.9090909090909,4,2,1,70,0,0
7607,-100,4,2,99,70,0,0
7684,-100,4,2,1,60,0,0
7916,-45.4545454545455,4,2,99,70,0,0
8226,-83.3333333333333,4,2,1,60,0,0
8245,-83.3333333333333,4,2,1,30,0,0
8535,-76.9230769230769,4,2,1,60,0,0
8844,-100,4,2,1,60,0,0
10390,-45.4545454545455,4,2,99,70,0,0
10700,-100,4,2,1,60,0,0
11473,-90.9090909090909,4,2,1,80,0,0
11782,-90.9090909090909,4,2,1,60,0,0
11937,-100,4,2,1,60,0,0
12091,-100,4,2,1,50,0,0
12246,-57.1428571428571,4,2,99,80,0,0
12555,-100,4,2,2,80,0,0
12633,-100,4,3,1,70,0,0
12865,-100,4,3,1,80,0,0
13329,-100,4,3,0,80,0,0
13483,-86.9565217391304,4,3,0,80,0,0
13793,-83.3333333333333,4,2,2,90,0,0
13870,-83.3333333333333,4,3,1,90,0,0
14102,-100,4,3,1,90,0,0
14720,-100,4,2,99,90,0,0
15030,-86.9565217391304,4,2,2,90,0,0
15107,-86.9565217391304,4,3,1,90,0,0
15339,-100,4,3,1,90,0,0
15610,-100,4,3,1,50,0,0
15803,-100,4,3,1,90,0,0
16267,-100,4,2,2,80,0,0
16344,-100,4,3,1,80,0,0
16576,-83.3333333333333,4,2,1,70,0,0
16615,-83.3333333333333,4,2,1,40,0,0
16885,-100,4,2,1,70,0,0
17040,-100,4,2,1,80,0,0
17504,-86.9565217391304,4,3,1,70,0,0
18122,-86.9565217391304,4,3,1,75,0,0
18741,-100,4,2,2,60,0,0
18818,-100,4,3,1,80,0,0
18973,-86.9565217391304,4,3,1,80,0,0
19360,-86.9565217391304,4,3,1,85,0,0
19978,-86.9565217391304,4,3,1,70,0,0
20055,-86.9565217391304,4,3,1,90,0,0
20597,-86.9565217391304,4,3,1,95,0,0
21215,-100,4,3,1,100,0,0
21370,-100,4,2,1,50,0,0
21834,-100,4,2,1,70,0,0
22143,-36.3636363636364,4,2,1,60,0,0
22452,-36.3636363636364,4,2,99,80,0,0
22607,-31.25,4,2,1,70,0,0
23071,-100,4,3,1,90,0,0
24308,-100,4,2,99,100,0,0
24617,-100,4,3,1,90,0,0
24772,-100,4,2,99,100,0,0
24927,-100,4,3,1,80,0,0
25081,-31.25,4,3,0,100,0,0
25236,-31.25,4,3,0,60,0,0
25545,-100,4,3,1,90,0,0
25854,-100,4,2,99,100,0,0
25932,-100,4,3,1,90,0,0
26473,-100,4,2,99,100,0,0
26551,-100,4,3,1,90,0,0
27130,-100,4,3,1,60,0,0
27246,-100,4,2,99,100,0,0
27324,-100,4,3,1,90,0,0
27401,-1000,4,2,99,90,0,0
27633,-1000,4,2,99,50,0,0
27710,-100,4,2,99,100,0,0
27787,-100,4,3,1,90,0,0
28329,-100,4,2,99,100,0,0
28406,-100,4,3,1,90,0,0
29102,-100,4,2,99,100,0,0
29256,-100,4,3,1,90,0,0
30030,-83.3333333333333,4,3,0,100,0,0
30262,-100,4,2,0,50,0,0
30339,-100,4,3,1,90,0,0
30803,-100,4,2,99,100,0,0
30880,-100,4,3,1,90,0,0
31421,-100,4,2,99,100,0,0
31498,-100,4,3,1,90,0,0
31731,-100,4,2,99,100,0,0
31885,-100,4,3,1,90,0,0
32040,-71.4285714285714,4,2,2,90,0,0
32272,-71.4285714285714,4,2,0,50,0,0
32349,-1000,4,2,99,90,0,0
32581,-71.4285714285714,4,2,0,50,0,0
32659,-100,4,2,99,100,0,0
32736,-100,4,3,1,90,0,0
33277,-100,4,2,99,100,0,0
33432,-100,4,3,1,90,0,0
34205,-100,4,2,99,100,0,0
34514,-100,4,3,1,90,0,0
34669,-100,4,2,99,100,0,0
34823,-100,4,3,1,80,0,0
34978,-31.25,4,3,0,100,0,0
35133,-31.25,4,3,0,60,0,0
35442,-100,4,3,1,90,0,0
35751,-100,4,2,99,100,0,0
35829,-100,4,3,1,90,0,0
36370,-100,4,2,99,100,0,0
36448,-100,4,3,1,90,0,0
36602,-100,4,2,99,100,0,0
36680,-100,4,3,1,90,0,0
36988,-83.3333333333333,4,3,1,90,0,0
37027,-83.3333333333333,4,3,1,50,0,0
37143,-100,4,2,99,100,0,0
37221,-100,4,3,1,90,0,0
37298,-1000,4,2,99,100,0,0
37530,-1000,4,2,99,50,0,0
37607,-100,4,2,99,100,0,0
37762,-100,4,3,1,90,0,0
38226,-100,4,2,99,100,0,0
38303,-100,4,3,1,90,0,0
38999,-100,4,2,99,100,0,0
39153,-100,4,3,1,90,0,0
39772,-74.0740740740741,4,2,99,100,0,0
40004,-74.0740740740741,4,2,0,50,0,0
40081,-100,4,2,1,80,0,0
40700,-83.3333333333333,4,2,1,80,0,0
40738,-83.3333333333333,4,2,1,50,0,0
40932,-100,4,2,1,80,0,0
41164,-30.3030303030303,4,2,99,100,0,0
41628,-83.3333333333333,4,2,99,90,0,0
42091,-83.3333333333333,4,2,1,90,0,0
42246,-83.3333333333333,4,2,99,100,0,0
45957,-133.333333333333,4,2,1,70,0,0
46034,-90.9090909090909,4,2,1,70,0,0
46679,-100,4,2,0,60,0,0
46730,-90.9090909090909,4,2,1,70,0,0
46963,-90.9090909090909,4,2,1,80,0,0
47195,-90.9090909090909,4,2,99,90,0,0
47272,-90.9090909090909,4,2,1,30,0,0
47504,-90.9090909090909,4,2,1,32,0,0
47813,-90.9090909090909,4,2,1,36,0,0
48122,-90.9090909090909,4,2,1,40,0,0
48432,-90.9090909090909,4,2,1,44,0,0
48741,-90.9090909090909,4,2,1,51,0,0
49050,-90.9090909090909,4,2,1,58,0,0
49360,-90.9090909090909,4,2,1,65,0,0
49514,-90.9090909090909,4,2,0,5,0,0
49669,-90.9090909090909,4,2,99,60,0,0
50133,-90.9090909090909,4,2,99,70,0,0
50597,-90.9090909090909,4,2,99,80,0,0
50906,-90.9090909090909,4,2,99,80,0,0
51834,-90.9090909090909,4,1,1,80,0,0
52143,-45.4545454545455,4,2,99,100,0,0
52684,-45.4545454545455,4,3,1,50,0,0
52762,-100,4,3,2,100,0,0
52839,-100,4,3,1,100,0,0
53226,-100,4,3,2,100,0,0
53303,-100,4,3,1,100,0,0
53767,-100,4,3,1,50,0,0
53844,-100,4,3,1,65,0,0
53921,-100,4,3,1,80,0,0
53999,-100,4,3,1,95,0,0
54076,-100,4,3,1,100,0,0
54695,-100,4,3,1,85,0,0
54772,-100,4,3,1,70,0,0
54927,-100,4,2,1,80,0,0
55081,-100,4,3,1,80,0,0
55236,-100,4,3,1,90,0,0
55854,-100,4,3,1,100,0,0
56164,-100,4,2,99,100,0,0
56318,-100,4,3,1,90,0,0
56473,-100,4,3,1,100,0,0
57091,-66.6666666666667,4,2,99,90,0,0
57401,-83.3333333333333,4,3,1,90,0,0
57439,-83.3333333333333,4,3,1,70,0,0
57633,-100,4,3,1,70,0,0
57710,-100,4,3,2,100,0,0
57787,-100,4,3,1,100,0,0
58174,-100,4,3,2,100,0,0
58251,-100,4,3,1,100,0,0
58793,-100,4,3,1,70,0,0
58870,-100,4,3,1,85,0,0
58947,-100,4,3,1,100,0,0
59720,-100,4,3,2,100,0,0
59798,-100,4,3,1,100,0,0
61267,-100,4,3,1,70,0,0
61344,-100,4,3,1,85,0,0
61421,-100,4,3,1,100,0,0
62040,-50,4,2,99,90,0,0
62581,-100,4,2,0,50,0,0
62659,-100,4,3,2,100,0,0
62736,-100,4,3,1,100,0,0
63123,-100,4,3,2,100,0,0
63200,-100,4,3,1,100,0,0
63664,-100,4,3,1,50,0,0
63741,-100,4,3,1,65,0,0
63818,-100,4,3,1,80,0,0
63896,-100,4,3,1,95,0,0
64591,-100,4,3,1,85,0,0
64668,-100,4,3,1,70,0,0
64823,-100,4,2,1,80,0,0
64977,-100,4,3,1,80,0,0
65132,-100,4,3,1,90,0,0
65442,-100,4,3,1,60,0,0
65597,-100,4,3,1,75,0,0
65751,-90.9090909090909,4,3,1,90,0,0
66061,-100,4,2,99,100,0,0
66215,-100,4,3,1,90,0,0
66370,-100,4,3,1,100,0,0
66679,-100,4,2,99,100,0,0
66756,-100,4,3,1,100,0,0
66988,-74.0740740740741,4,2,99,90,0,0
67298,-83.3333333333333,4,3,1,90,0,0
67336,-83.3333333333333,4,3,1,50,0,0
67530,-100,4,3,1,90,0,0
67607,-100,4,3,2,100,0,0
67684,-100,4,3,1,100,0,0
68071,-100,4,3,2,100,0,0
68148,-100,4,3,1,100,0,0
68690,-100,4,3,1,70,0,0
68767,-100,4,3,1,85,0,0
68844,-100,4,3,1,100,0,0
68999,-100,4,3,1,70,0,0
69076,-100,4,3,1,85,0,0
69153,-100,4,3,1,100,0,0
69540,-100,4,2,1,80,0,0
70700,-100,4,3,1,60,0,0
71009,-100,4,3,1,70,0,0
71318,-100,4,3,1,80,0,0
71628,-100,4,3,1,90,0,0
71937,-117.647058823529,4,2,99,100,0,0
72091,-117.647058823529,4,2,1,60,0,0
75184,-117.647058823529,4,2,1,45,0,0
75494,-117.647058823529,4,2,1,70,0,0
75726,-90.9090909090909,4,2,1,70,0,0
76344,-100,4,2,1,70,0,0
76421,-100,4,2,99,70,0,0
76473,-100,4,2,1,60,0,0
76730,-100,4,2,99,70,0,0
76769,-100,4,2,99,40,0,0
76885,-100,4,2,99,80,0,0
76963,-100,4,2,1,70,0,0
77195,-43.4782608695652,4,2,99,100,0,0
77349,-76.9230769230769,4,2,1,60,0,0
77504,-83.3333333333333,4,2,1,60,0,0
77523,-83.3333333333333,4,2,1,30,0,0
77813,-76.9230769230769,4,2,1,60,0,0
78122,-100,4,2,1,60,0,0
79360,-100,4,2,99,60,0,0
79437,-100,4,2,1,60,0,0
79669,-45.4545454545455,4,2,99,70,0,0
79823,-100,4,2,1,70,0,0
80751,-90.9090909090909,4,2,98,80,0,0
80906,-90.9090909090909,4,2,1,70,0,0
81215,-100,4,2,1,70,0,0
81524,-83.3333333333333,4,2,99,90,0,0
81563,-83.3333333333333,4,2,1,80,0,0
81834,-100,4,3,1,70,0,0
82066,-100,4,3,1,80,0,0
82530,-100,4,3,0,80,0,0
82684,-100,4,3,0,80,0,0
82994,-83.3333333333333,4,2,1,50,0,0
83071,-76.9230769230769,4,3,2,90,0,0
83148,-76.9230769230769,4,3,1,90,0,0
83303,-100,4,2,1,50,0,0
83380,-100,4,3,1,90,0,0
83689,-71.4285714285714,4,3,1,80,0,0
83844,-100,4,2,0,60,0,0
83999,-100,4,2,99,90,0,0
84308,-86.9565217391304,4,2,2,90,0,0
84386,-86.9565217391304,4,3,1,90,0,0
84849,-100,4,3,1,80,0,0
85081,-100,4,2,0,60,0,0
85236,-100,4,2,99,90,0,0
85545,-100,4,2,2,90,0,0
85854,-100,4,2,1,80,0,0
85893,-71.4285714285714,4,2,1,40,0,0
86009,-100,4,2,1,50,0,0
86164,-100,4,2,1,60,0,0
86318,-100,4,2,1,70,0,0
86473,-100,4,2,1,80,0,0
86782,-86.9565217391304,4,2,2,60,0,0
86860,-86.9565217391304,4,3,1,70,0,0
87400,-86.9565217391304,4,3,1,75,0,0
88019,-100,4,2,2,60,0,0
88096,-100,4,3,1,80,0,0
88251,-86.9565217391304,4,3,1,80,0,0
88638,-86.9565217391304,4,3,1,85,0,0
89256,-86.9565217391304,4,3,1,70,0,0
89333,-86.9565217391304,4,3,1,90,0,0
89875,-86.9565217391304,4,3,1,95,0,0
90493,-86.9565217391304,4,3,1,100,0,0
91731,-100,4,2,99,100,0,0
91808,-90.9090909090909,4,2,1,30,0,0
92040,-90.9090909090909,4,2,1,32,0,0
92349,-90.9090909090909,4,2,1,36,0,0
92658,-90.9090909090909,4,2,1,40,0,0
92968,-90.9090909090909,4,2,1,44,0,0
93277,-90.9090909090909,4,2,1,51,0,0
93586,-90.9090909090909,4,2,1,58,0,0
93896,-90.9090909090909,4,2,1,65,0,0
94050,-90.9090909090909,4,2,0,5,0,0
94205,-100,4,2,99,80,0,0
94282,-100,4,2,1,70,0,0
95442,-100,4,2,1,90,0,0
95906,-90.9090909090909,4,2,1,80,0,0
96061,-100,4,2,1,80,0,0
96370,-37.7358490566038,4,2,99,80,0,0
96679,-90.9090909090909,4,2,2,100,0,1
96756,-90.9090909090909,4,3,1,100,0,1
97684,-90.9090909090909,4,3,1,60,0,1
97916,-90.9090909090909,4,3,1,100,0,1
98612,-90.9090909090909,4,3,1,70,0,1
98689,-90.9090909090909,4,2,99,100,0,1
98767,-90.9090909090909,4,3,1,100,0,1
99153,-90.9090909090909,4,2,99,100,0,1
99231,-90.9090909090909,4,3,1,100,0,1
100197,-90.9090909090909,4,3,1,60,0,1
100390,-90.9090909090909,4,3,1,100,0,1
100854,-90.9090909090909,4,2,99,100,0,1
100932,-90.9090909090909,4,3,1,100,0,1
101628,-90.9090909090909,4,2,99,100,0,1
101705,-90.9090909090909,4,3,1,100,0,1
103019,-90.9090909090909,4,2,99,100,0,1
103096,-90.9090909090909,4,3,1,100,0,1
103561,-90.9090909090909,4,3,1,70,0,1
103638,-90.9090909090909,4,3,1,100,0,1
104102,-90.9090909090909,4,2,99,100,0,1
104179,-90.9090909090909,4,3,1,100,0,1
105339,-90.9090909090909,4,2,99,100,0,1
105416,-90.9090909090909,4,3,1,90,0,1
105803,-90.9090909090909,4,3,1,80,0,1
105957,-100,4,3,1,80,0,0
106267,-100,4,3,1,70,0,0
106576,-90.9090909090909,4,2,2,100,0,1
106653,-90.9090909090909,4,3,1,100,0,1
107040,-90.9090909090909,4,2,99,100,0,1
107117,-90.9090909090909,4,3,1,100,0,1
107620,-90.9090909090909,4,3,1,70,0,1
107813,-90.9090909090909,4,3,1,100,0,1
108509,-90.9090909090909,4,3,1,70,0,1
108586,-90.9090909090909,4,2,99,100,0,1
108664,-90.9090909090909,4,3,1,100,0,1
109050,-90.9090909090909,4,2,99,100,0,1
109128,-90.9090909090909,4,3,1,100,0,1
110094,-90.9090909090909,4,3,1,60,0,1
110287,-90.9090909090909,4,3,1,100,0,1
110751,-90.9090909090909,4,2,99,100,0,1
110829,-90.9090909090909,4,3,1,100,0,1
111370,-90.9090909090909,4,3,1,70,0,1
111525,-90.9090909090909,4,2,99,100,0,1
111602,-90.9090909090909,4,3,1,100,0,1
112762,-90.9090909090909,4,2,99,100,0,1
112839,-90.9090909090909,4,3,1,100,0,1
112994,-90.9090909090909,4,2,99,100,0,1
113071,-90.9090909090909,4,3,1,100,0,1
113226,-90.9090909090909,4,2,99,100,0,1
113303,-90.9090909090909,4,3,1,100,0,1
115700,-90.9090909090909,4,3,1,80,0,1
115854,-90.9090909090909,4,3,1,70,0,1
116009,-90.9090909090909,4,3,1,85,0,1
116164,-100,4,3,1,80,0,0
116318,-100,4,2,99,80,0,0
116396,-100,4,2,1,70,0,0
116782,-100,4,3,1,70,0,0
116937,-100,4,3,1,85,0,0
117091,-100,4,2,99,100,0,0
117169,-100,4,3,1,100,0,0
118329,-36.3636363636364,4,3,1,100,0,0
118947,-100,4,3,1,100,0,0
119102,-30.3030303030303,4,3,0,90,0,0
119566,-100,4,3,1,100,0,0
121267,-100,4,2,99,100,0,0
121421,-1000,4,2,99,100,0,0
121653,-1000,4,2,0,50,0,0
121731,-100,4,2,99,90,0,0
121808,-100,4,3,1,90,0,0
123432,-100,4,2,1,90,0,0
123586,-100,4,3,1,90,0,0
124050,-100,4,3,1,70,0,0
124128,-83.3333333333333,4,2,99,90,0,0
124282,-100,4,2,0,50,0,0
124360,-100,4,3,1,90,0,0
124823,-100,4,2,99,90,0,0
124901,-100,4,3,1,90,0,0
125133,-90.9090909090909,4,2,2,90,0,0
125210,-90.9090909090909,4,3,1,90,0,0
125906,-90.9090909090909,4,2,99,90,0,0
125984,-100,4,3,1,90,0,0
126061,-25,4,3,1,100,0,0
126215,-100,4,2,0,40,0,0
126370,-100,4,2,1,60,0,0
126679,-100,4,2,99,80,0,0
126718,-100,4,2,1,50,0,0
126834,-100,4,2,1,80,0,0
126872,-100,4,2,1,50,0,0
126988,-100,4,3,1,90,0,0
128226,-35.7142857142857,4,3,1,90,0,0
128689,-100,4,3,1,90,0,0
128844,-100,4,3,1,70,0,0
128999,-29.4117647058824,4,3,0,90,0,0
129463,-100,4,2,1,100,0,0
129772,-100,4,2,99,90,0,0
129850,-100,4,3,1,90,0,0
130390,-100,4,2,99,90,0,0
130468,-100,4,3,1,90,0,0
130700,-100,4,2,99,90,0,0
130778,-100,4,3,1,90,0,0
131048,-100,4,3,1,70,0,0
131241,-100,4,3,1,90,0,0
131318,-1000,4,2,99,100,0,0
131550,-1000,4,2,0,50,0,0
131628,-100,4,2,99,100,0,0
131783,-100,4,3,1,90,0,0
132247,-100,4,2,99,100,0,0
132324,-100,4,3,1,90,0,0
133020,-100,4,2,99,100,0,0
133174,-100,4,3,1,90,0,0
133793,-27.027027027027,4,2,99,100,0,0
133947,-100,4,2,0,50,0,0
134102,-100,4,3,1,90,0,0
134256,-100,4,2,99,90,0,0
134411,-100,4,3,1,80,0,0
134720,-100,4,3,1,70,0,0
135030,-90.9090909090909,4,3,1,70,0,0
135339,-90.9090909090909,4,3,1,80,0,0
135494,-90.9090909090909,4,2,99,80,0,0
135648,-90.9090909090909,4,2,99,90,0,0
135957,-90.9090909090909,4,3,1,90,0,0
136267,-90.9090909090909,4,2,99,100,0,0

[Colours]
Combo1 : 205,205,205
Combo2 : 255,83,83
Combo3 : 176,255,176
Combo4 : 107,107,107

[HitObjects]
345,357,2659,6,0,P|416:301|312:221,1,236.250009012223,2|2,0:0|0:0,0:0:0:0:
190,148,3277,2,0,L|277:130,1,78.7500030040742,4|0,0:0|0:0,0:0:0:0:
388,111,3586,1,2,0:0:0:0:
103,53,3896,2,0,L|16:58,2,78.7500030040742,2|0|0,0:0|0:0|0:0,0:0:0:0:
356,214,4514,1,2,0:0:0:0:
261,256,4669,1,2,0:0:0:0:
155,278,4823,1,8,0:0:0:0:
453,352,5133,6,0,L|492:269,2,78.7500030040742,2|0|0,0:0|0:0|0:0,0:0:0:0:
328,369,5597,1,2,0:0:0:0:
461,188,5751,2,0,L|356:179,1,78.7500030040742,4|2,0:0|0:1,0:0:0:0:
329,166,5983,1,2,0:1:0:0:
272,160,6061,1,2,0:1:0:0:
412,84,6215,2,0,L|466:78,1,39.3750015020371
266,35,6370,5,4,0:0:0:0:
205,49,6447,2,0,L|93:57,2,86.6250026435853,2|2|2,0:0|0:0|0:0,0:0:0:0:
92,150,6808,1,2,0:0:0:0:
215,153,6937,1,2,0:0:0:0:
276,115,7014,1,2,0:0:0:0:
213,77,7091,1,8,0:0:0:0:
37,168,7143,6,0,L|14:213,2,38.5000011749268,2|2|2,0:0|0:0|0:0,0:0:0:0:
211,219,7298,2,0,L|264:217,6,28.8750008811951,8|2|2|2|2|2|2,0:0|0:0|0:0|0:0|0:0|0:0|0:0,0:0:0:0:
398,332,7607,5,8,0:0:0:0:
332,345,7684,2,0,L|301:291,2,52.5,2|2|2,0:0|0:0|0:0,0:0:0:0:
398,332,7916,2,0,L|91:135,1,346.500010574341,2|0,0:0|0:0,0:0:0:0:
194,80,8226,5,2,0:0:0:0:
214,75,8245,1,2,0:0:0:0:
225,87,8264,1,2,0:0:0:0:
245,82,8283,1,2,0:0:0:0:
249,109,8303,1,2,0:0:0:0:
269,104,8322,1,2,0:0:0:0:
257,141,8341,1,2,0:0:0:0:
277,136,8360,1,2,0:0:0:0:
247,172,8380,1,2,0:0:0:0:
267,167,8399,1,2,0:0:0:0:
222,193,8419,1,2,0:0:0:0:
242,188,8438,1,2,0:0:0:0:
195,198,8457,1,2,0:0:0:0:
107,233,8535,6,0,L|73:235,6,34.1249984378815,8|2|2|2|2|2|2,0:0|0:0|0:0|0:0|0:0|0:0|0:0,0:0:0:0:
287,352,8844,5,4,0:0:0:0:
415,306,8999,1,0,0:0:0:0:
279,259,9153,2,0,L|210:254,1,52.5,2|2,0:0|0:0,0:0:0:0:
298,214,9308,2,0,L|237:206,1,52.5,2|2,0:0|0:0,0:0:0:0:
430,94,9463,5,8,0:0:0:0:
373,93,9540,1,0,0:0:0:0:
319,107,9617,1,0,0:0:0:0:
291,128,9668,1,0,0:0:0:0:
274,159,9720,1,0,0:0:0:0:
270,193,9771,1,2,0:0:0:0:
279,227,9823,1,0,0:0:0:0:
300,255,9874,1,0,0:0:0:0:
330,272,9926,1,2,0:0:0:0:
364,278,9977,1,0,0:0:0:0:
398,270,10029,1,0,0:0:0:0:
254,361,10081,6,0,L|185:366,1,52.5,2|2,0:0|0:0,0:0:0:0:
264,320,10236,2,0,L|325:317,2,35,2|2|2,0:0|0:0|0:0,0:0:0:0:
195,288,10390,2,0,L|502:100,1,346.500010574341,2|0,0:0|0:0,0:0:0:0:
424,80,10700,6,0,L|255:70,2,157.5,4|4|0,0:0|0:0|0:0,0:0:0:0:
269,159,11318,2,0,L|336:167,1,52.5,2|2,0:0|0:0,0:0:0:0:
265,204,11473,2,0,L|135:189,2,115.50000352478,8|8|2,0:0|0:0|0:0,0:0:0:0:
198,190,11860,1,0,0:0:0:0:
24,261,11937,6,0,L|36:313,1,52.5,2|2,0:0|0:0,0:0:0:0:
116,311,12091,2,0,L|136:367,1,52.5,2|2,0:0|0:0,0:0:0:0:
226,364,12246,2,0,B|94:317|94:317|241:285,1,275.625002628565,2|0,0:0|0:0,0:0:0:0:
443,213,12555,6,0,B|483:190|483:190|348:177,1,157.5,6|0,0:0|0:0,0:0:0:0:
184,69,12865,1,8,0:0:0:0:
316,63,13019,2,0,L|373:57,2,52.5,2|8|2,0:0|0:0|0:0,0:0:0:0:
252,94,13251,1,0,0:0:0:0:
61,256,13329,2,0,L|124:265,1,52.5,8|8,0:0|0:0,0:0:0:0:
185,259,13483,2,0,P|105:238|106:135,1,181.125003454685,4|0,0:0|0:0,0:0:0:0:
318,137,13793,6,0,B|380:170|380:170|243:208,1,188.999994232178,6|0,0:0|0:0,0:0:0:0:
444,280,14102,1,8,0:0:0:0:
310,344,14256,2,0,L|245:339,1,52.5,6|2,0:0|0:0,0:0:0:0:
431,250,14411,1,2,0:0:0:0:
456,258,14449,1,0,0:0:0:0:
468,281,14488,1,0,0:0:0:0:
459,307,14526,1,0,0:0:0:0:
435,318,14565,1,2,0:0:0:0:
255,354,14643,1,2,0:0:0:0:
437,162,14720,6,0,L|384:151,1,52.5,2|0,0:0|0:0,0:0:0:0:
215,76,14875,2,0,L|139:73,1,52.5,2|0,0:0|0:0,0:0:0:0:
344,13,15030,6,0,B|381:63|381:63|305:96,1,120.750002303124,6|0,0:0|0:0,0:0:0:0:
295,97,15223,1,0,0:0:0:0:
265,104,15262,1,0,0:0:0:0:
98,170,15339,1,8,0:0:0:0:
227,221,15494,1,2,0:0:0:0:
56,311,15571,6,0,L|8:311,4,26.25,8|2|2|2|2,0:0|0:0|0:0|0:0|0:0,0:0:0:0:
223,345,15803,2,0,L|289:337,1,52.5,8|0,0:0|0:0,0:0:0:0:
106,250,15957,2,0,L|171:253,1,52.5,2|0,0:0|0:0,0:0:0:0:
332,141,16112,2,0,L|267:137,1,52.5,2|0,0:0|0:0,0:0:0:0:
467,38,16267,6,0,L|479:249,1,210,6|2,0:0|0:0,0:0:0:0:
446,258,16614,1,2,0:0:0:0:
416,244,16653,1,2,0:0:0:0:
395,219,16691,1,2,0:0:0:0:
387,188,16730,1,2,0:0:0:0:
393,156,16769,1,2,0:0:0:0:
413,129,16807,1,2,0:0:0:0:
442,114,16846,1,2,0:0:0:0:
474,113,16885,1,4,0:0:0:0:
319,333,17040,6,0,L|259:327,1,52.5,2|2,0:0|0:0,0:0:0:0:
325,297,17195,2,0,L|203:277,1,105,8|2,0:0|0:0,0:0:0:0:
282,252,17427,1,0,0:0:0:0:
48,266,17504,6,0,L|30:142,1,120.750002303124,2|0,0:0|0:0,0:0:0:0:
95,122,17736,1,0,0:0:0:0:
165,116,17813,2,0,L|237:111,3,60.3750011515618,2|0|0|0,0:1|0:0|0:0|0:0,0:0:0:0:
298,170,18122,2,0,L|379:177,3,60.3750011515618,2|0|0|0,0:1|0:0|0:0|0:0,0:0:0:0:
439,242,18432,2,0,L|456:300,3,60.3750011515618,2|0|0|0,0:1|0:0|0:0|0:0,0:0:0:0:
275,366,18741,6,0,L|390:333,1,105,6|0,0:0|0:0,0:0:0:0:
313,294,18973,1,0,0:0:0:0:
245,270,19050,2,0,L|170:264,3,60.3750011515618,2|0|0|0,0:1|0:0|0:0|0:0,0:0:0:0:
110,202,19360,2,0,L|30:213,3,60.3750011515618,2|0|0|0,0:1|0:0|0:0|0:0,0:0:0:0:
117,131,19669,2,0,L|179:82,1,60.3750011515618,2|0,0:1|0:0,0:0:0:0:
98,62,19823,2,0,L|28:18,1,60.3750011515618
213,173,19978,6,0,L|283:157,2,60.3750011515618,6|0|0,0:0|0:0|0:0,0:0:0:0:
372,292,20210,2,4,L|435:307,2,60.3750011515618,0|2|4,0:0|0:1|0:0,0:0:0:0:
200,338,20442,2,0,L|133:353,2,60.3750011515618,2|2|2,0:0|0:0|0:0,0:0:0:0:
273,340,20674,1,2,0:0:0:0:
87,252,20751,2,0,L|17:245,1,60.3750011515618,2|2,0:0|0:0,0:0:0:0:
213,173,20906,2,0,L|283:156,1,60.3750011515618,8|0,0:0|0:0,0:0:0:0:
102,70,21061,2,0,L|30:60,1,60.3750011515618
243,257,21215,6,0,L|431:126,2,210,6|0|2,0:0|0:0|0:0,0:0:0:0:
471,329,22143,2,0,L|133:344,1,288.750002753735,4|0,0:0|0:0,0:0:0:0:
43,259,22452,5,8,0:0:0:0:
182,341,22607,2,0,B|270:338|270:338|268:11|268:11|155:20|155:20|99:151|99:151|475:170,1,1008,2|8,0:0|0:0,0:0:0:0:
435,125,23148,5,0,0:0:0:0:
361,192,23226,2,0,L|351:261,1,52.5,2|0,0:0|0:0,0:0:0:0:
275,280,23380,2,0,L|260:344,1,52.5,2|2,0:0|0:0,0:0:0:0:
445,116,23535,2,0,L|321:115,1,105,8|2,0:0|0:0,0:0:0:0:
401,56,23767,1,0,0:0:0:0:
227,168,23844,2,0,L|105:164,1,105,8|2,0:0|0:0,0:0:0:0:
181,134,24076,1,0,0:0:0:0:
112,95,24153,2,0,L|48:95,1,52.5,2|2,0:0|0:0,0:0:0:0:
257,221,24308,6,0,L|263:255,1,26.25,10|0,0:0|0:0,0:0:0:0:
377,285,24463,2,0,L|384:314,1,26.25,2|0,0:0|0:0,0:0:0:0:
158,290,24617,2,0,L|151:324,1,26.25,2|0,0:0|0:0,0:0:0:0:
37,352,24772,2,0,L|31:381,1,26.25,10|0,0:0|0:0,0:0:0:0:
209,376,24927,6,0,L|272:364,1,52.5,2|2,0:0|0:0,0:0:0:0:
195,368,25081,2,0,B|292:180|292:180|207:6|207:6|111:106|111:106|145:231|145:231|513:98,1,1008,8|8,0:0|0:0,0:0:0:0:
470,157,25622,5,0,0:0:0:0:
394,191,25700,2,0,L|421:241,1,52.5,2|0,0:0|0:0,0:0:0:0:
497,106,25854,2,0,L|474:161,1,52.5,2|0,0:0|0:0,0:0:0:0:
325,256,26009,1,2,0:0:0:0:
477,332,26086,1,2,0:0:0:0:
323,362,26164,6,0,L|270:352,2,52.5,8|0|2,0:0|0:0|0:0,0:0:0:0:
390,347,26396,1,2,0:0:0:0:
215,264,26473,2,0,L|150:261,1,52.5,2|0,0:0|0:0,0:0:0:0:
320,165,26628,2,0,L|374:153,2,52.5,2|0|2,0:0|0:0|0:0,0:0:0:0:
157,146,26860,1,2,0:0:0:0:
308,84,26937,2,0,L|379:75,1,52.5,8|0,0:0|0:0,0:0:0:0:
174,24,27091,5,2,0:0:0:0:
147,31,27129,1,2,0:0:0:0:
121,38,27168,1,2,0:0:0:0:
148,41,27206,1,2,0:0:0:0:
175,44,27245,1,2,0:0:0:0:
239,53,27323,1,0,0:0:0:0:
43,38,27401,6,0,L|41:55,1,15.75,4|0,0:0|0:0,0:0:0:0:
273,165,27710,6,0,L|294:231,1,52.5,2|0,0:0|0:0,0:0:0:0:
153,255,27865,2,0,L|172:325,1,52.5,2|0,0:0|0:0,0:0:0:0:
26,314,28019,1,8,0:0:0:0:
171,344,28097,1,0,0:0:0:0:
205,347,28135,1,0,0:0:0:0:
171,344,28174,1,2,0:0:0:0:
111,336,28251,1,0,0:0:0:0:
287,79,28329,2,0,L|347:70,1,52.5
284,47,28483,2,0,L|220:41,1,52.5
41,366,28638,6,0,L|27:313,1,52.5,2|0,0:0|0:0,0:0:0:0:
163,305,28793,2,0,L|148:250,1,52.5,8|0,0:0|0:0,0:0:0:0:
288,215,28947,1,2,0:0:0:0:
149,254,29024,1,0,0:0:0:0:
120,252,29062,1,0,0:0:0:0:
92,250,29101,1,2,0:0:0:0:
86,213,29179,1,0,0:0:0:0:
262,301,29256,6,0,L|332:308,3,52.5,8|2|2|2,0:0|0:1|0:1|0:1,0:0:0:0:
489,364,29566,2,0,L|430:360,1,52.5,2|0,0:0|0:0,0:0:0:0:
271,165,29720,2,0,L|341:160,1,52.5,8|0,0:0|0:0,0:0:0:0:
492,88,29875,1,2,0:0:0:0:
428,71,29952,1,2,0:0:0:0:
361,69,30030,6,0,B|450:106|450:106|338:125,1,188.999994232178,4|0,0:0|0:0,0:0:0:0:
207,247,30339,2,0,L|136:260,1,52.5,2|0,0:0|0:0,0:0:0:0:
339,346,30494,6,0,L|217:344,1,105,8|0,0:0|0:0,0:0:0:0:
290,317,30726,1,0,0:0:0:0:
114,154,30803,2,0,L|51:152,1,52.5,2|0,0:0|0:0,0:0:0:0:
240,39,30957,2,0,L|296:33,1,52.5,2|2,0:0|0:0,0:0:0:0:
68,26,31112,5,2,0:0:0:0:
187,107,31267,2,0,L|195:162,1,52.5,8|0,0:0|0:0,0:0:0:0:
377,216,31421,1,2,0:0:0:0:
259,297,31576,2,0,L|251:353,1,52.5,2|0,0:0|0:0,0:0:0:0:
83,361,31731,2,0,L|97:295,1,52.5,2|2,0:0|0:0,0:0:0:0:
282,209,31885,2,0,L|344:200,1,52.5,2|0,0:0|0:0,0:0:0:0:
137,65,32040,6,0,B|73:58|33:93|33:93|83:102|145:60,1,220.499993270874,6|0,0:0|0:0,0:0:0:0:
365,30,32349,6,0,L|368:47,1,15.75,8|0,0:0|0:0,0:0:0:0:
177,150,32659,6,0,L|244:147,1,52.5,2|0,0:0|0:0,0:0:0:0:
419,230,32813,2,0,L|432:297,1,52.5,2|0,0:0|0:0,0:0:0:0:
243,348,32968,2,0,L|366:344,1,105,8|2,0:0|0:0,0:0:0:0:
286,315,33200,1,0,0:0:0:0:
356,320,33277,2,0,L|422:317,1,52.5,2|2,0:0|0:0,0:0:0:0:
235,257,33432,6,0,L|113:246,1,105,8|2,0:0|0:0,0:0:0:0:
188,227,33664,1,0,0:0:0:0:
17,99,33741,2,0,L|138:76,1,105,8|2,0:0|0:0,0:0:0:0:
181,86,33973,1,0,0:0:0:0:
123,106,34050,2,0,L|63:117,1,52.5,2|2,0:0|0:0,0:0:0:0:
261,181,34205,6,0,L|256:208,1,26.25,2|0,0:0|0:0,0:0:0:0:
145,289,34360,2,0,L|136:318,1,26.25,2|0,0:0|0:0,0:0:0:0:
349,51,34514,2,0,L|355:78,1,26.25
467,141,34669,2,0,L|474:169,1,26.25,10|0,0:0|0:0,0:0:0:0:
289,290,34823,6,0,L|221:288,1,52.5,2|2,0:0|0:0,0:0:0:0:
295,348,34978,2,0,B|377:184|377:184|321:-2|321:-2|234:-3|234:-3|366:154|366:154|-12:99,1,1008,8|8,0:0|0:0,0:0:0:0:
31,170,35519,5,0,0:0:0:0:
108,181,35597,2,0,L|114:251,1,52.5,2|0,0:0|0:0,0:0:0:0:
35,286,35751,2,0,L|90:282,1,52.5,2|0,0:0|0:0,0:0:0:0:
240,306,35906,1,2,0:0:0:0:
389,347,35983,1,2,0:0:0:0:
235,336,36061,6,0,L|174:353,2,52.5,8|0|2,0:0|0:0|0:0,0:0:0:0:
395,317,36293,1,2,0:0:0:0:
450,241,36370,2,0,L|377:235,1,52.5,2|0,0:0|0:0,0:0:0:0:
192,62,36524,2,0,L|209:116,1,52.5,2|2,0:0|0:0,0:0:0:0:
274,130,36679,1,0,0:0:0:0:
439,82,36756,1,2,0:0:0:0:
269,333,36834,2,0,L|204:337,1,52.5,8|0,0:0|0:0,0:0:0:0:
430,340,36988,5,2,0:0:0:0:
460,330,37026,1,0,0:0:0:0:
470,300,37065,1,2,0:0:0:0:
453,273,37103,1,2,0:0:0:0:
421,271,37142,1,2,0:0:0:0:
348,294,37220,1,2,0:0:0:0:
120,232,37298,6,0,L|118:215,1,15.75,4|0,0:0|0:0,0:0:0:0:
308,180,37607,6,0,L|320:122,1,52.5,2|2,0:0|0:0,0:0:0:0:
172,115,37762,2,0,L|183:58,1,52.5,2|0,0:0|0:0,0:0:0:0:
35,67,37916,1,8,0:0:0:0:
181,63,37994,1,0,0:0:0:0:
208,59,38032,1,0,0:0:0:0:
235,56,38071,1,2,0:0:0:0:
301,52,38148,1,0,0:0:0:0:
155,237,38226,2,0,L|221:223,1,52.5,2|0,0:0|0:0,0:0:0:0:
283,361,38380,2,0,L|290:306,1,52.5,8|0,0:0|0:0,0:0:0:0:
44,15,38535,6,0,L|35:67,1,52.5,2|2,0:0|0:0,0:0:0:0:
181,63,38689,2,0,L|171:117,1,52.5,8|0,0:0|0:0,0:0:0:0:
319,126,38844,1,2,0:0:0:0:
171,114,38921,1,0,0:0:0:0:
140,124,38960,1,0,0:0:0:0:
171,114,38999,1,0,0:0:0:0:
234,128,39076,1,2,0:0:0:0:
433,256,39153,6,0,L|502:265,1,52.5,8|2,0:0|0:1,0:0:0:0:
432,303,39308,2,0,L|372:307,1,52.5,2|2,0:1|0:1,0:0:0:0:
196,188,39463,2,0,L|264:187,1,52.5,2|2,0:0|0:1,0:0:0:0:
422,147,39617,2,0,L|433:75,1,52.5,8|2,0:0|0:1,0:0:0:0:
206,365,39772,6,0,B|65:330|65:330|128:302,1,212.6250008111,4|0,0:0|0:0,0:0:0:0:
186,292,40081,1,2,0:0:0:0:
30,197,40236,2,0,L|83:164,1,52.5,4|0,0:0|0:0,0:0:0:0:
148,158,40390,1,8,0:0:0:0:
298,47,40545,2,0,L|226:45,1,52.5,2|2,0:0|0:0,0:0:0:0:
415,128,40700,5,8,0:0:0:0:
445,138,40738,1,2,0:0:0:0:
467,163,40777,1,2,0:0:0:0:
473,195,40815,1,2,0:0:0:0:
463,226,40854,1,2,0:0:0:0:
439,247,40893,1,2,0:0:0:0:
407,254,40932,1,8,0:0:0:0:
242,346,41009,5,2,0:0:0:0:
171,364,41086,1,2,0:0:0:0:
252,378,41164,2,0,B|359:198|359:198|263:51|263:51|111:313|111:313|488:271,1,1039.50000991344,8|4,0:0|0:0,0:0:0:0:
410,249,41705,5,0,0:0:0:0:
212,142,41782,2,0,L|131:168,1,62.9999980773926,2|0,0:0|0:0,0:0:0:0:
386,39,41937,2,0,L|305:32,1,62.9999980773926,2|0,0:0|0:0,0:0:0:0:
86,229,42091,2,0,L|17:232,1,62.9999980773926,2|2,0:0|0:0,0:0:0:0:
262,338,42246,5,8,0:0:0:0:
496,309,45957,5,4,0:0:0:0:
428,310,46035,2,0,L|322:293,2,86.6250026435853,2|2|2,0:0|0:0|0:0,0:0:0:0:
323,373,46396,1,2,0:0:0:0:
203,375,46524,1,2,0:0:0:0:
257,326,46602,1,8,0:0:0:0:
198,284,46679,5,2,0:0:0:0:
163,263,46731,1,2,0:0:0:0:
150,225,46782,1,2,0:0:0:0:
167,188,46834,1,2,0:0:0:0:
204,173,46885,1,8,0:0:0:0:
264,172,46963,1,2,0:0:0:0:
206,154,47040,1,2,0:0:0:0:
23,110,47117,1,2,0:0:0:0:
203,64,47195,5,8,0:0:0:0:
256,192,47272,12,8,49360,0:0:0:0:
41,173,49669,5,8,0:0:0:0:
375,138,50133,1,8,0:0:0:0:
15,302,50597,1,8,0:0:0:0:
486,339,50906,5,6,0:0:0:0:
166,203,51834,1,2,0:0:0:0:
220,202,51911,1,2,0:0:0:0:
275,201,51988,1,2,0:0:0:0:
330,201,52065,1,2,0:0:0:0:
125,264,52143,6,0,B|25:62|25:62|176:8|235:137|246:285|137:377|25:62,1,808.500024673463,4|0,0:0|0:0,0:0:0:0:
234,353,52762,6,0,L|254:279,1,52.5,12|0,0:0|0:0,0:0:0:0:
330,290,52916,2,0,L|347:223,1,52.5,8|0,0:1|0:0,0:0:0:0:
428,228,53071,2,0,L|442:169,1,52.5,8|0,0:1|0:0,0:0:0:0:
222,314,53226,6,0,L|237:242,1,52.5,12|0,0:0|0:0,0:0:0:0:
323,246,53380,2,0,L|340:175,1,52.5,8|0,0:1|0:0,0:0:0:0:
429,180,53535,2,0,L|444:113,1,52.5,8|0,0:1|0:0,0:0:0:0:
209,274,53689,6,0,L|225:206,1,52.5,2|2,0:0|0:0,0:0:0:0:
300,189,53844,1,2,0:0:0:0:
383,169,53921,1,2,0:0:0:0:
192,221,53999,2,0,L|208:155,1,52.5,8|0,0:0|0:0,0:0:0:0:
283,136,54154,1,0,0:0:0:0:
461,87,54231,2,0,L|443:21,1,52.5,8|2,0:0|0:0,0:0:0:0:
370,2,54386,1,2,0:0:0:0:
190,63,54463,2,0,L|126:77,1,52.5,8|0,0:0|0:0,0:0:0:0:
317,287,54617,6,0,L|392:291,2,52.5,2|2|2,0:0|0:0|0:0,0:0:0:0:
145,360,54927,2,0,L|257:327,1,105,4|2,0:0|0:0,0:0:0:0:
306,355,55159,1,0,0:0:0:0:
103,224,55236,6,0,L|31:230,2,52.5,8|8|2,0:0|0:0|0:0,0:0:0:0:
252,188,55545,2,0,L|235:121,1,52.5,2|0,0:0|0:0,0:0:0:0:
164,102,55700,1,2,0:0:0:0:
85,93,55777,1,2,0:0:0:0:
263,43,55854,6,0,L|334:41,3,52.5,8|2|2|2,0:0|0:1|0:1|0:1,0:0:0:0:
489,180,56164,2,0,L|480:255,1,52.5,2|0,0:0|0:0,0:0:0:0:
329,254,56318,1,2,0:0:0:0:
482,234,56396,1,2,0:0:0:0:
325,354,56473,6,8,L|255:349,2,52.5,8|2|2,0:0|0:0|0:0,0:0:0:0:
146,252,56705,2,0,L|75:246,2,52.5,8|2|2,0:0|0:0|0:0,0:0:0:0:
313,146,56937,2,0,L|237:141,1,52.5,8|2,0:0|0:0,0:0:0:0:
79,38,57091,6,0,B|15:151|15:151|141:301,1,315.000012016297,8|8,0:0|0:0,0:0:0:0:
166,292,57439,2,0,L|118:294,5,31.4999990386963,2|2|2|2|2|2,0:0|0:0|0:0|0:0|0:0|0:0,0:0:0:0:
337,323,57710,6,0,L|411:312,1,52.5,12|0,0:0|0:0,0:0:0:0:
308,278,57865,2,0,L|299:212,1,52.5,8|0,0:1|0:0,0:0:0:0:
213,207,58019,2,0,L|189:153,1,52.5,8|0,0:1|0:0,0:0:0:0:
386,352,58174,6,0,L|460:342,1,52.5,12|0,0:0|0:0,0:0:0:0:
355,303,58329,2,0,L|344:233,1,52.5,8|0,0:1|0:0,0:0:0:0:
253,228,58483,2,0,L|223:173,1,52.5,8|0,0:1|0:0,0:0:0:0:
418,147,58638,6,0,L|390:92,1,52.5,2|0,0:0|0:0,0:0:0:0:
257,71,58793,1,2,0:0:0:0:
114,65,58870,1,2,0:0:0:0:
266,186,58947,2,0,L|332:195,1,52.5,8|0,0:0|0:0,0:0:0:0:
265,221,59102,2,0,L|204:233,1,52.5,8|0,0:0|0:0,0:0:0:0:
30,282,59256,2,0,L|99:289,1,52.5,8|0,0:0|0:0,0:0:0:0:
282,357,59411,2,0,L|219:368,1,52.5,8|0,0:0|0:0,0:0:0:0:
45,152,59566,2,0,L|-5:153,2,26.25,2|2|2,0:0|0:0|0:0,0:0:0:0:
257,71,59720,6,0,L|138:87,1,105,12|2,0:0|0:0,0:0:0:0:
216,117,59952,1,0,0:0:0:0:
388,196,60030,1,8,0:0:0:0:
250,249,60184,2,0,L|190:250,2,52.5,2|2|2,0:0|0:0|0:0,0:0:0:0:
497,364,60494,2,0,L|370:357,1,105,8|2,0:0|0:0,0:0:0:0:
446,340,60726,1,0,0:0:0:0:
257,349,60803,5,2,0:1:0:0:
198,346,60880,1,2,0:1:0:0:
257,349,60957,1,8,0:0:0:0:
425,265,61035,1,2,0:1:0:0:
246,214,61112,2,0,L|184:197,1,52.5,2|0,0:0|0:0,0:0:0:0:
253,173,61267,2,0,L|309:166,1,52.5,2|2,0:0|0:0,0:0:0:0:
117,109,61421,6,0,L|48:106,1,52.5,2|0,0:0|0:0,0:0:0:0:
243,80,61576,1,2,0:1:0:0:
81,233,61653,2,0,L|8:229,1,52.5,2|8,0:0|0:0,0:0:0:0:
183,313,61808,1,2,0:1:0:0:
347,346,61885,2,0,L|408:340,1,52.5,2|2,0:0|0:1,0:0:0:0:
214,360,62040,6,0,B|94:162|94:162|261:65|261:65|273:376,1,735,4|0,0:0|0:0,0:0:0:0:
63,358,62659,6,0,L|29:295,1,52.5,6|0,0:0|0:0,0:0:0:0:
123,286,62813,2,0,L|127:215,1,52.5,8|0,0:1|0:0,0:0:0:0:
214,215,62968,2,0,L|236:163,1,52.5,8|0,0:1|0:0,0:0:0:0:
44,332,63122,6,0,L|9:267,1,52.5,6|0,0:0|0:0,0:0:0:0:
109,259,63276,2,0,L|112:188,1,52.5,8|0,0:1|0:0,0:0:0:0:
208,187,63431,2,0,L|231:133,1,52.5,8|0,0:1|0:0,0:0:0:0:
27,160,63586,6,0,L|30:93,1,52.5,2|2,0:0|0:0,0:0:0:0:
174,69,63741,1,2,0:0:0:0:
318,62,63818,1,2,0:0:0:0:
168,46,63896,2,0,L|105:37,2,52.5,8|2|2,0:0|0:0|0:0,0:0:0:0:
327,87,64128,2,0,L|336:162,1,52.5,8|2,0:0|0:0,0:0:0:0:
271,169,64282,1,2,0:0:0:0:
438,211,64360,2,0,L|507:218,1,52.5,8|2,0:0|0:0,0:0:0:0:
300,332,64514,5,2,0:0:0:0:
247,335,64591,1,2,0:0:0:0:
195,339,64668,1,2,0:0:0:0:
350,328,64823,2,0,L|379:256,2,52.5,4|0|2,0:0|0:0|0:0,0:0:0:0:
281,346,65055,1,2,0:0:0:0:
106,181,65133,5,8,0:0:0:0:
159,184,65210,1,2,0:0:0:0:
211,188,65287,1,2,0:0:0:0:
56,193,65442,2,0,L|35:122,1,52.5,2|2,0:0|0:0,0:0:0:0:
208,75,65597,2,0,L|265:64,1,52.5,2|2,0:0|0:0,0:0:0:0:
91,36,65751,6,0,L|10:32,3,57.7500017623902,8|2|2|2,0:0|0:1|0:1|0:1,0:0:0:0:
198,259,66061,2,0,L|212:328,1,52.5,2|0,0:0|0:0,0:0:0:0:
62,352,66215,1,2,0:0:0:0:
213,363,66293,1,2,0:0:0:0:
365,276,66370,6,0,L|419:269,2,52.5,8|0|2,0:0|0:0|0:0,0:0:0:0:
195,178,66602,2,0,L|211:111,1,52.5,8|2,0:0|0:0,0:0:0:0:
276,109,66756,1,0,0:0:0:0:
91,36,66834,2,0,L|11:36,1,52.5,8|0,0:0|0:0,0:0:0:0:
241,30,66988,6,0,B|350:57|350:57|172:138,1,283.500001081467,8|8,0:0|0:0,0:0:0:0:
162,124,67336,2,2,L|201:128,5,31.4999990386963,2|0|0|0|0|2,0:0|0:0|0:0|0:0|0:0|0:0,0:0:0:0:
387,199,67607,6,0,L|447:202,1,52.5,6|0,0:0|0:0,0:0:0:0:
360,270,67762,2,0,L|298:279,1,52.5,8|0,0:1|0:0,0:0:0:0:
224,342,67916,2,0,L|298:349,1,52.5,8|0,0:1|0:0,0:0:0:0:
453,85,68071,6,0,L|518:88,1,52.5,6|0,0:0|0:0,0:0:0:0:
421,164,68226,2,0,L|353:173,1,52.5,8|0,0:1|0:0,0:0:0:0:
281,238,68380,2,0,L|361:245,1,52.5,8|0,0:1|0:0,0:0:0:0:
146,161,68535,6,0,L|72:157,2,52.5,2|0|8,0:0|0:0|0:0,0:0:0:0:
294,120,68767,1,8,0:0:0:0:
145,244,68844,2,0,L|64:240,1,52.5,8|0,0:0|0:0,0:0:0:0:
237,344,68999,1,8,0:0:0:0:
382,354,69076,1,8,0:0:0:0:
234,368,69153,2,0,L|154:353,1,52.5,8|0,0:0|0:0,0:0:0:0:
14,84,69308,2,0,L|72:69,1,52.5,8|0,0:0|0:0,0:0:0:0:
278,27,69463,5,2,0:0:0:0:
325,46,69540,1,2,0:1:0:0:
342,94,69617,1,2,0:1:0:0:
317,138,69694,1,2,0:1:0:0:
268,150,69772,2,0,L|146:137,1,105,4|0,0:0|0:0,0:0:0:0:
336,257,70081,5,2,0:1:0:0:
283,259,70158,1,2,0:1:0:0:
231,262,70235,1,2,0:1:0:0:
178,265,70312,1,2,0:1:0:0:
351,381,70390,2,0,L|363:326,1,52.5,2|0,0:0|0:0,0:0:0:0:
183,279,70545,2,0,L|169:212,1,52.5,8|0,0:0|0:0,0:0:0:0:
361,168,70700,6,0,L|426:155,1,52.5,2|2,0:0|0:0,0:0:0:0:
348,125,70854,2,0,L|281:114,1,52.5,2|2,0:0|0:0,0:0:0:0:
94,64,71009,1,10,0:0:0:0:
62,103,71086,1,2,0:0:0:0:
79,150,71163,1,2,0:0:0:0:
128,159,71240,1,2,0:0:0:0:
315,222,71318,6,0,L|325:286,1,52.5,10|10,0:0|0:0,0:0:0:0:
128,159,71473,2,0,L|110:217,1,52.5,2|2,0:0|0:0,0:0:0:0:
339,351,71628,2,0,L|393:352,1,52.5,10|10,0:0|0:0,0:0:0:0:
91,338,71782,2,0,L|20:329,1,52.5,10|10,0:0|0:0,0:0:0:0:
404,80,71937,5,12,0:0:0:0:
138,87,72401,1,2,0:0:0:0:
259,117,72555,2,0,L|269:221,1,89.2500017023087,4|0,0:0|0:0,0:0:0:0:
407,267,72865,2,0,L|216:290,1,178.500003404617,2|8,0:0|0:0,0:0:0:0:
323,344,73329,1,2,0:0:0:0:
422,351,73483,1,0,0:0:0:0:
140,353,73793,2,0,L|91:260,2,89.2500017023087,2|2|8,0:0|0:0|0:0,0:0:0:0:
417,128,74411,5,2,0:0:0:0:
315,94,74566,1,0,0:0:0:0:
192,84,74720,1,2,0:0:0:0:
320,6,74875,1,2,0:0:0:0:
161,222,75030,2,0,L|285:237,1,89.2500017023087,4|2,0:0|0:1,0:0:0:0:
301,242,75262,1,2,0:1:0:0:
355,245,75339,2,0,L|368:354,1,89.2500017023087,2|0,0:1|0:0,0:0:0:0:
34,77,75648,5,4,0:0:0:0:
93,134,75726,2,0,L|204:140,2,86.6250026435853,2|2|2,0:0|0:0|0:0,0:0:0:0:
201,220,76086,1,2,0:0:0:0:
320,247,76215,1,2,0:0:0:0:
251,294,76293,1,2,0:0:0:0:
91,276,76370,1,8,0:0:0:0:
52,271,76421,6,0,L|11:274,2,35,2|2|2,0:0|0:0|0:0,0:0:0:0:
219,263,76576,1,10,0:0:0:0:
244,265,76614,1,2,0:0:0:0:
264,282,76653,1,2,0:0:0:0:
271,307,76691,1,2,0:0:0:0:
264,331,76730,1,2,0:0:0:0:
235,349,76769,1,2,0:0:0:0:
204,351,76807,1,2,0:0:0:0:
405,361,76885,5,8,0:0:0:0:
344,362,76963,2,0,L|280:337,2,52.5,2|2|2,0:0|0:0|0:0,0:0:0:0:
405,361,77195,2,0,L|102:140,1,362.250006909371,2|0,0:0|0:0,0:0:0:0:
203,127,77504,5,2,0:0:0:0:
189,127,77523,1,2,0:0:0:0:
215,148,77542,1,2,0:0:0:0:
177,147,77561,1,2,0:0:0:0:
224,174,77581,1,2,0:0:0:0:
173,174,77600,1,2,0:0:0:0:
226,200,77619,1,2,0:0:0:0:
174,201,77638,1,2,0:0:0:0:
224,226,77658,1,2,0:0:0:0:
180,225,77677,1,2,0:0:0:0:
215,252,77697,1,2,0:0:0:0:
191,251,77716,1,2,0:0:0:0:
203,276,77735,1,2,0:0:0:0:
106,264,77813,5,8,0:0:0:0:
76,255,77851,1,2,0:0:0:0:
54,232,77890,1,2,0:0:0:0:
48,202,77928,1,2,0:0:0:0:
57,173,77967,1,2,0:0:0:0:
81,152,78006,1,2,0:0:0:0:
112,147,78044,1,2,0:0:0:0:
297,73,78122,5,4,0:0:0:0:
418,95,78277,1,0,0:0:0:0:
290,183,78432,2,0,L|374:188,1,52.5,2|2,0:0|0:0,0:0:0:0:
285,215,78586,2,0,L|210:224,1,52.5,2|2,0:0|0:0,0:0:0:0:
423,295,78741,5,8,0:0:0:0:
357,319,78818,1,0,0:0:0:0:
426,351,78896,1,4,0:0:0:0:
459,342,78947,1,0,0:0:0:0:
485,319,78999,1,0,0:0:0:0:
497,287,79050,1,2,0:0:0:0:
492,252,79102,1,0,0:0:0:0:
471,224,79153,1,0,0:0:0:0:
440,210,79205,1,2,0:0:0:0:
406,211,79256,2,0,L|346:213,1,35
194,116,79360,6,0,L|126:111,1,52.5,8|0,0:0|0:0,0:0:0:0:
216,75,79514,1,2,0:0:0:0:
250,73,79565,1,2,0:0:0:0:
285,71,79617,1,2,0:0:0:0:
233,167,79669,6,0,B|5:219|5:219,1,231.000007049561,2|2,0:0|0:0,0:0:0:0:
39,244,79862,1,2,0:0:0:0:
73,260,79901,1,2,0:0:0:0:
161,320,79978,2,0,L|314:280,2,157.5,4|4|0,0:0|0:0|0:0,0:0:0:0:
321,369,80597,6,0,L|250:360,1,52.5,2|2,0:0|0:0,0:0:0:0:
327,317,80751,2,0,L|448:288,2,115.50000352478,8|2|2,0:0|0:0|0:0,0:0:0:0:
392,338,81138,1,0,0:0:0:0:
224,212,81215,2,0,L|151:205,1,52.5,2|2,0:0|0:0,0:0:0:0:
240,163,81370,2,0,L|297:156,1,52.5,2|2,0:0|0:0,0:0:0:0:
95,238,81524,5,2,0:0:0:0:
64,232,81562,1,2,0:0:0:0:
41,211,81601,1,2,0:0:0:0:
34,181,81639,1,2,0:0:0:0:
43,152,81678,1,2,0:0:0:0:
68,132,81717,1,2,0:0:0:0:
99,129,81755,1,2,0:0:0:0:
301,78,81834,6,0,B|408:57|408:57|349:49,1,157.5,6|0,0:0|0:0,0:0:0:0:
178,226,82143,2,0,L|242:233,1,52.5,8|0,0:0|0:0,0:0:0:0:
425,355,82298,1,2,0:0:0:0:
360,357,82375,1,8,0:0:0:0:
342,334,82413,1,2,0:0:0:0:
337,308,82452,1,2,0:0:0:0:
347,282,82490,1,2,0:0:0:0:
367,265,82529,1,2,0:0:0:0:
192,384,82607,6,0,L|129:379,1,52.5,8|2,0:0|0:0,0:0:0:0:
217,313,82762,2,0,P|269:298|369:323,1,157.5,4|0,0:0|0:0,0:0:0:0:
168,215,83071,6,0,B|27:185|27:185|119:162,1,204.749990627289,6|0,0:0|0:0,0:0:0:0:
276,155,83380,1,8,0:0:0:0:
135,66,83535,2,0,L|210:57,1,52.5,2|2,0:0|0:0,0:0:0:0:
371,32,83689,5,2,0:0:0:0:
403,39,83727,1,2,0:0:0:0:
437,47,83766,1,2,0:0:0:0:
405,56,83804,1,2,0:0:0:0:
371,65,83843,1,2,0:0:0:0:
220,118,83921,1,0,0:0:0:0:
374,209,83999,6,0,L|446:214,1,52.5,2|0,0:0|0:0,0:0:0:0:
217,358,84153,2,0,L|133:364,1,52.5,2|0,0:0|0:0,0:0:0:0:
370,347,84308,6,0,L|478:288,1,120.750002303124,6|2,0:0|0:0,0:0:0:0:
442,316,84501,1,2,0:0:0:0:
407,313,84540,1,2,0:0:0:0:
232,263,84617,1,8,0:0:0:0:
344,247,84772,1,2,0:0:0:0:
147,170,84849,5,2,0:0:0:0:
113,168,84887,1,2,0:0:0:0:
84,149,84926,1,2,0:0:0:0:
69,119,84964,1,2,0:0:0:0:
77,88,85003,1,2,0:0:0:0:
256,27,85081,2,0,L|327:19,1,52.5,8|0,0:0|0:0,0:0:0:0:
130,342,85236,2,0,L|58:350,1,52.5,2|0,0:0|0:0,0:0:0:0:
257,221,85390,2,0,L|192:215,1,52.5,2|0,0:0|0:0,0:0:0:0:
418,127,85545,6,0,L|431:345,1,210,6|2,0:0|0:0,0:0:0:0:
393,337,85893,2,0,L|433:336,7,36.749998878479,2|2|2|2|2|2|2|4,0:0|0:0|0:0|0:0|0:0|0:0|0:0|0:0,0:0:0:0:
275,368,86318,2,0,L|208:359,1,52.5,2|2,0:0|0:0,0:0:0:0:
297,332,86473,2,0,L|179:316,1,105,8|2,0:0|0:0,0:0:0:0:
258,288,86705,1,0,0:0:0:0:
45,275,86782,6,0,L|28:216,3,60.3750011515618,6|0|0|0,0:0|0:0|0:0|0:0,0:0:0:0:
101,167,87091,2,0,L|171:151,3,60.3750011515618,2|0|0|0,0:1|0:0|0:0|0:0,0:0:0:0:
234,79,87401,2,0,L|306:73,3,60.3750011515618,2|0|0|0,0:1|0:0|0:0|0:0,0:0:0:0:
370,42,87710,1,2,0:1:0:0:
395,94,87787,1,0,0:0:0:0:
372,148,87864,1,0,0:0:0:0:
317,168,87941,1,0,0:0:0:0:
101,167,88019,5,6,0:0:0:0:
75,219,88096,1,0,0:0:0:0:
98,273,88173,1,0,0:0:0:0:
153,293,88250,1,0,0:1:0:0:
230,312,88329,2,0,L|301:308,3,60.3750011515618,2|0|0|0,0:1|0:0|0:0|0:0,0:0:0:0:
215,360,88638,2,0,L|132:369,3,60.3750011515618,2|0|0|0,0:1|0:0|0:0|0:0,0:0:0:0:
77,351,88947,2,0,L|50:293,3,60.3750011515618,2|0|0|0,0:1|0:0|0:0|0:0,0:0:0:0:
246,193,89256,6,0,L|307:182,1,60.3750011515618,6|0,0:0|0:0,0:0:0:0:
239,153,89411,2,0,L|168:132,1,60.3750011515618
368,79,89566,2,0,L|446:73,1,60.3750011515618,2|0,0:1|0:0,0:0:0:0:
243,291,89720,2,0,L|182:280,1,60.3750011515618,2|2,0:0|0:0,0:0:0:0:
250,251,89875,2,0,L|321:230,1,60.3750011515618,8|0,0:0|0:0,0:0:0:0:
114,354,90030,5,2,0:0:0:0:
56,347,90107,1,2,0:0:0:0:
33,294,90184,1,10,0:0:0:0:
66,247,90261,1,2,0:0:0:0:
239,153,90339,2,0,L|308:138,1,60.3750011515618,2|2,0:0|0:0,0:0:0:0:
99,76,90494,6,0,L|25:69,2,60.3750011515618,8|2|2,0:0|0:0|0:0,0:0:0:0:
269,273,90726,2,0,L|352:277,2,60.3750011515618,8|2|2,0:0|0:0|0:0,0:0:0:0:
445,148,90957,2,0,L|409:93,1,60.3750011515618,8|2,0:0|0:0,0:0:0:0:
341,82,91112,1,2,0:0:0:0:
163,240,91189,2,0,L|199:185,1,60.3750011515618,8|2,0:0|0:0,0:0:0:0:
267,174,91344,1,2,0:0:0:0:
90,351,91421,2,0,L|23:347,1,60.3750011515618,8|8,0:0|0:0,0:0:0:0:
226,108,91576,2,0,L|299:95,1,60.3750011515618,8|8,0:0|0:0,0:0:0:0:
64,54,91731,5,6,0:0:0:0:
256,192,91808,12,0,94050,0:0:0:0:
228,168,94205,6,0,L|54:139,1,157.5,4|2,0:0|0:0,0:0:0:0:
300,86,94669,2,0,L|315:198,1,105,2|2,0:0|0:0,0:0:0:0:
251,215,94901,1,2,0:1:0:0:
316,251,94978,1,2,0:1:0:0:
382,267,95055,1,2,0:1:0:0:
212,350,95133,6,0,L|103:355,1,105,4|0,0:0|0:0,0:0:0:0:
373,371,95442,2,0,L|382:259,1,105,2|0,0:1|0:0,0:0:0:0:
201,164,95674,2,0,L|75:159,1,105,2|0,0:1|0:0,0:0:0:0:
317,51,95906,1,2,0:1:0:0:
177,37,96061,1,4,0:0:0:0:
148,78,96138,1,2,0:1:0:0:
165,125,96215,1,2,0:1:0:0:
214,138,96292,1,2,0:1:0:0:
292,140,96370,6,0,L|2:160,1,278.250011675835,2|0,0:0|0:0,0:0:0:0:
313,356,96679,6,0,L|328:273,1,57.7500017623902,6|0,0:0|0:0,0:0:0:0:
240,314,96834,2,0,L|236:245,1,57.7500017623902
149,246,96988,2,0,L|124:173,1,57.7500017623902,8|0,0:0|0:0,0:0:0:0:
344,226,97143,6,0,L|361:134,1,57.7500017623902
264,167,97298,2,0,L|260:91,1,57.7500017623902,2|0,0:0|0:0,0:0:0:0:
167,120,97452,2,0,L|139:39,1,57.7500017623902
366,44,97607,6,0,L|299:31,1,57.7500017623902,8|2,0:0|0:0,0:0:0:0:
282,42,97722,1,2,0:0:0:0:
268,67,97761,1,2,0:0:0:0:
273,94,97799,1,2,0:0:0:0:
295,112,97838,1,2,0:0:0:0:
468,161,97916,2,0,L|487:246,1,57.7500017623902,2|0,0:0|0:0,0:0:0:0:
292,306,98071,6,0,L|217:294,1,57.7500017623902,2|0,0:1|0:0,0:0:0:0:
310,255,98226,2,0,L|388:251,1,57.7500017623902,8|0,0:0|0:0,0:0:0:0:
162,361,98380,2,0,L|81:353,1,57.7500017623902,2|0,0:1|0:0,0:0:0:0:
296,343,98535,1,2,0:0:0:0:
359,304,98612,1,2,0:1:0:0:
330,299,98650,1,2,0:1:0:0:
302,294,98689,1,2,0:0:0:0:
126,254,98767,1,0,0:0:0:0:
296,182,98844,2,0,L|359:166,1,57.7500017623902,10|2,0:0|0:0,0:0:0:0:
290,140,98999,2,0,L|221:126,1,57.7500017623902,2|2,0:0|0:0,0:0:0:0:
22,205,99153,6,0,L|44:128,1,57.7500017623902,4|0,0:0|0:0,0:0:0:0:
120,145,99308,2,0,L|142:68,1,57.7500017623902
224,94,99463,2,0,L|246:17,1,57.7500017623902,8|0,0:0|0:0,0:0:0:0:
33,261,99617,6,0,L|55:184,1,57.7500017623902,2|0,0:1|0:0,0:0:0:0:
134,204,99772,2,0,L|156:127,1,57.7500017623902,2|2,0:0|0:0,0:0:0:0:
240,149,99927,2,0,L|262:72,1,57.7500017623902,2|0,0:0|0:0,0:0:0:0:
60,331,100081,2,0,L|143:331,1,57.7500017623902,8|2,0:0|0:0,0:0:0:0:
147,336,100197,1,2,0:0:0:0:
177,334,100236,1,2,0:0:0:0:
147,330,100274,1,2,0:0:0:0:
115,331,100313,1,2,0:0:0:0:
297,359,100390,6,0,L|357:357,1,57.7500017623902,2|2,0:0|0:0,0:0:0:0:
181,376,100545,2,0,L|104:370,1,57.7500017623902,2|0,0:1|0:0,0:0:0:0:
196,347,100700,2,0,L|202:259,1,57.7500017623902,8|0,0:0|0:0,0:0:0:0:
34,178,100854,2,0,L|101:173,1,57.7500017623902,2|0,0:0|0:0,0:0:0:0:
232,82,101009,1,2,0:0:0:0:
373,62,101086,1,2,0:0:0:0:
232,82,101164,2,0,L|169:72,1,57.7500017623902,2|0,0:0|0:0,0:0:0:0:
349,184,101318,2,0,L|434:181,1,57.7500017623902,8|0,0:0|0:0,0:0:0:0:
342,216,101473,2,0,L|249:222,1,57.7500017623902,2|0,0:0|0:0,0:0:0:0:
472,352,101628,6,0,L|489:277,1,57.7500017623902,6|0,0:0|0:0,0:0:0:0:
404,277,101782,2,0,L|395:201,1,57.7500017623902
310,204,101937,2,0,L|276:136,1,57.7500017623902,8|0,0:0|0:0,0:0:0:0:
476,256,102091,6,0,L|493:181,1,57.7500017623902,2|0,0:1|0:0,0:0:0:0:
406,181,102245,2,0,L|397:105,1,57.7500017623902,2|0,0:0|0:0,0:0:0:0:
310,108,102400,2,0,L|276:40,1,57.7500017623902
471,101,102555,2,0,L|438:36,1,57.7500017623902,8|0,0:0|0:0,0:0:0:0:
376,26,102710,1,2,0:0:0:0:
304,20,102787,1,2,0:0:0:0:
137,229,102865,2,0,L|209:234,1,57.7500017623902,2|2,0:0|0:0,0:0:0:0:
366,355,103019,6,0,L|286:349,1,57.7500017623902,2|0,0:0|0:0,0:0:0:0:
376,322,103174,2,0,L|450:311,1,57.7500017623902,10|2,0:0|0:0,0:0:0:0:
266,284,103329,2,0,L|184:282,1,57.7500017623902,2|0,0:0|0:0,0:0:0:0:
356,213,103483,1,2,0:0:0:0:
203,188,103561,1,2,0:0:0:0:
170,184,103599,1,2,0:0:0:0:
133,177,103638,2,0,L|124:107,1,57.7500017623902,2|0,0:0|0:0,0:0:0:0:
281,42,103793,2,0,L|221:30,1,57.7500017623902,8|0,0:0|0:0,0:0:0:0:
71,275,103947,2,0,L|8:267,1,57.7500017623902,2|0,0:0|0:0,0:0:0:0:
157,353,104102,5,4,0:0:0:0:
300,352,104179,2,0,L|376:342,2,57.7500017623902,0|2|2,0:0|0:0|0:0,0:0:0:0:
233,286,104411,2,0,L|301:275,1,57.7500017623902,8|0,0:0|0:0,0:0:0:0:
461,261,104566,2,0,L|435:200,1,57.7500017623902,2|0,0:0|0:0,0:0:0:0:
368,183,104720,2,0,L|301:183,1,57.7500017623902,2|2,0:0|0:0,0:0:0:0:
487,83,104875,2,0,L|417:77,1,57.7500017623902,2|0,0:0|0:0,0:0:0:0:
262,29,105030,2,0,L|347:26,1,57.7500017623902,10|2,0:0|0:0,0:0:0:0:
257,81,105184,1,2,0:0:0:0:
193,101,105262,1,2,0:0:0:0:
17,172,105339,6,0,L|38:241,1,57.7500017623902,4|0,0:0|0:0,0:0:0:0:
105,251,105494,1,0,0:0:0:0:
280,364,105571,2,0,L|259:295,1,57.7500017623902,2|2,0:0|0:0,0:0:0:0:
192,285,105726,1,2,0:0:0:0:
372,289,105803,6,0,L|351:220,1,57.7500017623902,2|0,0:0|0:0,0:0:0:0:
284,210,105958,1,2,0:0:0:0:
125,160,106035,1,2,0:0:0:0:
279,118,106112,2,0,L|342:112,1,52.5,2|0,0:0|0:0,0:0:0:0:
152,61,106267,2,0,L|63:52,1,52.5,10|2,0:0|0:0,0:0:0:0:
244,28,106421,1,2,0:0:0:0:
391,34,106499,1,2,0:0:0:0:
181,261,106576,6,0,L|105:273,1,57.7500017623902,6|0,0:0|0:0,0:0:0:0:
207,322,106731,2,0,L|216:250,1,57.7500017623902,2|2,0:0|0:0,0:0:0:0:
300,264,106885,2,0,L|316:199,1,57.7500017623902,8|0,0:0|0:0,0:0:0:0:
129,193,107040,6,0,L|53:205,1,57.7500017623902,2|0,0:0|0:0,0:0:0:0:
158,254,107195,2,0,L|167:182,1,57.7500017623902,2|2,0:0|0:0,0:0:0:0:
254,195,107349,2,0,L|270:130,1,57.7500017623902,2|0,0:0|0:0,0:0:0:0:
85,50,107504,5,8,0:0:0:0:
24,49,107581,1,2,0:0:0:0:
54,58,107619,1,2,0:0:0:0:
85,83,107658,1,2,0:0:0:0:
55,115,107696,1,2,0:0:0:0:
23,126,107735,1,2,0:0:0:0:
194,289,107813,2,0,L|258:284,1,57.7500017623902,2|0,0:0|0:0,0:0:0:0:
80,363,107968,6,0,L|5:358,1,57.7500017623902
93,338,108122,2,0,L|104:251,1,57.7500017623902,10|2,0:0|0:0,0:0:0:0:
275,170,108277,2,0,L|188:164,1,57.7500017623902,2|0,0:0|0:0,0:0:0:0:
73,93,108432,1,2,0:0:0:0:
215,62,108509,1,2,0:0:0:0:
245,62,108548,1,2,0:0:0:0:
275,65,108586,1,2,0:0:0:0:
214,46,108664,1,0,0:0:0:0:
392,189,108741,2,0,L|466:193,1,57.7500017623902,8|0,0:0|0:0,0:0:0:0:
286,320,108896,2,0,L|205:319,1,57.7500017623902,2|0,0:0|0:0,0:0:0:0:
438,369,109050,6,0,L|448:306,1,57.7500017623902,4|0,0:0|0:0,0:0:0:0:
363,303,109205,2,0,L|300:294,1,57.7500017623902
220,265,109360,2,0,L|210:203,1,57.7500017623902,8|0,0:0|0:0,0:0:0:0:
406,200,109514,6,0,L|393:140,1,57.7500017623902
309,109,109669,2,0,L|246:100,1,57.7500017623902,2|2,0:0|0:0,0:0:0:0:
164,79,109824,2,0,L|180:22,1,57.7500017623902,2|0,0:0|0:0,0:0:0:0:
328,13,109978,1,8,0:0:0:0:
480,86,110055,1,2,0:0:0:0:
449,96,110094,1,2,0:0:0:0:
418,110,110133,1,2,0:0:0:0:
450,123,110171,1,2,0:0:0:0:
485,131,110210,1,2,0:0:0:0:
299,212,110287,2,0,L|223:219,1,57.7500017623902,8|0,0:0|0:0,0:0:0:0:
434,335,110442,6,0,L|512:343,1,57.7500017623902
419,380,110597,2,0,L|408:315,1,57.7500017623902,8|0,0:0|0:0,0:0:0:0:
227,299,110751,2,0,L|247:243,1,57.7500017623902,2|0,0:0|0:0,0:0:0:0:
320,220,110906,2,0,L|384:211,1,57.7500017623902,2|2,0:0|0:0,0:0:0:0:
194,151,111061,2,0,L|120:143,1,57.7500017623902,2|0,0:0|0:0,0:0:0:0:
312,64,111215,2,0,L|245:54,1,57.7500017623902,8|0,0:0|0:0,0:0:0:0:
78,47,111370,1,2,0:0:0:0:
49,45,111408,1,2,0:0:0:0:
20,44,111447,1,2,0:0:0:0:
207,276,111524,6,0,L|293:283,2,57.7500017623902,6|0|0,0:0|0:0|0:0,0:0:0:0:
37,362,111756,2,0,L|102:332,1,57.7500017623902,2|0,0:0|0:0,0:0:0:0:
236,346,111911,1,2,0:0:0:0:
389,309,111988,2,0,L|399:244,1,57.7500017623902
226,173,112143,2,0,L|157:171,2,57.7500017623902,2|2|0,0:0|0:0|0:0,0:0:0:0:
374,119,112375,1,2,0:0:0:0:
225,72,112452,6,0,L|155:75,1,57.7500017623902,8|2,0:0|0:0,0:0:0:0:
348,33,112607,2,0,L|430:28,1,57.7500017623902,2|0,0:0|0:0,0:0:0:0:
227,255,112762,2,0,L|244:319,1,57.7500017623902,2|2,0:0|0:0,0:0:0:0:
384,351,112916,1,2,0:0:0:0:
238,361,112994,2,0,L|165:334,1,57.7500017623902,2|2,0:0|0:0,0:0:0:0:
120,353,113148,1,2,0:0:0:0:
290,213,113226,2,0,L|221:205,1,57.7500017623902,2|2,0:0|0:0,0:0:0:0:
47,126,113380,6,0,L|33:57,1,57.7500017623902,8|0,0:0|0:0,0:0:0:0:
102,39,113535,1,0,0:0:0:0:
290,64,113612,2,0,L|355:67,2,57.7500017623902,8|0|0,0:0|0:0|0:0,0:0:0:0:
111,257,113844,2,0,L|183:266,1,57.7500017623902,8|0,0:0|0:0,0:0:0:0:
352,331,113999,2,0,L|438:323,1,57.7500017623902,10|2,0:0|0:0,0:0:0:0:
223,362,114153,6,0,L|140:354,1,57.7500017623902,2|0,0:0|0:0,0:0:0:0:
336,292,114308,2,0,L|352:229,1,57.7500017623902,8|0,0:0|0:0,0:0:0:0:
157,176,114463,2,0,L|88:169,1,57.7500017623902,2|0,0:0|0:0,0:0:0:0:
298,141,114617,2,0,L|278:76,1,57.7500017623902,8|0,0:0|0:0,0:0:0:0:
83,40,114772,2,0,L|5:40,1,57.7500017623902,2|0,0:0|0:0,0:0:0:0:
237,239,114927,6,0,L|321:236,1,57.7500017623902,8|0,0:0|0:0,0:0:0:0:
157,314,115081,1,2,0:0:0:0:
17,345,115159,1,2,0:0:0:0:
176,357,115236,6,0,L|262:360,1,57.7500017623902,2|0,0:0|0:0,0:0:0:0:
411,328,115390,2,0,L|416:264,1,57.7500017623902,8|0,0:0|0:0,0:0:0:0:
226,179,115545,2,0,L|306:170,1,57.7500017623902,2|0,0:0|0:0,0:0:0:0:
470,137,115700,2,0,L|482:69,1,57.7500017623902,2|0,0:0|0:0,0:0:0:0:
280,32,115854,2,0,L|198:39,1,57.7500017623902,2|2,0:0|0:0,0:0:0:0:
375,104,116009,1,2,0:0:0:0:
224,160,116086,1,2,0:0:0:0:
74,216,116164,6,0,L|14:218,1,52.5,8|0,0:0|0:0,0:0:0:0:
88,264,116318,2,0,L|209:272,1,105,2|0,0:0|0:0,0:0:0:0:
106,312,116576,1,2,0:0:0:0:
194,347,116679,1,2,0:0:0:0:
433,218,116782,6,0,L|363:209,1,52.5,2|2,0:0|0:0,0:0:0:0:
180,59,116937,2,0,L|252:53,1,52.5,2|2,0:0|0:0,0:0:0:0:
446,347,117091,6,0,L|334:333,1,105,6|2,0:0|0:0,0:0:0:0:
278,345,117323,1,0,0:0:0:0:
341,333,117401,1,2,0:0:0:0:
405,324,117478,1,2,0:0:0:0:
166,269,117555,2,0,L|50:260,1,105,8|2,0:0|0:0,0:0:0:0:
121,230,117787,1,0,0:0:0:0:
301,89,117865,6,0,L|222:89,1,52.5,8|0,0:0|0:0,0:0:0:0:
36,111,118019,2,0,L|45:166,1,52.5,2|2,0:0|0:0,0:0:0:0:
132,171,118174,2,0,L|146:230,1,52.5,2|2,0:0|0:0,0:0:0:0:
343,272,118329,2,0,L|103:74,3,288.750002753735,8|2|2|8,0:0|0:0|0:0|0:0,0:0:0:0:
259,54,118947,2,0,L|338:51,1,52.5,2|2,0:0|0:0,0:0:0:0:
257,22,119102,2,8,B|134:146|134:146|134:319|134:319|134:137|134:137|134:320|134:320|503:302,1,1039.50000991344
480,107,119643,5,0,0:0:0:0:
330,170,119720,2,0,L|348:242,1,52.5,2|0,0:0|0:0,0:0:0:0:
494,330,119875,2,0,L|410:336,1,52.5,2|2,0:0|0:0,0:0:0:0:
295,311,120030,1,10,0:0:0:0:
441,333,120107,1,2,0:0:0:0:
292,347,120184,2,0,L|199:353,1,52.5,2|0,0:0|0:0,0:0:0:0:
379,376,120339,1,2,0:0:0:0:
228,293,120416,6,0,L|154:288,2,52.5,8|2|2,0:0|0:0|0:0,0:0:0:0:
391,191,120648,2,0,L|466:182,2,52.5,8|2|2,0:0|0:0|0:0,0:0:0:0:
251,163,120880,1,2,0:0:0:0:
112,154,120957,2,0,L|103:86,1,52.5,8|0,0:0|0:0,0:0:0:0:
261,45,121112,1,2,0:0:0:0:
197,88,121189,1,2,0:0:0:0:
226,102,121228,1,2,0:0:0:0:
258,116,121267,1,2,0:0:0:0:
331,129,121344,1,0,0:0:0:0:
85,371,121421,6,0,L|81:355,1,15.75,4|0,0:0|0:0,0:0:0:0:
278,331,121731,6,0,L|291:276,1,52.5,6|0,0:0|0:0,0:0:0:0:
150,237,121885,2,0,L|163:182,1,52.5,2|0,0:0|0:0,0:0:0:0:
19,145,122040,1,8,0:0:0:0:
162,185,122117,1,0,0:0:0:0:
190,179,122155,1,0,0:0:0:0:
218,173,122194,1,2,0:0:0:0:
224,126,122272,1,0,0:0:0:0:
48,250,122349,2,0,L|121:255,1,52.5,2|2,0:0|0:0,0:0:0:0:
165,305,122504,2,0,L|216:293,1,52.5,8|0,0:0|0:0,0:0:0:0:
32,93,122659,6,0,L|19:145,1,52.5,2|0,0:0|0:0,0:0:0:0:
162,185,122814,2,0,L|149:237,1,52.5,8|0,0:0|0:0,0:0:0:0:
290,278,122968,1,2,0:0:0:0:
149,235,123045,1,0,0:0:0:0:
121,238,123083,1,0,0:0:0:0:
94,241,123122,1,2,0:0:0:0:
97,277,123200,1,0,0:0:0:0:
285,109,123277,2,0,L|214:122,1,52.5,8|0,0:0|0:0,0:0:0:0:
302,153,123432,2,0,L|394:156,1,52.5,2|2,0:1|0:1,0:0:0:0:
170,296,123586,2,0,L|247:308,1,52.5,2|2,0:0|0:0,0:0:0:0:
406,344,123741,2,0,L|465:335,1,52.5,10|2,0:0|0:0,0:0:0:0:
287,236,123896,6,0,L|215:228,1,52.5,2|0,0:0|0:0,0:0:0:0:
304,199,124050,2,2,L|350:188,1,26.25
301,169,124128,2,0,L|173:161,1,125.999996154785,8|0,0:0|0:0,0:0:0:0:
354,68,124360,2,0,L|429:61,1,52.5,2|0,0:0|0:0,0:0:0:0:
223,340,124514,2,0,L|200:268,1,52.5,8|0,0:0|0:0,0:0:0:0:
290,271,124669,2,0,L|273:213,1,52.5,2|2,0:0|0:0,0:0:0:0:
89,146,124823,2,0,L|7:139,1,52.5,2|0,0:0|0:0,0:0:0:0:
228,51,124978,2,0,L|143:43,1,52.5,8|0,0:0|0:0,0:0:0:0:
346,165,125133,6,0,L|473:128,1,115.50000352478,6|2,0:0|0:0,0:0:0:0:
398,182,125365,1,0,0:0:0:0:
225,340,125442,2,0,L|213:282,1,57.7500017623902,2|2,0:0|0:0,0:0:0:0:
405,263,125597,2,0,L|273:302,1,115.50000352478,8|2,0:0|0:0,0:0:0:0:
357,320,125829,1,2,0:0:0:0:
168,209,125906,2,0,L|103:199,1,57.7500017623902,2|0,0:0|0:0,0:0:0:0:
374,213,126061,6,0,P|203:54|-6:61,1,420,8|0,0:0|0:0,0:0:0:0:
19,194,126370,1,0,0:0:0:0:
27,239,126473,1,2,0:0:0:0:
43,278,126576,1,2,0:0:0:0:
278,348,126679,6,0,L|323:348,2,26.25,2|2|2,0:0|0:0|0:0,0:0:0:0:
230,349,126795,1,2,0:0:0:0:
175,351,126834,2,0,L|130:351,2,26.25,2|2|2,0:0|0:0|0:0,0:0:0:0:
369,186,126988,6,0,L|253:182,1,105,8|2,0:0|0:0,0:0:0:0:
323,146,127220,1,0,0:0:0:0:
262,132,127298,1,2,0:0:0:0:
200,123,127375,1,2,0:0:0:0:
379,297,127452,2,0,L|265:274,1,105,8|2,0:0|0:0,0:0:0:0:
337,252,127684,1,0,0:0:0:0:
156,59,127762,2,0,L|266:41,1,105,8|2,0:0|0:0,0:0:0:0:
317,52,127994,1,0,0:0:0:0:
377,76,128071,2,0,L|375:144,1,52.5,2|2,0:0|0:0,0:0:0:0:
157,357,128226,6,0,L|415:213,3,293.999991027832,8|2|2|8,0:0|0:0|0:0|0:0,0:0:0:0:
262,162,128844,2,0,L|189:150,1,52.5,2|2,0:0|0:0,0:0:0:0:
288,70,128999,2,8,B|408:202|408:202|408:22|408:22|408:210|408:210|408:42|408:42|14:24,1,1071.0000204277
31,110,129540,5,0,0:0:0:0:
191,132,129617,2,0,L|207:201,1,52.5,2|0,0:0|0:0,0:0:0:0:
21,303,129772,2,0,L|106:306,1,52.5,2|0,0:0|0:0,0:0:0:0:
222,342,129927,1,2,0:0:0:0:
73,304,130004,1,2,0:0:0:0:
225,257,130081,2,0,L|298:248,1,52.5,8|0,0:0|0:0,0:0:0:0:
129,204,130236,1,2,0:0:0:0:
276,172,130313,1,8,0:0:0:0:
428,100,130390,6,0,L|360:92,1,52.5,2|0,0:0|0:0,0:0:0:0:
209,58,130545,2,0,L|134:57,1,52.5,8|0,0:0|0:0,0:0:0:0:
301,184,130700,1,2,0:0:0:0:
449,243,130777,1,2,0:0:0:0:
300,353,130854,2,0,L|222:354,1,52.5,8|0,0:0|0:0,0:0:0:0:
448,324,131009,5,2,0:0:0:0:
472,309,131047,1,2,0:0:0:0:
481,283,131086,1,2,0:0:0:0:
472,257,131124,1,2,0:0:0:0:
449,243,131163,1,2,0:0:0:0:
376,236,131241,1,0,0:0:0:0:
140,261,131318,6,0,L|135:242,1,15.75,4|0,0:0|0:0,0:0:0:0:
323,142,131628,6,0,L|385:132,1,52.5,2|0,0:0|0:0,0:0:0:0:
195,58,131782,2,0,L|257:49,1,52.5,2|0,0:0|0:0,0:0:0:0:
60,158,131937,1,8,0:0:0:0:
205,191,132014,1,0,0:0:0:0:
236,191,132052,1,0,0:0:0:0:
268,191,132091,1,2,0:0:0:0:
327,203,132169,1,0,0:0:0:0:
163,353,132246,2,0,L|233:361,1,52.5,2|0,0:0|0:0,0:0:0:0:
294,353,132401,2,0,L|290:289,1,52.5,8|0,0:0|0:0,0:0:0:0:
112,159,132555,6,0,L|60:158,1,52.5,2|0,0:0|0:0,0:0:0:0:
246,50,132710,2,0,L|195:58,1,52.5,8|0,0:0|0:0,0:0:0:0:
374,133,132865,1,2,0:0:0:0:
221,169,132942,1,0,0:0:0:0:
192,171,132980,1,0,0:0:0:0:
164,173,133019,1,2,0:0:0:0:
149,222,133097,1,0,0:0:0:0:
317,363,133174,2,0,L|240:352,1,52.5,2|2,0:0|0:1,0:0:0:0:
329,312,133329,2,0,L|245:303,1,52.5,2|2,0:1|0:1,0:0:0:0:
94,182,133483,2,0,L|159:158,1,52.5,2|2,0:0|0:1,0:0:0:0:
332,46,133638,2,0,L|258:37,1,52.5,8|2,0:0|0:1,0:0:0:0:
19,42,133793,6,0,P|149:208|330:222,1,388.49999851799,4|0,0:0|0:0,0:0:0:0:
167,298,134102,1,2,0:0:0:0:
110,326,134179,1,2,0:0:0:0:
49,335,134256,1,2,0:0:0:0:
183,143,134411,1,2,0:0:0:0:
244,162,134488,1,2,0:0:0:0:
183,143,134566,1,2,0:0:0:0:
426,78,134720,2,0,L|337:72,1,52.5,2|2,0:0|0:0,0:0:0:0:
197,26,134875,2,0,L|273:13,1,52.5,2|2,0:0|0:0,0:0:0:0:
479,169,135030,6,0,L|462:249,1,57.7500017623902,2|2,0:0|0:0,0:0:0:0:
234,259,135184,2,0,L|213:329,1,57.7500017623902,2|0,0:0|0:0,0:0:0:0:
309,124,135339,2,0,L|288:194,1,57.7500017623902,2|0,0:0|0:0,0:0:0:0:
91,239,135494,2,0,L|6:246,1,57.7500017623902,2|0,0:0|0:0,0:0:0:0:
243,324,135648,5,4,0:0:0:0:
381,343,135726,1,0,0:0:0:0:
181,113,135803,5,2,0:0:0:0:
43,129,135881,1,0,0:0:0:0:
295,39,135957,5,2,0:0:0:0:
467,55,136035,1,2,0:0:0:0:
207,343,136112,5,2,0:0:0:0:
35,361,136190,1,2,0:0:0:0:
292,179,136267,5,6,0:0:0:0:
