osu file format v14

[General]
AudioFilename: audio.mp3
AudioLeadIn: 0
PreviewTime: 21987
Countdown: 0
SampleSet: Normal
StackLeniency: 0.7
Mode: 1
LetterboxInBreaks: 0
WidescreenStoryboard: 1

[Editor]
Bookmarks: 52843,82869,117863,131007
DistanceSpacing: 2.8
BeatDivisor: 4
GridSize: 32
TimelineZoom: 2

[Metadata]
Title:Fluctuation
TitleUnicode:Fluctuation
Artist:Zekk
ArtistUnicode:Zekk
Creator:Capu
Version:Muzukashii
Source:osu!
Tags:fa featured artist instrumental electronic dance music hivie axer
BeatmapID:2526290
BeatmapSetID:1145783

[Difficulty]
HPDrainRate:6
CircleSize:2
OverallDifficulty:5
ApproachRate:10
SliderMultiplier:1.4
SliderTickRate:1

[Events]
//Background and Video events
0,0,"2020-04-17_Zekk-Fluctuation-CapuBG.png",0,70
//Break Periods
2,42452,46751
2,72143,81390
//Storyboard Layer 0 (Background)
//Storyboard Layer 1 (Fail)
//Storyboard Layer 2 (Pass)
//Storyboard Layer 3 (Foreground)
//Storyboard Layer 4 (Overlay)
//Storyboard Sound Samples

[TimingPoints]
191,309.278350515464,4,1,0,100,1,0
9104,-100,4,1,0,100,0,0
96685,-100,4,1,0,100,0,1
105345,-100,4,1,0,100,0,0
106582,-100,4,1,0,100,0,1
116479,-100,4,1,0,100,0,0

[HitObjects]
256,192,6376,12,0,7613,0:0:0:0:
256,192,7922,5,0,0:0:0:0:
256,192,8232,12,0,8850,0:0:0:0:
256,192,9469,12,0,10087,0:0:0:0:
259,199,10397,5,0,0:0:0:0:
256,192,11325,12,0,12252,0:0:0:0:
256,192,12562,5,4,0:0:0:0:
256,192,12871,1,8,0:0:0:0:
256,192,13026,1,0,0:0:0:0:
256,192,13103,1,8,0:0:0:0:
256,192,13335,1,0,0:0:0:0:
256,192,13412,1,0,0:0:0:0:
256,192,13489,1,0,0:0:0:0:
256,192,13799,1,4,0:0:0:0:
256,192,14108,1,8,0:0:0:0:
256,192,14263,1,0,0:0:0:0:
256,192,14340,1,8,0:0:0:0:
256,192,14572,1,0,0:0:0:0:
256,192,14727,1,8,0:0:0:0:
256,192,14881,1,8,0:0:0:0:
256,192,15036,1,4,0:0:0:0:
256,192,15345,1,8,0:0:0:0:
256,192,15500,1,0,0:0:0:0:
256,192,15577,1,8,0:0:0:0:
256,192,15809,1,0,0:0:0:0:
256,192,15964,1,8,0:0:0:0:
256,192,16041,1,8,0:0:0:0:
256,192,16118,1,8,0:0:0:0:
256,192,16273,1,0,0:0:0:0:
256,192,17510,1,4,0:0:0:0:
256,192,17819,1,0,0:0:0:0:
256,192,18129,1,0,0:0:0:0:
256,192,18438,1,0,0:0:0:0:
256,192,18593,1,0,0:0:0:0:
256,192,18747,1,4,0:0:0:0:
256,192,19056,1,0,0:0:0:0:
256,192,19366,1,0,0:0:0:0:
256,192,19675,1,0,0:0:0:0:
256,192,19830,1,0,0:0:0:0:
256,192,19984,1,4,0:0:0:0:
256,192,20216,1,8,0:0:0:0:
256,192,20448,1,8,0:0:0:0:
256,192,20680,1,0,0:0:0:0:
256,192,20758,1,0,0:0:0:0:
256,192,20912,1,8,0:0:0:0:
256,192,21067,1,8,0:0:0:0:
256,192,21221,1,4,0:0:0:0:
256,192,22149,1,12,0:0:0:0:
256,192,22459,1,4,0:0:0:0:
256,192,23077,1,12,0:0:0:0:
256,192,23232,1,0,0:0:0:0:
256,192,23386,1,8,0:0:0:0:
256,192,23464,1,8,0:0:0:0:
256,192,23541,1,8,0:0:0:0:
256,192,23850,1,8,0:0:0:0:
256,192,24005,1,0,0:0:0:0:
256,192,24160,1,0,0:0:0:0:
256,192,24314,1,8,0:0:0:0:
256,192,24469,1,8,0:0:0:0:
256,192,24623,1,0,0:0:0:0:
256,192,24778,1,0,0:0:0:0:
256,192,24933,1,8,0:0:0:0:
256,192,25087,1,0,0:0:0:0:
256,192,25551,1,12,0:0:0:0:
256,192,25706,1,8,0:0:0:0:
256,192,25861,1,0,0:0:0:0:
256,192,26015,1,8,0:0:0:0:
256,192,26093,1,8,0:0:0:0:
256,192,26170,1,8,0:0:0:0:
256,192,26402,1,8,0:0:0:0:
256,192,26634,1,8,0:0:0:0:
256,192,26943,1,8,0:0:0:0:
256,192,27098,1,0,0:0:0:0:
256,192,27175,1,0,0:0:0:0:
256,192,27252,1,0,0:0:0:0:
256,192,27407,1,12,0:0:0:0:
256,192,27716,1,8,0:0:0:0:
256,192,27794,1,8,0:0:0:0:
256,192,27871,1,8,0:0:0:0:
256,192,28025,1,8,0:0:0:0:
256,192,28180,1,8,0:0:0:0:
256,192,28644,1,8,0:0:0:0:
256,192,28799,1,8,0:0:0:0:
256,192,28876,1,8,0:0:0:0:
256,192,28953,1,8,0:0:0:0:
256,192,29108,1,8,0:0:0:0:
256,192,29263,1,0,0:0:0:0:
256,192,29727,1,0,0:0:0:0:
256,192,29881,1,0,0:0:0:0:
256,192,29959,1,0,0:0:0:0:
256,192,30036,1,0,0:0:0:0:
256,192,30345,1,0,0:0:0:0:
256,192,30500,1,8,0:0:0:0:
256,192,30654,1,0,0:0:0:0:
256,192,30809,1,8,0:0:0:0:
256,192,30964,1,8,0:0:0:0:
256,192,31118,1,0,0:0:0:0:
256,192,31273,1,8,0:0:0:0:
256,192,31350,1,8,0:0:0:0:
256,192,31428,1,8,0:0:0:0:
256,192,31582,1,0,0:0:0:0:
256,192,31737,1,8,0:0:0:0:
256,192,31814,1,8,0:0:0:0:
256,192,31892,1,8,0:0:0:0:
256,192,32046,1,0,0:0:0:0:
256,192,32665,1,8,0:0:0:0:
256,192,32819,1,0,0:0:0:0:
256,192,32974,1,8,0:0:0:0:
256,192,33129,1,0,0:0:0:0:
256,192,33283,1,8,0:0:0:0:
256,192,33361,1,8,0:0:0:0:
256,192,33438,1,8,0:0:0:0:
256,192,33747,1,8,0:0:0:0:
256,192,33902,1,0,0:0:0:0:
256,192,34056,1,0,0:0:0:0:
256,192,34211,1,8,0:0:0:0:
256,192,34366,1,8,0:0:0:0:
256,192,34520,1,0,0:0:0:0:
256,192,34675,1,0,0:0:0:0:
256,192,34830,1,8,0:0:0:0:
256,192,34984,1,0,0:0:0:0:
256,192,35448,1,8,0:0:0:0:
256,192,35603,1,0,0:0:0:0:
256,192,35757,1,8,0:0:0:0:
256,192,35912,1,8,0:0:0:0:
256,192,35989,1,8,0:0:0:0:
256,192,36067,1,8,0:0:0:0:
256,192,36299,1,8,0:0:0:0:
256,192,36531,1,0,0:0:0:0:
256,192,36608,1,0,0:0:0:0:
256,192,36685,1,0,0:0:0:0:
256,192,36840,1,8,0:0:0:0:
256,192,36995,1,0,0:0:0:0:
256,192,37304,1,12,0:0:0:0:
256,192,37613,1,8,0:0:0:0:
256,192,37691,1,8,0:0:0:0:
256,192,37768,1,8,0:0:0:0:
256,192,37922,1,8,0:0:0:0:
256,192,38077,1,8,0:0:0:0:
256,192,38541,1,8,0:0:0:0:
256,192,38696,1,8,0:0:0:0:
256,192,38773,1,8,0:0:0:0:
256,192,38850,1,8,0:0:0:0:
256,192,39005,1,8,0:0:0:0:
256,192,39160,1,0,0:0:0:0:
256,192,39623,1,0,0:0:0:0:
256,192,39778,12,0,41015,0:0:0:0:
256,192,41170,5,8,0:0:0:0:
256,192,41634,1,8,0:0:0:0:
256,192,41788,1,8,0:0:0:0:
256,192,41943,1,8,0:0:0:0:
256,192,42098,1,8,0:0:0:0:
256,192,42252,1,0,0:0:0:0:
256,192,47201,5,0,0:0:0:0:
256,192,49675,1,0,0:0:0:0:
256,192,50139,1,0,0:0:0:0:
256,192,50603,1,0,0:0:0:0:
256,192,50912,1,8,0:0:0:0:
256,192,52149,5,0,0:0:0:0:
256,192,52768,1,8,0:0:0:0:
256,192,52845,1,8,0:0:0:0:
256,192,52922,1,8,0:0:0:0:
256,192,53077,1,0,0:0:0:0:
256,192,53232,1,8,0:0:0:0:
256,192,53309,1,8,0:0:0:0:
256,192,53386,1,8,0:0:0:0:
256,192,53541,1,0,0:0:0:0:
256,192,53696,1,8,0:0:0:0:
256,192,53773,1,8,0:0:0:0:
256,192,53850,1,8,0:0:0:0:
256,192,54005,1,8,0:0:0:0:
256,192,54237,1,8,0:0:0:0:
256,192,54469,1,8,0:0:0:0:
256,192,54623,1,0,0:0:0:0:
256,192,55087,1,0,0:0:0:0:
256,192,55242,1,8,0:0:0:0:
256,192,55397,1,8,0:0:0:0:
256,192,55551,1,0,0:0:0:0:
256,192,55706,1,0,0:0:0:0:
256,192,55861,1,8,0:0:0:0:
256,192,55938,1,8,0:0:0:0:
256,192,56015,1,8,0:0:0:0:
256,192,56170,1,0,0:0:0:0:
256,192,56479,1,8,0:0:0:0:
256,192,56711,1,8,0:0:0:0:
256,192,56943,1,8,0:0:0:0:
256,192,57098,1,0,0:0:0:0:
256,192,57407,1,8,0:0:0:0:
256,192,57716,1,8,0:0:0:0:
256,192,57794,1,8,0:0:0:0:
256,192,57871,1,8,0:0:0:0:
256,192,58026,1,0,0:0:0:0:
256,192,58180,1,8,0:0:0:0:
256,192,58258,1,8,0:0:0:0:
256,192,58335,1,8,0:0:0:0:
256,192,58489,1,0,0:0:0:0:
256,192,58644,1,8,0:0:0:0:
256,192,58721,1,8,0:0:0:0:
256,192,58799,1,8,0:0:0:0:
256,192,58953,1,8,0:0:0:0:
256,192,59108,1,0,0:0:0:0:
256,192,59263,1,0,0:0:0:0:
256,192,59417,1,0,0:0:0:0:
256,192,59727,1,8,0:0:0:0:
256,192,59881,1,0,0:0:0:0:
256,192,60036,1,8,0:0:0:0:
256,192,60191,1,0,0:0:0:0:
256,192,60268,1,0,0:0:0:0:
256,192,60345,1,0,0:0:0:0:
256,192,60500,1,8,0:0:0:0:
256,192,60654,1,0,0:0:0:0:
256,192,60809,1,8,0:0:0:0:
256,192,60886,1,8,0:0:0:0:
256,192,60964,1,8,0:0:0:0:
256,192,61118,1,0,0:0:0:0:
256,192,61428,1,0,0:0:0:0:
256,192,61660,1,0,0:0:0:0:
256,192,61892,1,0,0:0:0:0:
256,192,62046,1,8,0:0:0:0:
256,192,62665,1,8,0:0:0:0:
256,192,62742,1,8,0:0:0:0:
256,192,62819,1,8,0:0:0:0:
256,192,62974,1,0,0:0:0:0:
256,192,63129,1,8,0:0:0:0:
256,192,63206,1,8,0:0:0:0:
256,192,63283,1,8,0:0:0:0:
256,192,63438,1,0,0:0:0:0:
256,192,63593,1,8,0:0:0:0:
256,192,63670,1,8,0:0:0:0:
256,192,63747,1,8,0:0:0:0:
256,192,63902,1,8,0:0:0:0:
256,192,64134,1,8,0:0:0:0:
256,192,64366,1,8,0:0:0:0:
256,192,64520,1,0,0:0:0:0:
256,192,64984,1,0,0:0:0:0:
256,192,65139,1,8,0:0:0:0:
256,192,65294,1,8,0:0:0:0:
256,192,65448,1,0,0:0:0:0:
256,192,65603,1,0,0:0:0:0:
256,192,65758,1,8,0:0:0:0:
256,192,65835,1,8,0:0:0:0:
256,192,65912,1,8,0:0:0:0:
256,192,66067,1,0,0:0:0:0:
256,192,66376,1,8,0:0:0:0:
256,192,66608,1,8,0:0:0:0:
256,192,66840,1,8,0:0:0:0:
256,192,66995,1,0,0:0:0:0:
256,192,67304,1,8,0:0:0:0:
256,192,67613,1,8,0:0:0:0:
256,192,67691,1,8,0:0:0:0:
256,192,67768,1,8,0:0:0:0:
256,192,67923,1,0,0:0:0:0:
256,192,68077,1,8,0:0:0:0:
256,192,68155,1,8,0:0:0:0:
256,192,68232,1,8,0:0:0:0:
256,192,68386,1,0,0:0:0:0:
256,192,68541,1,8,0:0:0:0:
256,192,68618,1,8,0:0:0:0:
256,192,68696,1,8,0:0:0:0:
256,192,68850,1,8,0:0:0:0:
256,192,69005,1,0,0:0:0:0:
256,192,69160,1,0,0:0:0:0:
256,192,69314,1,0,0:0:0:0:
256,192,69469,1,4,0:0:0:0:
256,192,70087,12,0,71943,0:0:0:0:
256,192,81840,5,4,0:0:0:0:
256,192,82149,1,8,0:0:0:0:
256,192,82304,1,0,0:0:0:0:
256,192,82381,1,8,0:0:0:0:
256,192,82613,1,0,0:0:0:0:
256,192,82690,1,0,0:0:0:0:
256,192,82767,1,0,0:0:0:0:
256,192,83077,1,4,0:0:0:0:
256,192,83386,1,8,0:0:0:0:
256,192,83541,1,0,0:0:0:0:
256,192,83618,1,8,0:0:0:0:
256,192,83850,1,0,0:0:0:0:
256,192,84005,1,8,0:0:0:0:
256,192,84159,1,8,0:0:0:0:
256,192,84314,1,4,0:0:0:0:
256,192,84623,1,8,0:0:0:0:
256,192,84778,1,0,0:0:0:0:
256,192,84855,1,8,0:0:0:0:
256,192,85087,1,0,0:0:0:0:
256,192,85242,1,8,0:0:0:0:
256,192,85319,1,8,0:0:0:0:
256,192,85396,1,8,0:0:0:0:
256,192,85551,1,0,0:0:0:0:
256,192,86788,1,4,0:0:0:0:
256,192,87097,1,0,0:0:0:0:
256,192,87407,1,0,0:0:0:0:
256,192,87716,1,0,0:0:0:0:
256,192,87871,1,0,0:0:0:0:
256,192,88025,1,4,0:0:0:0:
256,192,88334,1,0,0:0:0:0:
256,192,88644,1,0,0:0:0:0:
256,192,88953,1,0,0:0:0:0:
256,192,89108,1,0,0:0:0:0:
256,192,89262,1,4,0:0:0:0:
256,192,89572,1,0,0:0:0:0:
256,192,89881,1,0,0:0:0:0:
256,192,90191,1,0,0:0:0:0:
256,192,90345,1,0,0:0:0:0:
256,192,90500,1,8,0:0:0:0:
256,192,90732,1,8,0:0:0:0:
256,192,90964,1,8,0:0:0:0:
256,192,91196,1,8,0:0:0:0:
256,192,91428,1,8,0:0:0:0:
256,192,91505,1,8,0:0:0:0:
256,192,91582,1,8,0:0:0:0:
256,192,91737,1,0,0:0:0:0:
256,192,93747,1,0,0:0:0:0:
256,192,93902,1,8,0:0:0:0:
256,192,94056,1,0,0:0:0:0:
256,192,94211,1,8,0:0:0:0:
256,192,94443,1,8,0:0:0:0:
256,192,94675,1,8,0:0:0:0:
256,192,94907,1,0,0:0:0:0:
256,192,94984,1,0,0:0:0:0:
256,192,95139,1,8,0:0:0:0:
256,192,95294,1,0,0:0:0:0:
256,192,95448,1,8,0:0:0:0:
256,192,95680,1,8,0:0:0:0:
256,192,95912,1,8,0:0:0:0:
256,192,96067,1,0,0:0:0:0:
256,192,96685,1,12,0:0:0:0:
256,192,96840,1,0,0:0:0:0:
256,192,96995,1,0,0:0:0:0:
256,192,97149,1,8,0:0:0:0:
256,192,97459,1,0,0:0:0:0:
256,192,97613,1,8,0:0:0:0:
256,192,97768,1,0,0:0:0:0:
256,192,97922,1,0,0:0:0:0:
256,192,98077,1,8,0:0:0:0:
256,192,98386,1,8,0:0:0:0:
256,192,98696,1,0,0:0:0:0:
256,192,98850,1,8,0:0:0:0:
256,192,99005,1,8,0:0:0:0:
256,192,99160,1,0,0:0:0:0:
256,192,99623,1,8,0:0:0:0:
256,192,99933,1,0,0:0:0:0:
256,192,100087,1,8,0:0:0:0:
256,192,100242,1,0,0:0:0:0:
256,192,100397,1,0,0:0:0:0:
256,192,100551,1,8,0:0:0:0:
256,192,100861,1,8,0:0:0:0:
256,192,101170,1,8,0:0:0:0:
256,192,101325,1,0,0:0:0:0:
256,192,101479,1,0,0:0:0:0:
256,192,101634,1,8,0:0:0:0:
256,192,101943,1,0,0:0:0:0:
256,192,102098,1,8,0:0:0:0:
256,192,102407,1,0,0:0:0:0:
256,192,102562,1,8,0:0:0:0:
256,192,102716,1,0,0:0:0:0:
256,192,103026,1,8,0:0:0:0:
256,192,103335,1,0,0:0:0:0:
256,192,103644,1,8,0:0:0:0:
256,192,103799,1,8,0:0:0:0:
256,192,103953,1,0,0:0:0:0:
256,192,104108,1,8,0:0:0:0:
256,192,104417,1,0,0:0:0:0:
256,192,104572,1,8,0:0:0:0:
256,192,104881,1,8,0:0:0:0:
256,192,105036,1,8,0:0:0:0:
256,192,105191,1,0,0:0:0:0:
256,192,105345,1,0,0:0:0:0:
256,192,105577,1,0,0:0:0:0:
256,192,105809,1,0,0:0:0:0:
256,192,106118,1,0,0:0:0:0:
256,192,106273,1,8,0:0:0:0:
256,192,106582,1,12,0:0:0:0:
256,192,107046,1,8,0:0:0:0:
256,192,107355,1,0,0:0:0:0:
256,192,107510,1,8,0:0:0:0:
256,192,107819,1,0,0:0:0:0:
256,192,107974,1,8,0:0:0:0:
256,192,108129,1,8,0:0:0:0:
256,192,108283,1,0,0:0:0:0:
256,192,108593,1,8,0:0:0:0:
256,192,108747,1,0,0:0:0:0:
256,192,108902,1,8,0:0:0:0:
256,192,109056,1,0,0:0:0:0:
256,192,109366,1,0,0:0:0:0:
256,192,109520,1,8,0:0:0:0:
256,192,109830,1,8,0:0:0:0:
256,192,109984,1,8,0:0:0:0:
256,192,110294,1,0,0:0:0:0:
256,192,110448,1,8,0:0:0:0:
256,192,110603,1,0,0:0:0:0:
256,192,110758,1,8,0:0:0:0:
256,192,111067,1,8,0:0:0:0:
256,192,111221,1,0,0:0:0:0:
256,192,111531,1,8,0:0:0:0:
256,192,111995,1,8,0:0:0:0:
256,192,112072,1,8,0:0:0:0:
256,192,112304,1,0,0:0:0:0:
256,192,112459,1,8,0:0:0:0:
256,192,112536,1,8,0:0:0:0:
256,192,112768,1,0,0:0:0:0:
256,192,112922,1,8,0:0:0:0:
256,192,113000,1,8,0:0:0:0:
256,192,113232,1,8,0:0:0:0:
256,192,113386,1,8,0:0:0:0:
256,192,113618,1,8,0:0:0:0:
256,192,113850,1,8,0:0:0:0:
256,192,113928,1,8,0:0:0:0:
256,192,114005,1,8,0:0:0:0:
256,192,114314,1,8,0:0:0:0:
256,192,114469,1,0,0:0:0:0:
256,192,114623,1,8,0:0:0:0:
256,192,114933,1,8,0:0:0:0:
256,192,115087,1,8,0:0:0:0:
256,192,115242,12,0,116479,0:0:0:0:
256,192,117098,5,12,0:0:0:0:
256,192,117253,1,0,0:0:0:0:
256,192,117407,1,8,0:0:0:0:
256,192,117485,1,8,0:0:0:0:
256,192,117562,1,8,0:0:0:0:
256,192,117871,1,8,0:0:0:0:
256,192,118026,1,0,0:0:0:0:
256,192,118181,1,8,0:0:0:0:
256,192,118335,1,0,0:0:0:0:
256,192,118490,1,0,0:0:0:0:
256,192,118644,1,8,0:0:0:0:
256,192,118799,1,0,0:0:0:0:
256,192,118954,1,8,0:0:0:0:
256,192,119108,1,0,0:0:0:0:
256,192,119572,1,12,0:0:0:0:
256,192,119727,1,8,0:0:0:0:
256,192,119882,1,0,0:0:0:0:
256,192,120036,1,8,0:0:0:0:
256,192,120114,1,8,0:0:0:0:
256,192,120191,1,8,0:0:0:0:
256,192,120423,1,0,0:0:0:0:
256,192,120655,1,0,0:0:0:0:
256,192,120964,1,8,0:0:0:0:
256,192,121119,1,0,0:0:0:0:
256,192,121196,1,0,0:0:0:0:
256,192,121273,1,0,0:0:0:0:
256,192,121428,1,12,0:0:0:0:
256,192,121737,1,8,0:0:0:0:
256,192,121815,1,8,0:0:0:0:
256,192,121892,1,8,0:0:0:0:
256,192,122047,1,8,0:0:0:0:
256,192,122253,1,8,0:0:0:0:
256,192,122356,1,0,0:0:0:0:
256,192,122665,1,8,0:0:0:0:
256,192,122742,1,8,0:0:0:0:
256,192,122820,1,8,0:0:0:0:
256,192,122974,1,8,0:0:0:0:
256,192,123077,1,8,0:0:0:0:
256,192,123181,1,8,0:0:0:0:
256,192,123284,1,0,0:0:0:0:
256,192,123748,1,0,0:0:0:0:
256,192,123902,1,0,0:0:0:0:
256,192,123980,1,0,0:0:0:0:
256,192,124057,1,0,0:0:0:0:
256,192,124366,1,0,0:0:0:0:
256,192,124521,1,8,0:0:0:0:
256,192,124675,1,0,0:0:0:0:
256,192,124830,1,8,0:0:0:0:
256,192,124985,1,8,0:0:0:0:
256,192,125139,1,0,0:0:0:0:
256,192,125294,1,8,0:0:0:0:
256,192,125371,1,8,0:0:0:0:
256,192,125449,1,8,0:0:0:0:
256,192,125603,1,0,0:0:0:0:
256,192,125758,1,8,0:0:0:0:
256,192,125835,1,8,0:0:0:0:
256,192,125913,1,8,0:0:0:0:
256,192,126067,1,0,0:0:0:0:
256,192,126686,1,8,0:0:0:0:
256,192,126840,1,0,0:0:0:0:
256,192,126995,1,8,0:0:0:0:
256,192,127150,1,0,0:0:0:0:
256,192,127304,1,8,0:0:0:0:
256,192,127382,1,8,0:0:0:0:
256,192,127459,1,8,0:0:0:0:
256,192,127768,1,8,0:0:0:0:
256,192,127923,1,0,0:0:0:0:
256,192,128077,1,8,0:0:0:0:
256,192,128232,1,0,0:0:0:0:
256,192,128387,1,0,0:0:0:0:
256,192,128541,1,8,0:0:0:0:
256,192,128696,1,0,0:0:0:0:
256,192,128851,1,8,0:0:0:0:
256,192,129005,1,0,0:0:0:0:
256,192,129469,1,8,0:0:0:0:
256,192,129624,1,0,0:0:0:0:
256,192,129778,1,8,0:0:0:0:
256,192,129933,1,8,0:0:0:0:
256,192,130010,1,8,0:0:0:0:
256,192,130088,1,8,0:0:0:0:
256,192,130320,1,8,0:0:0:0:
256,192,130552,1,0,0:0:0:0:
256,192,130629,1,0,0:0:0:0:
256,192,130706,1,0,0:0:0:0:
256,192,130861,1,8,0:0:0:0:
256,192,131016,1,0,0:0:0:0:
256,192,131325,1,12,0:0:0:0:
256,192,131634,1,8,0:0:0:0:
256,192,131712,1,8,0:0:0:0:
256,192,131789,1,8,0:0:0:0:
256,192,131943,1,8,0:0:0:0:
256,192,132098,1,8,0:0:0:0:
256,192,132562,1,8,0:0:0:0:
256,192,132717,1,8,0:0:0:0:
256,192,132794,1,8,0:0:0:0:
256,192,132871,1,8,0:0:0:0:
256,192,133026,1,8,0:0:0:0:
256,192,133181,1,0,0:0:0:0:
256,192,133644,1,0,0:0:0:0:
256,192,133799,1,8,0:0:0:0:
256,192,134108,12,0,135036,0:0:0:0:
256,192,135191,5,8,0:0:0:0:
256,192,135654,5,8,0:0:0:0:
256,192,135809,1,8,0:0:0:0:
256,192,135964,1,8,0:0:0:0:
256,192,136118,1,8,0:0:0:0:
256,192,136273,1,0,0:0:0:0:
