osu file format v14

[General]
AudioFilename: audio.mp3
AudioLeadIn: 0
PreviewTime: 96660
Countdown: 0
SampleSet: None
StackLeniency: 0.7
Mode: 0
LetterboxInBreaks: 0
WidescreenStoryboard: 0

[Editor]
Bookmarks: 30938
DistanceSpacing: 3.2
BeatDivisor: 4
GridSize: 8
TimelineZoom: 2

[Metadata]
Title:Fluctuation
TitleUnicode:Fluctuation
Artist:Zekk
ArtistUnicode:Zekk
Creator:Acylica
Version:Last Stand
Source:osu!
Tags:owc grandfinal gf nm4 electronic instrumental mappers' guild featured artist fa drumstep vikala toybot kalibe acyl heilia realazy hypercyte mordred osu world cup mpg
BeatmapID:2722432
BeatmapSetID:1313559

[Difficulty]
HPDrainRate:5
CircleSize:4
OverallDifficulty:9
ApproachRate:9.7
SliderMultiplier:1.8
SliderTickRate:1

[Events]
//Background and Video events
0,0,"splash.jpg",0,0
//Break Periods
2,91931,93680
//Storyboard Layer 0 (Background)
//Storyboard Layer 1 (Fail)
//Storyboard Layer 2 (Pass)
//Storyboard Layer 3 (Foreground)
//Storyboard Layer 4 (Overlay)
//Storyboard Sound Samples

[TimingPoints]
2659,309.278350515464,4,2,1,35,1,0
2659,-133.333333333333,4,2,1,35,0,0
6370,-88.8888888888889,4,2,1,45,0,0
7607,-133.333333333333,4,2,1,50,0,0
7916,-66.6666666666667,4,2,1,50,0,0
8226,-100,4,2,1,50,0,0
10390,-66.6666666666667,4,2,1,50,0,0
10700,-100,4,2,1,50,0,0
11937,-133.333333333333,4,2,1,50,0,0
12246,-66.6666666666667,4,2,1,50,0,0
12555,-33.3333333333333,4,2,1,90,0,0
12865,-100,4,2,1,90,0,0
13483,-50,4,2,1,90,0,0
13793,-33.3333333333333,4,2,1,90,0,0
14256,-66.6666666666667,4,2,1,90,0,0
14875,-33.3333333333333,4,2,1,90,0,0
15339,-25,4,2,1,90,0,0
15494,-40,4,2,1,90,0,0
15648,-100,4,2,1,90,0,0
16267,-66.6666666666667,4,2,1,90,0,0
16885,-66.6666666666667,4,2,1,50,0,0
17504,-100,4,2,1,70,0,0
18432,-50,4,2,1,70,0,0
18741,-100,4,2,1,70,0,0
19669,-50,4,2,1,70,0,0
19978,-33.3333333333333,4,2,1,70,0,0
20906,-50,4,2,1,70,0,0
21215,-80,4,2,1,70,0,0
22143,-66.6666666666667,4,2,1,70,0,0
22452,-28.3872082225608,4,2,1,70,0,0
23071,-50,4,2,1,90,0,0
23226,-66.6666666666667,4,2,1,90,0,0
23689,-33.3333333333333,4,2,1,90,0,0
23844,-100,4,2,1,90,0,0
23999,-40,4,2,1,90,0,0
24153,-66.6666666666667,4,2,1,90,0,0
24308,-44.4444444444445,4,2,1,90,0,0
24772,-100,4,2,1,90,0,0
24927,-33.3333333333333,4,2,1,90,0,0
25390,-66.6666666666667,4,2,1,90,0,0
25545,-25,4,2,1,90,0,0
25700,-66.6666666666667,4,2,1,90,0,0
26164,-40,4,2,1,90,0,0
26318,-66.6666666666667,4,2,1,90,0,0
26782,-33.3333333333333,4,2,1,90,0,0
26937,-28.5714285714286,4,2,1,90,0,0
27091,-41.0804152431811,4,2,1,90,0,0
27246,-41.0804152431811,4,2,1,90,0,0
27401,-33.3333333333333,4,2,1,90,0,0
27710,-50,4,2,1,90,0,0
28329,-66.6666666666667,4,2,1,90,0,0
28638,-50,4,2,1,90,0,0
29875,-33.3333333333333,4,2,1,90,0,0
30339,-50,4,2,1,90,0,0
30494,-33.3333333333333,4,2,1,90,0,0
30648,-66.6666666666667,4,2,1,90,0,0
31112,-25,4,2,1,90,0,0
31421,-40,4,2,1,90,0,0
31885,-66.6666666666667,4,2,1,90,0,0
32040,-40,4,2,1,90,0,0
32195,-50,4,2,1,90,0,0
32349,-25,4,2,1,90,0,0
32659,-20.5348696172308,4,2,1,90,0,0
32813,-66.6666666666667,4,2,1,90,0,0
32968,-40,4,2,1,90,0,0
33122,-66.6666666666667,4,2,1,90,0,0
33586,-33.3333333333333,4,2,1,90,0,0
33741,-100,4,2,1,90,0,0
33896,-28.5714285714286,4,2,1,90,0,0
34050,-66.6666666666667,4,2,1,90,0,0
34205,-44.4444444444445,4,2,1,90,0,0
34360,-66.6666666666667,4,2,1,90,0,0
34823,-40,4,2,1,90,0,0
34978,-33.3333333333333,4,2,1,90,0,0
35287,-66.6666666666667,4,2,1,90,0,0
35442,-25,4,2,1,90,0,0
35597,-66.6666666666667,4,2,1,90,0,0
36061,-40,4,2,1,90,0,0
36215,-66.6666666666667,4,2,1,90,0,0
36679,-25,4,2,1,90,0,0
36834,-33.3333333333333,4,2,1,90,0,0
36988,-50,4,2,1,90,0,0
37298,-36.3636363636364,4,2,1,90,0,0
37607,-50,4,2,1,90,0,0
38226,-66.6666666666667,4,2,1,90,0,0
38535,-50,4,2,1,90,0,0
39153,-66.6666666666667,4,2,1,90,0,0
39772,-28.4090909090909,4,2,1,90,0,0
40081,-50,4,2,1,90,0,0
41009,-25,4,2,1,90,0,0
41164,-33.3333333333333,4,2,1,90,0,0
41473,-100,4,2,1,90,0,0
41628,-28.5714285714286,4,2,1,90,0,0
41937,-66.6666666666667,4,2,1,90,0,0
42246,-200,4,2,1,40,0,0
45957,-111.111111111111,4,2,1,40,0,0
47195,-66.6666666666667,4,2,1,40,0,0
47813,-200,4,2,1,40,0,0
48432,-100,4,2,1,40,0,0
48741,-133.333333333333,4,2,1,40,0,0
49669,-80,4,2,1,40,0,0
50597,-60.2409638554217,4,2,1,40,0,0
50906,-80,4,2,1,40,0,0
51524,-133.333333333333,4,2,1,40,0,0
51834,-133.333333333333,4,2,1,60,0,0
52143,-12,4,2,1,60,0,0
52762,-50,4,2,1,90,0,0
53689,-28.5714285714286,4,2,1,90,0,0
53921,-50,4,2,1,90,0,0
54308,-80,4,2,1,90,0,0
54617,-33.3333333333333,4,2,1,90,0,0
54772,-66.6666666666667,4,2,1,90,0,0
54927,-40,4,2,1,90,0,0
55236,-66.6666666666667,4,2,1,90,0,0
55390,-30.3030303030303,4,2,1,90,0,0
55700,-66.6666666666667,4,2,1,90,0,0
55854,-40,4,2,1,90,0,0
56164,-33.3333333333333,4,2,1,90,0,0
56705,-40,4,2,1,90,0,0
56937,-66.6666666666667,4,2,1,90,0,0
57091,-40,4,2,1,90,0,0
57401,-11,4,2,1,90,0,0
57710,-50,4,2,1,90,0,0
58638,-33.3333333333333,4,2,1,90,0,0
58793,-66.6666666666667,4,2,1,90,0,0
58947,-50,4,2,1,90,0,0
59102,-100,4,2,1,90,0,0
59566,-33.3333333333333,4,2,1,90,0,0
60030,-50,4,2,1,90,0,0
60339,-40,4,2,1,90,0,0
60494,-66.6666666666667,4,2,1,90,0,0
60803,-40,4,2,1,90,0,0
61112,-33.3333333333333,4,2,1,90,0,0
61267,-66.6666666666667,4,2,1,90,0,0
61421,-25,4,2,1,90,0,0
61731,-33.3333333333333,4,2,1,90,0,0
62040,-16.6666666666668,4,2,1,90,0,0
62659,-50,4,2,1,90,0,0
63586,-33.3333333333333,4,2,1,90,0,0
64205,-66.6666666666667,4,2,1,90,0,0
64514,-25,4,2,1,90,0,0
64669,-66.6666666666667,4,2,1,90,0,0
64823,-33.3333333333333,4,2,1,90,0,0
64978,-66.6666666666667,4,2,1,90,0,0
65287,-28.5714285714286,4,2,1,90,0,0
65597,-66.6666666666667,4,2,1,90,0,0
65751,-50,4,2,1,90,0,0
66061,-33.3333333333333,4,2,1,90,0,0
66834,-66.6666666666667,4,2,1,90,0,0
66988,-40,4,2,1,90,0,0
67298,-18.643754056395,4,2,1,90,0,0
67607,-50,4,2,1,90,0,0
68535,-33.3333333333333,4,2,1,90,0,0
68689,-40,4,2,1,90,0,0
68844,-44.4444444444445,4,2,1,90,0,0
68999,-80,4,2,1,90,0,0
71628,-50,4,2,1,90,0,0
71937,-50,4,2,1,40,0,0
72555,-133.333333333333,4,2,1,40,0,0
75648,-88.8888888888889,4,2,1,40,0,0
76885,-133.333333333333,4,2,1,40,0,0
77195,-66.6666666666667,4,2,1,40,0,0
78122,-100,4,2,1,40,0,0
79360,-100,4,2,1,55,0,0
79669,-66.6666666666667,4,2,1,55,0,0
80597,-100,4,2,1,55,0,0
81834,-36.3636363636364,4,2,1,70,0,0
82143,-80,4,2,1,70,0,0
82298,-50,4,2,1,70,0,0
83071,-33.3333333333333,4,2,1,70,0,0
83535,-66.6666666666667,4,2,1,70,0,0
83999,-50,4,2,1,70,0,0
84153,-25,4,2,1,70,0,0
84308,-33.3333333333333,4,2,1,70,0,0
84617,-100,4,2,1,70,0,0
84772,-40,4,2,1,70,0,0
84927,-66.6666666666667,4,2,1,70,0,0
86782,-100,4,2,1,70,0,0
87710,-50,4,2,1,70,0,0
88019,-100,4,2,1,70,0,0
88947,-50,4,2,1,70,0,0
90494,-40,4,2,1,70,0,0
91731,-40,4,2,1,40,0,0
94205,-66.6666666666667,4,2,1,40,0,0
95442,-66.6666666666667,4,2,1,70,0,0
96061,-100,4,2,1,70,0,0
96370,-28.5714285714286,4,2,1,70,0,0
96679,-40,4,2,1,90,0,0
97607,-33.3333333333333,4,2,1,90,0,0
97916,-50,4,2,1,90,0,0
98844,-40,4,2,1,90,0,0
99153,-33.3333333333333,4,2,1,90,0,0
99927,-40,4,2,1,90,0,0
100390,-50,4,2,1,90,0,0
101318,-80,4,2,1,90,0,0
101473,-66.6666666666667,4,2,1,90,0,0
101628,-33.3333333333333,4,2,1,90,0,0
102246,-40,4,2,1,90,0,0
102555,-33.3333333333333,4,2,1,90,0,0
102865,-50,4,2,1,90,0,0
103793,-40,4,2,1,90,0,0
104102,-33.3333333333333,4,2,1,90,0,0
104720,-50,4,2,1,90,0,0
105030,-40,4,2,1,90,0,0
105339,-50,4,2,1,90,0,0
106267,-33.3333333333333,4,2,1,90,0,0
106885,-50,4,2,1,90,0,0
107504,-40,4,2,1,90,0,0
108122,-66.6666666666667,4,2,1,90,0,0
108432,-40,4,2,1,90,0,0
108741,-66.6666666666667,4,2,1,90,0,0
109050,-33.3333333333333,4,2,1,90,0,0
109360,-40,4,2,1,90,0,0
111215,-80,4,2,1,90,0,0
111524,-33.3333333333333,4,2,1,90,0,0
111988,-50,4,2,1,90,0,0
112452,-33.3333333333333,4,2,1,90,0,0
112607,-25,4,2,1,90,0,0
112916,-50,4,2,1,90,0,0
113380,-33.3333333333333,4,2,1,90,0,0
113844,-66.6666666666667,4,2,1,90,0,0
114308,-57.1428571428571,4,2,1,90,0,0
114617,-50,4,2,1,90,0,0
114927,-33.3333333333333,4,2,1,90,0,0
115236,-80,4,2,1,90,0,0
115390,-25,4,2,1,90,0,0
115854,-133.333333333333,4,2,1,90,0,0
116473,-133.333333333333,4,2,1,50,0,0
116782,-100,4,2,1,50,0,0
117091,-36.3636363636364,4,2,1,90,0,0
117246,-66.6666666666667,4,2,1,90,0,0
117710,-40,4,2,1,90,0,0
117865,-66.6666666666667,4,2,1,90,0,0
118019,-33.3333333333333,4,2,1,90,0,0
118174,-66.6666666666667,4,2,1,90,0,0
118329,-33.3333333333333,4,2,1,90,0,0
118483,-50,4,2,1,90,0,0
118638,-66.6666666666667,4,2,1,90,0,0
118793,-100,4,2,1,90,0,0
118947,-133.333333333333,4,2,1,90,0,0
119102,-28.5714285714286,4,2,1,90,0,0
119411,-33.3333333333333,4,2,1,90,0,0
119720,-100,4,2,1,90,0,0
120184,-33.3333333333333,4,2,1,90,0,0
120339,-66.6666666666667,4,2,1,90,0,0
120803,-33.3333333333333,4,2,1,90,0,0
120957,-50,4,2,1,90,0,0
121112,-31.8457747915189,4,2,1,90,0,0
121267,-30.5897327962662,4,2,1,90,0,0
121421,-33.3333333333333,4,2,1,90,0,0
121731,-50,4,2,1,90,0,0
122349,-66.6666666666667,4,2,1,90,0,0
122659,-50,4,2,1,90,0,0
123896,-25,4,2,1,90,0,0
124360,-100,4,2,1,90,0,0
124514,-33.3333333333333,4,2,1,90,0,0
124669,-50,4,2,1,90,0,0
125133,-28.5714285714286,4,2,1,90,0,0
125906,-66.6666666666667,4,2,1,90,0,0
126061,-44.4444444444445,4,2,1,90,0,0
126215,-50,4,2,1,90,0,0
126370,-50,4,2,1,60,0,0
126679,-28.5714285714286,4,2,1,90,0,0
126834,-66.6666666666667,4,2,1,90,0,0
126988,-40,4,2,1,90,0,0
127143,-66.6666666666667,4,2,1,90,0,0
127607,-33.3333333333333,4,2,1,90,0,0
127762,-57.1428571428571,4,2,1,90,0,0
127916,-33.3333333333333,4,2,1,90,0,0
128071,-66.6666666666667,4,2,1,90,0,0
128226,-25,4,2,1,90,0,0
128380,-33.3333333333333,4,2,1,90,0,0
128535,-50,4,2,1,90,0,0
128689,-66.6666666666667,4,2,1,90,0,0
128844,-100,4,2,1,90,0,0
128999,-28.5714285714286,4,2,1,90,0,0
129308,-66.6666666666667,4,2,1,90,0,0
129463,-33.3333333333333,4,2,1,90,0,0
129617,-66.6666666666667,4,2,1,90,0,0
130081,-40,4,2,1,90,0,0
130236,-66.6666666666667,4,2,1,90,0,0
130700,-25,4,2,1,90,0,0
130854,-33.3333333333333,4,2,1,90,0,0
131009,-100,4,2,1,90,0,0
131318,-33.3333333333333,4,2,1,90,0,0
131628,-50,4,2,1,90,0,0
132246,-66.6666666666667,4,2,1,90,0,0
132555,-50,4,2,1,90,0,0
133793,-23.5373262631473,4,2,1,90,0,0
134102,-66.6666666666667,4,2,1,90,0,0
135030,-44.4444444444445,4,2,1,90,0,0
135184,-33.3333333333333,4,2,1,90,0,0
135494,-40,4,2,1,90,0,0
135648,-66.6666666666667,4,2,1,90,0,0
135957,-28.5714285714286,4,2,1,90,0,0

[Colours]
Combo1 : 154,231,168
Combo2 : 233,82,61
Combo3 : 116,190,218
Combo4 : 237,150,78
Combo5 : 245,241,92

[HitObjects]
23,327,2659,5,2,1:2:0:0:
28,335,2968,5,2,0:0:0:0:
94,291,3122,1,2,1:2:0:0:
77,214,3277,1,2,0:0:0:0:
183,366,3586,54,0,P|222:355|266:346,1,67.5000025749208,2|0,1:2|0:0,0:0:0:0:
28,335,3896,5,2,1:2:0:0:
94,291,4050,1,2,0:0:0:0:
77,214,4205,1,2,0:0:0:0:
183,366,4514,54,0,P|222:355|266:346,2,67.5000025749208,2|2|2,1:2|0:0|0:0,0:0:0:0:
466,329,5133,5,2,1:2:0:0:
462,338,5442,53,2,0:0:0:0:
394,369,5596,1,2,1:2:0:0:
353,305,5751,1,2,0:0:0:0:
248,349,5906,6,0,L|264:295,2,33.7500012874604,2|0|2,0:0|0:0|1:2,0:0:0:0:
76,382,6370,6,0,B|100:387|122:366|118:338|99:325|81:329|81:329|45:332|15:293|33:251|68:241|94:257|94:257|138:284|200:253|203:187|166:151|115:156|115:156|57:161|3:87|41:8|109:-4|153:24,1,708.750027036668,2|0,1:2|0:0,0:0:0:0:
296,97,7607,38,0,P|300:64|280:39,1,67.5000025749208,2|0,1:2|0:0,0:0:0:0:
211,103,7916,2,0,P|242:33|215:108,1,270,2|2,1:3|0:0,0:0:0:0:
50,229,8535,5,2,1:2:0:0:
112,282,8689,1,0,0:0:0:0:
243,217,8844,54,0,P|192:256|190:293,1,90,2|2,1:2|1:2,0:0:0:0:
68,348,9153,2,0,P|96:361|108:393,2,45,2|2|2,0:0|0:0|1:2,0:0:0:0:
299,271,9463,5,2,0:0:0:0:
374,296,9617,1,2,0:0:0:0:
431,245,9772,1,2,1:2:0:0:
355,219,9926,1,2,1:2:0:0:
501,384,10081,54,0,P|472:357|399:365,1,90,2|0,1:2|0:0,0:0:0:0:
316,368,10390,2,0,P|259:308|318:367,1,270.000010299683,2|2,1:3|1:2,0:0:0:0:
149,384,11009,5,2,1:2:0:0:
147,376,11164,1,2,0:0:0:0:
74,284,11318,53,2,0:0:0:0:
30,349,11473,2,0,L|207:263,1,180,2|2,1:2|0:0,0:0:0:0:
154,124,11937,6,0,P|125:140|126:189,1,67.5000025749208,2|2,1:2|0:0,0:0:0:0:
189,181,12246,2,0,P|186:146|184:188,1,202.500007724762,2|0,1:3|0:0,0:0:0:0:
0,67,12555,54,0,B|12:102|57:118|93:92|97:57|97:57|101:19|141:-6|182:13|193:46|193:46|205:82|250:97|286:71|290:36,1,405.000015449525,4|0,1:2|0:0,0:0:0:0:
317,274,12865,2,0,L|332:195,1,45,10|0,0:2|0:0,0:0:0:0:
353,80,13019,1,2,1:2:0:0:
351,87,13097,1,2,1:2:0:0:
339,158,13174,5,2,1:2:0:0:
494,133,13329,1,2,1:2:0:0:
494,126,13406,1,0,0:0:0:0:
490,121,13483,2,0,P|446:115|405:164,1,90,2|0,1:2|0:0,0:0:0:0:
211,67,13638,2,0,P|254:76|276:136,1,90,2|0,0:0|0:0,0:0:0:0:
386,384,13793,54,0,B|355:358|357:332|380:294|402:284|432:285|435:309|470:290|496:278|507:232|498:192|428:184,1,270.000010299683,4|0,1:2|0:0,0:0:0:0:
483,374,14024,1,0,0:0:0:0:
490,369,14102,2,0,P|486:305|403:317,1,135.000005149842,10|0,0:2|0:0,0:0:0:0:
257,338,14256,5,2,1:2:0:0:
256,345,14334,1,2,1:2:0:0:
256,351,14411,2,0,P|281:377|352:336,1,67.5000025749208,2|0,1:2|0:0,0:0:0:0:
351,308,14566,2,0,P|326:282|255:323,1,67.5000025749208,2|0,1:2|0:0,0:0:0:0:
135,173,14720,54,0,P|187:154|203:112,1,67.5000025749208,2|0,1:2|0:0,0:0:0:0:
256,44,14875,2,0,P|298:28|264:51,1,135.000005149842,2|0,1:3|0:0,0:0:0:0:
290,169,15030,6,0,B|264:76|181:16|59:30|59:30|133:46|140:124,1,405.000015449525,4|0,1:2|0:0,0:0:0:0:
27,108,15339,2,0,P|65:136|16:113,1,180,10|0,0:2|0:0,0:0:0:0:
243,225,15494,54,0,P|175:252|166:316,1,112.5,2|2,1:2|1:2,0:0:0:0:
127,384,15648,6,0,L|110:330,1,45,2|0,1:2|0:0,0:0:0:0:
75,232,15803,2,0,L|95:296,1,45,2|0,1:2|0:0,0:0:0:0:
0,360,15957,53,2,1:2:0:0:
1,348,16035,1,2,1:2:0:0:
3,337,16112,1,2,1:2:0:0:
5,326,16189,1,2,1:2:0:0:
7,315,16267,2,0,B|13:294|36:281|58:288|69:304|69:304|82:322|108:325|126:312|132:294|132:294|139:272|162:262|184:268|196:284|196:284|209:301|233:305|252:292|258:273|258:273|265:252|287:241|309:247|322:263|322:263|335:281|359:284|378:271|384:252,1,472.500004506111,2|0,1:2|0:0,0:0:0:0:
377,247,16885,6,0,L|262:385,1,135.000005149842,2|2,0:0|0:0,0:0:0:0:
297,353,17117,1,2,0:0:0:0:
303,354,17195,2,0,L|265:275,1,67.5000025749208,2|0,0:0|0:0,0:0:0:0:
380,360,17349,1,2,0:0:0:0:
207,260,17504,54,0,L|222:192,3,45,6|0|0|0,1:2|0:0|0:0|0:0,0:0:0:0:
143,301,17813,2,0,L|133:344,3,45,2|0|0|0,1:2|0:0|0:0|0:0,0:0:0:0:
101,239,18122,2,0,L|116:171,3,45,2|0|0|0,1:2|0:0|0:0|0:0,0:0:0:0:
0,373,18432,6,0,P|9:336|64:302,1,90,2|0,1:2|0:0,0:0:0:0:
56,312,18586,2,0,P|20:338|8:381,1,90,2|0,1:2|0:0,0:0:0:0:
15,151,18741,54,0,L|92:136,3,45,6|0|0|0,1:2|0:0|0:0|0:0,0:0:0:0:
160,80,19050,2,0,L|83:95,3,45,2|0|0|0,1:2|0:0|0:0|0:0,0:0:0:0:
0,77,19360,2,0,L|44:68,3,45,2|0|0|0,1:2|0:0|0:0|0:0,0:0:0:0:
215,14,19669,6,0,P|241:50|284:62,1,90,2|0,1:2|0:0,0:0:0:0:
291,54,19823,2,0,P|248:41|222:6,1,90,2|0,1:2|0:0,0:0:0:0:
465,33,19978,53,4,1:2:0:0:
413,37,20055,1,0,1:0:0:0:
377,74,20133,1,0,1:0:0:0:
376,125,20210,1,0,1:0:0:0:
397,171,20287,1,0,1:0:0:0:
396,222,20365,1,0,1:0:0:0:
360,259,20442,1,0,1:0:0:0:
308,263,20519,1,0,1:0:0:0:
265,226,20597,5,2,1:2:0:0:
328,190,20674,1,2,1:2:0:0:
396,222,20751,1,2,1:2:0:0:
413,298,20829,1,2,1:2:0:0:
364,356,20906,54,0,P|321:349|274:391,1,90,2|2,1:3|1:3,0:0:0:0:
285,379,21061,2,0,P|322:355|365:362,1,90,2|2,1:3|1:3,0:0:0:0:
82,330,21215,22,0,B|40:311|29:271|51:231|90:230|110:235|110:235|132:240|181:257|249:255|268:178|272:103|164:79|114:137|94:146|94:146|67:159|19:160|-5:120|10:66|56:62,1,618.75,4|0,0:0|0:0,0:0:0:0:
86,50,22143,2,0,P|120:22|91:53,1,135.000005149842,2|0,0:3|0:0,0:0:0:0:
82,330,22452,6,0,B|72:331|72:331|72:317|72:317|58:321|58:321|61:307|61:307|47:307|47:307|55:295|55:295|41:290|41:290|52:281|52:281|40:272|40:272|54:268|54:268|47:255|47:255|61:255|61:255|58:241|58:241|71:246|71:246|73:232|73:232|84:241|84:241|90:228|90:228|99:239|99:239|108:228|108:228|113:242|113:242|124:232|124:232|129:246|129:246|139:235|139:235|145:248|145:248|154:236|154:236|162:248|162:248|169:236|169:236|179:246|179:246|184:233|184:233|195:241|195:241|197:227|197:227|210:233|210:233|209:218|209:218|223:221|223:221|218:207|218:207|233:206|233:206|225:194|225:194|238:190|238:190|227:180|227:180|239:172|239:172|226:166|226:166|235:155|235:155|221:153|221:153|226:139|226:139|212:142|212:142|214:127|214:127|201:133|201:133|199:119|199:119|187:128|187:128|182:114|182:114|173:125|173:125|165:113|165:113|158:125|158:125|148:115|148:115|143:128|143:128|132:119|132:119|129:133|129:133|116:126|116:126|115:140|115:140|102:134|102:134|102:149|102:149|89:142|89:142|85:156|85:156|75:146|75:146|68:158|68:158|60:146|60:146|51:157|51:157|47:143|47:143|34:150|34:150|35:136|35:136|21:139|21:139|26:125|26:125|12:123|12:123|22:112|22:112|9:105|9:105|22:99|22:99|13:87|13:87|19:87,1,1112.0810931288,2|0,1:0|0:0,0:0:0:0:
20,80,23071,22,0,L|171:99,1,135,10|0,1:2|0:0,0:0:0:0:
166,98,23226,2,0,P|215:68|222:45,1,67.5000025749208,2|0,1:2|0:0,0:0:0:0:
340,244,23380,5,2,1:2:0:0:
337,235,23457,1,2,1:2:0:0:
319,161,23535,2,0,L|297:64,1,67.5000025749208,10|0,1:2|0:0,0:0:0:0:
475,24,23689,54,0,L|233:-3,1,202.500007724762,2|0,1:2|0:0,0:0:0:0:
278,11,23844,2,0,L|348:20,1,45,10|0,1:2|0:0,0:0:0:0:
475,15,23999,6,0,P|452:4|430:99,1,168.75,2|0,1:2|0:0,0:0:0:0:
434,101,24153,2,0,P|458:123|455:156,1,67.5000025749208,2|0,0:0|0:0,0:0:0:0:
481,301,24308,54,0,B|431:309|431:309|430:306|430:306|383:313,1,101.250003862381,10|0,1:2|0:0,0:0:0:0:
325,363,24463,2,0,B|296:326|296:326|298:323|298:323|257:273,1,101.250003862381,2|0,0:0|0:0,0:0:0:0:
196,241,24617,2,0,B|214:197|214:197|217:197|217:197|240:137,1,101.250003862381,2|0,0:0|0:0,0:0:0:0:
236,144,24772,2,0,L|248:201,1,45,10|0,1:2|0:0,0:0:0:0:
137,333,24927,6,0,P|113:272|49:262,1,135.000005149842,2|0,0:0|0:0,0:0:0:0:
5,202,25081,54,0,B|49:179|25:139|29:127|13:108|19:79|19:79|31:24|107:-8|187:65|137:158|70:150,1,405.000015449525,2|0,1:1|0:0,0:0:0:0:
26,329,25390,6,0,P|42:360|74:370,1,67.5000025749208
265,367,25545,54,0,B|245:275|245:275|205:265|205:265|226:365|226:365|273:374,1,270,2|0,1:2|0:0,0:0:0:0:
259,267,25700,2,0,L|192:255,1,67.5000025749208,10|0,1:2|0:0,0:0:0:0:
322,219,25854,2,0,L|388:229,1,67.5000025749208,2|0,0:0|0:0,0:0:0:0:
480,263,26009,5,10,1:2:0:0:
475,271,26086,1,2,1:2:0:0:
496,347,26164,54,0,L|294:317,1,168.75,2|0,1:2|0:0,0:0:0:0:
403,302,26318,2,0,L|419:368,1,67.5000025749208,10|0,1:2|0:0,0:0:0:0:
499,190,26473,1,2,1:2:0:0:
496,182,26550,2,0,L|480:116,1,67.5000025749208,0|10,0:0|1:2,0:0:0:0:
416,68,26705,5,0,0:0:0:0:
408,63,26782,2,0,B|390:36|390:36|355:42|355:42|373:70|373:70|409:64,1,135.000005149842,2|2,1:2|1:2,0:0:0:0:
471,7,26937,54,0,B|464:41|464:41|303:66|303:66|266:169,1,236.250002253056,2|0,1:2|0:0,0:0:0:0:
345,157,27091,2,0,B|351:152|351:152|358:159|358:159|363:150|363:150|370:157|370:157|374:148|374:148|382:155|382:155|386:146|386:146|393:153|393:153|398:144|398:144|405:151|405:151|410:142,1,109.54125291671,10|0,1:2|0:0,0:0:0:0:
232,22,27246,2,0,B|226:27|226:27|219:20|219:20|214:29|214:29|207:22|207:22|203:31|203:31|195:24|195:24|191:33|191:33|184:26|184:26|179:35|179:35|172:28|172:28|167:37,1,109.54125291671,2|0,1:2|0:0,0:0:0:0:
40,164,27401,6,0,B|-20:175|-34:275|72:306|116:237|93:190|93:190|65:135|135:62|225:126|198:205|146:215,1,405.000015449525,8|0,0:0|0:0,0:0:0:0:
268,322,27710,54,0,P|269:346|230:374,1,45,2|0,1:2|0:0,0:0:0:0:
244,342,27787,2,0,P|223:356|179:335,1,45,2|0,0:0|0:0,0:0:0:0:
213,335,27865,2,0,P|187:328|166:291,1,45,10|0,0:2|0:0,0:0:0:0:
195,311,27942,1,2,0:0:0:0:
101,291,28019,5,10,1:2:0:0:
47,337,28122,1,2,0:0:0:0:
114,360,28226,1,2,0:0:0:0:
89,327,28329,54,0,P|50:314|8:304,1,67.5000025749208,2|0,0:3|0:0,0:0:0:0:
112,256,28483,2,0,P|73:243|31:233,1,67.5000025749208,2|0,0:3|0:0,0:0:0:0:
251,190,28638,6,0,P|274:193|306:156,1,45,2|0,1:2|0:0,0:0:0:0:
273,167,28715,2,0,P|288:147|271:101,1,45,2|0,0:0|0:0,0:0:0:0:
268,136,28793,2,0,P|263:109|228:85,1,45,8|0,0:0|0:0,0:0:0:0:
246,116,28870,1,2,0:0:0:0:
181,79,28947,53,2,0:0:0:0:
232,23,29050,1,2,0:0:0:0:
306,40,29153,1,2,0:0:0:0:
435,11,29256,5,10,1:2:0:0:
397,29,29334,1,2,1:2:0:0:
382,65,29411,1,2,1:2:0:0:
386,104,29488,1,2,1:2:0:0:
428,171,29566,53,2,1:2:0:0:
436,211,29643,1,2,1:2:0:0:
420,247,29720,1,10,1:2:0:0:
386,266,29798,1,2,1:2:0:0:
314,211,29875,6,0,P|290:181|319:210,1,135.000005149842,2|0,0:0|0:0,0:0:0:0:
454,384,30030,54,0,B|428:291|345:231|223:245|223:245|297:261|304:339,1,405.000015449525,2|0,1:1|0:0,0:0:0:0:
246,372,30339,6,0,B|209:377|209:377|205:375|205:375|200:379|200:379|159:384,1,90,2|0,1:2|0:0,0:0:0:0:
51,176,30494,54,0,P|55:232|56:180,1,202.500007724762,8|0,0:0|0:0,0:0:0:0:
136,142,30648,2,0,P|160:114|156:82,1,67.5000025749208,2|0,1:2|0:0,0:0:0:0:
148,81,30803,2,0,P|123:108|128:141,1,67.5000025749208,2|0,1:2|0:0,0:0:0:0:
86,358,30957,5,0,0:0:0:0:
111,288,31035,1,2,1:2:0:0:
137,220,31112,2,0,B|361:253|361:253|387:316,1,270,10|0,1:2|0:0,0:0:0:0:
371,197,31267,53,2,1:2:0:0:
364,205,31344,1,2,1:2:0:0:
310,254,31421,2,0,B|228:244|228:244|207:200,1,112.5,2|0,1:2|0:0,0:0:0:0:
86,358,31576,5,10,1:2:0:0:
79,355,31653,1,2,1:2:0:0:
111,288,31731,53,2,1:2:0:0:
105,284,31808,1,2,1:2:0:0:
137,220,31885,6,0,L|122:136,1,67.5000025749208,10|0,1:2|0:0,0:0:0:0:
100,36,32040,54,0,P|19:21|3:97,1,168.75,10|0,1:2|0:0,0:0:0:0:
3,95,32195,2,0,P|36:109|42:177,1,90,2|0,0:0|0:0,0:0:0:0:
7,376,32349,22,0,B|-14:369|12:342|11:326|11:326|20:328|25:324|33:319|40:315|40:315|43:337|74:315|86:317|86:317|89:310|95:304|100:298|107:291|107:291|85:284|112:258|112:243|112:243|120:244|126:240|134:235|141:230|141:230|144:253|175:231|184:235|184:235|189:226|194:221|201:214|207:207|207:207|185:200|212:173|208:158|208:158|220:159|226:155|234:150|241:146|241:146|244:168|275:146|284:149|284:149|286:141|317:109|299:94|261:113,1,540,2|0,1:0|0:0,0:0:0:0:
215,28,32659,54,0,B|210:26|205:26|205:26|201:21|201:21|199:27|199:27|197:28|194:30|194:30|188:27|188:27|190:34|190:34|187:38|186:39|186:39|180:40|180:40|185:45|185:45|184:49|184:50|184:50|179:55|179:55|186:56|186:56|187:59|189:61|189:61|187:68|187:68|193:66|193:66|197:68|198:69|198:69|200:75|200:75|204:70|204:70|209:70|210:70|210:70|215:75|215:75|216:68|216:68|218:67|221:65|221:65|227:66|227:66|225:60|225:60|226:58|227:55|227:55|234:53|234:53|228:49|228:49|228:44|228:43|228:43|232:38|232:38|225:37|225:37|217:29|224:35|222:33|222:33|223:26|223:26|217:29,1,219.13944835686,10|0,1:2|0:0,0:0:0:0:
291,225,32813,54,0,P|318:232|339:263,1,67.5000025749208,2|0,1:2|0:0,0:0:0:0:
436,325,32968,6,0,P|268:298|268:298,1,168.75,10|0,1:2|0:0,0:0:0:0:
344,274,33122,2,0,L|365:358,1,67.5000025749208,2|0,1:2|0:0,0:0:0:0:
469,199,33277,53,2,1:2:0:0:
466,205,33354,1,2,1:2:0:0:
399,174,33432,2,0,L|378:90,1,67.5000025749208,10|0,1:2|0:0,0:0:0:0:
505,16,33586,6,0,B|516:35|516:35|479:104|479:104|457:29|457:29|472:12,1,202.500007724762,2|0,1:2|0:0,0:0:0:0:
501,99,33741,2,0,L|452:93,1,45,10|0,1:2|0:0,0:0:0:0:
300,114,33896,54,0,B|297:73|265:69|226:58|210:100|191:136|233:166|241:167|249:167|293:192|257:244,1,236.250002253056,2|0,1:2|0:0,0:0:0:0:
269,226,34050,2,0,P|291:203|347:211,1,67.5000025749208,2|0,0:0|0:0,0:0:0:0:
493,340,34205,6,0,B|443:348|443:348|442:345|442:345|395:352,1,101.250003862381,10|0,1:2|0:0,0:0:0:0:
396,362,34360,2,0,L|476:353,1,67.5000025749208,2|0,0:0|0:0,0:0:0:0:
464,267,34514,2,0,L|496:197,1,67.5000025749208,2|0,0:0|0:0,0:0:0:0:
421,163,34669,2,0,L|376:100,1,67.5000025749208,10|0,1:2|0:0,0:0:0:0:
141,345,34823,54,0,P|136:290|175:252,1,112.5,2|0,0:0|0:0,0:0:0:0:
310,372,34978,6,0,B|323:335|323:335|297:297|297:297|240:306|240:306|236:300|236:300|233:307|233:307|185:312|185:312|181:317|181:317|139:324|139:324|136:329|136:329|131:324|131:324|76:334|76:334|48:298|48:298|61:253,1,405.000015449525,2|0,1:1|0:0,0:0:0:0:
235,291,35287,54,0,P|237:324|216:350,1,67.5000025749208
89,100,35442,6,0,B|63:116|63:116|52:145|52:145|63:173|63:173|90:189|90:189|119:184|119:184|140:160|140:160|139:130|139:130|121:107|121:107|89:100,1,270,2|0,1:2|0:0,0:0:0:0:
135,26,35597,2,0,L|215:39,1,67.5000025749208,10|0,1:2|0:0,0:0:0:0:
204,26,35751,2,0,L|137:15,1,67.5000025749208,2|0,0:0|0:0,0:0:0:0:
372,13,35906,53,10,1:2:0:0:
366,20,35983,1,2,1:2:0:0:
282,0,36061,6,0,L|309:176,1,168.75,2|0,1:2|0:0,0:0:0:0:
366,211,36215,2,0,L|432:222,1,67.5000025749208,10|0,1:2|0:0,0:0:0:0:
340,92,36370,1,2,1:2:0:0:
329,91,36447,2,0,L|262:79,1,67.5000025749208,0|10,0:0|1:2,0:0:0:0:
151,196,36602,53,0,0:0:0:0:
154,204,36679,2,0,B|180:223|180:223|185:284|185:284|147:237|147:237|151:202,1,180,2|2,1:2|1:2,0:0:0:0:
96,290,36834,6,0,B|139:305|173:274|178:235|159:213|173:185|223:153|276:198,1,202.500007724762,2|0,1:2|0:0,0:0:0:0:
298,237,36988,2,0,P|299:268|228:286,1,90,10|0,1:2|0:0,0:0:0:0:
37,239,37143,2,0,P|35:207|106:189,1,90,2|0,1:2|0:0,0:0:0:0:
193,384,37298,54,0,B|168:201|135:13|135:13,1,371.250003540516,8|0,0:0|0:0,0:0:0:0:
128,16,37607,6,0,P|122:39|156:73,1,45,2|0,1:2|0:0,0:0:0:0:
148,39,37684,2,0,P|166:56|213:43,1,45,2|0,0:0|0:0,0:0:0:0:
179,38,37762,2,0,P|205:35|232:2,1,45,10|0,0:2|0:0,0:0:0:0:
201,17,37839,1,2,0:0:0:0:
297,14,37916,53,2,1:2:0:0:
343,69,38019,1,2,0:0:0:0:
412,52,38122,1,2,0:0:0:0:
479,151,38226,6,0,P|468:192|454:237,1,67.5000025749208,2|0,0:3|0:0,0:0:0:0:
408,133,38380,2,0,P|398:165|383:219,1,67.5000025749208,2|0,0:3|0:0,0:0:0:0:
307,355,38535,54,0,P|284:361|250:327,1,45,2|0,1:2|0:0,0:0:0:0:
284,335,38612,2,0,P|267:317|280:270,1,45,2|0,0:0|0:0,0:0:0:0:
285,304,38689,2,0,P|288:278|321:251,1,45,8|0,0:0|0:0,0:0:0:0:
306,282,38767,1,2,0:0:0:0:
266,200,38844,5,2,0:0:0:0:
298,131,38947,1,2,0:0:0:0:
224,139,39050,1,2,0:0:0:0:
251,70,39153,53,10,1:2:0:0:
209,58,39231,1,2,1:2:0:0:
174,76,39308,1,2,1:2:0:0:
152,109,39385,1,2,1:2:0:0:
141,186,39463,5,2,1:2:0:0:
122,223,39540,1,2,1:2:0:0:
86,240,39617,1,10,1:2:0:0:
49,233,39695,1,2,1:2:0:0:
24,151,39772,54,0,B|13:148|13:148|19:135|19:135|5:131|5:131|17:122|17:122|7:112|7:112|21:110|21:110|17:97|17:97|30:103|30:103|35:89|35:89|43:100|43:100|54:90|54:90|55:105|55:105|69:101|69:101|63:114|63:114|77:118|77:118|66:127|66:127|76:137|76:137|62:139|62:139|66:152|66:152|53:148|53:148|49:161|49:161|41:150|41:150|36:156,1,316.832325966341,2|0,1:1|0:0,0:0:0:0:
166,384,40081,6,0,P|176:284|253:248,1,180,2|2,0:0|1:2,0:0:0:0:
245,253,40313,1,2,0:0:0:0:
250,258,40390,2,0,P|249:295|197:317,1,90,2|0,0:0|0:0,0:0:0:0:
16,384,40545,53,2,1:2:0:0:
42,353,40622,1,2,0:0:0:0:
85,361,40700,1,2,1:2:0:0:
21,278,40854,1,0,0:0:0:0:
166,384,41009,6,0,B|158:322|158:322|214:346|214:346|159:388,1,180,2|0,0:0|0:0,0:0:0:0:
37,183,41164,54,0,B|46:190|46:190|90:186|90:186|96:176|96:176|103:167|103:167|146:163|146:163|156:171|156:171|156:171|156:171|166:179|166:179|209:175|209:175|215:165|215:165|222:156|222:156|265:152|265:152|275:160|275:160|285:167|285:167|328:164|328:164|335:154|335:154|341:144|341:144|385:141|385:141|395:148,1,405.000015449525,2|0,1:3|0:0,0:0:0:0:
398,157,41473,6,0,L|407:104,1,45,2|2,1:2|1:2,0:0:0:0:
426,269,41628,54,0,B|407:265|407:265|324:327|324:327|287:324,1,157.500001502037,2|0,1:2|0:0,0:0:0:0:
327,237,41782,2,0,B|343:246|343:246|366:347|366:347|397:368,1,157.500001502037,2|0,1:2|0:0,0:0:0:0:
512,376,41937,6,0,L|491:271,1,67.5000025749208,2|0,1:2|0:0,0:0:0:0:
491,309,42091,2,0,L|504:375,1,67.5000025749208,2|0,1:2|0:0,0:0:0:0:
251,384,42246,53,4,0:0:0:0:
249,376,42710,1,2,0:0:0:0:
186,335,42865,5,2,0:0:0:0:
186,329,43174,1,2,0:0:0:0:
115,349,43483,53,2,0:0:0:0:
108,346,43793,2,0,P|82:327|61:318,1,45,2|2,0:0|0:0,0:0:0:0:
114,260,44102,2,0,P|117:227|114:205,1,45,2|2,0:0|0:0,0:0:0:0:
193,236,44411,2,0,P|222:222|240:209,1,45,2|0,0:0|0:0,0:0:0:0:
251,384,44720,5,2,0:0:0:0:
249,376,45030,1,2,0:0:0:0:
320,353,45184,53,2,0:0:0:0:
323,344,45339,1,2,0:0:0:0:
387,381,45648,5,2,0:0:0:0:
142,368,45957,6,0,B|149:373|149:373|155:344|155:344|126:324|126:324|142:259|142:259|183:285|183:285|209:187|209:187|154:148|154:148|185:16|185:16|270:77,1,587.249982078553,2|0,0:0|0:0,0:0:0:0:
354,24,47195,38,0,B|329:47|329:47|367:141|367:141|394:119|394:119|349:16,1,270.000010299683,2|2,1:2|0:0,0:0:0:0:
449,172,47659,1,2,0:0:0:0:
319,210,47813,6,0,L|305:268,1,45,2|0,0:0|0:0,0:0:0:0:
391,228,48122,2,0,L|375:290,1,45,2|0,1:2|0:0,0:0:0:0:
223,366,48432,54,0,P|185:318|136:307,1,90,2|0,1:2|0:0,0:0:0:0:
241,224,48741,2,0,P|213:232|205:283,2,45.0000017166138,2|0|0,0:0|0:0|0:0,0:0:0:0:
60,355,49050,5,2,0:0:0:0:
55,344,49360,1,2,1:2:0:0:
147,381,49669,54,0,P|180:311|80:199,1,225,2|2,1:2|0:0,0:0:0:0:
335,381,50133,1,2,1:2:0:0:
254,318,50287,2,0,P|322:293|373:323,1,112.5,0|2,0:0|0:0,0:0:0:0:
142,384,50597,6,0,P|175:314|75:202,1,225,2|0,1:2|0:0,0:0:0:0:
0,138,50906,54,0,P|61:250|92:76,1,393.75,2|0,1:2|0:0,0:0:0:0:
50,67,51524,2,0,L|80:154,1,67.5000025749208
261,314,51834,5,2,3:2:0:0:
265,292,51911,1,2,3:2:0:0:
258,270,51988,1,2,3:2:0:0:
243,254,52065,1,2,3:2:0:0:
187,307,52143,6,0,B|198:314|198:314|202:313|202:313|210:318|210:318|219:313|219:313|224:319|224:319|234:308|234:308|237:316|237:316|248:299|248:299|248:310|248:310|258:285|258:285|259:301|259:301|264:269|264:269|267:291|267:291|265:252|265:252|272:278|272:278|262:236|262:236|275:265|275:265|259:219|259:219|275:252|275:252|255:203|255:203|273:238|273:238|253:186|253:186|272:224|272:224|252:170|252:170|271:211|271:211|254:153|254:153|271:197|271:197|257:136|257:136|274:184|274:184|263:121|263:121|277:171|277:171|272:107|272:107|282:159|282:159|283:94|283:94|289:148|289:148|296:83|296:83|298:137|298:137|311:75|311:75|309:129|309:129|327:70|327:70|320:122|320:122|344:68|344:68|332:117|332:117|360:69|360:69|346:115|346:115|377:74|377:74|359:115|359:115|392:81|392:81|372:119|372:119|406:90|406:90|385:124|385:124|419:101|419:101|395:132|395:132|429:115|429:115|405:142|405:142|437:129|437:129|412:153|412:153|442:145|442:145|417:166|417:166|445:162|445:162|419:179|419:179|444:178|444:178|419:192|419:192|440:195|440:195|418:205|418:205|432:210|432:210|414:218|414:218|420:222|420:222|406:230|406:230,1,2625,2|0,1:1|0:0,0:0:0:0:
481,292,52762,38,0,P|458:300|427:275,1,45,2|0,1:2|0:0,0:0:0:0:
470,321,52839,22,0,P|446:316|432:279,1,45,2|0,0:0|0:0,0:0:0:0:
445,342,52916,6,0,P|426:326|432:287,1,45,2|0,0:0|0:0,0:0:0:0:
414,347,52993,6,0,P|405:324|430:293,1,45,2|0,0:0|0:0,0:0:0:0:
385,344,53071,22,0,P|389:320|426:306,1,45,10|0,0:0|0:0,0:0:0:0:
273,247,53226,54,0,P|250:239|219:264,1,45,2|0,1:2|0:0,0:0:0:0:
262,218,53303,22,0,P|238:223|224:260,1,45,2|0,0:0|0:0,0:0:0:0:
237,197,53380,6,0,P|218:213|224:252,1,45,2|0,0:0|0:0,0:0:0:0:
206,192,53457,6,0,P|197:215|222:246,1,45,2|0,0:0|0:0,0:0:0:0:
177,195,53535,22,0,P|181:219|218:233,1,45,10|0,0:0|0:0,0:0:0:0:
94,329,53689,54,0,B|68:373|-7:362|-17:283|33:251|71:266|71:266|197:317,1,315.000003004074,2|2,1:2|0:0,0:0:0:0:
186,311,53921,1,10,0:0:0:0:
192,315,53999,2,0,P|222:333|203:397,1,90,2|0,0:0|0:0,0:0:0:0:
458,261,54153,5,2,1:2:0:0:
453,271,54231,1,10,0:0:0:0:
385,251,54308,54,0,L|370:165,1,56.25,2|2,0:0|0:0,0:0:0:0:
407,375,54463,2,0,L|398:320,1,56.25,10|0,0:0|0:0,0:0:0:0:
477,122,54617,6,0,B|419:128|403:66|428:57|411:-14|338:3,1,202.500007724762,2|0,0:0|0:0,0:0:0:0:
228,30,54772,2,0,L|310:63,1,67.5000025749208,2|0,0:0|0:0,0:0:0:0:
512,0,54927,54,0,L|308:134,1,225,2|0,1:0|0:0,0:0:0:0:
316,128,55159,1,0,0:0:0:0:
309,133,55236,2,0,L|296:206,1,67.5000025749208,2|2,1:2|1:2,0:0:0:0:
45,282,55390,6,0,B|24:361|24:361|57:379|95:361|105:329|105:329|135:219|135:219|144:184|146:135|195:115|236:143,1,445.500004248619,10|0,1:2|0:0,0:0:0:0:
167,247,55700,2,0,L|78:223,1,67.5000025749208,2|2,0:2|0:2,0:0:0:0:
56,0,55854,54,0,P|33:5|15:50,1,56.25,2|0,1:3|0:0,0:0:0:0:
43,29,55931,2,0,P|35:52|67:90,1,56.25,2|0,1:3|0:0,0:0:0:0:
58,56,56009,2,0,P|71:79|113:90,1,56.25,2|0,1:3|0:0,0:0:0:0:
86,67,56086,1,2,1:3:0:0:
246,56,56164,6,0,B|246:40|255:28|270:28|277:29|277:29|326:40|326:40|334:41|350:52|351:79|342:91|332:103|318:103|310:100|310:100|262:91|262:91|253:89|234:75|250:47,1,270.000010299683,10|2,0:0|1:2,0:0:0:0:
426,32,56396,1,2,1:2:0:0:
421,28,56473,54,0,L|153:118,1,270.000010299683,10|2,0:0|1:2,0:0:0:0:
20,248,56705,1,10,0:0:0:0:
14,242,56782,2,0,P|32:172|73:157,1,112.5,2|0,1:2|0:0,0:0:0:0:
177,30,56937,2,0,P|136:20|119:-35,1,67.5000025749208,10|0,0:0|0:0,0:0:0:0:
160,287,57091,22,0,B|162:296|166:305|171:313|177:320|184:326|192:331|201:334|210:337|219:338|228:337|237:334|247:331|254:326|262:320|267:313|272:305|276:296|278:287|279:278|280:268|282:259|286:250|291:242|297:235|304:229|312:225|321:220|330:219|339:218|348:219|357:220|367:225|374:229|382:235|387:242|392:250|396:259|398:268,1,337.5,10|0,0:0|0:0,0:0:0:0:
412,347,57401,6,0,B|399:352|399:352|398:350|398:350|385:358|385:358|383:351|383:351|370:360|370:360|367:348|367:348|355:360|355:360|354:343|354:343|339:360|339:360|341:336|341:336|325:356|325:356|329:328|329:328|311:349|311:349|319:314|319:314|299:339|299:339|310:302|310:302|288:329|288:329|303:289|303:289|280:317|280:317|298:275|298:275|275:304|275:304|292:261|292:261|267:289|267:289|286:247|286:247|264:274|264:274|278:234|278:234|257:261|257:261|269:223|269:223|250:248|250:248|256:213|256:213|242:235|242:235|244:205|244:205|230:225|230:225|230:197|230:197|219:216|219:216|217:193|217:193|205:209|205:209|202:190|202:190|191:205|191:205|187:189|187:189|175:203|175:203|171:190|171:190|160:203|160:203|157:195|157:195|147:207|147:207|143:200|143:200|132:212|132:212|130:207|130:207|118:220|118:220,1,1227.27272727273,2|0,1:1|0:0,0:0:0:0:
78,384,57710,22,0,P|70:361|95:330,1,45,2|0,1:2|0:0,0:0:0:0:
49,373,57787,22,0,P|54:349|91:335,1,45,2|0,0:0|0:0,0:0:0:0:
28,348,57864,6,0,P|44:329|83:335,1,45,2|0,0:0|0:0,0:0:0:0:
23,317,57942,6,0,P|46:308|77:333,1,45,2|0,0:0|0:0,0:0:0:0:
26,288,58019,22,0,P|50:292|64:329,1,45,10|0,0:0|0:0,0:0:0:0:
195,189,58174,54,0,P|186:166|147:159,1,45,2|0,1:2|0:0,0:0:0:0:
212,161,58251,22,0,P|193:146|155:159,1,45,2|0,0:0|0:0,0:0:0:0:
211,128,58328,6,0,P|187:124|161:153,1,45,2|0,0:0|0:0,0:0:0:0:
196,101,58406,6,0,P|173:109|165:148,1,45,2|0,0:0|0:0,0:0:0:0:
174,81,58483,22,0,P|158:99|171:137,1,45,10|0,0:0|0:0,0:0:0:0:
46,8,58638,54,0,B|59:9|76:22|79:42|70:57|70:57|38:116|38:116|17:154|28:173|44:183,1,202.500007724762,2|0,1:2|0:0,0:0:0:0:
13,79,58793,2,0,L|80:116,1,67.5000025749208,2|10,0:0|0:0,0:0:0:0:
337,295,58947,6,0,P|281:291|255:333,1,90,2|0,0:0|0:0,0:0:0:0:
187,383,59102,54,0,L|196:321,1,45,2|10,1:2|0:0,0:0:0:0:
209,221,59256,2,0,L|200:283,1,45,2|2,0:0|0:0,0:0:0:0:
135,295,59411,5,10,0:0:0:0:
431,382,59566,54,0,P|431:309|480:295,2,67.5000025749208,2|0|2,1:2|1:0|1:2,0:0:0:0:
494,341,59720,6,0,B|451:375|388:359|362:307|374:258|398:237|406:233|415:226|448:198|445:133|399:97|349:100|318:125,1,405.000015449525,10|0,0:0|0:0,0:0:0:0:
327,198,60030,2,0,P|378:207|408:158,1,90
210,73,60184,53,2,1:2:0:0:
210,65,60262,1,2,1:2:0:0:
206,59,60339,2,0,P|122:36|104:128,1,168.75,10|0,1:2|0:0,0:0:0:0:
99,105,60494,2,0,P|124:127|120:182,1,67.5000025749208,2|0,1:2|0:0,0:0:0:0:
260,167,60648,2,0,P|225:165|189:206,1,67.5000025749208,2|2,0:2|0:2,0:0:0:0:
45,315,60803,6,0,P|21:313|-3:271,1,56.25,2|0,1:3|0:0,0:0:0:0:
37,286,60880,2,0,P|25:263|50:221,1,56.25,2|0,1:3|0:0,0:0:0:0:
48,256,60958,2,0,P|57:230|96:212,1,56.25,2|0,1:3|0:0,0:0:0:0:
73,240,61035,1,2,1:3:0:0:
188,289,61112,54,0,P|219:345|284:348,1,135.000005149842,10|0,0:0|0:0,0:0:0:0:
298,278,61267,2,0,P|278:252|246:248,1,67.5000025749208,2|2,1:2|1:2,0:0:0:0:
117,300,61421,6,0,B|94:361|94:361|33:305|33:305|69:188|69:188|75:183|75:183|105:82,1,360,10|2,0:0|1:2,0:0:0:0:
31,14,61653,1,10,0:0:0:0:
22,18,61731,2,0,B|-4:45|-4:45|2:96|2:96|5:98|5:98|15:182,1,135.000005149842,2|0,1:2|0:0,0:0:0:0:
178,215,61885,2,0,B|204:188|204:188|198:137|198:137|195:135|195:135|185:51,1,135.000005149842,10|0,0:0|0:0,0:0:0:0:
438,78,62040,6,1,B|452:89|452:89|470:64|470:64|458:55|458:55|467:43|467:43|443:24|443:24|433:36|433:36|442:25|442:25|417:4|417:4|408:17|408:17|396:8|396:8|377:32|377:32|390:42|390:42|398:31|398:31|372:12|372:12|365:23|365:23|353:14|353:14|333:39|333:39|346:50|346:50|334:40|334:40|315:64|315:64|327:74|327:74|318:86|318:86|342:105|342:105|361:81|361:81|336:62|336:62|328:74|328:74|315:64|315:64|296:88|296:88|308:98|308:98|295:88|295:88|275:114|275:114|287:122|287:122|278:133|278:133|303:153|303:153|312:141|312:141|300:132|300:132|281:157|281:157|293:167|293:167|283:180|283:180|332:217|332:217|344:203|344:203|356:212|356:212|376:187|376:187|351:167|351:167|340:182|340:182|326:172|326:172|291:220|291:220|303:229|303:229|295:240|295:240|320:261|320:261|330:249|330:249|318:239|318:239|298:264|298:264|310:273|310:273|302:284|302:284|325:303|325:303|335:291|335:291|326:303|326:303|351:323|351:323|361:311|361:311|372:318|372:318|391:294|391:294|368:275|368:275|349:301|349:301|360:310|360:310|351:322|351:322|375:341|375:341|385:329|385:329|374:342|374:342|399:362|399:362|408:350|408:350|420:359|420:359|440:335|440:335|429:325|429:325|419:337|419:337|443:357|443:357|453:345|453:345|464:355|464:355|483:331|483:331|472:321|472:321|484:331|484:331|504:306|504:306|492:297|492:297|501:285|501:285|476:265|476:265|459:286,1,1890.00007209778,2|0,1:1|0:0,0:0:0:0:
236,331,62659,38,0,L|224:261,1,45,2|0,1:2|0:0,0:0:0:0:
224,341,62736,22,0,L|212:271,1,45,2|0,0:0|0:0,0:0:0:0:
212,354,62813,6,0,L|200:284,1,45,2|0,0:0|0:0,0:0:0:0:
200,365,62890,6,0,L|188:295,1,45,2|0,0:0|0:0,0:0:0:0:
188,376,62968,22,0,L|176:306,1,45,10|0,0:0|0:0,0:0:0:0:
68,183,63122,54,0,L|56:252,1,45,2|0,1:2|0:0,0:0:0:0:
56,173,63199,22,0,L|44:242,1,45,2|0,0:0|0:0,0:0:0:0:
44,160,63277,6,0,L|32:229,1,45,2|0,0:0|0:0,0:0:0:0:
32,149,63354,6,0,L|20:218,1,45,2|0,0:0|0:0,0:0:0:0:
20,138,63431,22,0,L|8:207,1,45,10|0,0:0|0:0,0:0:0:0:
89,299,63586,54,0,B|45:316|85:331|64:380|64:380|83:332|141:311|141:311|172:279|138:230,1,270.000010299683,2|2,1:2|0:0,0:0:0:0:
233,206,63818,1,10,0:0:0:0:
224,199,63896,2,0,B|218:194|208:194|211:182|212:157|178:159|178:159|201:180|189:210|229:201,1,135.000005149842,2|0,0:0|0:0,0:0:0:0:
24,0,64050,5,2,1:2:0:0:
24,0,64128,1,10,0:0:0:0:
24,0,64205,2,0,L|2:66,1,67.5000025749208,2|2,0:0|0:0,0:0:0:0:
96,20,64360,2,0,L|74:86,1,67.5000025749208,10|0,0:0|0:0,0:0:0:0:
151,251,64514,54,0,B|151:287|151:287|259:333|259:333|266:381,1,180,2|0,0:0|0:0,0:0:0:0:
313,189,64669,2,0,L|329:118,1,67.5000025749208,2|0,0:0|0:0,0:0:0:0:
76,352,64823,6,0,L|376:249,1,270.000010299683,2|0,1:0|0:0,0:0:0:0:
341,261,65055,1,0,0:0:0:0:
350,257,65133,2,0,L|435:297,1,67.5000025749208,2|2,1:2|1:2,0:0:0:0:
109,186,65287,54,0,B|80:158|102:99|120:91|134:109|159:100|171:57|167:33|146:5|146:5|243:111|243:111|218:142|198:163|192:186|199:216|231:223,1,472.500004506111,10|0,1:2|0:0,0:0:0:0:
326,1,65597,2,0,L|258:27,1,67.5000025749208,2|2,0:2|0:2,0:0:0:0:
93,282,65751,6,0,L|81:352,1,45,2|0,1:3|0:0,0:0:0:0:
81,272,65828,2,0,L|69:342,1,45,2|0,1:3|0:0,0:0:0:0:
69,259,65906,2,0,L|57:329,1,45,2|0,1:3|0:0,0:0:0:0:
57,248,65983,2,0,L|45:318,1,45,2|0,1:3|0:0,0:0:0:0:
0,355,66061,54,0,L|343:281,1,270.000010299683,10|2,0:0|1:2,0:0:0:0:
463,200,66293,1,2,1:2:0:0:
454,196,66370,6,0,B|404:176|404:176|334:319|334:319|420:365,1,270,10|2,0:0|1:2,0:0:0:0:
503,384,66602,1,10,0:0:0:0:
507,377,66679,2,0,B|511:338|479:325|475:338|447:326|429:307|446:261,1,135.000005149842,2|0,1:2|0:0,0:0:0:0:
258,163,66834,2,0,L|276:238,1,67.5000025749208,10|0,0:0|0:0,0:0:0:0:
512,135,66988,6,0,L|293:54,1,225.000008583069,10|0,0:0|0:0,0:0:0:0:
493,41,67220,1,0,0:0:0:0:
489,32,67298,6,0,B|480:28|480:28|485:14|485:14|471:17|471:17|472:3|472:3|459:9|459:9|456:-5|456:-5|446:5|446:5|438:-7|438:-7|431:5|431:5|421:-5|421:-5|418:10|418:10|405:3|405:3|406:17|406:17|392:15|392:15|397:28|397:28|383:31|383:31|392:42|392:42|380:48|380:48|392:56|392:56|381:66|381:66|395:69|395:69|388:82|388:82|403:81|403:81|399:96|399:96|413:92|413:92|412:105|412:105|427:102|427:102|422:116|422:116|437:117|437:117|429:128|429:128|442:133|442:133|431:142|431:142|442:151|442:151|429:156|429:156|437:168|437:168|423:169|423:169|427:183|427:183|413:179|413:179|413:194|413:194|401:186|401:186|397:200|397:200|387:189|387:189|379:202|379:202|373:189|373:189|362:198|362:198|360:184|360:184|346:189|346:189|348:175|348:175|334:177|334:177|340:164|340:164|332:162,1,724.103121836319,2|0,1:1|0:0,0:0:0:0:
225,45,67607,22,0,L|213:115,1,45,2|0,1:2|0:0,0:0:0:0:
213,35,67684,22,0,L|201:105,1,45,2|0,0:0|0:0,0:0:0:0:
201,22,67761,6,0,L|189:92,1,45,2|0,0:0|0:0,0:0:0:0:
189,11,67839,6,0,L|177:81,1,45,2|0,0:0|0:0,0:0:0:0:
177,0,67916,22,0,L|165:70,1,45,10|0,0:0|0:0,0:0:0:0:
73,194,68071,54,0,L|61:125,1,45,2|0,1:2|0:0,0:0:0:0:
61,204,68148,22,0,L|49:135,1,45,2|0,0:0|0:0,0:0:0:0:
49,217,68226,6,0,L|37:148,1,45,2|0,0:0|0:0,0:0:0:0:
37,228,68303,6,0,L|25:159,1,45,2|0,0:0|0:0,0:0:0:0:
25,239,68380,22,0,L|13:170,1,45,10|0,0:0|0:0,0:0:0:0:
168,0,68535,54,0,B|156:29|156:29|19:66|19:66|8:115,1,202.500007724762,2|0,1:2|0:0,0:0:0:0:
42,14,68689,2,0,B|45:44|75:55|77:41|99:41|123:61|111:103,1,112.5,2|10,0:0|0:0,0:0:0:0:
335,240,68844,6,0,P|264:250|241:293,1,101.250003862381,2|0,0:0|0:0,0:0:0:0:
201,376,68999,54,0,L|190:310,1,56.25,2|10,1:2|0:0,0:0:0:0:
169,191,69154,2,0,L|180:257,1,56.25,2|2,0:0|0:0,0:0:0:0:
443,332,69308,5,10,0:0:0:0:
445,55,69463,2,0,P|315:190|375:368,1,393.75,2|0,0:0|0:0,0:0:0:0:
454,59,70081,54,0,P|450:100|370:116,1,112.5,2|0,0:0|0:0,0:0:0:0:
256,124,70313,1,0,0:0:0:0:
259,116,70390,2,0,P|255:75|175:59,1,112.5,2|2,0:0|0:0,0:0:0:0:
5,19,70700,5,0,1:0:0:0:
57,23,70777,1,0,1:0:0:0:
93,60,70855,1,0,1:0:0:0:
94,111,70932,1,0,1:0:0:0:
73,157,71009,1,0,1:0:0:0:
74,208,71087,1,0,1:0:0:0:
110,245,71164,1,0,1:0:0:0:
162,249,71241,1,0,1:0:0:0:
205,212,71319,53,2,1:2:0:0:
142,176,71396,1,2,1:2:0:0:
74,208,71473,1,2,1:2:0:0:
57,284,71551,1,2,1:2:0:0:
106,342,71628,6,0,P|150:344|190:381,1,90,2|2,1:3|1:3,0:0:0:0:
182,381,71782,2,0,P|147:353|103:351,1,90,2|2,1:3|1:3,0:0:0:0:
256,50,71937,53,6,1:2:0:0:
464,148,72246,5,2,0:0:0:0:
424,80,72401,1,2,1:2:0:0:
349,105,72555,2,0,L|322:272,1,135.000005149842,2|2,0:0|1:2,0:0:0:0:
448,361,73174,54,0,P|471:328|497:315,1,67.5000025749208,2|2,1:2|0:0,0:0:0:0:
420,272,73483,2,0,P|404:235|404:206,1,67.5000025749208,2|0,0:0|0:0,0:0:0:0:
274,346,73793,2,0,P|303:361|336:364,1,67.5000025749208,2|2,1:2|0:0,0:0:0:0:
247,271,74102,1,2,0:0:0:0:
45,384,74411,5,2,1:2:0:0:
142,182,74720,53,2,0:0:0:0:
102,250,74875,1,2,1:2:0:0:
27,225,75029,2,0,L|12:152,1,67.5000025749208,2|2,0:0|0:0,0:0:0:0:
17,154,75262,1,0,0:0:0:0:
20,148,75339,1,2,1:2:0:0:
340,375,75648,22,0,B|316:380|294:359|298:331|317:318|335:322|335:322|371:325|401:286|383:244|348:234|322:250|322:250|278:277|216:246|213:180|250:144|294:148|294:148|359:154|413:80|375:1|307:-11|263:17,1,708.750027036668,2|0,1:2|0:0,0:0:0:0:
153,27,76885,54,0,P|190:40|208:79,1,67.5000025749208,2|0,1:2|0:0,0:0:0:0:
162,127,77195,2,0,P|153:37|148:127,1,270.000010299683,2|2,1:3|1:2,0:0:0:0:
344,202,77813,53,2,1:2:0:0:
267,230,77968,1,0,0:0:0:0:
328,350,78122,6,0,P|350:295|397:269,1,90,2|2,1:2|1:2,0:0:0:0:
272,151,78432,2,0,P|248:136|219:135,2,45,2|2|2,0:0|0:0|1:2,0:0:0:0:
456,28,78741,53,2,0:0:0:0:
402,83,78896,1,2,0:0:0:0:
421,156,79050,1,2,1:2:0:0:
475,101,79205,1,2,1:2:0:0:
333,3,79360,6,0,P|298:41|252:48,1,90,2|0,1:2|0:0,0:0:0:0:
157,15,79669,2,0,P|100:75|159:16,1,270.000010299683,2|2,1:3|1:2,0:0:0:0:
158,233,80287,53,2,1:2:0:0:
157,222,80442,1,2,0:0:0:0:
27,209,80597,5,2,0:0:0:0:
77,153,80751,2,0,L|238:255,1,180,2|2,1:2|0:0,0:0:0:0:
335,209,81215,53,2,1:2:0:0:
324,211,81292,1,0,0:0:0:0:
313,214,81369,1,2,0:0:0:0:
302,217,81446,1,0,0:0:0:0:
336,287,81524,5,2,1:3:0:0:
340,6,81834,54,0,L|276:405,1,371.250003540516,4|0,1:2|0:0,0:0:0:0:
278,366,82143,6,0,L|258:278,1,56.25,10|0,0:2|0:0,0:0:0:0:
157,164,82298,1,2,1:2:0:0:
159,171,82375,1,2,1:2:0:0:
179,243,82452,53,2,1:2:0:0:
310,141,82607,1,2,1:2:0:0:
304,135,82684,1,0,0:0:0:0:
297,130,82762,2,0,P|254:142|239:203,1,90,2|0,1:2|0:0,0:0:0:0:
19,217,82916,2,0,P|64:210|117:270,1,90,2|0,0:0|0:0,0:0:0:0:
204,76,83071,6,0,P|94:15|80:131,1,270.000010299683,4|0,1:2|0:0,0:0:0:0:
79,126,83303,1,0,0:0:0:0:
89,129,83380,2,0,P|144:139|198:77,1,135.000005149842,10|0,0:2|0:0,0:0:0:0:
413,18,83535,53,2,1:2:0:0:
407,12,83612,1,2,1:2:0:0:
400,9,83689,2,0,P|366:23|350:55,1,67.5000025749208,2|0,1:2|0:0,0:0:0:0:
422,158,83844,2,0,P|411:126|417:93,1,67.5000025749208,2|0,1:2|0:0,0:0:0:0:
289,274,83999,6,0,P|326:250|369:256,1,90,2|0,1:2|0:0,0:0:0:0:
453,289,84153,2,0,B|461:324|461:324|419:363|419:363|423:309|423:309|450:291,1,180,2|0,1:3|0:0,0:0:0:0:
201,249,84308,54,0,B|191:220|156:194|119:194|119:194|230:159|334:220|345:334,1,405.000015449525,4|0,1:2|0:0,0:0:0:0:
115,326,84617,2,0,L|133:251,1,45,10|0,0:2|0:0,0:0:0:0:
285,372,84772,6,0,B|236:377|236:377|228:373|228:373|222:380|222:380|152:387,1,112.5,2|2,1:2|1:2,0:0:0:0:
39,224,84927,54,0,L|53:158,1,67.5000025749208,2|0,1:2|0:0,0:0:0:0:
21,296,85081,2,0,L|6:361,1,67.5000025749208,2|0,1:2|0:0,0:0:0:0:
289,130,85236,5,2,1:2:0:0:
286,116,85313,1,2,1:2:0:0:
284,104,85390,1,2,1:2:0:0:
281,93,85467,1,2,1:2:0:0:
210,58,85545,2,0,B|186:157|186:157|309:188|309:188|335:70|335:70|215:43,1,472.500018024445,2|0,1:2|0:0,0:0:0:0:
133,79,86164,54,0,P|60:76|8:-5,1,135.000005149842,2|2,0:0|0:0,0:0:0:0:
24,29,86396,1,2,0:0:0:0:
30,23,86473,2,0,P|59:31|50:97,1,67.5000025749208,2|0,0:0|0:0,0:0:0:0:
163,154,86628,2,0,P|131:176|126:216,1,67.5000025749208,2|0,0:0|0:0,0:0:0:0:
37,355,86782,6,0,P|61:350|82:319,3,45,6|0|0|0,1:2|0:0|0:0|0:0,0:0:0:0:
147,354,87091,2,0,P|154:330|138:297,3,45,2|0|0|0,1:2|0:0|0:0|0:0,0:0:0:0:
214,270,87401,2,0,P|197:251|160:249,3,45,2|0|0|0,1:2|0:0|0:0|0:0,0:0:0:0:
309,352,87710,54,0,L|422:366,1,90,2|0,1:2|0:0,0:0:0:0:
397,372,87865,2,0,L|308:360,1,90,2|0,1:2|0:0,0:0:0:0:
512,194,88019,6,0,P|488:189|467:158,3,45,6|0|0|0,1:2|0:0|0:0|0:0,0:0:0:0:
402,193,88329,2,0,P|394:169|410:136,3,45,2|0|0|0,1:2|0:0|0:0|0:0,0:0:0:0:
335,109,88638,2,0,P|351:90|388:88,3,45,2|0|0|0,1:2|0:0|0:0|0:0,0:0:0:0:
176,163,88947,54,0,L|63:177,1,90,2|0,1:2|0:0,0:0:0:0:
88,183,89102,2,0,L|177:171,1,90,2|0,1:2|0:0,0:0:0:0:
177,0,89256,5,4,1:2:0:0:
191,25,89333,1,0,1:0:0:0:
206,51,89410,1,0,1:0:0:0:
221,77,89487,1,0,1:0:0:0:
236,103,89565,1,0,1:0:0:0:
251,129,89642,1,0,1:0:0:0:
266,155,89719,1,0,1:0:0:0:
281,181,89797,1,0,1:0:0:0:
296,207,89874,1,2,1:2:0:0:
312,233,89951,1,2,1:2:0:0:
326,259,90029,1,2,1:2:0:0:
341,285,90106,1,2,1:2:0:0:
356,311,90183,53,2,1:3:0:0:
282,326,90262,1,2,1:3:0:0:
208,342,90339,1,2,1:3:0:0:
134,357,90417,1,2,1:3:0:0:
60,373,90494,6,0,P|79:307|66:377,1,225,4|0,1:2|1:2,0:0:0:0:
107,125,90725,2,0,P|126:191|113:121,1,225,4|0,1:2|1:2,0:0:0:0:
208,342,90957,2,0,P|227:276|214:346,1,225,4|0,1:2|1:2,0:0:0:0:
250,94,91189,2,0,P|269:160|256:90,1,225,4|0,1:2|1:2,0:0:0:0:
388,372,91421,53,4,1:2:0:0:
377,335,91498,1,2,1:2:0:0:
389,298,91575,1,2,1:2:0:0:
418,276,91652,1,2,1:2:0:0:
490,301,91731,5,4,1:2:0:0:
422,54,94205,54,0,B|421:92|350:118|350:118|301:160|322:256|441:274|495:176|448:106|391:103|391:103|335:120|319:104|294:91|236:112|236:112|156:109|122:-26|285:-75|335:47|277:98|277:98|187:125|201:170,1,1012.50003862381,0|0,1:2|0:0,0:0:0:0:
97,248,95442,6,0,P|173:287|219:229,1,135.000005149842,0|0,1:2|0:0,0:0:0:0:
209,257,95674,1,2,0:0:0:0:
206,252,95751,2,0,P|139:344|174:376,1,135.000005149842,0|2,1:2|0:0,0:0:0:0:
336,288,96061,54,0,P|342:259|356:235,1,45,2|0,1:3|0:0,0:0:0:0:
404,312,96215,2,0,P|410:283|424:259,1,45,2|0,1:3|0:0,0:0:0:0:
0,23,96370,6,0,P|176:154|283:393,1,472.500004506111,2|0,1:0|0:0,0:0:0:0:
383,50,96679,6,0,P|311:73|290:125,1,112.5,4|0,0:0|0:0,0:0:0:0:
484,127,96834,5,2,0:0:0:0:
459,56,96911,1,2,0:0:0:0:
385,40,96988,2,0,P|278:103|300:185,1,225,8|2,0:0|1:2,0:0:0:0:
70,111,97298,53,2,0:0:0:0:
66,116,97375,1,0,0:0:0:0:
62,121,97452,2,0,P|74:164|158:188,1,112.5,2|0,1:2|0:0,0:0:0:0:
389,190,97607,6,0,B|354:207|311:195|289:159|289:134|291:126|292:116|295:87|266:53|226:46|196:63,1,270.000010299683,8|2,0:0|0:0,0:0:0:0:
141,114,97839,1,2,0:0:0:0:
201,70,97916,54,0,P|247:73|246:174,1,90,2|0,1:2|0:0,0:0:0:0:
330,349,98071,2,0,P|362:319|371:276,1,90,2|0,0:0|0:0,0:0:0:0:
512,0,98226,2,0,P|458:79|482:196,1,180,8|2,0:0|0:0,0:0:0:0:
471,153,98457,1,0,0:0:0:0:
475,142,98535,6,0,P|444:117|374:137,1,90,2|0,1:2|0:0,0:0:0:0:
187,201,98690,2,0,P|226:207|276:154,1,90,2|0,0:0|0:0,0:0:0:0:
450,384,98844,54,0,P|395:270|276:248,1,225,8|2,0:0|0:0,0:0:0:0:
50,363,99153,6,0,P|46:301|98:257,1,135.000005149842,2|0,1:2|0:0,0:0:0:0:
192,355,99308,53,2,0:0:0:0:
124,382,99385,1,2,0:0:0:0:
42,358,99463,2,0,B|19:326|23:282|55:254|79:249|88:250|98:249|127:247|155:213|155:172|133:145,1,270.000010299683,8|2,0:0|1:2,0:0:0:0:
0,34,99772,5,2,0:0:0:0:
5,30,99849,1,2,0:0:0:0:
10,26,99927,2,0,P|53:38|78:106,1,112.5,2|0,1:2|0:0,0:0:0:0:
382,168,100081,2,0,P|260:164|209:271,1,225,8|2,0:0|0:0,0:0:0:0:
255,312,100313,1,2,0:0:0:0:
219,243,100390,54,0,P|246:186|304:170,1,90,2|0,1:2|0:0,0:0:0:0:
450,300,100545,2,0,P|454:239|425:207,1,90,2|0,0:0|0:0,0:0:0:0:
338,0,100700,2,0,P|419:33|451:114,1,180,8|2,0:0|0:0,0:0:0:0:
448,123,100932,1,0,0:0:0:0:
443,128,101009,6,0,P|399:102|411:30,1,90,2|2,1:2|0:0,0:0:0:0:
186,41,101164,2,0,P|230:43|262:12,1,90,2|0,0:0|0:0,0:0:0:0:
501,8,101318,54,0,P|469:31|463:59,1,56.25,8|0,0:0|0:0,0:0:0:0:
336,138,101473,2,0,P|343:177|396:212,1,67.5000025749208,2|0,0:0|0:0,0:0:0:0:
475,378,101628,6,0,P|460:340|339:336,1,135.000005149842,2|0,1:2|0:0,0:0:0:0:
78,232,101782,53,2,0:0:0:0:
56,302,101860,1,2,0:0:0:0:
101,359,101937,2,0,B|132:381|176:377|204:345|209:321|208:312|209:302|211:273|245:245|286:245|313:267,1,270.000010299683,8|2,0:0|1:2,0:0:0:0:
343,66,102246,5,2,0:0:0:0:
338,62,102323,1,2,0:0:0:0:
333,58,102400,2,0,P|290:70|266:154,1,112.5,2|0,1:2|0:0,0:0:0:0:
31,109,102555,2,0,P|71:86|135:249,1,270.000010299683,8|2,0:0|1:2,0:0:0:0:
82,238,102787,1,2,0:0:0:0:
152,227,102865,54,0,P|171:189|158:131,1,90,2|0,1:2|0:0,0:0:0:0:
197,343,103019,2,0,P|241:346|276:373,1,90,2|0,0:0|0:0,0:0:0:0:
459,173,103174,2,0,P|350:216|323:322,1,180,8|2,0:0|0:0,0:0:0:0:
324,274,103406,1,0,0:0:0:0:
331,276,103483,6,0,P|330:223|285:196,1,90,2|0,1:2|0:0,0:0:0:0:
469,17,103638,2,0,P|419:36|400:95,1,90,2|0,0:0|0:0,0:0:0:0:
157,26,103793,54,0,P|309:72|336:178,1,225,8|2,0:0|0:0,0:0:0:0:
512,368,104102,6,0,B|468:389|446:347|460:339|433:291|367:345,1,135.000005149842,2|0,1:2|0:0,0:0:0:0:
59,333,104256,1,2,0:0:0:0:
48,262,104334,1,2,0:0:0:0:
100,213,104411,2,0,P|174:203|184:387,1,270.000010299683,8|2,0:0|1:2,0:0:0:0:
29,94,104720,53,2,0:0:0:0:
24,100,104798,1,2,0:0:0:0:
22,107,104875,2,0,P|59:140|110:120,1,90,2|0,1:2|0:0,0:0:0:0:
358,34,105030,2,0,P|240:114|291:190,1,225,8|2,0:0|0:0,0:0:0:0:
329,182,105262,1,2,0:0:0:0:
252,169,105339,6,0,P|231:133|235:85,1,90,8|0,0:0|0:0,0:0:0:0:
422,249,105494,1,2,1:2:0:0:
422,256,105571,2,0,P|401:292|358:313,1,90,8|0,0:0|0:0,0:0:0:0:
420,82,105726,1,2,1:2:0:0:
426,78,105803,2,0,P|468:78|507:105,1,90,8|0,0:0|0:0,0:0:0:0:
478,363,105957,21,2,1:2:0:0:
491,290,106035,1,2,1:2:0:0:
502,217,106112,1,2,1:2:0:0:
266,341,106267,38,0,B|233:360|190:347|172:311|178:279|178:279|186:242|161:205|120:199|92:216,1,270.000010299683,8|2,0:0|0:0,0:0:0:0:
50,308,106499,1,2,0:0:0:0:
50,308,106576,54,0,L|370:242,1,270.000010299683,4|2,0:0|0:0,0:0:0:0:
324,253,106808,1,2,0:0:0:0:
334,250,106885,2,0,L|365:143,1,90,8|0,0:0|0:0,0:0:0:0:
165,358,107040,1,2,1:2:0:0:
166,29,107195,6,0,P|226:98|261:219,1,180,2|2,0:0|1:2,0:0:0:0:
252,189,107427,1,0,0:0:0:0:
246,194,107504,2,0,B|216:150|228:118|269:100|274:110|321:87|331:20|264:-19,1,225,8|2,0:0|0:0,0:0:0:0:
177,235,107736,1,2,1:2:0:0:
156,158,107813,54,0,P|92:212|32:351,1,225,2|2,1:2|0:0,0:0:0:0:
18,156,108045,1,2,0:0:0:0:
16,147,108122,2,0,L|-5:59,1,67.5000025749208,8|0,0:0|0:0,0:0:0:0:
120,334,108277,1,2,0:0:0:0:
127,327,108354,1,0,0:0:0:0:
135,323,108432,6,0,P|189:339|221:410,1,112.5,2|0,1:2|0:0,0:0:0:0:
462,216,108587,2,0,P|430:261|378:277,1,112.5,2|0,0:0|0:0,0:0:0:0:
296,371,108741,54,0,L|309:298,1,67.5000025749208,8|0,0:0|0:0,0:0:0:0:
333,162,108896,2,0,L|320:235,1,67.5000025749208,2|0,0:0|0:0,0:0:0:0:
512,354,109050,6,0,P|431:278|478:138,1,270.000010299683,2|2,1:2|0:0,0:0:0:0:
244,70,109282,1,2,0:0:0:0:
305,25,109360,2,0,P|375:47|370:138,1,112.5,8|0,0:0|0:0,0:0:0:0:
173,112,109514,2,0,P|125:90|130:-1,1,112.5,2|0,1:2|0:0,0:0:0:0:
333,162,109669,54,0,P|201:201|169:313,1,225,2|2,0:0|1:2,0:0:0:0:
173,283,109901,1,0,0:0:0:0:
183,287,109978,6,0,P|204:227|163:182,1,112.5,8|0,0:0|0:0,0:0:0:0:
41,328,110133,2,0,P|82:376|141:363,1,112.5,2|2,0:0|0:0,0:0:0:0:
173,112,110287,54,0,P|41:72|9:-39,1,225,2|2,1:2|0:0,0:0:0:0:
16,1,110519,1,0,0:0:0:0:
23,4,110597,2,0,P|67:36|45:133,1,112.5,8|0,0:0|0:0,0:0:0:0:
104,187,110751,2,0,P|72:231|-25:208,1,112.5,2|0,0:0|0:0,0:0:0:0:
363,169,110906,5,2,1:2:0:0:
384,94,110983,1,2,0:0:0:0:
361,162,111061,2,0,P|262:184|284:281,1,112.5,2|0,0:0|0:0,0:0:0:0:
219,291,111215,54,0,L|198:198,1,56.25,8|0,0:0|0:0,0:0:0:0:
173,112,111370,2,0,L|198:214,1,56.25,2|0,0:0|0:0,0:0:0:0:
351,361,111524,6,0,L|389:30,1,270.000010299683,2|2,1:2|0:0,0:0:0:0:
448,212,111756,1,2,0:0:0:0:
376,228,111834,2,0,L|395:70,1,135.000005149842,8|0,0:0|0:0,0:0:0:0:
194,378,111988,21,2,1:2:0:0:
191,369,112066,2,0,L|309:342,1,90,2|2,1:2|1:2,0:0:0:0:
425,378,112220,1,2,1:2:0:0:
422,369,112298,2,0,L|540:342,1,90,10|0,1:2|0:0,0:0:0:0:
311,264,112452,38,0,L|53:326,1,202.500007724762
6,248,112607,54,0,B|16:203|16:203|62:215|62:215|51:260|51:260|1:248,1,180,0|2,0:0|1:2,0:0:0:0:
78,374,112762,5,10,1:2:0:0:
84,377,112839,1,2,1:2:0:0:
113,303,112916,2,0,L|242:272,1,90,2|2,1:2|1:2,0:0:0:0:
41,134,113071,21,8,0:0:0:0:
49,135,113148,1,2,1:2:0:0:
107,87,113226,2,0,L|76:-42,1,90,2|2,1:2|1:2,0:0:0:0:
268,64,113380,38,0,L|-69:8,1,270.000010299683,8|2,0:0|1:2,0:0:0:0:
322,13,113612,1,8,0:0:0:0:
273,72,113689,2,0,L|338:249,1,135.000005149842,2|2,1:2|1:2,0:0:0:0:
507,12,113844,22,0,L|419:50,1,67.5000025749208,8|0,0:0|0:0,0:0:0:0:
399,303,113999,38,0,L|370:407,1,67.5000025749208,8|0,0:0|0:0,0:0:0:0:
465,259,114153,2,0,L|494:155,1,67.5000025749208,2|0,1:2|0:0,0:0:0:0:
250,218,114308,22,0,L|284:319,1,78.7500007510185,8|0,0:0|0:0,0:0:0:0:
274,146,114462,2,0,L|237:40,1,78.7500007510185,2|0,1:2|0:0,0:0:0:0:
73,246,114617,38,0,L|168:322,1,90,8|0,0:0|0:0,0:0:0:0:
69,171,114771,2,0,L|-25:91,1,90,2|0,1:2|0:0,0:0:0:0:
141,383,114927,22,0,L|427:294,1,270.000010299683,8|2,0:0|1:2,0:0:0:0:
465,337,115159,1,0,0:0:0:0:
397,296,115236,38,0,L|366:213,1,56.25,8|0,0:0|0:0,0:0:0:0:
70,42,115390,22,0,L|474:137,2,360,2|2|2,1:2|1:2|1:2,0:0:0:0:
482,2,115854,37,2,1:2:0:0:
477,10,115932,1,2,1:2:0:0:
472,19,116009,1,2,1:2:0:0:
399,40,116086,1,2,1:2:0:0:
326,64,116164,22,0,L|309:136,1,67.5000025749208,8|2,0:0|1:2,0:0:0:0:
471,337,116473,37,2,1:2:0:0:
401,367,116576,1,2,1:2:0:0:
352,306,116679,1,2,1:2:0:0:
240,363,116782,22,0,L|220:294,1,45,2|0,1:2|0:0,0:0:0:0:
167,383,116937,2,0,L|146:304,1,45,2|0,1:2|0:0,0:0:0:0:
282,227,117091,6,0,B|303:200|289:157|246:148|222:172|222:172|208:191|179:196|158:181|152:160,1,185.625001770258,10|0,1:2|0:0,0:0:0:0:
158,176,117246,2,0,P|143:157|158:106,1,67.5000025749208,2|0,1:2|0:0,0:0:0:0:
326,64,117401,53,2,1:2:0:0:
326,64,117478,1,2,1:2:0:0:
262,20,117555,2,0,L|246:85,1,67.5000025749208,10|0,1:2|0:0,0:0:0:0:
167,256,117710,6,0,L|-31:296,1,168.75,2|0,1:2|0:0,0:0:0:0:
8,301,117865,2,0,L|95:284,1,67.5000025749208,10|0,1:2|0:0,0:0:0:0:
403,319,118019,54,0,B|398:302|389:289|389:289|415:273|433:237|433:237|428:278|441:311|441:311|422:318|409:331,1,202.500007724762,2|0,1:2|0:0,0:0:0:0:
462,256,118174,2,0,L|375:226,1,67.5000025749208,2|0,0:0|0:0,0:0:0:0:
325,333,118329,6,0,P|305:360|322:325,1,135.000005149842,10|0,1:2|0:0,0:0:0:0:
265,235,118483,54,0,P|240:220|270:230,1,90,2|0,0:0|0:0,0:0:0:0:
300,135,118638,6,0,P|308:113|304:136,1,67.5000025749208,2|0,0:0|0:0,0:0:0:0:
391,103,118793,54,0,P|399:94|392:107,1,45,10|0,1:2|0:0,0:0:0:0:
482,124,118947,6,0,P|478:140|467:153,1,33.7500012874604,2|0,0:0|0:0,0:0:0:0:
325,333,119102,54,0,B|307:390|230:405|179:385|186:328|175:311|190:287|220:275|232:278|240:279|246:280|259:284|288:273|300:239|298:175|249:155|170:169|152:234,1,472.500004506111,2|0,1:1|0:0,0:0:0:0:
102,147,119411,2,0,P|68:173|100:144,1,135.000005149842
97,356,119566,6,0,B|54:328|54:275|54:275|31:320|64:365|111:364,1,202.500007724762,2|0,1:2|0:0,0:0:0:0:
167,344,119720,2,0,P|171:314|191:290,1,45,10|0,1:2|0:0,0:0:0:0:
224,384,119875,2,0,P|251:373|282:378,1,45,2|0,0:0|0:0,0:0:0:0:
447,195,120030,53,10,1:2:0:0:
449,201,120107,1,2,1:2:0:0:
499,253,120184,6,0,B|449:243|425:185|425:185|441:246|392:301,1,202.500007724762,2|0,1:2|0:0,0:0:0:0:
438,374,120339,2,0,P|468:352|465:309,1,67.5000025749208,10|0,1:2|0:0,0:0:0:0:
349,227,120494,1,2,1:2:0:0:
352,221,120571,2,0,P|346:188|318:170,1,67.5000025749208,0|10,0:0|1:2,0:0:0:0:
186,75,120726,53,0,0:0:0:0:
196,74,120803,2,0,L|402:36,1,202.500007724762,2|0,1:2|0:0,0:0:0:0:
290,100,120957,2,0,B|295:62|295:62|300:56|300:56|297:49|297:49|305:-9,1,90,2|0,1:2|0:0,0:0:0:0:
9,14,121112,6,0,B|16:12|16:12|20:21|20:21|28:16|28:16|30:26|30:26|39:23|39:23|39:33|39:33|49:31|49:31|46:41|46:41|56:41|56:41|53:50|53:50|62:52|62:52|57:60|57:60|66:64|66:64|60:71|60:71|64:77,1,141.306029746792,10|0,1:2|0:0,0:0:0:0:
247,195,121267,2,0,B|240:197|240:197|236:187|236:187|229:194|229:194|223:186|223:186|218:194|218:194|211:187|211:187|207:197|207:197|198:191|198:191|197:201|197:201|187:197|187:197|187:207|187:207|178:205|178:205|180:215|180:215|170:215|170:215|170:223,1,147.108182669359,2|0,1:2|0:0,0:0:0:0:
55,270,121421,54,0,B|41:321|92:301|107:365|107:365|59:155|59:155|16:153|-5:107,1,405.000015449525,8|0,0:0|0:0,0:0:0:0:
137,35,121731,6,0,P|147:12|195:8,1,45,2|0,1:2|0:0,0:0:0:0:
167,30,121808,2,0,P|191:27|219:67,1,45,2|0,0:0|0:0,0:0:0:0:
190,51,121886,2,0,P|209:70|207:111,1,45,10|0,0:2|0:0,0:0:0:0:
194,82,121963,1,2,0:0:0:0:
286,75,122040,53,2,1:2:0:0:
343,124,122143,1,2,0:0:0:0:
355,50,122246,1,2,0:0:0:0:
324,85,122349,6,0,P|307:125|292:166,1,67.5000025749208,2|0,0:3|0:0,0:0:0:0:
395,113,122504,2,0,P|378:153|363:194,1,67.5000025749208,2|0,0:3|0:0,0:0:0:0:
471,345,122659,54,0,P|468:369|424:390,1,45,2|0,1:2|0:0,0:0:0:0:
444,360,122736,2,0,P|420:371|380:342,1,45,2|0,0:0|0:0,0:0:0:0:
414,348,122814,2,0,P|389:336|375:297,1,45,8|0,0:0|0:0,0:0:0:0:
400,321,122891,1,2,0:0:0:0:
304,319,122968,5,2,0:0:0:0:
249,371,123071,1,2,0:0:0:0:
178,351,123174,1,2,0:0:0:0:
89,383,123277,53,10,1:2:0:0:
77,369,123355,1,2,1:2:0:0:
73,350,123432,1,2,1:2:0:0:
79,331,123509,1,2,1:2:0:0:
19,217,123586,5,2,1:2:0:0:
15,235,123664,1,2,1:2:0:0:
21,253,123741,1,10,1:2:0:0:
36,267,123818,1,2,1:2:0:0:
108,254,123896,54,0,B|172:261|154:320|154:320|148:275|107:256,1,180,2|0,0:0|0:0,0:0:0:0:
235,296,124050,6,0,B|296:265|309:174|279:124|255:112|236:124|186:82|206:8|206:8|175:68|114:54|72:133|124:209|207:198,1,540,2|0,1:1|0:0,0:0:0:0:
284,12,124360,2,0,L|351:5,1,45,2|0,1:2|0:0,0:0:0:0:
472,78,124514,54,0,B|502:88|502:116|484:132|496:167|496:167|483:132|458:134|438:113|462:80,1,202.500007724762,8|0,0:0|0:0,0:0:0:0:
358,245,124669,2,0,P|382:208|425:199,1,90,2|0,1:2|0:0,0:0:0:0:
429,206,124824,2,0,P|405:243|362:252,1,90,2|0,1:2|0:0,0:0:0:0:
461,370,124978,5,0,0:0:0:0:
388,360,125055,1,2,1:2:0:0:
316,353,125133,2,0,B|292:379|250:379|226:348|228:325|229:316|229:306|232:281|201:251|162:255|141:280,1,236.250002253056,10|0,1:2|0:0,0:0:0:0:
103,343,125287,53,2,1:2:0:0:
105,349,125365,1,2,1:2:0:0:
178,340,125442,2,0,B|194:354|219:352|233:331|230:311|230:311|226:289|242:269|268:270|282:284,1,157.500001502037,2|0,1:2|0:0,0:0:0:0:
461,370,125597,5,10,1:2:0:0:
464,361,125674,1,2,1:2:0:0:
388,360,125751,53,2,1:2:0:0:
391,351,125828,1,2,1:2:0:0:
316,353,125906,6,0,L|291:268,1,67.5000025749208,10|0,1:2|0:0,0:0:0:0:
454,88,126061,54,0,P|362:112|382:176,1,151.875005793572,10|0,1:2|0:0,0:0:0:0:
369,157,126215,2,0,P|420:175|427:215,1,90,2|0,0:0|0:0,0:0:0:0:
312,360,126370,5,0,1:0:0:0:
311,366,126473,1,0,1:0:0:0:
310,372,126576,1,0,1:0:0:0:
234,365,126679,54,0,L|503:260,1,236.250002253056,10|0,1:2|0:0,0:0:0:0:
448,286,126834,2,0,L|376:276,1,67.5000025749208,2|0,1:2|0:0,0:0:0:0:
155,161,126988,6,0,B|130:193|144:229|176:239|179:232|216:237|227:276|199:304,1,168.75,10|0,1:2|0:0,0:0:0:0:
103,374,127143,2,0,L|141:300,1,67.5000025749208,2|0,1:2|0:0,0:0:0:0:
329,213,127298,53,2,1:2:0:0:
325,221,127375,1,2,1:2:0:0:
258,189,127453,2,0,L|220:115,1,67.5000025749208,10|0,1:2|0:0,0:0:0:0:
52,23,127607,6,0,B|22:72|22:72|14:114|57:122|63:85|63:85|57:19,1,202.500007724762,2|0,1:2|0:0,0:0:0:0:
3,96,127762,2,0,P|20:115|73:110,1,78.7500007510185,10|0,1:2|0:0,0:0:0:0:
359,128,127916,54,0,B|327:136|327:136|259:20|259:20|206:28,1,202.500007724762,2|0,1:2|0:0,0:0:0:0:
229,30,128071,2,0,L|309:38,1,67.5000025749208,2|0,0:0|0:0,0:0:0:0:
463,32,128226,6,0,B|426:54|426:54|449:96|449:96|488:71|488:71|465:32,1,180,10|0,1:2|0:0,0:0:0:0:
487,192,128380,54,0,B|458:177|458:177|439:207|439:207|470:223|470:223|488:193,1,135.000005149842,2|0,0:0|0:0,0:0:0:0:
378,278,128535,6,0,B|377:256|377:256|353:256|353:256|354:279|354:279|377:279,1,90,2|0,0:0|0:0,0:0:0:0:
267,243,128689,54,0,B|280:234|280:234|272:217|272:217|257:227|257:227|265:243,1,67.5000025749208,10|0,1:2|0:0,0:0:0:0:
240,130,128844,6,0,B|189:113,1,45,2|0,0:0|0:0,0:0:0:0:
54,383,128999,54,0,P|59:155|274:12,1,472.500004506111,2|0,1:1|0:0,0:0:0:0:
0,2,129308,2,0,P|9:34|36:55,1,67.5000025749208
127,353,129463,6,0,B|107:315|160:318|166:269|166:269|186:316|166:360|104:356,1,202.500007724762,2|0,1:2|0:0,0:0:0:0:
85,248,129617,2,0,L|64:164,1,67.5000025749208,10|0,1:2|0:0,0:0:0:0:
59,184,129773,2,0,L|75:249,1,67.5000025749208,2|0,0:0|0:0,0:0:0:0:
313,350,129927,53,10,1:2:0:0:
311,342,130004,1,2,1:2:0:0:
238,351,130081,6,0,B|292:360|307:316|293:313|325:254|383:284,1,168.75,2|0,1:2|0:0,0:0:0:0:
487,378,130236,2,0,P|449:353|433:305,1,67.5000025749208,10|0,1:2|0:0,0:0:0:0:
312,208,130390,1,2,1:2:0:0:
323,206,130468,2,0,P|360:181|376:133,1,67.5000025749208,0|10,0:0|1:2,0:0:0:0:
475,82,130622,53,0,0:0:0:0:
477,75,130700,2,0,B|499:57|499:57|499:-3|499:-3|462:46|462:46|477:81,1,180,2|2,1:2|1:2,0:0:0:0:
234,12,130854,6,0,B|250:41|250:41|383:65|383:65|403:100,1,202.500007724762,2|0,1:2|0:0,0:0:0:0:
512,235,131009,54,0,L|503:190,1,45,10|0,1:2|0:0,0:0:0:0:
440,248,131164,2,0,L|431:203,1,45,2|0,1:2|0:0,0:0:0:0:
409,0,131318,6,0,L|39:237,1,405.000015449525,8|0,0:0|0:0,0:0:0:0:
343,297,131628,54,0,L|355:366,1,45,2|0,1:2|0:0,0:0:0:0:
327,292,131705,2,0,L|339:361,1,45,2|0,0:0|0:0,0:0:0:0:
311,284,131782,2,0,L|323:353,1,45,10|0,0:2|0:0,0:0:0:0:
296,277,131859,2,0,L|308:346,1,45,2|0,0:0|0:0,0:0:0:0:
227,310,131937,5,2,1:2:0:0:
178,253,132040,1,2,0:0:0:0:
110,285,132143,1,2,0:0:0:0:
0,158,132246,54,0,L|91:137,1,67.5000025749208,2|0,0:3|0:0,0:0:0:0:
2,233,132401,2,0,L|67:218,1,67.5000025749208,2|0,0:3|0:0,0:0:0:0:
257,40,132555,6,0,L|186:52,1,45,2|0,1:2|0:0,0:0:0:0:
267,51,132632,2,0,L|196:62,1,45,2|0,0:0|0:0,0:0:0:0:
279,64,132710,2,0,L|208:75,1,45,8|0,0:0|0:0,0:0:0:0:
291,75,132787,2,0,L|220:86,1,45,2|0,0:0|0:0,0:0:0:0:
343,138,132865,53,2,0:0:0:0:
270,152,132968,1,2,0:0:0:0:
318,208,133071,1,2,0:0:0:0:
261,261,133174,5,10,1:2:0:0:
272,269,133251,1,2,1:2:0:0:
283,279,133328,1,2,1:2:0:0:
295,289,133405,1,2,1:2:0:0:
230,384,133484,53,2,1:2:0:0:
235,369,133561,1,2,1:2:0:0:
240,355,133638,1,10,1:2:0:0:
246,341,133716,1,2,1:2:0:0:
162,348,133793,6,0,B|170:346|170:346|172:342|172:342|175:346|175:346|180:345|180:345|183:348|183:348|185:344|185:344|189:343|189:343|191:338|191:338|194:342|194:342|199:341|199:341|203:344|203:344|204:340|204:340|209:339|209:339|211:334|211:334|214:338|214:338|219:337|219:337|222:340|222:340|224:336|224:336|229:335|229:335|230:331|230:331|234:334|234:334|239:333|239:333|242:336|242:336|243:332|243:332|248:331|248:331|250:327|250:327|253:330|253:330|258:329|258:329|261:333|261:333|263:328|263:328|268:327|268:327|270:323|270:323|273:326|273:326|278:325|278:325|281:329|281:329|283:324|283:324|288:323|288:323|289:319|289:319|293:322|293:322|297:322|297:322|301:325|301:325|302:321|302:321|307:320|307:320|309:315|309:315|312:319|312:319|317:318|317:318|320:321|320:321|322:317|322:317|327:316|327:316|329:311|329:311|332:315|332:315|337:314|337:314|340:317|340:317|342:313|342:313|346:312|346:312|348:308|348:308|351:311|351:311|356:310|356:310|360:313|360:313|361:309|361:309|366:308|366:308|368:304|368:304|371:307|371:307|376:306|376:306|379:310|379:310|381:305|381:305|386:304|386:304|387:300|387:300|391:303|391:303|396:302|396:302|399:306|399:306|400:301|400:301|405:300|405:300|407:296|407:296|410:299|410:299|415:299|415:299|418:302|418:302|420:298|420:298|427:296,1,382.371397783365,2|0,1:1|0:0,0:0:0:0:
6,243,134102,54,0,L|156:277,1,135.000005149842,2|2,0:0|1:2,0:0:0:0:
133,277,134334,1,2,0:0:0:0:
129,282,134411,2,0,L|106:195,1,67.5000025749208,2|0,0:0|0:0,0:0:0:0:
0,369,134566,5,2,1:2:0:0:
30,331,134643,1,2,0:0:0:0:
77,338,134720,1,2,1:2:0:0:
6,243,134875,1,0,0:0:0:0:
165,352,135030,54,0,L|237:269,1,101.250003862381,2|0,0:0|0:0,0:0:0:0:
270,372,135184,6,0,B|249:346|250:336|250:336|240:334|225:331|225:331|211:325|203:329|203:329|200:317|179:292|179:292|159:266|157:252|157:252|151:254|135:251|135:251|122:245|111:246|111:246|111:237|90:211|90:211|69:186|67:172|67:172|61:174|45:172|45:172|32:165|21:168|21:168|20:156|0:130,1,405.000015449525,2|0,1:3|0:0,0:0:0:0:
71,97,135494,2,0,B|89:96|89:96|95:96|95:96|92:92|92:92|91:71|91:71|94:66|94:66|88:68|88:68|70:70|70:70|64:69|64:69|66:74|66:74|69:99,1,112.5,2|2,1:2|1:2,0:0:0:0:
43,377,135648,54,0,L|62:283,1,67.5000025749208,2|0,1:2|0:0,0:0:0:0:
62,314,135803,2,0,L|49:381,1,67.5000025749208,2|0,1:2|0:0,0:0:0:0:
298,171,135957,6,0,B|292:135|248:124|231:138|209:162|172:142|168:84,1,157.500001502037,2|0,1:2|0:0,0:0:0:0:
211,207,136112,2,0,B|190:179|213:139|235:138|267:138|279:98|241:55,1,157.500001502037,2|0,1:2|0:0,0:0:0:0:
0,0,136267,53,4,0:0:0:0:
