osu file format v14

[General]
AudioFilename: audio.mp3
AudioLeadIn: 0
PreviewTime: 96660
Countdown: 0
SampleSet: Soft
StackLeniency: 0.6
Mode: 0
LetterboxInBreaks: 0
WidescreenStoryboard: 1

[Editor]
Bookmarks: 22452,42246,52143,71937,96679,116473,117710,136267
DistanceSpacing: 0.1
BeatDivisor: 4
GridSize: 16
TimelineZoom: 3.299999

[Metadata]
Title:Fluctuation
TitleUnicode:Fluctuation
Artist:Zekk
ArtistUnicode:Zekk
Creator:Acylica
Version:Collab Extra
Source:osu!
Tags:owc grandfinal gf nm4 electronic instrumental mappers' guild featured artist fa drumstep vikala toybot kalibe acyl heilia realazy hypercyte mordred osu world cup mpg
BeatmapID:2722429
BeatmapSetID:1313559

[Difficulty]
HPDrainRate:5
CircleSize:4.4
OverallDifficulty:9
ApproachRate:9.4
SliderMultiplier:2.5
SliderTickRate:1

[Events]
//Background and Video events
0,0,"splash.jpg",0,0
//Break Periods
2,91931,93665
//Storyboard Layer 0 (Background)
//Storyboard Layer 1 (Fail)
//Storyboard Layer 2 (Pass)
//Storyboard Layer 3 (Foreground)
//Storyboard Layer 4 (Overlay)
//Storyboard Sound Samples

[TimingPoints]
2659,309.278350515464,4,2,1,35,1,0
6370,-100,4,2,1,45,0,0
7607,-100,4,2,1,50,0,0
12555,-66.6666666666667,4,2,1,90,0,0
13019,-200,4,2,1,90,0,0
13174,-50,4,2,1,90,0,0
13483,-100,4,2,1,90,0,0
13793,-66.6666666666667,4,2,1,90,0,0
14256,-200,4,2,1,90,0,0
14411,-50,4,2,1,90,0,0
14720,-100,4,2,1,90,0,0
15030,-66.6666666666667,4,2,1,90,0,0
15494,-100,4,2,1,90,0,0
16885,-100,4,2,1,50,0,0
17349,-200,4,2,1,50,0,0
17504,-142.857142857143,4,2,1,70,0,0
18432,-200,4,2,1,70,0,0
18741,-111.111111111111,4,2,1,70,0,0
19669,-142.857142857143,4,2,1,70,0,0
19978,-90.9090909090909,4,2,1,70,0,0
20210,-76.9230769230769,4,2,1,70,0,0
20442,-66.6666666666667,4,2,1,70,0,0
21524,-200,4,2,1,70,0,0
22143,-66.6666666666667,4,2,1,70,0,0
22452,-55.5555555555556,4,2,1,70,0,0
23071,-66.6666666666667,4,2,1,90,0,0
23999,-100,4,2,1,90,0,0
24308,-50,4,2,1,90,0,0
25081,-66.6666666666667,4,2,1,90,0,0
26782,-100,4,2,1,90,0,0
27401,-50,4,2,1,90,0,0
27710,-100,4,2,1,90,0,0
29875,-66.6666666666667,4,2,1,90,0,0
32040,-50,4,2,1,90,0,0
32349,-55.5555555555556,4,2,1,90,0,0
32968,-66.6666666666667,4,2,1,90,0,0
33896,-100,4,2,1,90,0,0
34205,-50,4,2,1,90,0,0
34823,-66.6666666666667,4,2,1,90,0,0
36679,-100,4,2,1,90,0,0
37298,-50,4,2,1,90,0,0
37607,-100,4,2,1,90,0,0
39772,-50,4,2,1,90,0,0
40390,-200,4,2,1,90,0,0
41009,-100,4,2,1,90,0,0
41628,-50,4,2,1,90,0,0
42246,-200,4,2,1,40,0,0
49669,-66.6666666666667,4,2,1,40,0,0
50133,-100,4,2,1,40,0,0
50597,-133.333333333333,4,2,1,40,0,0
51834,-133.333333333333,4,2,1,60,0,0
52143,-66.6666666666667,4,2,1,60,0,0
52762,-50,4,2,1,90,0,0
53689,-80,4,2,1,90,0,0
54927,-200,4,2,1,90,0,0
55854,-80,4,2,1,90,0,0
56164,-66.6666666666667,4,2,1,90,0,0
56473,-100,4,2,1,90,0,0
57091,-133.333333333333,4,2,1,90,0,0
57401,-80,4,2,1,90,0,0
57710,-50,4,2,1,90,0,0
58638,-80,4,2,1,90,0,0
59566,-100,4,2,1,90,0,0
60030,-50,4,2,1,90,0,0
60184,-100,4,2,1,90,0,0
60648,-66.6666666666667,4,2,1,90,0,0
60803,-80,4,2,1,90,0,0
61112,-133.333333333333,4,2,1,90,0,0
61421,-66.6666666666667,4,2,1,90,0,0
61731,-100,4,2,1,90,0,0
62040,-66.6666666666667,4,2,1,90,0,0
62659,-50,4,2,1,90,0,0
63586,-80,4,2,1,90,0,0
64823,-200,4,2,1,90,0,0
65751,-80,4,2,1,90,0,0
66061,-66.6666666666667,4,2,1,90,0,0
66370,-100,4,2,1,90,0,0
66988,-133.333333333333,4,2,1,90,0,0
67298,-80,4,2,1,90,0,0
67607,-50,4,2,1,90,0,0
68535,-80,4,2,1,90,0,0
69463,-133.333333333333,4,2,1,90,0,0
71937,-133.333333333333,4,2,1,40,0,0
72246,-256.569343065695,4,2,1,40,0,0
75648,-136.83698296837,4,2,1,40,0,0
76576,-102.627737226278,4,2,1,40,0,0
76885,-171.046228710461,4,2,1,40,0,0
79360,-171.046228710461,4,2,1,55,0,0
79669,-102.627737226278,4,2,1,55,0,0
80287,-136.836982968366,4,2,1,55,0,0
81834,-68.4184914841854,4,2,1,70,0,0
82298,-136.836982968353,4,2,1,70,0,0
82452,-51.313868613139,4,2,1,70,0,0
82762,-102.627737226278,4,2,1,70,0,0
83071,-68.4184914841854,4,2,1,70,0,0
83999,-102.627737226278,4,2,1,70,0,0
84308,-82.1021897810224,4,2,1,70,0,0
85545,-102.627737226278,4,2,1,70,0,0
86782,-136.836982968371,4,2,1,70,0,0
91421,-68.4931506849315,4,2,1,70,0,0
91731,-68.4931506849315,4,2,1,40,0,0
95442,-68.4931506849315,4,2,1,70,0,0
96370,-100,4,2,1,70,0,0
96679,-74.0740740740671,4,2,1,90,0,0
96988,-90.9090909090925,4,2,1,90,0,0
97143,-71.428571428564,4,2,1,90,0,0
97452,-133.333333333317,4,2,1,90,0,0
97607,-66.6666666666648,4,2,1,90,0,0
98380,-133.333333333342,4,2,1,90,0,0
98844,-76.9230769230829,4,2,1,90,0,0
99153,-66.6666666666711,4,2,1,90,0,0
99463,-80.0000000000004,4,2,1,90,0,0
100390,-181.818181818219,4,2,1,90,0,0
100545,-80.0000000000004,4,2,1,90,0,0
101318,-222.222222222221,4,2,1,90,0,0
101473,-400.000000000002,4,2,1,90,0,0
101628,-68.9655172413871,4,2,1,90,0,0
102401,-100.000000000001,4,2,1,90,0,0
102555,-66.6666666666711,4,2,1,90,0,0
102865,-133.333333333368,4,2,1,90,0,0
103019,-76.9230769230827,4,2,1,90,0,0
103329,-133.333333333317,4,2,1,90,0,0
104256,-285.714285714229,4,2,1,90,0,0
104411,-71.4285714285708,4,2,1,90,0,0
104875,-83.333333333325,4,2,1,90,0,0
105184,-117.647058823523,4,2,1,90,0,0
105571,-62.5000000000003,4,2,1,90,0,0
105803,-76.9230769230974,4,2,1,90,0,0
106576,-66.6666666666713,4,2,1,90,0,0
107040,-66.6666666666585,4,2,1,90,0,0
107504,-58.8235294117613,4,2,1,90,0,0
107813,-142.857142857115,4,2,1,90,0,0
107968,-62.5000000000003,4,2,1,90,0,0
108741,-76.9230769230829,4,2,1,90,0,0
109050,-62.5000000000062,4,2,1,90,0,0
109360,-100.000000000001,4,2,1,90,0,0
109514,-62.5000000000003,4,2,1,90,0,0
110287,-80.0000000000004,4,2,1,90,0,0
110442,-58.8235294117613,4,2,1,90,0,0
111834,-100.000000000001,4,2,1,90,0,0
112066,-66.6666666666648,4,2,1,90,0,0
112298,-117.647058823523,4,2,1,90,0,0
112530,-66.6666666666648,4,2,1,90,0,0
112762,-181.818181818219,4,2,1,90,0,0
112994,-66.6666666666648,4,2,1,90,0,0
113226,-43.4782608695708,4,2,1,90,0,0
114153,-222.222222222221,4,2,1,90,0,0
115390,-66.6666666666587,4,2,1,90,0,0
116473,-133.333333333333,4,2,1,50,0,0
117091,-66.6666666666667,4,2,1,90,0,0
118019,-100.000000000001,4,2,1,90,0,0
118329,-49.9999999999971,4,2,1,90,0,0
118638,-49.9999999999971,4,2,1,90,0,0
119102,-66.6666666666662,4,2,1,90,0,0
119566,-58.8235294117613,4,2,1,90,0,0
120184,-66.6666666666838,4,2,1,90,0,0
120648,-100.000000000001,4,2,1,90,0,0
121421,-50.0000000000003,4,2,1,90,0,0
121808,-100.000000000001,4,2,1,90,0,0
122349,-66.6666666666712,4,2,1,90,0,0
122736,-100.000000000001,4,2,1,90,0,0
124050,-66.6666666666681,4,2,1,90,0,0
125442,-100.000000000001,4,2,1,90,0,0
125597,-58.8235294117613,4,2,1,90,0,0
125906,-100.000000000001,4,2,1,90,0,0
126061,-71.4285714285708,4,2,1,90,0,0
126370,-71.4285714285708,4,2,1,60,0,0
126679,-58.8235294117724,4,2,1,90,0,0
126988,-66.6666666666648,4,2,1,90,0,0
127916,-100.000000000001,4,2,1,90,0,0
128226,-49.9999999999971,4,2,1,90,0,0
128999,-66.6666666666662,4,2,1,90,0,0
129463,-58.8235294117613,4,2,1,90,0,0
130081,-66.6666666666838,4,2,1,90,0,0
130545,-100.000000000001,4,2,1,90,0,0
131318,-49.9999999999971,4,2,1,90,0,0
131705,-100.000000000019,4,2,1,90,0,0
132246,-66.6666666666712,4,2,1,90,0,0
132633,-100.000000000001,4,2,1,90,0,0
133793,-66.6666666666711,4,2,1,90,0,0
134411,-133.333333333342,4,2,1,90,0,0
135184,-99.9999999999817,4,2,1,90,0,0
135648,-49.9999999999971,4,2,1,90,0,0

[Colours]
Combo1 : 255,0,0
Combo2 : 233,82,61
Combo3 : 116,190,218

[HitObjects]
135,107,12555,6,0,B|118:88|90:82|54:105|38:131|50:201|107:203|146:187|146:187|217:159,1,281.250010728836,4|0,1:2|0:0,0:0:0:0:
336,250,12865,2,0,P|341:204|309:172,1,93.7500035762788,10|0,0:2|0:0,0:0:0:0:
211,168,13019,6,0,L|243:156,1,31.25,2|2,1:2|1:2,0:0:0:0:
305,73,13174,6,0,P|266:196|256:318,1,250,2|2,1:2|1:2,0:0:0:0:
262,334,13406,1,0,0:0:0:0:
272,325,13483,6,0,P|211:259|123:279,1,187.5,2|0,1:2|0:0,0:0:0:0:
137,352,13793,6,0,B|225:384|281:312|230:309|307:224|382:277,1,281.250010728836,4|0,1:2|0:0,0:0:0:0:
446,242,14102,2,0,B|471:234|468:201|468:201|464:225|445:238,1,93.7500035762788,10|0,0:2|0:0,0:0:0:0:
378,284,14256,6,0,P|390:295|397:309,1,31.25,2|2,1:2|1:2,0:0:0:0:
492,359,14411,6,0,P|497:240|393:182,1,250,2|2,1:2|1:2,0:0:0:0:
379,186,14643,1,0,0:0:0:0:
373,197,14720,6,0,P|353:172|351:142,1,62.5,2|0,1:2|0:0,0:0:0:0:
449,51,14875,2,0,P|419:53|394:71,1,62.5,2|0,1:3|0:0,0:0:0:0:
262,53,15030,6,0,B|325:40|374:86|327:92|377:131|433:124|433:124|312:152,1,281.250010728836,4|0,1:2|0:0,0:0:0:0:
332,256,15339,2,0,P|288:257|270:217,1,93.7500035762788,10|0,0:2|0:0,0:0:0:0:
341,152,15494,6,0,L|305:161,4,31.25,2|0|2|0|2,1:2|0:0|1:2|0:0|1:2,0:0:0:0:
209,3,15803,2,0,P|191:29|189:59,1,62.5,2|0,1:2|0:0,0:0:0:0:
41,207,15957,5,2,1:2:0:0:
109,217,16035,1,2,1:2:0:0:
175,194,16112,1,2,1:2:0:0:
213,135,16189,1,2,1:2:0:0:
223,142,16267,6,0,L|217:172,14,31.25,2|0|0|0|0|0|0|0|0|0|0|0|0|0|0,1:2|0:0|0:0|0:0|0:0|0:0|0:0|0:0|0:0|0:0|0:0|0:0|0:0|0:0|0:0,0:0:0:0:
306,180,16885,6,0,P|285:203|269:230,1,62.5,2|0,0:0|0:0,0:0:0:0:
113,141,17040,1,2,0:0:0:0:
122,134,17117,1,2,0:0:0:0:
131,142,17195,2,0,P|142:171|145:202,1,62.5,2|0,0:0|0:0,0:0:0:0:
200,255,17349,6,0,L|194:285,1,31.25,2|0,0:0|0:0,0:0:0:0:
33,359,17504,6,0,P|54:359|75:351,3,43.749998664856,2|0|0|0,1:2|0:0|0:0|0:0,0:0:0:0:
80,339,17813,2,0,P|95:324|104:304,3,43.749998664856,2|0|0|0,1:2|0:0|0:0|0:0,0:0:0:0:
99,291,18122,2,0,P|99:269|91:249,3,43.749998664856,2|0|0|0,1:2|0:0|0:0|0:0,0:0:0:0:
154,179,18432,6,0,L|114:186,1,31.25,2|0,1:2|0:0,0:0:0:0:
2,208,18586,2,0,L|32:202,1,31.25,2|0,1:2|0:0,0:0:0:0:
67,133,18741,6,0,P|66:106|79:81,3,56.2499982833863,2|0|0|0,1:2|0:0|0:0|0:0,0:0:0:0:
80,63,19050,2,0,P|100:44|127:37,3,56.2499982833863,2|0|0|0,1:2|0:0|0:0|0:0,0:0:0:0:
140,25,19360,2,0,P|167:28|190:44,3,56.2499982833863,2|0|0|0,1:2|0:0|0:0|0:0,0:0:0:0:
310,30,19669,6,0,P|288:28|267:35,1,43.749998664856,2|0,1:2|0:0,0:0:0:0:
206,159,19823,2,0,P|198:138|200:116,1,43.749998664856,2|0,1:2|0:0,0:0:0:0:
275,107,19978,5,0,1:0:0:0:
295,123,20055,1,0,1:0:0:0:
303,148,20133,1,0,1:0:0:0:
356,195,20210,5,0,1:0:0:0:
352,220,20287,1,0,1:0:0:0:
334,239,20365,1,0,1:0:0:0:
302,300,20442,5,0,1:0:0:0:
278,309,20519,1,0,1:0:0:0:
252,302,20597,1,2,1:2:0:0:
238,282,20674,1,2,1:2:0:0:
193,230,20751,5,2,1:2:0:0:
184,230,20829,1,2,1:2:0:0:
182,240,20906,2,0,P|217:207|274:222,1,93.7500035762788,2|2,1:3|1:3,0:0:0:0:
416,151,21061,2,0,P|370:154|338:122,1,93.7500035762788,2|2,1:3|1:3,0:0:0:0:
359,28,21215,6,0,P|380:169|384:307,1,281.250010728836,4|0,0:0|0:0,0:0:0:0:
327,349,21524,6,0,B|307:364|277:357|285:331|312:330|342:372,1,93.75
439,361,21834,2,0,B|461:324|488:323|498:349|468:357|444:339,1,93.75
383,307,22143,6,0,B|378:269|356:238|356:238|376:224|394:233|394:233|379:268|385:313,1,187.500007152558,2|0,0:3|0:0,0:0:0:0:
337,83,22452,6,0,B|318:144|236:161|236:161|361:231|389:356|389:356|386:228|489:132|489:132|403:132|351:68,1,787.499975967408,2|0,1:0|0:0,0:0:0:0:
438,14,23071,6,0,B|341:3|366:65|253:60,1,187.500007152558,10|2,1:2|1:2,0:0:0:0:
247,52,23303,1,0,0:0:0:0:
251,37,23380,1,2,1:2:0:0:
267,34,23457,1,2,1:2:0:0:
331,90,23535,6,0,B|234:100|259:38|146:43,1,187.500007152558,10|2,1:2|1:2,0:0:0:0:
125,113,23767,1,0,0:0:0:0:
125,113,23844,2,0,P|80:127|34:129,1,93.7500035762788,10|0,1:2|0:0,0:0:0:0:
34,129,23999,6,0,P|56:113|66:138,1,62.5,2|0,1:2|0:0,0:0:0:0:
177,164,24153,2,0,P|204:160|193:134,1,62.5,2|0,0:0|0:0,0:0:0:0:
55,32,24308,6,0,P|73:123|86:216,1,187.5,10|0,1:2|0:0,0:0:0:0:
78,216,24463,2,0,P|68:121|66:29,1,187.5,2|0,0:0|0:0,0:0:0:0:
137,7,24617,6,0,P|135:68|84:99,1,125,2|0,0:0|0:0,0:0:0:0:
4,238,24772,2,0,P|31:290|91:292,1,125,10|0,1:2|0:0,0:0:0:0:
244,234,24927,5,2,0:0:0:0:
251,257,25004,1,0,0:0:0:0:
234,248,25081,2,0,B|334:254|316:372|221:408|116:355|237:238|112:160|42:243,1,375,2|0,1:1|0:0,0:0:0:0:
214,357,25545,6,0,P|259:362|292:331,1,93.7500035762788,2|0,1:2|0:0,0:0:0:0:
477,193,25700,2,0,B|394:154|395:227|291:174,2,187.500007152558,10|2|10,1:2|0:0|1:2,0:0:0:0:
490,208,26086,1,2,1:2:0:0:
472,214,26164,6,0,P|425:210|394:170,1,93.7500035762788,2|0,1:2|0:0,0:0:0:0:
360,29,26318,1,10,1:2:0:0:
366,39,26396,2,0,P|285:54|231:149,1,187.500007152558
295,176,26628,6,0,P|311:134|290:94,1,93.7500035762788,10|0,1:2|0:0,0:0:0:0:
178,11,26782,1,2,1:2:0:0:
169,3,26860,1,2,1:2:0:0:
157,6,26937,2,0,L|218:17,1,62.5,2|0,1:2|0:0,0:0:0:0:
458,85,27091,6,0,P|403:32|392:107,1,187.5,10|0,1:2|0:0,0:0:0:0:
398,209,27401,6,0,B|418:234|430:333|316:348|218:272|281:194|323:172|334:203|366:181|363:131|290:79|258:153|302:181,1,375,8|0,0:0|0:0,0:0:0:0:
226,216,27710,5,2,1:2:0:0:
214,207,27787,2,0,P|178:197|126:204,2,62.5,2|10|2,0:0|0:2|0:0,0:0:0:0:
337,255,28019,5,10,1:2:0:0:
268,280,28122,1,2,0:0:0:0:
239,348,28226,1,2,0:0:0:0:
311,359,28329,6,0,P|337:354|324:330,1,62.5,2|0,0:3|0:0,0:0:0:0:
152,279,28483,2,0,P|178:278|172:304,1,62.5,2|0,0:3|0:0,0:0:0:0:
295,175,28638,5,2,1:2:0:0:
307,166,28715,2,0,P|343:156|395:163,2,62.5,2|8|2,0:0|0:0|0:0,0:0:0:0:
249,103,28947,5,2,0:0:0:0:
194,52,29050,1,2,0:0:0:0:
121,72,29153,1,2,0:0:0:0:
178,121,29256,5,10,1:2:0:0:
161,134,29334,1,2,1:2:0:0:
148,153,29411,1,2,1:2:0:0:
142,175,29488,1,2,1:2:0:0:
76,147,29566,5,2,1:2:0:0:
69,167,29644,1,2,1:2:0:0:
69,190,29721,1,10,1:2:0:0:
77,211,29798,1,2,1:2:0:0:
140,245,29875,5,2,0:0:0:0:
156,259,29952,1,0,0:0:0:0:
135,264,30030,2,0,B|108:214|201:153|245:225|223:245|254:315|321:312|383:248|371:192|314:156|272:191,1,375.000014305115,2|2,1:1|1:2,0:0:0:0:
128,220,30494,6,0,P|164:192|208:199,1,93.7500035762788,8|0,0:0|0:0,0:0:0:0:
357,337,30648,2,0,P|369:233|422:133,2,187.500007152558,2|2|0,1:2|1:2|0:0,0:0:0:0:
362,360,31035,1,2,1:2:0:0:
378,341,31112,6,0,P|380:288|324:258,1,93.7500035762788,10|0,1:2|0:0,0:0:0:0:
264,268,31267,1,2,1:2:0:0:
257,279,31344,1,2,1:2:0:0:
254,291,31421,1,2,1:2:0:0:
206,85,31576,6,0,P|246:107|262:150,1,93.7500035762788,10|2,1:2|1:2,0:0:0:0:
264,268,31731,1,2,1:2:0:0:
261,279,31808,1,2,1:2:0:0:
254,291,31885,1,10,1:2:0:0:
437,228,32040,6,0,B|430:267|493:283|527:221|489:140|253:134|253:302,1,375,10|0,1:2|0:0,0:0:0:0:
180,308,32349,6,0,B|252:305|348:348|348:348|347:232|395:138|395:138|275:135|180:106|180:106|195:211|149:302,1,787.499975967408,2|0,1:0|0:0,0:0:0:0:
193,372,32968,6,0,P|182:283|98:251,1,187.500007152558,10|2,1:2|1:2,0:0:0:0:
84,257,33200,1,0,0:0:0:0:
71,268,33277,1,2,1:2:0:0:
65,283,33354,1,2,1:2:0:0:
115,333,33432,6,0,P|70:257|133:174,1,187.500007152558,10|2,1:2|1:2,0:0:0:0:
198,198,33664,1,0,0:0:0:0:
198,198,33741,2,0,P|197:152|165:120,1,93.7500035762788,10|0,1:2|0:0,0:0:0:0:
166,120,33896,6,0,P|137:125|133:154,1,62.5,2|0,1:2|0:0,0:0:0:0:
278,182,34050,2,0,P|282:148|256:127,1,62.5,2|0,0:0|0:0,0:0:0:0:
53,83,34205,6,0,P|146:76|237:55,1,187.5,10|0,1:2|0:0,0:0:0:0:
237,46,34360,2,0,P|131:69|55:95,1,187.5,2|0,0:0|0:0,0:0:0:0:
20,19,34514,6,0,P|81:8|119:63,1,125,2|0,0:0|0:0,0:0:0:0:
265,130,34669,2,0,P|306:104|304:27,1,125,10|0,1:2|0:0,0:0:0:0:
473,47,34823,5,2,0:0:0:0:
460,35,34901,1,0,0:0:0:0:
477,28,34978,2,0,B|542:81|551:171|459:246|335:237|318:96|435:119,1,375.000014305115,2|0,1:1|0:0,0:0:0:0:
512,195,35442,6,0,P|466:204|435:242,1,93.7500035762788,2|0,1:2|0:0,0:0:0:0:
287,229,35597,2,0,B|385:230|355:317|445:313,2,187.500007152558,10|2|10,1:2|0:0|1:2,0:0:0:0:
273,242,35983,1,2,1:2:0:0:
288,256,36061,6,0,P|240:251|208:202,1,93.7500035762788,2|0,1:2|0:0,0:0:0:0:
66,229,36215,1,10,1:2:0:0:
55,225,36293,2,0,P|70:157|189:171,1,187.500007152558
182,72,36524,6,0,P|135:76|106:111,1,93.7500035762788,10|0,1:2|0:0,0:0:0:0:
138,308,36679,1,2,1:2:0:0:
154,305,36756,1,2,1:2:0:0:
147,316,36834,2,0,L|137:255,1,62.5,2|0,1:2|0:0,0:0:0:0:
32,96,36988,6,0,P|82:37|107:111,1,187.5,10|0,1:2|0:0,0:0:0:0:
8,236,37298,6,0,B|-6:264|0:363|115:356|196:263|119:198|74:185|69:217|34:202|27:152|89:87|134:154|96:190,1,375,8|0,0:0|0:0,0:0:0:0:
185,197,37607,5,2,1:2:0:0:
181,181,37684,2,0,P|182:149|193:120,2,62.5,2|10|2,0:0|0:2|0:0,0:0:0:0:
240,250,37916,5,2,1:2:0:0:
313,265,38019,1,2,0:0:0:0:
366,213,38122,1,2,0:0:0:0:
358,200,38226,6,0,P|331:212|333:241,1,62.5,2|0,0:3|0:0,0:0:0:0:
266,105,38380,2,0,P|292:119|292:149,1,62.5,2|0,0:3|0:0,0:0:0:0:
367,326,38535,5,2,1:2:0:0:
383,323,38612,2,0,P|411:309|435:289,2,62.5,2|8|2,0:0|0:0|0:0,0:0:0:0:
295,341,38844,5,2,0:0:0:0:
221,355,38947,1,2,0:0:0:0:
166,303,39050,1,2,0:0:0:0:
240,286,39153,5,10,1:2:0:0:
235,259,39231,1,2,1:2:0:0:
223,236,39308,1,2,1:2:0:0:
204,219,39385,1,2,1:2:0:0:
271,188,39463,5,2,1:2:0:0:
254,166,39541,1,2,1:2:0:0:
232,152,39618,1,10,1:2:0:0:
208,146,39695,1,2,1:2:0:0:
137,178,39772,6,0,P|261:180|380:144,1,250,2|0,1:1|0:0,0:0:0:0:
390,134,40004,1,0,0:0:0:0:
381,121,40081,1,2,0:0:0:0:
366,123,40159,1,0,0:0:0:0:
363,139,40236,1,2,1:2:0:0:
406,214,40390,6,0,P|421:210|433:200,1,31.25,2|0,0:0|0:0,0:0:0:0:
467,133,40545,2,0,P|468:117|462:102,1,31.25,2|2,1:2|0:0,0:0:0:0:
301,81,40700,6,0,P|291:92|286:107,1,31.25,2|0,1:2|0:0,0:0:0:0:
298,182,40855,2,0,P|306:195|319:203,1,31.25
404,46,41009,6,0,P|389:40|373:40,14,31.25,2|0|0|0|2|0|0|0|0|0|0|0|2|0|2,0:0|0:0|0:0|0:0|1:3|0:0|0:0|0:0|0:0|0:0|0:0|0:0|1:2|0:0|1:2,0:0:0:0:
476,11,41628,6,0,P|389:46|297:63,1,187.5,2|0,1:2|0:0,0:0:0:0:
291,59,41782,2,0,P|405:48|506:58,1,187.5,2|0,1:2|0:0,0:0:0:0:
499,125,41937,6,0,P|438:120|405:70,1,125,2|0,1:2|0:0,0:0:0:0:
240,4,42091,2,0,P|193:42|196:103,1,125,2|0,1:2|0:0,0:0:0:0:
146,159,42246,6,0,B|169:280|356:334|496:197|376:45|247:98|253:260,1,500,4|2,0:0|0:0,0:0:0:0:
488,364,44720,6,0,B|417:362|389:298|389:298|328:275|270:318|270:318|261:231|380:169|458:262,1,500,2|2,0:0|0:0,0:0:0:0:
461,251,46035,1,0,0:0:0:0:
456,239,46112,6,0,P|444:209|439:179,2,62.5
394,109,46576,1,0,0:0:0:0:
409,112,46653,1,0,0:0:0:0:
400,117,46731,2,0,P|404:95|403:84,2,20.8333333333333
334,152,46885,6,0,L|318:155,6,15.625
334,152,47195,6,0,B|261:93|171:128|229:143|91:279|-46:121|129:-11|294:189|234:272,1,468.75,2|0,1:2|0:0,0:0:0:0:
250,254,48432,2,0,B|124:172|140:9|238:-45|405:-10|358:115,1,468.75,2|0,1:2|0:0,0:0:0:0:
434,116,49669,6,0,P|267:169|181:340,1,375.000014305115,2|2,1:2|0:0,0:0:0:0:
364,87,50133,2,0,P|278:174|268:297,1,250,2|2,1:2|0:0,0:0:0:0:
290,108,50597,2,0,P|297:177|336:235,1,140.625005364418,2|0,1:2|0:0,0:0:0:0:
336,235,50906,5,2,1:2:0:0:
373,334,51834,5,0,1:0:0:0:
362,328,51911,1,0,1:0:0:0:
354,320,51988,1,0,1:0:0:0:
347,310,52065,1,0,1:0:0:0:
335,234,52143,6,0,B|402:209|450:260|415:267|435:331|527:343|573:295|586:211|546:155|430:128|381:214|358:265|382:276|333:338|257:324,1,562.500021457673,2|0,1:1|0:0,0:0:0:0:
45,257,52762,6,0,P|72:242|103:243,1,62.5,2|0,1:2|0:0,0:0:0:0:
72,254,52839,2,0,P|102:249|131:260,1,62.5,2|0,0:0|0:0,0:0:0:0:
97,263,52916,2,0,P|127:269|150:289,1,62.5,2|0,0:0|0:0,0:0:0:0:
118,278,52994,2,0,P|144:294|159:321,1,62.5,2|0,0:0|0:0,0:0:0:0:
133,300,53071,2,0,P|151:324|156:355,1,62.5,10|0,0:0|0:0,0:0:0:0:
348,152,53226,6,0,P|320:137|289:138,1,62.5,2|0,1:2|0:0,0:0:0:0:
321,149,53303,2,0,P|290:144|261:155,1,62.5,2|0,0:0|0:0,0:0:0:0:
296,158,53380,2,0,P|265:164|242:184,1,62.5,2|0,0:0|0:0,0:0:0:0:
275,173,53458,2,0,P|248:189|233:216,1,62.5,2|0,0:0|0:0,0:0:0:0:
260,195,53535,2,0,P|241:219|236:250,1,62.5,10|0,0:0|0:0,0:0:0:0:
54,141,53689,6,0,P|126:136|143:65,1,156.25,2|2,1:2|0:0,0:0:0:0:
86,17,53921,1,10,0:0:0:0:
89,20,53999,1,2,0:0:0:0:
154,165,54153,1,2,1:2:0:0:
157,168,54231,1,10,0:0:0:0:
250,42,54385,1,2,0:0:0:0:
250,42,54463,1,10,0:0:0:0:
347,151,54617,6,0,B|382:145|382:145|380:143|380:143|420:137,2,78.125,2|0|2,0:0|0:0|0:0,0:0:0:0:
505,17,54927,2,0,P|483:38|476:68,1,62.5,2|0,1:0|0:0,0:0:0:0:
292,205,55236,5,2,1:2:0:0:
267,167,55313,1,2,1:2:0:0:
274,122,55390,1,10,1:2:0:0:
441,218,55545,2,0,L|471:222,2,31.25,0|0|2,0:0|0:0|0:2,0:0:0:0:
366,371,55854,6,0,L|379:334,1,39.0625,2|0,1:3|0:0,0:0:0:0:
370,341,55932,2,0,L|366:302,1,39.0625,2|0,1:3|0:0,0:0:0:0:
376,311,56009,2,0,L|395:277,1,39.0625,2|0,1:3|0:0,0:0:0:0:
381,282,56086,2,0,L|370:244,1,39.0625,2|0,1:3|0:0,0:0:0:0:
291,204,56164,6,0,P|205:205|191:290,1,187.500007152558,10|2,0:0|1:2,0:0:0:0:
236,351,56396,5,2,1:2:0:0:
245,341,56473,2,0,P|262:314|264:283,1,62.5,10|0,0:0|0:0,0:0:0:0:
133,245,56628,2,0,P|116:271|114:302,1,62.5,2|10,1:2|0:0,0:0:0:0:
232,162,56782,2,0,P|216:190|207:220,1,62.5,2|0,1:2|0:0,0:0:0:0:
81,175,56937,2,0,P|112:171|141:162,1,62.5,10|0,0:0|0:0,0:0:0:0:
231,59,57091,6,0,B|226:55|226:55|223:60|223:60|219:57|219:57|216:61|216:61|212:58|212:58|209:62|209:62|204:59|204:59|201:64|201:64|197:61|197:61|194:65|194:65|190:62|190:62|187:66|187:66|182:63|182:63|179:67|179:67|175:64|175:64|172:69|172:69|168:66|168:66|165:70|165:70|161:67|161:67|158:71|158:71|153:68|153:68|150:73|150:73|146:70|146:70|143:74|143:74|139:71|139:71|136:75|136:75|131:72,1,140.625005364418,10|0,0:0|0:0,0:0:0:0:
139,61,57401,6,0,B|207:38|251:93|221:113|264:169|333:146,1,234.375,2|0,1:1|0:0,0:0:0:0:
430,36,57710,6,0,L|490:52,1,62.5,2|0,1:2|0:0,0:0:0:0:
434,54,57788,2,0,L|494:70,1,62.5,2|0,0:0|0:0,0:0:0:0:
439,73,57865,2,0,L|499:89,1,62.5,2|0,0:0|0:0,0:0:0:0:
444,94,57942,2,0,L|504:110,1,62.5,2|0,0:0|0:0,0:0:0:0:
449,113,58019,2,0,L|509:129,1,62.5,10|0,0:0|0:0,0:0:0:0:
333,145,58174,6,0,L|269:158,1,62.5,2|0,1:2|0:0,0:0:0:0:
329,163,58252,2,0,L|268:179,1,62.5,2|0,0:0|0:0,0:0:0:0:
324,182,58329,2,0,L|263:198,1,62.5,2|0,0:0|0:0,0:0:0:0:
319,203,58406,2,0,L|258:219,1,62.5,2|0,0:0|0:0,0:0:0:0:
314,222,58483,2,0,L|253:238,1,62.5,10|0,0:0|0:0,0:0:0:0:
224,62,58638,6,0,B|178:47|144:70|154:78|120:101|76:90,1,156.25,2|2,1:2|0:0,0:0:0:0:
12,45,58870,1,10,0:0:0:0:
12,45,58947,2,0,B|7:23|21:6|21:6|25:27|14:41,1,78.125,2|0,0:0|0:0,0:0:0:0:
58,167,59102,2,0,B|53:189|67:206|67:206|71:185|60:170,1,78.125,2|10,1:2|0:0,0:0:0:0:
143,43,59256,2,0,B|138:21|152:4|152:4|156:25|145:39,1,78.125,2|2,0:0|0:0,0:0:0:0:
189,165,59411,2,0,B|184:187|198:204|198:204|202:183|191:168,1,78.125,10|0,0:0|0:0,0:0:0:0:
309,71,59566,6,0,P|322:75|339:83,2,31.25,2|0|2,1:2|1:0|1:2,0:0:0:0:
404,24,59720,6,0,P|365:108|360:201,1,187.5,10|0,0:0|0:0,0:0:0:0:
418,254,60030,2,0,B|477:233|477:233|432:183,1,125
231,163,60184,5,2,1:2:0:0:
247,180,60262,1,2,1:2:0:0:
259,201,60339,2,0,P|268:230|270:261,1,62.5,10|0,1:2|0:0,0:0:0:0:
344,271,60494,2,0,P|332:299|313:324,1,62.5,2|0,1:2|0:0,0:0:0:0:
167,300,60648,2,0,P|210:282|256:276,1,93.7500035762788,2|2,0:2|0:2,0:0:0:0:
363,382,60803,6,0,P|382:379|400:371,1,39.0625,2|0,1:3|0:0,0:0:0:0:
396,382,60880,2,0,P|413:372|427:359,1,39.0625,2|0,1:3|0:0,0:0:0:0:
427,372,60957,2,0,P|440:357|448:340,1,39.0625,2|0,1:3|0:0,0:0:0:0:
451,351,61035,2,0,P|458:332|460:313,1,39.0625,2|0,1:3|0:0,0:0:0:0:
418,254,61112,6,0,B|401:225|401:225|411:165,1,93.7500035762788,10|2,0:0|1:2,0:0:0:0:
478,121,61344,1,2,1:2:0:0:
491,125,61421,2,0,P|505:43|422:39,1,187.500007152558,10|2,0:0|1:2,0:0:0:0:
301,113,61653,1,10,0:0:0:0:
301,113,61731,6,0,P|302:81|313:52,1,62.5,2|0,1:2|0:0,0:0:0:0:
411,165,61885,2,0,P|380:172|349:173,1,62.5,10|0,0:0|0:0,0:0:0:0:
265,0,62040,6,1,B|171:-11|115:67|115:67|195:62|269:128|263:264|147:310|78:234|125:164,1,562.500021457673,2|0,1:1|0:0,0:0:0:0:
59,13,62659,6,0,P|42:39|35:69,1,62.5,2|0,1:2|0:0,0:0:0:0:
36,34,62736,2,0,P|27:63|28:94,1,62.5,2|0,0:0|0:0,0:0:0:0:
19,58,62813,2,0,P|18:89|27:118,1,62.5,2|0,0:0|0:0,0:0:0:0:
9,85,62890,2,0,P|16:115|32:141,1,62.5,2|0,0:0|0:0,0:0:0:0:
7,113,62968,2,0,P|21:140|44:161,1,62.5,10|0,0:0|0:0,0:0:0:0:
98,284,63122,6,0,P|124:267|154:260,1,62.5,2|0,1:2|0:0,0:0:0:0:
119,261,63199,2,0,P|148:252|179:253,1,62.5,2|0,0:0|0:0,0:0:0:0:
143,244,63277,2,0,P|174:243|203:252,1,62.5,2|0,0:0|0:0,0:0:0:0:
170,234,63354,2,0,P|200:241|226:257,1,62.5,2|0,0:0|0:0,0:0:0:0:
198,232,63432,2,0,P|225:246|246:269,1,62.5,10|0,0:0|0:0,0:0:0:0:
307,180,63586,6,0,B|348:176|348:176|371:245|371:245|412:241,1,156.25,2|2,1:2|0:0,0:0:0:0:
462,185,63818,1,10,0:0:0:0:
462,185,63896,2,0,B|494:211|494:211|474:329,1,156.25,2|2,0:0|1:2,0:0:0:0:
353,384,64128,2,0,B|321:358|321:358|340:244,1,156.25,10|2,0:0|0:0,0:0:0:0:
413,241,64360,2,0,B|399:318,1,78.125,10|0,0:0|0:0,0:0:0:0:
253,384,64514,6,0,B|215:387|215:387|248:364,2,78.125,2|0|2,0:0|0:0|0:0,0:0:0:0:
399,317,64823,2,0,P|401:348|416:376,1,62.5,2|0,1:0|0:0,0:0:0:0:
274,206,65133,5,2,1:2:0:0:
304,172,65210,1,2,1:2:0:0:
349,171,65287,1,10,1:2:0:0:
479,293,65442,2,0,L|474:324,2,31.25,0|0|2,0:0|0:0|0:2,0:0:0:0:
508,103,65751,6,0,L|471:116,1,39.0625,2|0,1:3|0:0,0:0:0:0:
478,107,65829,2,0,L|439:103,1,39.0625,2|0,1:3|0:0,0:0:0:0:
448,113,65906,2,0,L|414:132,1,39.0625,2|0,1:3|0:0,0:0:0:0:
419,118,65983,2,0,L|381:107,1,39.0625,2|0,1:3|0:0,0:0:0:0:
395,36,66061,6,0,P|312:80|220:86,1,187.500007152558,10|2,0:0|1:2,0:0:0:0:
148,193,66293,5,2,1:2:0:0:
148,193,66370,2,0,B|155:165|155:165|154:162|154:162|160:132,1,62.5,10|0,0:0|0:0,0:0:0:0:
308,47,66524,2,0,B|301:76|301:76|302:79|302:79|295:107,1,62.5,2|10,1:2|0:0,0:0:0:0:
223,214,66679,2,0,B|230:186|230:186|229:183|229:183|236:154,1,62.5,2|0,1:2|0:0,0:0:0:0:
232,25,66834,2,0,B|226:55|226:55|227:58|227:58|220:86,1,62.5,10|0,0:0|0:0,0:0:0:0:
330,195,66988,6,0,P|388:234|457:232,1,140.625005364418,10|0,0:0|0:0,0:0:0:0:
479,225,67298,6,0,B|413:196|364:247|392:269|345:321|278:292,1,234.375,2|0,1:1|0:0,0:0:0:0:
251,218,67607,6,0,P|220:218|193:234,1,62.5,2|0,1:2|0:0,0:0:0:0:
226,228,67684,2,0,P|197:238|177:262,1,62.5,2|0,0:0|0:0,0:0:0:0:
208,249,67761,2,0,P|185:269|175:298,1,62.5,2|0,0:0|0:0,0:0:0:0:
198,272,67839,2,0,P|183:298|183:329,1,62.5,2|0,0:0|0:0,0:0:0:0:
196,299,67916,2,0,P|192:328|203:358,1,62.5,10|0,0:0|0:0,0:0:0:0:
335,207,68071,6,0,P|342:177|333:147,1,62.5,2|0,1:2|0:0,0:0:0:0:
331,179,68148,2,0,P|328:148|309:123,1,62.5,2|0,0:0|0:0,0:0:0:0:
315,156,68225,2,0,P|301:128|276:111,1,62.5,2|0,0:0|0:0,0:0:0:0:
296,141,68303,2,0,P|273:120|243:112,1,62.5,2|0,0:0|0:0,0:0:0:0:
271,132,68380,2,0,P|243:120|211:124,1,62.5,10|0,0:0|0:0,0:0:0:0:
358,303,68535,6,0,B|431:294|431:294|435:289|435:289|510:280,1,156.25,2|2,1:2|0:0,0:0:0:0:
446,327,68767,1,10,0:0:0:0:
439,312,68844,2,0,B|425:275|425:275|444:238,1,78.125,2|0,0:0|0:0,0:0:0:0:
488,181,68999,2,0,B|505:146|505:146|492:109,1,78.125,2|10,1:2|0:0,0:0:0:0:
349,122,69153,6,0,P|386:131|423:146,1,78.125,2|2,0:0|0:0,0:0:0:0:
484,37,69308,2,0,P|446:27|409:12,1,78.125,10|0,0:0|0:0,0:0:0:0:
277,57,69463,6,0,P|314:142|324:235,1,187.500007152558,2|0,0:0|0:0,0:0:0:0:
349,122,69927,1,0,0:0:0:0:
335,315,70081,2,0,P|269:299|243:236,1,140.625005364418,2|0,0:0|0:0,0:0:0:0:
246,220,70390,1,2,0:0:0:0:
187,384,70545,1,2,0:0:0:0:
102,296,70700,5,0,1:0:0:0:
109,297,70777,1,0,1:0:0:0:
116,298,70854,1,0,1:0:0:0:
123,299,70932,1,0,1:0:0:0:
130,300,71009,1,0,1:0:0:0:
137,301,71086,1,0,1:0:0:0:
144,302,71164,1,0,1:0:0:0:
151,303,71241,1,0,1:0:0:0:
158,304,71318,1,2,1:2:0:0:
165,305,71396,1,2,1:2:0:0:
172,306,71473,1,2,1:2:0:0:
179,307,71550,1,2,1:2:0:0:
186,308,71628,1,2,1:3:0:0:
193,309,71705,1,2,1:3:0:0:
200,310,71782,1,2,1:3:0:0:
207,311,71860,1,2,1:3:0:0:
254,363,71937,5,6,1:2:0:0:
412,339,72246,2,1,L|477:350,1,48.7197724039827,2|2,0:0|1:2,0:0:0:0:
452,278,72555,2,0,L|430:176,1,97.4395448079653,2|2,0:0|1:2,0:0:0:0:
336,14,73174,6,0,L|274:23,1,48.7197724039827,2|2,1:2|0:0,0:0:0:0:
297,92,73483,2,0,L|259:146,1,48.7197724039827,2|0,0:0|0:0,0:0:0:0:
329,168,73793,2,0,L|340:223,1,48.7197724039827,2|2,1:2|0:0,0:0:0:0:
201,125,74102,1,2,0:0:0:0:
19,19,74411,6,1,P|56:68|53:118,1,97.4395448079653,2|2,1:2|0:0,0:0:0:0:
163,21,74875,2,1,P|194:11|224:8,1,48.7197724039827,2|2,1:2|0:0,0:0:0:0:
124,80,75184,1,2,0:0:0:0:
127,83,75262,1,0,0:0:0:0:
130,86,75339,1,2,1:2:0:0:
307,25,75648,6,0,B|382:36|331:110|321:171|351:179|351:179|392:188|409:87|388:35|461:56|482:65,1,365.398293029872,2|0,1:2|0:0,0:0:0:0:
396,0,76421,1,0,0:0:0:0:
459,63,76576,6,1,L|249:96,1,182.699146514935,0|0,0:0|0:0,0:0:0:0:
225,47,76885,6,0,P|186:63|181:119,1,73.0796586059751,2|0,1:2|0:0,0:0:0:0:
7,20,77195,2,0,P|56:66|84:147,1,146.15931721195,2|2,1:3|1:2,0:0:0:0:
175,167,77813,1,2,1:2:0:0:
158,233,77968,1,0,0:0:0:0:
267,266,78122,6,0,P|224:227|229:196,1,73.0796586059751,2|2,1:2|1:2,0:0:0:0:
53,207,78432,1,2,0:0:0:0:
67,209,78509,1,2,0:0:0:0:
79,218,78586,1,2,1:2:0:0:
85,234,78664,1,0,0:0:0:0:
87,256,78741,5,2,0:0:0:0:
129,315,78896,2,1,L|123:358,2,36.5398293029876,2|0|2,0:0|0:0|1:2,0:0:0:0:
191,281,79205,1,2,1:2:0:0:
310,349,79360,6,0,L|220:319,1,73.0796586059751,2|0,1:2|0:0,0:0:0:0:
180,377,79669,2,0,L|447:343,1,243.598862019913,2|2,1:3|1:2,0:0:0:0:
423,342,80287,2,1,P|412:287|430:225,1,91.3495732574703,2|2,1:2|0:0,0:0:0:0:
454,48,80597,6,1,B|408:55|394:114|451:155|419:220|354:212|283:217|288:103|338:27|404:62,1,365.398293029872,2|2,0:0|1:2,0:0:0:0:
486,110,81370,1,2,0:0:0:0:
488,118,81447,1,0,0:0:0:0:
491,125,81524,1,2,1:3:0:0:
454,48,81834,6,0,L|201:176,1,274.048719772402,4|0,1:2|0:0,0:0:0:0:
169,112,82143,2,0,L|86:72,1,91.3495732574617,10|0,0:2|0:0,0:0:0:0:
208,179,82298,6,1,L|186:233,1,45.6747866287395,2|2,1:2|1:2,0:0:0:0:
48,367,82452,6,1,B|42:318|91:301|100:312|136:299|153:264|134:213|102:188|43:222|47:289,1,243.598862019913,2|2,1:2|1:2,0:0:0:0:
53,255,82684,1,0,0:0:0:0:
54,263,82762,6,0,P|189:305|249:364,1,182.699146514935,2|0,1:2|0:0,0:0:0:0:
384,322,83071,6,0,B|429:288|464:191|357:149|300:226|327:305,1,274.048719772402,4|0,1:2|0:0,0:0:0:0:
229,325,83380,2,0,P|237:361|288:363,1,91.3495732574617,10|0,0:2|0:0,0:0:0:0:
477,359,83535,5,2,1:2:0:0:
474,367,83612,1,2,1:2:0:0:
472,379,83689,2,0,L|268:354,1,182.699146514924,2|2,1:2|1:2,0:0:0:0:
254,207,83921,1,0,0:0:0:0:
247,211,83999,6,0,P|242:222|282:276,1,60.8997155049783,2|0,1:2|0:0,0:0:0:0:
107,365,84153,2,0,P|118:343|160:328,1,60.8997155049783,2|0,1:3|0:0,0:0:0:0:
175,239,84308,6,0,P|76:207|112:114,1,228.373933143669,4|0,1:2|0:0,0:0:0:0:
120,110,84617,6,0,P|155:130|104:192,1,76.1246443812229,10|0,0:2|0:0,0:0:0:0:
75,51,84772,2,0,L|66:-9,4,38.0623221906114,2|0|2|0|2,1:2|0:0|1:2|0:0|1:2,0:0:0:0:
233,149,85081,2,0,P|275:126|276:68,1,76.1246443812229,2|0,1:2|0:0,0:0:0:0:
275,24,85236,5,2,1:2:0:0:
342,15,85313,1,2,1:2:0:0:
406,37,85390,1,2,1:2:0:0:
443,95,85468,1,2,1:2:0:0:
453,88,85545,6,0,L|447:59,14,30.4498577524892,2|0|0|0|0|0|0|0|0|0|0|0|0|0|0,1:2|0:0|0:0|0:0|0:0|0:0|0:0|0:0|0:0|0:0|0:0|0:0|0:0|0:0|0:0,0:0:0:0:
402,194,86164,5,2,0:0:0:0:
469,218,86318,1,2,0:0:0:0:
472,221,86396,1,2,0:0:0:0:
475,224,86473,1,2,0:0:0:0:
455,291,86628,1,2,0:0:0:0:
491,370,86782,6,0,L|420:361,3,45.6747866287337,2|0|0|0,1:2|0:0|0:0|0:0,0:0:0:0:
382,379,87091,2,0,L|340:337,3,45.6747866287337,2|0|0|0,1:2|0:0|0:0|0:0,0:0:0:0:
284,335,87401,2,0,L|259:275,3,45.6747866287337,2|0|0|0,1:2|0:0|0:0|0:0,0:0:0:0:
321,194,87710,6,0,L|282:246,1,45.6747866287395,2|0,1:2|0:0,0:0:0:0:
161,244,87865,2,0,L|222:262,1,45.6747866287309,2|0,1:2|0:0,0:0:0:0:
239,112,88019,6,0,P|241:133|262:157,3,45.6747866287337,2|0|0|0,1:2|0:0|0:0|0:0,0:0:0:0:
313,111,88329,2,0,P|331:119|362:114,3,45.6747866287337,2|0|0|0,1:2|0:0|0:0|0:0,0:0:0:0:
351,51,88638,2,0,P|367:38|378:9,3,45.6747866287337,2|0|0|0,1:2|0:0|0:0|0:0,0:0:0:0:
457,46,88947,6,0,L|474:122,1,45.6747866287309,2|0,1:2|0:0,0:0:0:0:
437,157,89102,2,0,L|454:219,1,45.6747866287395,2|0,1:2|0:0,0:0:0:0:
469,366,89256,5,0,1:0:0:0:
443,352,89334,1,0,1:0:0:0:
418,339,89411,1,0,1:0:0:0:
390,327,89488,1,0,1:0:0:0:
363,319,89566,1,0,1:0:0:0:
335,311,89643,1,0,1:0:0:0:
307,304,89720,1,0,1:0:0:0:
278,300,89798,1,0,1:0:0:0:
249,297,89875,1,2,1:2:0:0:
220,296,89952,1,2,1:2:0:0:
191,297,90030,1,2,1:2:0:0:
162,299,90107,1,2,1:2:0:0:
107,335,90184,2,1,L|123:401,3,45.6747866287366,2|2|2|2,1:3|1:3|1:3|1:3,0:0:0:0:
36,106,90494,5,4,1:2:0:0:
39,129,90571,1,0,0:0:0:0:
57,149,90648,1,0,1:2:0:0:
70,217,90726,5,4,1:2:0:0:
93,225,90803,1,0,0:0:0:0:
118,219,90880,1,0,1:2:0:0:
185,222,90957,5,4,1:2:0:0:
205,207,91035,1,0,0:0:0:0:
212,181,91112,1,0,1:2:0:0:
211,99,91189,5,4,1:2:0:0:
201,111,91267,1,0,0:0:0:0:
185,102,91344,1,0,1:2:0:0:
193,91,91421,2,1,P|148:104|133:160,1,91.3495732574703,4|2,1:2|1:2,0:0:0:0:
4,246,91576,2,1,P|29:208|16:165,1,91.3495732574703,2|2,1:2|1:2,0:0:0:0:
51,18,91731,5,4,1:2:0:0:
256,192,94205,12,0,95365,0:0:0:0:
279,111,95442,5,0,1:2:0:0:
253,350,95751,1,0,1:2:0:0:
109,310,96061,5,2,1:3:0:0:
160,372,96215,1,2,1:3:0:0:
160,372,96293,1,0,0:0:0:0:
160,372,96370,2,0,P|232:305|320:260,1,187.5,2|0,1:0|0:0,0:0:0:0:
363,308,96679,6,0,P|383:205|448:281,1,253.125000000024,4|2,0:0|0:0,0:0:0:0:
434,275,96988,2,0,P|399:277|368:290,1,68.7499999999988,8|0,0:0|0:0,0:0:0:0:
162,269,97143,6,1,P|140:327|37:305,1,175.000000000018,2|2,1:2|0:0,0:0:0:0:
96,273,97375,1,0,0:0:0:0:
99,276,97452,2,0,L|165:286,1,46.8750000000056,2|0,1:2|0:0,0:0:0:0:
420,356,97607,6,0,P|331:324|251:275,1,187.500000000005,8|2,0:0|0:0,0:0:0:0:
178,201,97839,1,2,0:0:0:0:
151,184,97916,6,0,B|138:177|138:177|18:192,1,93.7500000000112,2|0,1:2|0:0,0:0:0:0:
257,38,98071,2,0,B|238:96|238:96|370:119,1,187.500000000005,2|8,0:0|0:0,0:0:0:0:
388,103,98380,6,1,L|326:105,1,46.8749999999968,2|0,0:0|0:0,0:0:0:0:
117,35,98535,5,2,1:2:0:0:
120,38,98689,2,0,L|191:52,1,46.8749999999968,2|0,0:0|0:0,0:0:0:0:
351,25,98844,6,0,B|323:32|323:32|290:32|290:32|251:43,1,81.2499999999937,8|0,0:0|0:0,0:0:0:0:
131,141,98999,2,1,B|159:134|159:134|192:134|192:134|231:123,1,81.2499999999784,2|0,0:0|0:0,0:0:0:0:
291,116,99153,6,0,B|187:106|218:76|73:58,1,187.499999999988,2|2,1:2|0:0,0:0:0:0:
20,95,99385,1,2,0:0:0:0:
0,111,99463,2,0,B|63:119|63:119|38:104,1,78.1249999999996,8|0,0:0|0:0,0:0:0:0:
254,185,99617,6,1,B|275:261|275:261|191:247,1,156.249999999999,2|2,1:2|0:0,0:0:0:0:
129,278,99849,1,2,0:0:0:0:
197,277,99927,1,2,1:2:0:0:
238,307,100004,1,0,0:0:0:0:
252,341,100081,1,8,0:0:0:0:
348,235,100236,5,2,0:0:0:0:
351,238,100313,1,2,0:0:0:0:
354,241,100390,2,0,L|361:205,1,34.3749999999929,2|0,1:2|0:0,0:0:0:0:
512,288,100545,6,0,B|430:257|430:257|437:268|437:268|492:294,1,156.249999999999,2|8,0:0|0:0,0:0:0:0:
216,167,100854,2,1,B|240:163|240:163|265:150|265:150|294:146,1,78.1249999999996,2|0,0:0|0:0,0:0:0:0:
406,74,101009,1,2,1:2:0:0:
450,89,101086,1,2,0:0:0:0:
471,96,101164,2,0,B|460:104|460:104|381:86,1,78.1249999999996,2|0,0:0|0:0,0:0:0:0:
253,32,101318,6,0,L|247:61,1,28.1250000000002,8|0,0:0|0:0,0:0:0:0:
181,76,101473,6,0,L|174:61,1,15.6249999999999,2|0,0:0|0:0,0:0:0:0:
65,99,101628,6,0,P|100:87|211:171,1,181.250005531311,2|2,1:2|0:0,0:0:0:0:
161,212,101860,1,2,0:0:0:0:
164,219,101937,1,8,0:0:0:0:
464,200,102091,1,2,1:2:0:0:
455,194,102169,2,1,B|399:171|399:171|418:234|373:318,1,181.250005531311,0|2,0:0|0:0,0:0:0:0:
356,363,102401,6,0,B|388:361|388:361|425:350,1,62.4999999999997,2|0,1:2|0:0,0:0:0:0:
215,276,102555,6,0,B|192:229|192:229|279:231|279:231|306:280,1,187.499999999988,8|2,0:0|1:2,0:0:0:0:
267,339,102787,1,2,0:0:0:0:
224,356,102865,2,0,L|176:349,1,46.874999999988,2|0,1:2|0:0,0:0:0:0:
31,226,103019,2,0,P|86:183|26:198,1,162.499999999988,2|8,0:0|0:0,0:0:0:0:
25,179,103329,6,1,P|11:200|16:233,1,46.8750000000056,2|0,0:0|0:0,0:0:0:0:
75,356,103483,1,2,1:2:0:0:
191,161,103638,6,0,P|170:147|137:152,1,46.8750000000056,2|0,0:0|0:0,0:0:0:0:
49,208,103793,1,8,0:0:0:0:
229,353,103947,6,1,P|243:332|238:299,1,46.8750000000056,2|0,0:0|0:0,0:0:0:0:
162,179,104102,1,2,1:2:0:0:
130,259,104256,6,1,L|152:254,1,21.8750000000043,2|2,0:0|0:0,0:0:0:0:
350,209,104411,6,0,B|276:198|276:198|328:236,1,87.5000000000008,8|0,0:0|0:0,0:0:0:0:
437,192,104566,6,1,B|378:201|378:201|329:198|329:198|217:216,1,175.000000000018,2|2,1:2|0:0,0:0:0:0:
0,58,104875,6,0,B|38:92|113:78|113:78|72:98|76:135,1,150.000000000015,2|8,1:2|0:0,0:0:0:0:
190,253,105184,2,1,P|182:227|189:179,1,53.125000000003,2|2,0:0|0:0,0:0:0:0:
281,27,105339,5,8,0:0:0:0:
354,124,105494,1,2,1:2:0:0:
357,127,105571,2,0,B|325:97|325:97|270:116|270:116|229:91|229:91|152:122,1,199.999999999999,8|2,0:0|1:2,0:0:0:0:
221,198,105803,6,0,B|251:205|251:205|273:213|273:213|303:217,1,81.2499999999784,8|0,0:0|0:0,0:0:0:0:
366,213,105957,5,2,1:2:0:0:
368,255,106035,1,2,1:2:0:0:
326,281,106112,1,2,1:2:0:0:
149,229,106267,5,8,0:0:0:0:
145,219,106344,5,0,0:0:0:0:
129,229,106421,5,2,0:0:0:0:
113,210,106499,5,2,0:0:0:0:
37,216,106576,6,0,B|97:160|190:253|118:274|208:373|271:303,1,281.24999999998,4|2,0:0|0:0,0:0:0:0:
318,282,106885,1,8,0:0:0:0:
423,48,107040,6,1,B|382:77|392:138|392:138|435:98|433:34,1,187.500000000023,2|2,1:2|0:0,0:0:0:0:
446,49,107272,1,0,0:0:0:0:
415,19,107349,1,2,1:2:0:0:
346,17,107427,1,0,0:0:0:0:
289,67,107504,6,0,B|311:100|346:111|346:111|255:115|269:34|185:-4|119:11|92:76,1,318.750000000018,8|2,0:0|1:2,0:0:0:0:
0,94,107813,6,0,L|4:137,1,43.7500000000086,2|0,1:2|0:0,0:0:0:0:
7,140,107968,2,1,B|-15:72|61:40|113:68|113:68|64:120,1,199.999999999999,2|8,0:0|0:0,0:0:0:0:
206,235,108277,2,1,B|184:303|260:335|312:307|312:307|263:255,1,199.999999999999,2|2,0:0|1:2,0:0:0:0:
108,250,108586,5,2,0:0:0:0:
101,255,108664,1,0,0:0:0:0:
110,258,108741,2,0,B|139:252|139:252|161:243|161:243|189:237,1,81.2499999999937,8|0,0:0|0:0,0:0:0:0:
376,113,108896,2,0,B|347:119|347:119|325:128|325:128|297:134,1,81.2499999999937,2|0,0:0|0:0,0:0:0:0:
229,172,109050,6,0,B|225:129|225:129|332:171|332:171|293:210,1,199.99999999998,2|2,1:2|0:0,0:0:0:0:
393,266,109282,1,2,0:0:0:0:
396,269,109360,2,0,P|426:262|453:246,1,62.4999999999997,8|0,0:0|0:0,0:0:0:0:
450,381,109514,6,0,P|417:318|403:184,1,199.999999999999,2|2,1:2|0:0,0:0:0:0:
251,10,109823,1,2,1:2:0:0:
254,13,109901,1,0,0:0:0:0:
257,16,109978,2,0,B|240:3|240:3|195:31|195:31|152:27|152:27|132:95|86:137|21:111|-14:70|48:45,1,299.999999999998,8|2,0:0|0:0,0:0:0:0:
62,23,110287,6,0,P|120:35|135:66,1,78.1249999999996,2|0,1:2|0:0,0:0:0:0:
290,149,110442,2,1,B|327:146|391:184|391:184|357:133|359:83,1,212.500000000012,2|8,0:0|0:0,0:0:0:0:
512,157,110751,5,2,0:0:0:0:
472,136,110829,2,1,P|425:139|392:211,1,106.250000000006,0|2,0:0|1:2,0:0:0:0:
320,236,110983,5,2,0:0:0:0:
257,266,111061,2,0,P|259:312|307:350,1,106.250000000006,2|0,0:0|0:0,0:0:0:0:
446,348,111215,6,0,P|382:221|287:324,1,318.750000000018,8|0,0:0|0:0,0:0:0:0:
275,282,111524,6,0,P|379:371|435:245,1,318.750000000018,2|2,1:2|0:0,0:0:0:0:
467,273,111834,6,0,P|450:247|400:225,1,62.4999999999997,8|0,0:0|0:0,0:0:0:0:
266,178,111988,5,2,1:2:0:0:
289,202,112066,2,0,P|295:137|188:163,1,187.500000000005,2|2,1:2|1:2,0:0:0:0:
129,211,112298,6,0,B|153:206|153:206|182:204,1,53.125000000003,10|0,1:2|0:0,0:0:0:0:
363,101,112452,5,0,0:0:0:0:
366,104,112530,2,1,P|319:95|274:219,1,187.500000000005,0|2,0:0|1:2,0:0:0:0:
265,305,112762,6,1,P|269:289|276:269,1,34.3749999999929,10|2,1:2|1:2,0:0:0:0:
146,170,112916,5,2,1:2:0:0:
185,146,112994,2,1,B|90:128|120:93|-17:63,1,187.500000000005,2|2,1:2|1:2,0:0:0:0:
49,135,113226,6,0,B|129:119|90:95|183:71,1,143.749999999981,2|2,1:2|1:2,0:0:0:0:
410,22,113380,5,8,0:0:0:0:
348,88,113535,5,2,1:2:0:0:
369,95,113612,1,8,0:0:0:0:
248,14,113767,5,2,1:2:0:0:
223,21,113844,1,8,0:0:0:0:
118,119,113999,5,8,0:0:0:0:
233,22,114153,2,0,L|244:58,1,28.1250000000002,2|0,1:2|0:0,0:0:0:0:
360,182,114308,5,8,0:0:0:0:
196,104,114463,2,0,L|185:140,1,28.1250000000002,2|0,1:2|0:0,0:0:0:0:
139,258,114617,5,8,0:0:0:0:
281,172,114772,2,0,L|292:208,1,28.1250000000002,2|0,1:2|0:0,0:0:0:0:
296,343,114927,5,8,0:0:0:0:
279,347,115004,1,0,0:0:0:0:
236,362,115081,5,2,1:2:0:0:
222,365,115159,1,0,0:0:0:0:
195,370,115236,5,8,0:0:0:0:
89,218,115390,6,0,B|101:212|101:212|199:235,1,93.7500000000112,2|0,1:2|0:0,0:0:0:0:
331,167,115545,6,1,B|320:162|320:162|219:182,1,93.7500000000112,2|0,1:2|0:0,0:0:0:0:
196,67,115700,6,1,B|200:83|200:83|171:124|171:124|176:150,1,93.7499999999759,2|0,1:2|0:0,0:0:0:0:
347,240,115854,5,2,1:2:0:0:
394,235,115932,1,2,1:2:0:0:
422,202,116009,1,2,1:2:0:0:
426,172,116086,1,2,1:2:0:0:
412,162,116164,6,0,B|379:145|309:169|326:273|460:310|548:226,1,281.24999999998,8|0,0:0|0:0,0:0:0:0:
450,353,116473,6,0,L|463:265,2,62.5,2|2|2,1:2|1:2|1:2,0:0:0:0:
380,372,116782,2,0,P|376:354|298:329,1,93.7500035762788,2|2,1:2|1:2,0:0:0:0:
118,370,117091,6,0,B|93:270|167:301|138:172,1,187.500000000005,10|2,1:2|1:2,0:0:0:0:
126,183,117323,1,0,0:0:0:0:
108,194,117401,1,2,1:2:0:0:
109,212,117478,1,2,1:2:0:0:
163,264,117555,6,0,B|188:164|114:195|143:66,1,187.500000000005,10|2,1:2|1:2,0:0:0:0:
66,18,117787,1,0,0:0:0:0:
70,22,117865,2,0,P|112:52|184:53,1,93.7499999999936,10|0,1:2|0:0,0:0:0:0:
156,62,118019,6,0,P|159:37|129:42,1,62.4999999999997,2|0,1:2|0:0,0:0:0:0:
310,92,118174,2,0,P|311:119|284:115,1,62.4999999999879,2|0,0:0|0:0,0:0:0:0:
211,124,118329,6,0,P|302:106|396:106,1,187.500000000011,10|0,1:2|0:0,0:0:0:0:
434,43,118483,2,0,B|478:53|466:92|466:92|459:53|413:36,1,124.999999999999,2|0,0:0|0:0,0:0:0:0:
280,17,118638,6,0,P|303:108|309:205,1,187.500000000011,2|0,0:0|0:0,0:0:0:0:
303,275,118793,2,0,B|259:286|251:246|251:246|276:277|324:271,1,124.999999999999,10|0,1:2|0:0,0:0:0:0:
439,203,118947,5,2,0:0:0:0:
423,220,119024,1,0,0:0:0:0:
440,219,119102,2,0,B|400:133|307:143|339:172|218:176|146:101|186:-25|323:-9|321:129,1,468.750000000003,2|0,1:1|0:0,0:0:0:0:
201,190,119566,6,0,B|174:196|145:211|145:211|175:193|195:171,1,106.250000000006,2|0,1:2|0:0,0:0:0:0:
119,39,119720,2,0,P|168:190|204:345,1,318.749999999978,10|0,1:2|0:0,0:0:0:0:
49,264,120030,5,10,1:2:0:0:
53,268,120107,1,2,1:2:0:0:
57,272,120184,2,0,L|148:291,1,93.7499999999759,2|0,1:2|0:0,0:0:0:0:
272,370,120339,5,10,1:2:0:0:
276,374,120416,2,1,P|318:338|294:270,1,93.7499999999936,0|2,0:0|1:2,0:0:0:0:
361,236,120571,5,0,0:0:0:0:
365,240,120648,2,1,P|360:208|354:178,1,62.4999999999997,10|0,1:2|0:0,0:0:0:0:
239,195,120803,1,2,1:2:0:0:
243,199,120880,2,1,P|247:229|253:260,1,62.4999999999997,0|2,0:0|1:2,0:0:0:0:
472,322,121035,5,0,0:0:0:0:
476,326,121112,2,0,B|462:319|462:319|477:317,6,31.2500000000018,10|0|0|0|2|0|0,1:2|0:0|0:0|0:0|1:2|0:0|0:0,0:0:0:0:
404,359,121421,6,0,B|357:291|416:215|504:262|534:189|483:121|483:121|504:194|439:233,1,374.999999999998,8|0,0:0|0:0,0:0:0:0:
338,172,121731,5,2,1:2:0:0:
353,171,121808,2,0,P|386:165|414:156,2,62.4999999999997,2|10|2,0:0|0:2|0:0,0:0:0:0:
266,150,122040,5,2,1:2:0:0:
287,75,122143,1,2,0:0:0:0:
329,11,122246,1,2,0:0:0:0:
274,84,122349,6,0,P|301:67|271:77,1,93.7499999999936,2|0,0:3|0:0,0:0:0:0:
108,34,122504,2,0,P|87:18|107:38,1,93.7499999999759,2|0,0:3|0:0,0:0:0:0:
197,104,122659,5,2,1:2:0:0:
195,88,122736,2,0,P|189:55|182:26,2,62.4999999999997,2|8|2,0:0|0:0|0:0,0:0:0:0:
140,159,122968,5,2,0:0:0:0:
175,227,123071,1,2,0:0:0:0:
193,301,123174,1,2,0:0:0:0:
188,374,123277,5,10,1:2:0:0:
162,373,123354,1,2,1:2:0:0:
139,360,123432,1,2,1:2:0:0:
128,339,123509,1,2,1:2:0:0:
56,360,123586,5,2,1:2:0:0:
47,333,123664,1,2,1:2:0:0:
54,308,123741,1,10,1:2:0:0:
70,292,123818,1,2,1:2:0:0:
149,256,123896,5,2,0:0:0:0:
144,243,123973,1,0,0:0:0:0:
131,247,124050,2,0,B|214:300|332:244|291:96|239:86|81:175|258:247,1,374.999999999992,2|2,1:1|1:2,0:0:0:0:
284,176,124514,6,0,P|259:137|215:124,1,93.7499999999936,8|0,0:0|0:0,0:0:0:0:
58,293,124669,2,0,P|129:235|221:229,2,187.499999999996,2|2|0,1:2|1:2|0:0,0:0:0:0:
52,317,125055,1,2,1:2:0:0:
72,308,125133,6,0,P|88:271|39:210,1,93.7499999999936,10|0,1:2|0:0,0:0:0:0:
112,106,125287,1,2,1:2:0:0:
94,111,125365,1,2,1:2:0:0:
99,99,125442,2,0,P|108:128|118:158,1,62.4999999999997,2|0,1:2|0:0,0:0:0:0:
261,248,125597,6,1,P|211:231|200:176,1,106.250000000006,10|2,1:2|1:2,0:0:0:0:
180,375,125751,1,2,1:2:0:0:
194,367,125829,1,2,1:2:0:0:
191,382,125906,2,0,P|182:354|170:323,1,62.4999999999997,10|0,1:2|0:0,0:0:0:0:
0,182,126061,6,0,P|172:210|343:250,1,350.000000000003,10|0,1:2|1:0,0:0:0:0:
407,291,126473,6,1,B|384:308|384:343|384:343|360:317|321:332,1,116.666666666646,0|0,1:0|1:0,0:0:0:0:
338,254,126679,6,0,B|265:180|307:78|422:99|384:202,1,212.499999999972,10|2,1:2|1:2,0:0:0:0:
386,159,126911,1,0,0:0:0:0:
376,170,126988,6,0,P|281:167|189:217,1,187.500000000005,10|2,1:2|1:2,0:0:0:0:
184,222,127220,1,0,0:0:0:0:
179,241,127298,1,2,1:2:0:0:
187,259,127375,1,2,1:2:0:0:
261,273,127452,6,0,P|274:187|206:95,1,187.500000000005,10|2,1:2|1:2,0:0:0:0:
266,28,127684,1,0,0:0:0:0:
270,32,127762,2,0,B|318:58|318:58|246:43,1,93.7500000000112,10|0,1:2|0:0,0:0:0:0:
283,54,127916,6,0,P|311:42|286:37,1,62.4999999999997,2|0,1:2|0:0,0:0:0:0:
123,111,128071,2,0,P|123:137|146:123,1,62.4999999999997,2|0,0:0|0:0,0:0:0:0:
222,105,128226,6,0,P|129:122|42:156,1,187.500000000011,10|0,1:2|0:0,0:0:0:0:
45,272,128380,2,0,B|1:261|13:223|13:223|20:262|65:279,1,124.999999999999,2|0,0:0|0:0,0:0:0:0:
91,40,128535,6,0,P|131:125|148:217,1,187.500000000011,2|0,0:0|0:0,0:0:0:0:
134,292,128689,2,0,B|172:314|190:277|190:277|159:301|113:282,1,124.999999999999,10|0,1:2|0:0,0:0:0:0:
23,342,128844,5,2,0:0:0:0:
23,361,128921,1,0,0:0:0:0:
4,368,128999,2,0,B|95:331|84:212|6:248|-47:83|98:48|180:103|189:245|36:165|68:286,1,468.750000000003,2|0,1:1|0:0,0:0:0:0:
180,106,129463,6,0,B|198:134|198:167|198:167|208:136|203:111,1,106.250000000006,2|0,1:2|0:0,0:0:0:0:
17,182,129617,2,0,P|170:140|329:122,1,318.749999999978,10|0,1:2|0:0,0:0:0:0:
373,12,129927,5,10,1:2:0:0:
377,16,130004,1,2,1:2:0:0:
381,20,130081,2,0,P|321:26|299:83,1,93.7499999999759,2|0,1:2|0:0,0:0:0:0:
368,258,130236,5,10,1:2:0:0:
372,262,130313,2,1,L|387:169,1,93.7499999999759,0|2,0:0|1:2,0:0:0:0:
458,72,130468,5,0,0:0:0:0:
462,76,130545,2,1,L|400:97,1,62.4999999999997,10|0,1:2|0:0,0:0:0:0:
265,138,130700,1,2,1:2:0:0:
269,142,130777,2,1,L|328:121,1,62.4999999999997,2|2,1:2|1:2,0:0:0:0:
439,309,130932,5,0,0:0:0:0:
443,313,131009,2,0,B|441:328|441:328|428:316,6,31.2500000000018,10|0|0|0|2|0|0,1:2|0:0|0:0|0:0|1:2|0:0|0:0,0:0:0:0:
511,280,131318,6,0,B|464:201|350:219|379:300|326:371|200:296|246:186|345:205|371:272,1,375.000000000021,8|0,0:0|0:0,0:0:0:0:
332,364,131628,5,2,1:2:0:0:
315,366,131705,2,0,P|284:361|255:349,2,62.4999999999879,2|10|2,0:0|0:2|0:0,0:0:0:0:
255,267,131937,5,2,1:2:0:0:
182,295,132040,1,2,0:0:0:0:
150,367,132143,1,2,0:0:0:0:
92,320,132246,6,0,P|77:289|97:315,1,93.7499999999936,2|0,0:3|0:0,0:0:0:0:
209,195,132401,2,0,P|223:164|203:190,1,93.7499999999936,2|0,0:3|0:0,0:0:0:0:
95,139,132555,5,2,1:2:0:0:
104,155,132633,2,0,P|117:194|124:246,2,62.4999999999997,2|8|2,0:0|0:0|0:0,0:0:0:0:
89,61,132865,5,2,0:0:0:0:
159,92,132968,1,2,0:0:0:0:
235,80,133071,1,2,0:0:0:0:
288,20,133174,5,10,1:2:0:0:
323,16,133251,1,2,1:2:0:0:
354,25,133329,1,2,1:2:0:0:
378,47,133406,1,2,1:2:0:0:
320,88,133483,5,2,1:2:0:0:
345,110,133561,1,2,1:2:0:0:
356,140,133638,1,10,1:2:0:0:
350,174,133715,1,2,1:2:0:0:
280,148,133793,6,0,P|319:232|337:324,1,187.499999999988,2|0,1:1|0:0,0:0:0:0:
330,342,134024,1,0,0:0:0:0:
310,338,134102,1,2,0:0:0:0:
306,319,134179,1,0,0:0:0:0:
324,312,134256,1,2,1:2:0:0:
443,308,134411,6,0,P|431:287|412:273,1,46.8749999999968,2|0,0:0|0:0,0:0:0:0:
271,228,134566,1,2,1:2:0:0:
275,232,134643,1,2,0:0:0:0:
279,236,134720,2,1,P|233:248|188:259,1,93.7499999999936,2|0,1:2|0:0,0:0:0:0:
3,319,135030,5,2,0:0:0:0:
7,323,135107,1,0,0:0:0:0:
10,326,135184,2,0,P|26:355|54:362,1,62.5000000000114,2|0,1:3|0:0,0:0:0:0:
115,319,135339,2,1,P|114:288|95:264,1,62.5000000000114,0|0,0:0|0:0,0:0:0:0:
22,248,135494,2,0,L|14:207,2,31.2500000000057,2|0|2,1:2|0:0|1:2,0:0:0:0:
72,133,135648,6,0,P|164:149|257:158,1,187.500000000011,2|0,1:2|0:0,0:0:0:0:
261,152,135803,2,0,P|167:153|74:168,1,187.500000000011,2|0,1:2|0:0,0:0:0:0:
16,217,135957,6,0,B|93:298|211:202|134:161|180:-21|328:27|400:144|302:218,1,499.999999999997,2|4,1:2|0:0,0:0:0:0:
