osu file format v14

[General]
AudioFilename: audio.mp3
AudioLeadIn: 0
PreviewTime: 34038
Countdown: 0
SampleSet: Soft
StackLeniency: 0.7
Mode: 3
LetterboxInBreaks: 0
SpecialStyle: 0
WidescreenStoryboard: 0

[Editor]
Bookmarks: 7215,12862,18509,24156,29803,35450,41097,46744,52391,58038,63685,69332,74979,80626,86273,91920,97567,103215
DistanceSpacing: 3
BeatDivisor: 4
GridSize: 4
TimelineZoom: 1.6

[Metadata]
Title:Feelsleft0ut
TitleUnicode:Feelsleft0ut
Artist:Zekk
ArtistUnicode:Zekk
Creator:Kamuy
Version:neglect3d
Source:osu!
Tags:future bass electronic instrumental featured artist fa bunnrei chara -plus- chrubble feelsleftout feels left out neglected alone rocma _asriel
BeatmapID:2391317
BeatmapSetID:1145368

[Difficulty]
HPDrainRate:8.5
CircleSize:4
OverallDifficulty:8.3
ApproachRate:5
SliderMultiplier:1.4
SliderTickRate:1

[Events]
//Background and Video events
0,0,"feelsleft0ut.jpg",0,0
//Break Periods
//Storyboard Layer 0 (Background)
//Storyboard Layer 1 (Fail)
//Storyboard Layer 2 (Pass)
//Storyboard Layer 3 (Foreground)
//Storyboard Layer 4 (Overlay)
//Storyboard Sound Samples

[TimingPoints]
1568,352.941176470588,4,2,20,70,1,0
1656,-100,4,2,20,40,0,0
12862,-100,4,2,11,60,0,0
18509,-100,4,2,11,65,0,0
24156,-100,4,2,10,70,0,0
29803,-100,4,2,10,80,0,0
32979,-100,4,2,10,70,0,0
33332,-100,4,2,10,60,0,0
34038,-100,4,2,10,70,0,0
34126,-100,4,2,11,70,0,0
35450,-100,4,2,10,80,0,0
36332,-100,4,2,10,85,0,0
57509,-100,4,2,11,75,0,0
58038,-100,4,2,20,70,0,0
58126,-100,4,2,11,70,0,0
69332,-100,4,2,10,75,0,0
80626,-100,4,2,10,80,0,0
81332,-100,4,2,10,85,0,0
103215,-100,4,2,20,85,0,0

[HitObjects]
320,192,1568,5,14,0:0:0:0:
448,192,1568,1,0,0:0:0:0:
320,192,2979,1,2,0:0:0:0:
192,192,4391,1,2,0:0:0:0:
192,192,5803,1,2,0:0:0:0:
320,192,7215,1,2,0:0:0:0:
448,192,7303,1,0,0:0:0:0:
64,192,7391,1,0,0:0:0:0:
192,192,7479,1,0,0:0:0:0:
320,192,7567,1,0,0:0:0:0:
448,192,7656,1,0,0:0:0:0:
320,192,7744,1,0,0:0:0:0:
192,192,7832,1,0,0:0:0:0:
320,192,7920,1,0,0:0:0:0:
192,192,8009,1,0,0:0:0:0:
64,192,8097,1,0,0:0:0:0:
192,192,8185,1,0,0:0:0:0:
320,192,8273,1,0,0:0:0:0:
448,192,8362,1,0,0:0:0:0:
320,192,8450,1,0,0:0:0:0:
192,192,8538,1,0,0:0:0:0:
64,192,8626,1,2,0:0:0:0:
192,192,8715,1,0,0:0:0:0:
64,192,8803,1,0,0:0:0:0:
320,192,8891,1,0,0:0:0:0:
192,192,8979,1,0,0:0:0:0:
448,192,9067,1,0,0:0:0:0:
320,192,9156,1,0,0:0:0:0:
448,192,9244,1,0,0:0:0:0:
64,192,9332,1,0,0:0:0:0:
192,192,9420,1,0,0:0:0:0:
64,192,9509,1,0,0:0:0:0:
320,192,9597,1,0,0:0:0:0:
192,192,9685,1,0,0:0:0:0:
448,192,9773,1,0,0:0:0:0:
320,192,9862,1,0,0:0:0:0:
448,192,9950,1,0,0:0:0:0:
192,192,10038,1,2,0:0:0:0:
64,192,10126,1,0,0:0:0:0:
192,192,10215,1,0,0:0:0:0:
320,192,10303,1,0,0:0:0:0:
448,192,10391,1,0,0:0:0:0:
64,192,10479,1,0,0:0:0:0:
448,192,10567,1,0,0:0:0:0:
320,192,10656,1,0,0:0:0:0:
192,192,10744,1,0,0:0:0:0:
64,192,10832,1,0,0:0:0:0:
192,192,10920,1,0,0:0:0:0:
320,192,11009,1,0,0:0:0:0:
448,192,11097,1,0,0:0:0:0:
64,192,11185,1,0,0:0:0:0:
448,192,11273,1,0,0:0:0:0:
192,192,11362,1,0,0:0:0:0:
320,192,11450,1,2,0:0:0:0:
320,192,12332,5,2,0:0:0:0:
64,192,12332,1,0,0:0:0:0:
192,192,12509,1,0,0:0:0:0:
448,192,12509,1,2,0:0:0:0:
192,192,12597,1,0,0:0:0:0:
448,192,12597,1,2,0:0:0:0:
64,192,12685,1,2,0:0:0:0:
320,192,12862,1,2,0:0:0:0:
448,192,12862,1,0,0:0:0:0:
64,192,12950,1,0,0:0:0:0:
192,192,13038,1,0,0:0:0:0:
320,192,13126,1,0,0:0:0:0:
192,192,13215,1,0,0:0:0:0:
448,192,13215,1,8,0:0:0:0:
64,192,13303,1,0,0:0:0:0:
320,192,13391,1,0,0:0:0:0:
192,192,13479,1,0,0:0:0:0:
448,192,13567,128,2,13656:0:0:0:0:
320,192,13656,1,0,0:0:0:0:
192,192,13744,1,0,0:0:0:0:
64,192,13744,1,2,0:0:0:0:
320,192,13832,1,0,0:0:0:0:
192,192,13920,1,0,0:0:0:0:
448,192,13920,1,8,0:0:0:0:
64,192,14009,1,0,0:0:0:0:
320,192,14097,1,0,0:0:0:0:
192,192,14185,1,0,0:0:0:0:
320,192,14273,1,2,0:0:0:0:
448,192,14273,1,0,0:0:0:0:
64,192,14362,1,0,0:0:0:0:
192,192,14450,1,0,0:0:0:0:
320,192,14538,1,0,0:0:0:0:
448,192,14626,1,8,0:0:0:0:
192,192,14626,1,0,0:0:0:0:
64,192,14715,1,0,0:0:0:0:
448,192,14803,1,0,0:0:0:0:
320,192,14803,1,2,0:0:0:0:
192,192,14891,1,0,0:0:0:0:
64,192,14979,128,2,15067:0:0:0:0:
320,192,15067,1,0,0:0:0:0:
192,192,15156,1,0,0:0:0:0:
448,192,15156,1,8,0:0:0:0:
64,192,15244,1,0,0:0:0:0:
192,192,15332,1,0,0:0:0:0:
448,192,15332,1,8,0:0:0:0:
320,192,15420,1,0,0:0:0:0:
64,192,15509,1,2,0:0:0:0:
64,192,15597,1,2,0:0:0:0:
320,192,15685,1,2,0:0:0:0:
448,192,15685,1,0,0:0:0:0:
192,192,15773,1,0,0:0:0:0:
64,192,15862,1,0,0:0:0:0:
320,192,15950,1,0,0:0:0:0:
192,192,16038,1,0,0:0:0:0:
448,192,16038,1,8,0:0:0:0:
64,192,16126,1,0,0:0:0:0:
320,192,16215,1,0,0:0:0:0:
192,192,16303,1,0,0:0:0:0:
448,192,16391,128,2,16479:0:0:0:0:
320,192,16479,1,0,0:0:0:0:
64,192,16567,1,0,0:0:0:0:
192,192,16567,1,2,0:0:0:0:
320,192,16656,1,0,0:0:0:0:
192,192,16744,1,0,0:0:0:0:
448,192,16744,1,8,0:0:0:0:
64,192,16832,1,0,0:0:0:0:
320,192,16920,1,0,0:0:0:0:
448,192,17009,1,0,0:0:0:0:
192,192,17097,1,2,0:0:0:0:
64,192,17097,1,0,0:0:0:0:
320,192,17185,1,0,0:0:0:0:
448,192,17273,1,0,0:0:0:0:
192,192,17362,5,2,0:0:0:0:
64,192,17362,1,0,0:0:0:0:
320,192,17450,1,0,0:0:0:0:
192,192,17538,1,0,0:0:0:0:
448,192,17626,1,0,0:0:0:0:
320,192,17715,1,0,0:0:0:0:
64,192,17715,1,0,0:0:0:0:
192,192,17803,1,0,0:0:0:0:
448,192,17803,1,8,0:0:0:0:
64,192,17891,1,0,0:0:0:0:
320,192,17979,1,0,0:0:0:0:
192,192,18067,1,2,0:0:0:0:
64,192,18067,1,0,0:0:0:0:
448,192,18156,1,2,0:0:0:0:
448,192,18244,1,2,0:0:0:0:
320,192,18332,1,8,0:0:0:0:
64,192,18332,1,0,0:0:0:0:
192,192,18420,1,0,0:0:0:0:
64,192,18509,128,6,18597:0:0:0:0:
448,192,18509,128,0,18597:0:0:0:0:
320,192,18597,1,0,0:0:0:0:
192,192,18685,1,0,0:0:0:0:
448,192,18773,1,0,0:0:0:0:
320,192,18862,1,8,0:0:0:0:
64,192,18862,1,0,0:0:0:0:
192,192,18950,1,0,0:0:0:0:
64,192,19038,1,0,0:0:0:0:
448,192,19038,1,8,0:0:0:0:
320,192,19126,1,0,0:0:0:0:
192,192,19215,128,0,19303:0:0:0:0:
64,192,19303,1,0,0:0:0:0:
448,192,19303,1,8,0:0:0:0:
320,192,19391,1,0,0:0:0:0:
448,192,19391,1,2,0:0:0:0:
192,192,19479,1,0,0:0:0:0:
320,192,19567,1,8,0:0:0:0:
64,192,19567,1,0,0:0:0:0:
448,192,19656,1,0,0:0:0:0:
64,192,19744,1,0,0:0:0:0:
64,192,19832,1,0,0:0:0:0:
320,192,19920,1,2,0:0:0:0:
448,192,19920,1,0,0:0:0:0:
192,192,20009,1,0,0:0:0:0:
64,192,20097,1,0,0:0:0:0:
448,192,20185,1,0,0:0:0:0:
320,192,20273,1,8,0:0:0:0:
64,192,20273,1,0,0:0:0:0:
192,192,20362,1,0,0:0:0:0:
448,192,20450,1,0,0:0:0:0:
64,192,20450,1,10,0:0:0:0:
320,192,20538,1,0,0:0:0:0:
448,192,20626,128,0,20715:0:0:0:0:
192,192,20715,1,0,0:0:0:0:
320,192,20803,1,8,0:0:0:0:
64,192,20803,1,0,0:0:0:0:
448,192,20891,1,0,0:0:0:0:
320,192,20979,1,8,0:0:0:0:
64,192,20979,1,0,0:0:0:0:
64,192,21067,1,2,0:0:0:0:
192,192,21156,1,0,0:0:0:0:
448,192,21156,1,2,0:0:0:0:
448,192,21244,1,8,0:0:0:0:
192,192,21332,1,2,0:0:0:0:
64,192,21332,1,0,0:0:0:0:
320,192,21420,1,0,0:0:0:0:
448,192,21509,1,0,0:0:0:0:
64,192,21597,1,0,0:0:0:0:
192,192,21685,1,0,0:0:0:0:
448,192,21685,1,8,0:0:0:0:
320,192,21773,1,0,0:0:0:0:
448,192,21862,1,0,0:0:0:0:
64,192,21862,1,8,0:0:0:0:
192,192,21950,1,0,0:0:0:0:
320,192,22038,128,0,22126:0:0:0:0:
64,192,22126,1,0,0:0:0:0:
448,192,22126,1,8,0:0:0:0:
192,192,22215,1,2,0:0:0:0:
64,192,22215,1,0,0:0:0:0:
448,192,22303,1,0,0:0:0:0:
320,192,22391,1,8,0:0:0:0:
64,192,22391,1,0,0:0:0:0:
448,192,22479,1,0,0:0:0:0:
192,192,22567,1,0,0:0:0:0:
192,192,22656,1,0,0:0:0:0:
448,192,22744,1,0,0:0:0:0:
64,192,22744,1,12,0:0:0:0:
448,192,22920,1,0,0:0:0:0:
64,192,23009,1,12,0:0:0:0:
448,192,23009,1,0,0:0:0:0:
192,192,23185,1,0,0:0:0:0:
192,192,23273,1,0,0:0:0:0:
192,192,23362,1,0,0:0:0:0:
320,192,23450,1,0,0:0:0:0:
448,192,23450,1,0,0:0:0:0:
64,192,23450,1,6,0:0:0:0:
192,192,23538,1,0,0:0:0:0:
448,192,23626,1,8,0:0:0:0:
64,192,23626,1,0,0:0:0:0:
448,192,23803,1,0,0:0:0:0:
64,192,23803,1,8,0:0:0:0:
192,192,23862,1,0,0:0:0:0:
320,192,23920,1,0,0:0:0:0:
64,192,23979,1,0,0:0:0:0:
448,192,23979,1,8,0:0:0:0:
192,192,24067,1,0,0:0:0:0:
320,192,24156,1,14,0:0:0:0:
64,192,24156,1,0,0:0:0:0:
448,192,24156,1,0,0:0:0:0:
192,192,24509,1,10,0:0:0:0:
64,192,24509,1,0,0:0:0:0:
448,192,24509,1,0,0:0:0:0:
64,192,24685,1,0,0:0:0:0:
192,192,24862,1,10,0:0:0:0:
64,192,24862,1,0,0:0:0:0:
448,192,24862,1,0,0:0:0:0:
192,192,25038,1,0,0:0:0:0:
320,192,25126,1,0,0:0:0:0:
192,192,25126,1,2,0:0:0:0:
320,192,25215,1,10,0:0:0:0:
448,192,25215,1,0,0:0:0:0:
64,192,25215,1,0,0:0:0:0:
448,192,25391,1,0,0:0:0:0:
320,192,25391,1,2,0:0:0:0:
192,192,25567,1,10,0:0:0:0:
64,192,25567,1,0,0:0:0:0:
448,192,25567,1,0,0:0:0:0:
192,192,25656,1,0,0:0:0:0:
320,192,25744,1,2,0:0:0:0:
448,192,25744,1,0,0:0:0:0:
320,192,25832,1,0,0:0:0:0:
192,192,25920,1,10,0:0:0:0:
64,192,25920,1,0,0:0:0:0:
448,192,25920,1,0,0:0:0:0:
64,192,26097,1,0,0:0:0:0:
64,192,26185,1,0,0:0:0:0:
320,192,26273,1,10,0:0:0:0:
448,192,26273,1,0,0:0:0:0:
192,192,26273,1,0,0:0:0:0:
320,192,26450,1,0,0:0:0:0:
320,192,26538,1,0,0:0:0:0:
192,192,26538,1,2,0:0:0:0:
192,192,26626,1,10,0:0:0:0:
64,192,26626,1,0,0:0:0:0:
448,192,26626,128,0,26685:0:0:0:0:
192,192,26803,1,2,0:0:0:0:
64,192,26803,128,0,26862:0:0:0:0:
320,192,26979,1,14,0:0:0:0:
448,192,26979,1,0,0:0:0:0:
64,192,26979,1,0,0:0:0:0:
192,192,27332,1,10,0:0:0:0:
64,192,27332,1,0,0:0:0:0:
448,192,27332,1,0,0:0:0:0:
64,192,27509,1,0,0:0:0:0:
192,192,27685,1,10,0:0:0:0:
64,192,27685,1,0,0:0:0:0:
448,192,27685,1,0,0:0:0:0:
192,192,27862,1,0,0:0:0:0:
320,192,27950,1,0,0:0:0:0:
192,192,27950,1,2,0:0:0:0:
320,192,28038,1,10,0:0:0:0:
448,192,28038,1,0,0:0:0:0:
64,192,28038,1,0,0:0:0:0:
448,192,28215,1,0,0:0:0:0:
320,192,28215,1,2,0:0:0:0:
192,192,28391,1,10,0:0:0:0:
64,192,28391,1,0,0:0:0:0:
448,192,28391,1,0,0:0:0:0:
192,192,28479,1,0,0:0:0:0:
320,192,28567,1,0,0:0:0:0:
320,192,28656,1,0,0:0:0:0:
192,192,28744,1,10,0:0:0:0:
64,192,28744,1,0,0:0:0:0:
448,192,28744,1,0,0:0:0:0:
64,192,28920,1,0,0:0:0:0:
64,192,29009,1,0,0:0:0:0:
320,192,29097,1,0,0:0:0:0:
448,192,29097,1,0,0:0:0:0:
192,192,29097,1,10,0:0:0:0:
320,192,29273,1,0,0:0:0:0:
192,192,29362,1,0,0:0:0:0:
448,192,29450,128,2,29509:0:0:0:0:
192,192,29538,1,2,0:0:0:0:
64,192,29626,128,2,29685:0:0:0:0:
192,192,29803,1,10,0:0:0:0:
320,192,29803,1,0,0:0:0:0:
448,192,29803,1,0,0:0:0:0:
320,192,29979,1,2,0:0:0:0:
448,192,29979,1,0,0:0:0:0:
192,192,30156,1,2,0:0:0:0:
64,192,30156,1,0,0:0:0:0:
192,192,30332,1,2,0:0:0:0:
320,192,30332,1,0,0:0:0:0:
320,192,30509,1,10,0:0:0:0:
448,192,30509,1,0,0:0:0:0:
64,192,30509,1,0,0:0:0:0:
192,192,30685,1,2,0:0:0:0:
64,192,30685,1,0,0:0:0:0:
192,192,30773,1,0,0:0:0:0:
320,192,30773,1,2,0:0:0:0:
320,192,30862,1,0,0:0:0:0:
448,192,30862,1,2,0:0:0:0:
320,192,31038,1,2,0:0:0:0:
448,192,31038,1,0,0:0:0:0:
192,192,31215,1,10,0:0:0:0:
64,192,31215,1,0,0:0:0:0:
448,192,31215,1,0,0:0:0:0:
192,192,31391,1,2,0:0:0:0:
320,192,31391,1,0,0:0:0:0:
320,192,31567,1,2,0:0:0:0:
448,192,31567,1,0,0:0:0:0:
192,192,31744,1,2,0:0:0:0:
64,192,31744,1,0,0:0:0:0:
192,192,31920,1,10,0:0:0:0:
320,192,31920,1,0,0:0:0:0:
448,192,31920,1,0,0:0:0:0:
192,192,32097,1,2,0:0:0:0:
64,192,32097,1,0,0:0:0:0:
192,192,32185,1,0,0:0:0:0:
320,192,32185,1,2,0:0:0:0:
448,192,32273,1,2,0:0:0:0:
320,192,32273,1,0,0:0:0:0:
320,192,32450,1,0,0:0:0:0:
192,192,32450,1,2,0:0:0:0:
320,192,32626,1,10,0:0:0:0:
448,192,32626,1,0,0:0:0:0:
320,192,32715,1,0,0:0:0:0:
64,192,32715,1,10,0:0:0:0:
192,192,32803,1,0,0:0:0:0:
448,192,32803,1,10,0:0:0:0:
192,192,32891,1,10,0:0:0:0:
64,192,32891,1,0,0:0:0:0:
320,192,32979,1,8,0:0:0:0:
448,192,32979,1,0,0:0:0:0:
192,192,33067,1,8,0:0:0:0:
320,192,33067,1,0,0:0:0:0:
192,192,33156,1,0,0:0:0:0:
64,192,33156,1,8,0:0:0:0:
320,192,33244,1,0,0:0:0:0:
448,192,33244,1,8,0:0:0:0:
64,192,33332,1,2,0:0:0:0:
320,192,33420,1,2,0:0:0:0:
64,192,33509,1,2,0:0:0:0:
320,192,33597,1,2,0:0:0:0:
192,192,33685,1,2,0:0:0:0:
448,192,33773,1,2,0:0:0:0:
192,192,33862,1,2,0:0:0:0:
448,192,33950,1,2,0:0:0:0:
320,192,34038,1,0,0:0:0:0:
192,192,34038,1,0,0:0:0:0:
64,192,34038,1,6,0:0:0:0:
448,192,34215,1,0,0:0:0:0:
448,192,34303,1,0,0:0:0:0:
320,192,34391,1,8,0:0:0:0:
64,192,34391,1,0,0:0:0:0:
192,192,34567,1,0,0:0:0:0:
448,192,34567,1,0,0:0:0:0:
192,192,34656,1,0,0:0:0:0:
320,192,34744,1,0,0:0:0:0:
64,192,34744,1,0,0:0:0:0:
320,192,34832,1,0,0:0:0:0:
448,192,34832,1,0,0:0:0:0:
192,192,34920,1,2,0:0:0:0:
64,192,34920,1,0,0:0:0:0:
192,192,35009,1,0,0:0:0:0:
448,192,35009,1,2,0:0:0:0:
320,192,35097,1,6,0:0:0:0:
448,192,35097,1,0,0:0:0:0:
448,192,35273,1,0,0:0:0:0:
320,192,35273,1,6,0:0:0:0:
192,192,35450,128,0,35597:0:0:0:0:
64,192,35450,128,2,36067:0:0:0:0:
320,192,35626,1,0,0:0:0:0:
192,192,35692,1,0,0:0:0:0:
320,192,35744,1,0,0:0:0:0:
448,192,35803,128,0,36156:0:0:0:0:
320,192,36156,1,0,0:0:0:0:
192,192,36156,1,10,0:0:0:0:
64,192,36156,1,0,0:0:0:0:
448,192,36332,1,0,0:0:0:0:
64,192,36332,1,0,0:0:0:0:
320,192,36332,1,6,0:0:0:0:
448,192,36420,1,0,0:0:0:0:
192,192,36509,1,6,0:0:0:0:
64,192,36509,1,0,0:0:0:0:
320,192,36509,1,0,0:0:0:0:
64,192,36597,1,0,0:0:0:0:
448,192,36685,1,0,0:0:0:0:
192,192,36685,1,0,0:0:0:0:
320,192,36685,1,6,0:0:0:0:
320,192,36773,1,0,0:0:0:0:
192,192,36862,1,0,0:0:0:0:
64,192,36950,1,0,0:0:0:0:
192,192,37038,1,0,0:0:0:0:
320,192,37038,1,10,0:0:0:0:
448,192,37038,1,0,0:0:0:0:
64,192,37126,1,0,0:0:0:0:
448,192,37215,1,0,0:0:0:0:
448,192,37303,1,0,0:0:0:0:
192,192,37391,1,0,0:0:0:0:
192,192,37479,1,0,0:0:0:0:
320,192,37567,1,6,0:0:0:0:
448,192,37567,1,0,0:0:0:0:
64,192,37567,1,0,0:0:0:0:
320,192,37656,1,0,0:0:0:0:
192,192,37744,1,0,0:0:0:0:
320,192,37832,1,0,0:0:0:0:
192,192,37920,1,6,0:0:0:0:
64,192,37920,1,0,0:0:0:0:
448,192,37920,1,0,0:0:0:0:
192,192,38009,1,0,0:0:0:0:
320,192,38097,1,0,0:0:0:0:
192,192,38185,1,0,0:0:0:0:
64,192,38185,1,0,0:0:0:0:
64,192,38273,1,0,0:0:0:0:
320,192,38273,1,6,0:0:0:0:
448,192,38273,1,0,0:0:0:0:
448,192,38362,1,0,0:0:0:0:
64,192,38450,1,0,0:0:0:0:
64,192,38538,1,0,0:0:0:0:
192,192,38538,1,6,0:0:0:0:
448,192,38538,1,0,0:0:0:0:
320,192,38626,1,0,0:0:0:0:
448,192,38715,1,0,0:0:0:0:
192,192,38803,1,2,0:0:0:0:
64,192,38803,1,0,0:0:0:0:
192,192,38891,1,2,0:0:0:0:
64,192,38891,1,0,0:0:0:0:
64,192,38979,1,0,0:0:0:0:
320,192,38979,1,10,0:0:0:0:
448,192,38979,1,0,0:0:0:0:
192,192,39067,1,0,0:0:0:0:
320,192,39156,1,2,0:0:0:0:
448,192,39156,1,0,0:0:0:0:
448,192,39244,1,0,0:0:0:0:
192,192,39244,1,10,0:0:0:0:
64,192,39244,1,0,0:0:0:0:
64,192,39332,1,0,0:0:0:0:
320,192,39420,1,0,0:0:0:0:
192,192,39509,1,6,0:0:0:0:
64,192,39509,1,0,0:0:0:0:
448,192,39509,1,0,0:0:0:0:
192,192,39597,1,0,0:0:0:0:
320,192,39685,1,0,0:0:0:0:
448,192,39773,1,0,0:0:0:0:
320,192,39862,1,10,0:0:0:0:
192,192,39862,1,0,0:0:0:0:
64,192,39862,1,0,0:0:0:0:
448,192,39950,1,0,0:0:0:0:
64,192,40038,1,0,0:0:0:0:
192,192,40082,1,0,0:0:0:0:
448,192,40126,1,0,0:0:0:0:
320,192,40170,1,0,0:0:0:0:
64,192,40215,1,0,0:0:0:0:
192,192,40259,1,0,0:0:0:0:
320,192,40303,1,0,0:0:0:0:
448,192,40347,1,0,0:0:0:0:
192,192,40391,1,10,0:0:0:0:
64,192,40391,1,0,0:0:0:0:
320,192,40479,1,0,0:0:0:0:
64,192,40567,1,0,0:0:0:0:
64,192,40656,1,0,0:0:0:0:
192,192,40744,1,0,0:0:0:0:
320,192,40744,1,10,0:0:0:0:
448,192,40744,1,0,0:0:0:0:
320,192,40920,1,0,0:0:0:0:
448,192,40920,1,0,0:0:0:0:
320,192,41009,1,0,0:0:0:0:
192,192,41097,128,14,41715:0:0:0:0:
64,192,41097,128,0,41244:0:0:0:0:
448,192,41273,1,0,0:0:0:0:
64,192,41340,1,0,0:0:0:0:
448,192,41391,1,0,0:0:0:0:
320,192,41450,128,0,41803:0:0:0:0:
192,192,41803,1,0,0:0:0:0:
64,192,41803,1,10,0:0:0:0:
448,192,41803,1,0,0:0:0:0:
192,192,41979,1,0,0:0:0:0:
320,192,41979,1,6,0:0:0:0:
448,192,41979,1,0,0:0:0:0:
192,192,42067,1,0,0:0:0:0:
448,192,42156,1,0,0:0:0:0:
320,192,42156,1,0,0:0:0:0:
64,192,42156,1,6,0:0:0:0:
448,192,42244,1,0,0:0:0:0:
64,192,42332,1,0,0:0:0:0:
320,192,42332,1,0,0:0:0:0:
192,192,42332,1,6,0:0:0:0:
64,192,42420,1,0,0:0:0:0:
448,192,42509,1,0,0:0:0:0:
320,192,42597,1,0,0:0:0:0:
448,192,42685,1,0,0:0:0:0:
192,192,42685,1,10,0:0:0:0:
64,192,42685,1,0,0:0:0:0:
192,192,42773,1,0,0:0:0:0:
448,192,42862,1,0,0:0:0:0:
448,192,42950,1,0,0:0:0:0:
192,192,43038,1,0,0:0:0:0:
192,192,43126,1,0,0:0:0:0:
64,192,43215,1,0,0:0:0:0:
320,192,43215,1,6,0:0:0:0:
448,192,43215,1,0,0:0:0:0:
320,192,43303,1,0,0:0:0:0:
192,192,43391,1,0,0:0:0:0:
320,192,43479,1,0,0:0:0:0:
192,192,43567,1,6,0:0:0:0:
64,192,43567,1,0,0:0:0:0:
448,192,43567,1,0,0:0:0:0:
64,192,43656,1,0,0:0:0:0:
320,192,43744,1,0,0:0:0:0:
320,192,43832,1,0,0:0:0:0:
192,192,43832,1,2,0:0:0:0:
64,192,43920,1,0,0:0:0:0:
448,192,43920,1,6,0:0:0:0:
192,192,43965,1,0,0:0:0:0:
320,192,44009,1,0,0:0:0:0:
448,192,44053,1,0,0:0:0:0:
64,192,44097,1,0,0:0:0:0:
192,192,44141,1,0,0:0:0:0:
320,192,44185,1,2,0:0:0:0:
448,192,44185,1,0,0:0:0:0:
192,192,44273,1,10,0:0:0:0:
64,192,44273,1,0,0:0:0:0:
448,192,44450,1,0,0:0:0:0:
64,192,44450,1,6,0:0:0:0:
320,192,44494,1,0,0:0:0:0:
192,192,44538,1,0,0:0:0:0:
64,192,44582,1,0,0:0:0:0:
448,192,44626,1,0,0:0:0:0:
320,192,44670,1,0,0:0:0:0:
64,192,44715,1,0,0:0:0:0:
192,192,44715,1,2,0:0:0:0:
320,192,44803,1,10,0:0:0:0:
448,192,44803,1,0,0:0:0:0:
448,192,44979,1,0,0:0:0:0:
64,192,44979,1,6,0:0:0:0:
192,192,45023,1,0,0:0:0:0:
320,192,45067,1,0,0:0:0:0:
64,192,45112,1,0,0:0:0:0:
448,192,45156,1,0,0:0:0:0:
320,192,45200,1,0,0:0:0:0:
64,192,45244,1,0,0:0:0:0:
192,192,45244,1,2,0:0:0:0:
448,192,45332,1,0,0:0:0:0:
320,192,45332,1,2,0:0:0:0:
192,192,45420,1,0,0:0:0:0:
320,192,45509,1,0,0:0:0:0:
448,192,45509,1,0,0:0:0:0:
64,192,45509,1,10,0:0:0:0:
320,192,45685,1,0,0:0:0:0:
64,192,45685,1,8,0:0:0:0:
64,192,45773,1,0,0:0:0:0:
192,192,45773,1,8,0:0:0:0:
448,192,45862,1,8,0:0:0:0:
320,192,45862,1,0,0:0:0:0:
320,192,45950,1,8,0:0:0:0:
64,192,45950,1,0,0:0:0:0:
192,192,46038,1,0,0:0:0:0:
64,192,46038,1,6,0:0:0:0:
448,192,46082,1,0,0:0:0:0:
320,192,46126,1,0,0:0:0:0:
64,192,46170,1,0,0:0:0:0:
192,192,46215,1,0,0:0:0:0:
320,192,46259,1,0,0:0:0:0:
448,192,46303,1,0,0:0:0:0:
192,192,46347,1,0,0:0:0:0:
64,192,46391,1,0,0:0:0:0:
320,192,46391,1,6,0:0:0:0:
448,192,46479,1,0,0:0:0:0:
64,192,46567,1,0,0:0:0:0:
192,192,46656,1,0,0:0:0:0:
320,192,46744,1,0,0:0:0:0:
448,192,46744,128,6,47009:0:0:0:0:
448,192,47097,128,0,47185:0:0:0:0:
192,192,47097,1,0,0:0:0:0:
448,192,47273,128,0,47362:0:0:0:0:
64,192,47362,128,0,47450:0:0:0:0:
448,192,47450,128,0,47538:0:0:0:0:
192,192,47450,1,0,0:0:0:0:
320,192,47450,1,10,0:0:0:0:
192,192,47626,1,6,0:0:0:0:
64,192,47626,1,0,0:0:0:0:
320,192,47626,1,0,0:0:0:0:
192,192,47715,1,0,0:0:0:0:
320,192,47803,1,6,0:0:0:0:
448,192,47803,1,0,0:0:0:0:
64,192,47803,1,0,0:0:0:0:
320,192,47891,1,0,0:0:0:0:
64,192,47979,1,0,0:0:0:0:
192,192,47979,1,6,0:0:0:0:
448,192,47979,1,0,0:0:0:0:
64,192,48067,1,0,0:0:0:0:
320,192,48156,1,0,0:0:0:0:
448,192,48244,1,0,0:0:0:0:
320,192,48332,1,0,0:0:0:0:
64,192,48332,1,0,0:0:0:0:
192,192,48332,1,10,0:0:0:0:
448,192,48420,1,0,0:0:0:0:
192,192,48509,1,0,0:0:0:0:
192,192,48597,1,0,0:0:0:0:
448,192,48685,1,0,0:0:0:0:
448,192,48773,1,0,0:0:0:0:
320,192,48862,1,0,0:0:0:0:
192,192,48862,1,6,0:0:0:0:
64,192,48862,1,0,0:0:0:0:
64,192,48950,1,0,0:0:0:0:
448,192,49038,1,0,0:0:0:0:
192,192,49126,1,0,0:0:0:0:
320,192,49215,1,6,0:0:0:0:
448,192,49215,1,0,0:0:0:0:
64,192,49215,1,0,0:0:0:0:
320,192,49303,1,0,0:0:0:0:
192,192,49391,1,0,0:0:0:0:
448,192,49479,1,0,0:0:0:0:
320,192,49479,1,2,0:0:0:0:
192,192,49567,1,6,0:0:0:0:
64,192,49567,1,0,0:0:0:0:
448,192,49567,1,0,0:0:0:0:
64,192,49656,1,0,0:0:0:0:
448,192,49744,1,0,0:0:0:0:
448,192,49832,1,0,0:0:0:0:
320,192,49832,1,6,0:0:0:0:
192,192,49832,1,0,0:0:0:0:
64,192,49920,1,0,0:0:0:0:
192,192,50009,1,0,0:0:0:0:
320,192,50097,1,2,0:0:0:0:
448,192,50097,1,0,0:0:0:0:
320,192,50185,1,2,0:0:0:0:
448,192,50185,1,0,0:0:0:0:
448,192,50273,1,0,0:0:0:0:
192,192,50273,1,10,0:0:0:0:
64,192,50273,1,0,0:0:0:0:
320,192,50362,1,0,0:0:0:0:
192,192,50450,1,0,0:0:0:0:
64,192,50450,1,2,0:0:0:0:
320,192,50538,1,10,0:0:0:0:
448,192,50538,1,0,0:0:0:0:
64,192,50538,1,0,0:0:0:0:
448,192,50626,1,0,0:0:0:0:
192,192,50715,1,0,0:0:0:0:
320,192,50803,1,0,0:0:0:0:
448,192,50803,1,0,0:0:0:0:
64,192,50803,1,6,0:0:0:0:
320,192,50891,1,0,0:0:0:0:
192,192,50979,1,0,0:0:0:0:
64,192,51067,1,0,0:0:0:0:
192,192,51156,1,0,0:0:0:0:
320,192,51156,1,10,0:0:0:0:
448,192,51156,1,0,0:0:0:0:
64,192,51244,1,0,0:0:0:0:
448,192,51332,1,0,0:0:0:0:
320,192,51376,1,0,0:0:0:0:
64,192,51420,1,0,0:0:0:0:
192,192,51465,1,0,0:0:0:0:
448,192,51509,1,0,0:0:0:0:
320,192,51553,1,0,0:0:0:0:
192,192,51597,1,0,0:0:0:0:
64,192,51641,1,0,0:0:0:0:
320,192,51685,1,6,0:0:0:0:
448,192,51685,1,0,0:0:0:0:
192,192,51773,1,0,0:0:0:0:
448,192,51862,1,0,0:0:0:0:
448,192,51950,1,0,0:0:0:0:
320,192,52038,1,0,0:0:0:0:
192,192,52038,1,6,0:0:0:0:
64,192,52038,1,0,0:0:0:0:
192,192,52215,1,0,0:0:0:0:
64,192,52215,1,2,0:0:0:0:
192,192,52303,1,0,0:0:0:0:
64,192,52391,1,0,0:0:0:0:
320,192,52391,1,10,0:0:0:0:
448,192,52391,1,0,0:0:0:0:
448,192,52479,1,0,0:0:0:0:
192,192,52567,1,0,0:0:0:0:
320,192,52656,1,0,0:0:0:0:
448,192,52656,1,10,0:0:0:0:
64,192,52656,1,0,0:0:0:0:
64,192,52744,1,0,0:0:0:0:
448,192,52832,1,0,0:0:0:0:
192,192,52920,1,10,0:0:0:0:
320,192,52920,1,0,0:0:0:0:
64,192,52920,1,0,0:0:0:0:
320,192,53009,1,0,0:0:0:0:
448,192,53097,1,0,0:0:0:0:
64,192,53185,1,0,0:0:0:0:
448,192,53273,1,2,0:0:0:0:
192,192,53303,1,0,0:0:0:0:
320,192,53362,1,0,0:0:0:0:
192,192,53450,1,2,0:0:0:0:
448,192,53479,1,0,0:0:0:0:
64,192,53538,1,0,0:0:0:0:
192,192,53626,128,0,53803:0:0:0:0:
320,192,53626,128,6,53803:0:0:0:0:
448,192,53626,128,0,53803:0:0:0:0:
64,192,53803,1,0,0:0:0:0:
448,192,53891,1,0,0:0:0:0:
192,192,53979,1,10,0:0:0:0:
320,192,53979,1,0,0:0:0:0:
64,192,53979,1,0,0:0:0:0:
64,192,54067,1,0,0:0:0:0:
192,192,54156,1,0,0:0:0:0:
448,192,54244,1,0,0:0:0:0:
448,192,54332,1,0,0:0:0:0:
192,192,54420,1,0,0:0:0:0:
320,192,54509,1,6,0:0:0:0:
448,192,54509,1,0,0:0:0:0:
64,192,54509,1,0,0:0:0:0:
320,192,54597,1,0,0:0:0:0:
192,192,54685,1,0,0:0:0:0:
320,192,54773,1,0,0:0:0:0:
192,192,54862,1,6,0:0:0:0:
64,192,54862,1,0,0:0:0:0:
448,192,54862,1,0,0:0:0:0:
64,192,54950,1,0,0:0:0:0:
320,192,55038,1,0,0:0:0:0:
320,192,55126,1,0,0:0:0:0:
192,192,55126,1,2,0:0:0:0:
64,192,55215,1,0,0:0:0:0:
448,192,55215,1,6,0:0:0:0:
320,192,55259,1,0,0:0:0:0:
192,192,55303,1,0,0:0:0:0:
64,192,55347,1,0,0:0:0:0:
448,192,55391,1,0,0:0:0:0:
192,192,55435,1,0,0:0:0:0:
320,192,55479,1,0,0:0:0:0:
64,192,55479,1,2,0:0:0:0:
448,192,55567,1,0,0:0:0:0:
192,192,55567,1,10,0:0:0:0:
448,192,55744,1,6,0:0:0:0:
64,192,55744,1,0,0:0:0:0:
192,192,55788,1,0,0:0:0:0:
320,192,55832,1,0,0:0:0:0:
448,192,55876,1,0,0:0:0:0:
64,192,55920,1,0,0:0:0:0:
320,192,55965,1,0,0:0:0:0:
192,192,56009,1,2,0:0:0:0:
448,192,56009,1,0,0:0:0:0:
64,192,56097,1,0,0:0:0:0:
320,192,56097,1,10,0:0:0:0:
448,192,56273,1,0,0:0:0:0:
64,192,56273,1,6,0:0:0:0:
192,192,56317,1,0,0:0:0:0:
320,192,56362,1,0,0:0:0:0:
64,192,56406,1,0,0:0:0:0:
192,192,56450,1,0,0:0:0:0:
448,192,56494,1,0,0:0:0:0:
64,192,56538,1,0,0:0:0:0:
320,192,56538,1,2,0:0:0:0:
192,192,56626,1,10,0:0:0:0:
448,192,56626,1,0,0:0:0:0:
64,192,56803,1,0,0:0:0:0:
448,192,56803,1,6,0:0:0:0:
320,192,56847,1,0,0:0:0:0:
192,192,56891,1,0,0:0:0:0:
448,192,56935,1,0,0:0:0:0:
320,192,56979,1,0,0:0:0:0:
64,192,57023,1,0,0:0:0:0:
448,192,57067,1,0,0:0:0:0:
192,192,57067,1,0,0:0:0:0:
320,192,57156,1,10,0:0:0:0:
64,192,57156,1,0,0:0:0:0:
192,192,57244,1,8,0:0:0:0:
64,192,57244,1,0,0:0:0:0:
448,192,57332,1,6,0:0:0:0:
320,192,57332,1,0,0:0:0:0:
64,192,57420,1,0,0:0:0:0:
192,192,57465,1,0,0:0:0:0:
320,192,57509,1,8,0:0:0:0:
448,192,57553,1,0,0:0:0:0:
64,192,57597,1,0,0:0:0:0:
192,192,57641,1,0,0:0:0:0:
448,192,57685,1,0,0:0:0:0:
320,192,57773,1,0,0:0:0:0:
64,192,57862,1,8,0:0:0:0:
448,192,57950,1,0,0:0:0:0:
192,192,58038,1,6,0:0:0:0:
64,192,58038,1,0,0:0:0:0:
320,192,58215,1,0,0:0:0:0:
192,192,58303,1,0,0:0:0:0:
320,192,58391,1,8,0:0:0:0:
64,192,58391,1,0,0:0:0:0:
448,192,58479,1,0,0:0:0:0:
192,192,58567,1,0,0:0:0:0:
320,192,58656,1,0,0:0:0:0:
448,192,58744,128,2,58832:0:0:0:0:
64,192,58832,1,0,0:0:0:0:
320,192,58920,1,2,0:0:0:0:
448,192,58920,1,0,0:0:0:0:
192,192,59009,1,0,0:0:0:0:
320,192,59097,1,0,0:0:0:0:
64,192,59097,1,8,0:0:0:0:
448,192,59185,1,0,0:0:0:0:
192,192,59273,1,0,0:0:0:0:
64,192,59362,1,0,0:0:0:0:
320,192,59450,1,2,0:0:0:0:
448,192,59450,1,0,0:0:0:0:
192,192,59538,1,0,0:0:0:0:
448,192,59626,1,0,0:0:0:0:
192,192,59715,1,0,0:0:0:0:
320,192,59803,1,0,0:0:0:0:
64,192,59803,1,8,0:0:0:0:
448,192,59891,1,0,0:0:0:0:
192,192,59979,1,2,0:0:0:0:
64,192,59979,1,0,0:0:0:0:
320,192,60067,1,0,0:0:0:0:
448,192,60156,128,2,60244:0:0:0:0:
192,192,60244,1,0,0:0:0:0:
320,192,60332,1,0,0:0:0:0:
64,192,60332,1,8,0:0:0:0:
448,192,60420,1,0,0:0:0:0:
320,192,60509,1,0,0:0:0:0:
64,192,60509,1,8,0:0:0:0:
192,192,60597,1,0,0:0:0:0:
448,192,60685,1,2,0:0:0:0:
448,192,60773,1,2,0:0:0:0:
192,192,60862,1,2,0:0:0:0:
64,192,60862,1,0,0:0:0:0:
320,192,60950,1,0,0:0:0:0:
448,192,61038,1,0,0:0:0:0:
64,192,61126,1,0,0:0:0:0:
192,192,61215,1,8,0:0:0:0:
448,192,61215,1,0,0:0:0:0:
320,192,61303,1,0,0:0:0:0:
192,192,61391,1,0,0:0:0:0:
64,192,61479,1,0,0:0:0:0:
448,192,61567,128,2,61656:0:0:0:0:
320,192,61656,1,0,0:0:0:0:
192,192,61744,1,0,0:0:0:0:
64,192,61744,1,2,0:0:0:0:
320,192,61832,1,0,0:0:0:0:
192,192,61920,1,8,0:0:0:0:
448,192,61920,1,0,0:0:0:0:
64,192,62009,1,0,0:0:0:0:
448,192,62097,1,0,0:0:0:0:
320,192,62185,1,0,0:0:0:0:
192,192,62273,1,2,0:0:0:0:
64,192,62273,1,0,0:0:0:0:
448,192,62362,1,0,0:0:0:0:
192,192,62450,1,0,0:0:0:0:
320,192,62538,1,0,0:0:0:0:
448,192,62538,1,2,0:0:0:0:
64,192,62626,1,0,0:0:0:0:
320,192,62715,1,0,0:0:0:0:
448,192,62803,1,0,0:0:0:0:
64,192,62891,1,0,0:0:0:0:
320,192,62979,1,8,0:0:0:0:
64,192,62979,128,0,63067:0:0:0:0:
448,192,63067,5,0,0:0:0:0:
192,192,63156,1,0,0:0:0:0:
320,192,63244,1,2,0:0:0:0:
448,192,63244,1,0,0:0:0:0:
64,192,63332,1,2,0:0:0:0:
64,192,63420,1,2,0:0:0:0:
192,192,63509,1,0,0:0:0:0:
448,192,63509,1,8,0:0:0:0:
320,192,63597,1,0,0:0:0:0:
192,192,63685,1,6,0:0:0:0:
64,192,63685,1,0,0:0:0:0:
448,192,63773,1,0,0:0:0:0:
320,192,63862,1,0,0:0:0:0:
64,192,63950,1,0,0:0:0:0:
192,192,64038,1,0,0:0:0:0:
448,192,64038,1,8,0:0:0:0:
320,192,64126,1,0,0:0:0:0:
64,192,64215,5,8,0:0:0:0:
448,192,64215,1,0,0:0:0:0:
192,192,64303,1,0,0:0:0:0:
320,192,64391,128,0,64479:0:0:0:0:
64,192,64479,1,8,0:0:0:0:
448,192,64479,1,0,0:0:0:0:
192,192,64567,1,2,0:0:0:0:
64,192,64567,1,0,0:0:0:0:
320,192,64656,1,0,0:0:0:0:
192,192,64744,1,0,0:0:0:0:
448,192,64744,1,8,0:0:0:0:
64,192,64832,1,0,0:0:0:0:
320,192,64920,1,0,0:0:0:0:
192,192,65009,1,0,0:0:0:0:
320,192,65097,1,2,0:0:0:0:
448,192,65097,1,0,0:0:0:0:
64,192,65185,1,0,0:0:0:0:
192,192,65273,1,0,0:0:0:0:
448,192,65362,1,0,0:0:0:0:
320,192,65450,1,8,0:0:0:0:
64,192,65450,1,0,0:0:0:0:
192,192,65538,1,0,0:0:0:0:
64,192,65626,1,10,0:0:0:0:
448,192,65626,1,0,0:0:0:0:
320,192,65715,1,0,0:0:0:0:
448,192,65803,128,0,65891:0:0:0:0:
192,192,65891,1,0,0:0:0:0:
320,192,65979,1,8,0:0:0:0:
64,192,65979,1,0,0:0:0:0:
448,192,66067,1,0,0:0:0:0:
320,192,66156,1,0,0:0:0:0:
64,192,66156,1,8,0:0:0:0:
192,192,66244,1,0,0:0:0:0:
448,192,66332,1,2,0:0:0:0:
448,192,66420,1,8,0:0:0:0:
192,192,66509,1,2,0:0:0:0:
64,192,66509,1,0,0:0:0:0:
192,192,66597,1,0,0:0:0:0:
320,192,66685,1,0,0:0:0:0:
448,192,66773,1,0,0:0:0:0:
64,192,66862,128,0,66950:0:0:0:0:
320,192,66862,1,0,0:0:0:0:
192,192,66950,1,0,0:0:0:0:
448,192,67038,1,8,0:0:0:0:
64,192,67038,1,0,0:0:0:0:
448,192,67126,1,0,0:0:0:0:
192,192,67215,1,0,0:0:0:0:
448,192,67303,1,0,0:0:0:0:
64,192,67303,1,8,0:0:0:0:
448,192,67391,1,0,0:0:0:0:
320,192,67391,128,0,67479:0:0:0:0:
64,192,67479,1,0,0:0:0:0:
192,192,67567,1,0,0:0:0:0:
448,192,67567,1,8,0:0:0:0:
192,192,67656,1,0,0:0:0:0:
64,192,67744,1,0,0:0:0:0:
320,192,67832,1,0,0:0:0:0:
448,192,67920,1,0,0:0:0:0:
64,192,67920,128,12,68009:0:0:0:0:
320,192,68009,1,0,0:0:0:0:
192,192,68097,1,0,0:0:0:0:
64,192,68185,1,0,0:0:0:0:
448,192,68185,1,12,0:0:0:0:
320,192,68273,1,0,0:0:0:0:
448,192,68273,1,0,0:0:0:0:
64,192,68362,1,0,0:0:0:0:
192,192,68450,128,0,68538:0:0:0:0:
320,192,68538,1,0,0:0:0:0:
192,192,68626,1,6,0:0:0:0:
64,192,68626,1,0,0:0:0:0:
448,192,68626,1,0,0:0:0:0:
64,192,68803,1,0,0:0:0:0:
448,192,68803,128,8,68891:0:0:0:0:
64,192,68979,1,8,0:0:0:0:
448,192,68979,128,0,69067:0:0:0:0:
192,192,69038,1,0,0:0:0:0:
320,192,69097,1,0,0:0:0:0:
64,192,69156,1,0,0:0:0:0:
448,192,69156,128,8,69244:0:0:0:0:
192,192,69244,1,0,0:0:0:0:
320,192,69332,1,14,0:0:0:0:
64,192,69332,1,0,0:0:0:0:
448,192,69332,1,0,0:0:0:0:
192,192,69685,1,10,0:0:0:0:
64,192,69685,1,0,0:0:0:0:
448,192,69685,1,0,0:0:0:0:
64,192,69862,1,0,0:0:0:0:
192,192,70038,1,10,0:0:0:0:
64,192,70038,1,0,0:0:0:0:
448,192,70038,1,0,0:0:0:0:
320,192,70126,1,0,0:0:0:0:
192,192,70215,1,0,0:0:0:0:
320,192,70303,1,0,0:0:0:0:
192,192,70303,1,2,0:0:0:0:
320,192,70391,1,10,0:0:0:0:
448,192,70391,1,0,0:0:0:0:
64,192,70391,1,0,0:0:0:0:
192,192,70479,1,0,0:0:0:0:
448,192,70567,1,2,0:0:0:0:
320,192,70567,1,0,0:0:0:0:
320,192,70656,1,0,0:0:0:0:
192,192,70744,1,10,0:0:0:0:
64,192,70744,1,0,0:0:0:0:
448,192,70744,1,0,0:0:0:0:
64,192,70832,1,0,0:0:0:0:
320,192,70920,1,2,0:0:0:0:
448,192,70920,1,0,0:0:0:0:
320,192,71009,1,0,0:0:0:0:
192,192,71097,1,10,0:0:0:0:
64,192,71097,1,0,0:0:0:0:
448,192,71097,1,0,0:0:0:0:
320,192,71185,1,0,0:0:0:0:
64,192,71273,1,0,0:0:0:0:
64,192,71362,1,0,0:0:0:0:
320,192,71450,1,10,0:0:0:0:
448,192,71450,1,0,0:0:0:0:
192,192,71450,1,0,0:0:0:0:
320,192,71626,1,0,0:0:0:0:
320,192,71715,1,2,0:0:0:0:
192,192,71715,1,0,0:0:0:0:
192,192,71803,1,10,0:0:0:0:
64,192,71803,1,0,0:0:0:0:
448,192,71803,128,0,71862:0:0:0:0:
192,192,71979,1,2,0:0:0:0:
64,192,71979,128,0,72038:0:0:0:0:
320,192,72156,1,14,0:0:0:0:
448,192,72156,1,0,0:0:0:0:
64,192,72156,1,0,0:0:0:0:
192,192,72332,1,0,0:0:0:0:
320,192,72420,1,0,0:0:0:0:
192,192,72509,1,10,0:0:0:0:
64,192,72509,1,0,0:0:0:0:
448,192,72509,1,0,0:0:0:0:
320,192,72597,1,0,0:0:0:0:
64,192,72685,1,0,0:0:0:0:
320,192,72773,1,0,0:0:0:0:
192,192,72862,1,10,0:0:0:0:
64,192,72862,1,0,0:0:0:0:
448,192,72862,1,0,0:0:0:0:
448,192,72950,1,0,0:0:0:0:
192,192,73038,1,0,0:0:0:0:
320,192,73126,1,2,0:0:0:0:
192,192,73126,1,0,0:0:0:0:
320,192,73215,1,0,0:0:0:0:
448,192,73215,1,0,0:0:0:0:
64,192,73215,1,10,0:0:0:0:
192,192,73303,1,0,0:0:0:0:
448,192,73391,1,2,0:0:0:0:
320,192,73391,1,0,0:0:0:0:
192,192,73567,1,10,0:0:0:0:
64,192,73567,1,0,0:0:0:0:
448,192,73567,1,0,0:0:0:0:
192,192,73656,1,0,0:0:0:0:
320,192,73744,1,0,0:0:0:0:
320,192,73832,1,0,0:0:0:0:
192,192,73920,1,10,0:0:0:0:
64,192,73920,1,0,0:0:0:0:
448,192,73920,1,0,0:0:0:0:
320,192,74009,1,0,0:0:0:0:
64,192,74097,1,0,0:0:0:0:
64,192,74185,1,0,0:0:0:0:
320,192,74273,1,10,0:0:0:0:
448,192,74273,1,0,0:0:0:0:
192,192,74273,1,0,0:0:0:0:
448,192,74362,1,0,0:0:0:0:
192,192,74450,1,0,0:0:0:0:
320,192,74538,1,0,0:0:0:0:
448,192,74626,128,0,74685:0:0:0:0:
192,192,74715,1,0,0:0:0:0:
64,192,74803,128,2,74862:0:0:0:0:
192,192,74979,1,0,0:0:0:0:
320,192,74979,1,10,0:0:0:0:
448,192,74979,1,0,0:0:0:0:
320,192,75156,1,0,0:0:0:0:
448,192,75156,1,2,0:0:0:0:
192,192,75332,1,2,0:0:0:0:
64,192,75332,1,0,0:0:0:0:
192,192,75509,1,0,0:0:0:0:
320,192,75509,1,2,0:0:0:0:
320,192,75685,1,0,0:0:0:0:
448,192,75685,1,10,0:0:0:0:
64,192,75685,1,0,0:0:0:0:
192,192,75862,1,2,0:0:0:0:
64,192,75862,1,0,0:0:0:0:
192,192,75950,1,0,0:0:0:0:
320,192,75950,1,2,0:0:0:0:
320,192,76038,1,0,0:0:0:0:
448,192,76038,1,2,0:0:0:0:
320,192,76215,1,2,0:0:0:0:
448,192,76215,1,0,0:0:0:0:
192,192,76391,1,10,0:0:0:0:
64,192,76391,1,0,0:0:0:0:
448,192,76391,1,0,0:0:0:0:
192,192,76567,1,0,0:0:0:0:
320,192,76567,1,2,0:0:0:0:
192,192,76656,1,0,0:0:0:0:
320,192,76744,1,0,0:0:0:0:
448,192,76744,1,2,0:0:0:0:
448,192,76832,1,0,0:0:0:0:
192,192,76920,1,0,0:0:0:0:
64,192,76920,1,2,0:0:0:0:
64,192,77009,1,0,0:0:0:0:
192,192,77097,1,0,0:0:0:0:
320,192,77097,1,10,0:0:0:0:
448,192,77097,1,0,0:0:0:0:
192,192,77273,1,2,0:0:0:0:
64,192,77273,1,0,0:0:0:0:
192,192,77362,1,0,0:0:0:0:
320,192,77362,1,2,0:0:0:0:
448,192,77450,1,2,0:0:0:0:
320,192,77450,1,0,0:0:0:0:
320,192,77626,1,0,0:0:0:0:
192,192,77626,1,2,0:0:0:0:
448,192,77803,1,6,0:0:0:0:
64,192,77803,1,0,0:0:0:0:
320,192,77847,1,0,0:0:0:0:
192,192,77891,1,0,0:0:0:0:
64,192,77935,1,0,0:0:0:0:
448,192,77979,1,0,0:0:0:0:
320,192,78023,1,0,0:0:0:0:
192,192,78067,1,2,0:0:0:0:
64,192,78067,1,0,0:0:0:0:
320,192,78156,1,10,0:0:0:0:
448,192,78156,1,0,0:0:0:0:
64,192,78332,1,6,0:0:0:0:
448,192,78332,1,0,0:0:0:0:
192,192,78376,1,0,0:0:0:0:
320,192,78420,1,0,0:0:0:0:
448,192,78465,1,0,0:0:0:0:
64,192,78509,1,0,0:0:0:0:
192,192,78553,1,0,0:0:0:0:
448,192,78597,1,0,0:0:0:0:
320,192,78597,1,2,0:0:0:0:
192,192,78685,1,10,0:0:0:0:
64,192,78685,1,0,0:0:0:0:
64,192,78862,1,0,0:0:0:0:
448,192,78862,1,6,0:0:0:0:
320,192,78906,1,0,0:0:0:0:
192,192,78950,1,0,0:0:0:0:
448,192,78994,1,0,0:0:0:0:
64,192,79038,1,0,0:0:0:0:
192,192,79082,1,0,0:0:0:0:
448,192,79126,1,0,0:0:0:0:
320,192,79126,1,2,0:0:0:0:
64,192,79215,1,0,0:0:0:0:
192,192,79215,1,2,0:0:0:0:
64,192,79391,1,0,0:0:0:0:
320,192,79391,1,10,0:0:0:0:
448,192,79391,1,0,0:0:0:0:
320,192,79479,5,0,0:0:0:0:
192,192,79567,1,0,0:0:0:0:
448,192,79567,1,0,0:0:0:0:
192,192,79656,1,0,0:0:0:0:
320,192,79744,1,2,0:0:0:0:
64,192,79744,1,0,0:0:0:0:
320,192,79832,1,0,0:0:0:0:
64,192,79920,1,0,0:0:0:0:
192,192,79920,1,14,0:0:0:0:
448,192,79920,1,0,0:0:0:0:
64,192,80009,1,0,0:0:0:0:
320,192,80097,1,0,0:0:0:0:
192,192,80156,1,0,0:0:0:0:
320,192,80215,1,0,0:0:0:0:
192,192,80273,1,0,0:0:0:0:
64,192,80273,1,0,0:0:0:0:
448,192,80273,1,14,0:0:0:0:
64,192,80362,1,0,0:0:0:0:
448,192,80450,1,0,0:0:0:0:
320,192,80494,1,0,0:0:0:0:
192,192,80538,1,0,0:0:0:0:
64,192,80582,1,0,0:0:0:0:
448,192,80626,128,0,81244:0:0:0:0:
320,192,80626,128,2,80979:0:0:0:0:
64,192,80979,128,0,81332:0:0:0:0:
192,192,81332,1,0,0:0:0:0:
320,192,81332,1,10,0:0:0:0:
448,192,81332,1,0,0:0:0:0:
192,192,81509,1,6,0:0:0:0:
64,192,81509,1,0,0:0:0:0:
448,192,81509,1,0,0:0:0:0:
192,192,81597,1,0,0:0:0:0:
448,192,81685,1,0,0:0:0:0:
320,192,81685,1,6,0:0:0:0:
64,192,81685,1,0,0:0:0:0:
448,192,81773,1,0,0:0:0:0:
64,192,81862,1,6,0:0:0:0:
320,192,81862,1,0,0:0:0:0:
192,192,81862,1,0,0:0:0:0:
64,192,81950,1,0,0:0:0:0:
448,192,82038,1,0,0:0:0:0:
320,192,82126,1,0,0:0:0:0:
448,192,82215,1,0,0:0:0:0:
192,192,82215,1,10,0:0:0:0:
64,192,82215,1,0,0:0:0:0:
320,192,82303,1,0,0:0:0:0:
64,192,82391,1,0,0:0:0:0:
448,192,82479,1,0,0:0:0:0:
192,192,82479,1,0,0:0:0:0:
320,192,82567,1,0,0:0:0:0:
64,192,82567,1,0,0:0:0:0:
448,192,82656,1,0,0:0:0:0:
320,192,82744,1,6,0:0:0:0:
192,192,82744,1,0,0:0:0:0:
64,192,82744,1,0,0:0:0:0:
192,192,82832,1,0,0:0:0:0:
320,192,82920,1,0,0:0:0:0:
320,192,83009,1,0,0:0:0:0:
64,192,83009,1,0,0:0:0:0:
192,192,83097,1,6,0:0:0:0:
448,192,83097,1,0,0:0:0:0:
64,192,83097,1,0,0:0:0:0:
448,192,83185,1,0,0:0:0:0:
192,192,83273,1,0,0:0:0:0:
320,192,83362,1,2,0:0:0:0:
448,192,83362,1,0,0:0:0:0:
448,192,83450,1,0,0:0:0:0:
192,192,83450,1,0,0:0:0:0:
64,192,83450,1,6,0:0:0:0:
320,192,83538,1,0,0:0:0:0:
192,192,83626,1,0,0:0:0:0:
64,192,83715,1,0,0:0:0:0:
320,192,83715,1,6,0:0:0:0:
448,192,83715,1,0,0:0:0:0:
64,192,83803,1,0,0:0:0:0:
192,192,83891,1,0,0:0:0:0:
320,192,83979,1,0,0:0:0:0:
448,192,83979,1,2,0:0:0:0:
320,192,84067,1,0,0:0:0:0:
448,192,84067,1,2,0:0:0:0:
448,192,84156,1,0,0:0:0:0:
192,192,84156,1,10,0:0:0:0:
64,192,84156,1,0,0:0:0:0:
320,192,84244,1,0,0:0:0:0:
192,192,84332,1,0,0:0:0:0:
192,192,84420,1,0,0:0:0:0:
448,192,84509,1,0,0:0:0:0:
320,192,84597,1,0,0:0:0:0:
448,192,84685,1,0,0:0:0:0:
192,192,84685,1,6,0:0:0:0:
64,192,84685,1,0,0:0:0:0:
320,192,84773,1,0,0:0:0:0:
192,192,84862,1,0,0:0:0:0:
64,192,84950,1,0,0:0:0:0:
192,192,85038,1,0,0:0:0:0:
320,192,85038,1,10,0:0:0:0:
448,192,85038,1,0,0:0:0:0:
448,192,85126,5,0,0:0:0:0:
64,192,85215,1,0,0:0:0:0:
192,192,85259,1,0,0:0:0:0:
320,192,85303,1,0,0:0:0:0:
448,192,85347,1,0,0:0:0:0:
64,192,85391,1,0,0:0:0:0:
192,192,85435,1,0,0:0:0:0:
448,192,85479,1,0,0:0:0:0:
320,192,85523,1,0,0:0:0:0:
192,192,85567,1,10,0:0:0:0:
64,192,85567,1,0,0:0:0:0:
448,192,85656,1,0,0:0:0:0:
320,192,85744,1,0,0:0:0:0:
64,192,85832,1,0,0:0:0:0:
320,192,85920,1,0,0:0:0:0:
192,192,85920,1,0,0:0:0:0:
448,192,85920,1,10,0:0:0:0:
192,192,86097,1,0,0:0:0:0:
64,192,86097,1,2,0:0:0:0:
192,192,86185,1,0,0:0:0:0:
320,192,86273,128,14,86891:0:0:0:0:
448,192,86273,128,0,86420:0:0:0:0:
64,192,86450,1,0,0:0:0:0:
448,192,86516,1,0,0:0:0:0:
64,192,86567,1,0,0:0:0:0:
192,192,86626,128,0,86979:0:0:0:0:
64,192,86979,1,0,0:0:0:0:
448,192,86979,1,10,0:0:0:0:
320,192,86979,1,0,0:0:0:0:
320,192,87156,1,0,0:0:0:0:
192,192,87156,1,6,0:0:0:0:
64,192,87156,1,0,0:0:0:0:
320,192,87244,1,0,0:0:0:0:
64,192,87332,1,0,0:0:0:0:
192,192,87332,1,0,0:0:0:0:
448,192,87332,1,6,0:0:0:0:
64,192,87420,1,0,0:0:0:0:
448,192,87509,1,0,0:0:0:0:
192,192,87509,1,0,0:0:0:0:
320,192,87509,1,6,0:0:0:0:
448,192,87597,1,0,0:0:0:0:
64,192,87685,1,0,0:0:0:0:
192,192,87773,1,0,0:0:0:0:
64,192,87862,1,10,0:0:0:0:
320,192,87862,1,0,0:0:0:0:
448,192,87862,1,0,0:0:0:0:
320,192,87950,1,0,0:0:0:0:
192,192,88038,1,0,0:0:0:0:
64,192,88126,1,0,0:0:0:0:
320,192,88126,1,0,0:0:0:0:
192,192,88215,1,0,0:0:0:0:
448,192,88215,1,0,0:0:0:0:
320,192,88303,1,0,0:0:0:0:
448,192,88391,1,6,0:0:0:0:
192,192,88391,1,0,0:0:0:0:
64,192,88391,1,0,0:0:0:0:
192,192,88479,1,0,0:0:0:0:
320,192,88567,1,0,0:0:0:0:
192,192,88656,1,0,0:0:0:0:
320,192,88744,1,6,0:0:0:0:
448,192,88744,1,0,0:0:0:0:
64,192,88744,1,0,0:0:0:0:
448,192,88832,1,0,0:0:0:0:
192,192,88920,1,0,0:0:0:0:
192,192,89009,1,0,0:0:0:0:
320,192,89009,1,2,0:0:0:0:
448,192,89097,1,0,0:0:0:0:
64,192,89097,1,6,0:0:0:0:
320,192,89141,1,0,0:0:0:0:
192,192,89185,1,0,0:0:0:0:
64,192,89229,1,0,0:0:0:0:
448,192,89273,1,0,0:0:0:0:
320,192,89317,1,0,0:0:0:0:
192,192,89362,1,2,0:0:0:0:
64,192,89362,1,0,0:0:0:0:
320,192,89450,1,0,0:0:0:0:
448,192,89450,1,10,0:0:0:0:
192,192,89538,1,0,0:0:0:0:
64,192,89626,1,6,0:0:0:0:
448,192,89626,1,0,0:0:0:0:
192,192,89670,1,0,0:0:0:0:
320,192,89715,1,0,0:0:0:0:
448,192,89759,1,0,0:0:0:0:
64,192,89803,1,0,0:0:0:0:
192,192,89847,1,0,0:0:0:0:
448,192,89891,1,0,0:0:0:0:
320,192,89891,1,2,0:0:0:0:
192,192,89979,1,10,0:0:0:0:
64,192,89979,1,0,0:0:0:0:
320,192,90067,1,0,0:0:0:0:
64,192,90156,1,0,0:0:0:0:
448,192,90156,1,6,0:0:0:0:
320,192,90200,1,0,0:0:0:0:
192,192,90244,1,0,0:0:0:0:
448,192,90288,1,0,0:0:0:0:
64,192,90332,1,0,0:0:0:0:
192,192,90376,1,0,0:0:0:0:
448,192,90420,1,0,0:0:0:0:
320,192,90420,1,2,0:0:0:0:
64,192,90509,1,0,0:0:0:0:
192,192,90509,1,2,0:0:0:0:
320,192,90597,1,0,0:0:0:0:
192,192,90685,1,0,0:0:0:0:
64,192,90685,1,0,0:0:0:0:
448,192,90685,1,10,0:0:0:0:
192,192,90862,1,8,0:0:0:0:
448,192,90862,1,0,0:0:0:0:
448,192,90950,1,0,0:0:0:0:
320,192,90950,1,8,0:0:0:0:
64,192,91038,1,8,0:0:0:0:
192,192,91038,1,0,0:0:0:0:
192,192,91126,1,0,0:0:0:0:
448,192,91126,1,8,0:0:0:0:
320,192,91215,1,6,0:0:0:0:
448,192,91215,1,0,0:0:0:0:
64,192,91259,1,0,0:0:0:0:
192,192,91303,1,0,0:0:0:0:
448,192,91347,1,0,0:0:0:0:
320,192,91391,1,0,0:0:0:0:
192,192,91435,1,0,0:0:0:0:
64,192,91479,1,0,0:0:0:0:
320,192,91523,1,0,0:0:0:0:
192,192,91567,1,6,0:0:0:0:
448,192,91567,1,0,0:0:0:0:
64,192,91656,1,0,0:0:0:0:
448,192,91744,128,0,92538:0:0:0:0:
64,192,91832,1,0,0:0:0:0:
64,192,92450,128,0,92626:0:0:0:0:
192,192,92626,1,0,0:0:0:0:
320,192,92626,1,10,0:0:0:0:
448,192,92626,1,0,0:0:0:0:
448,192,92715,1,0,0:0:0:0:
192,192,92803,1,0,0:0:0:0:
192,192,92891,1,0,0:0:0:0:
64,192,92891,1,10,0:0:0:0:
448,192,92891,1,0,0:0:0:0:
320,192,92979,1,0,0:0:0:0:
448,192,93067,1,0,0:0:0:0:
320,192,93156,1,10,0:0:0:0:
192,192,93156,1,0,0:0:0:0:
64,192,93156,1,0,0:0:0:0:
64,192,93244,1,0,0:0:0:0:
320,192,93332,1,0,0:0:0:0:
320,192,93420,1,0,0:0:0:0:
192,192,93509,1,10,0:0:0:0:
64,192,93509,1,0,0:0:0:0:
448,192,93509,1,0,0:0:0:0:
320,192,93597,1,0,0:0:0:0:
64,192,93685,1,0,0:0:0:0:
448,192,93773,1,0,0:0:0:0:
192,192,93773,1,0,0:0:0:0:
320,192,93862,1,0,0:0:0:0:
64,192,93862,1,0,0:0:0:0:
448,192,93950,1,0,0:0:0:0:
320,192,94038,1,6,0:0:0:0:
192,192,94038,1,0,0:0:0:0:
64,192,94038,1,0,0:0:0:0:
192,192,94126,1,0,0:0:0:0:
448,192,94215,1,0,0:0:0:0:
448,192,94303,1,0,0:0:0:0:
64,192,94303,1,0,0:0:0:0:
320,192,94391,1,0,0:0:0:0:
192,192,94391,1,6,0:0:0:0:
64,192,94391,1,0,0:0:0:0:
448,192,94479,1,0,0:0:0:0:
192,192,94567,1,0,0:0:0:0:
320,192,94656,1,0,0:0:0:0:
448,192,94656,1,2,0:0:0:0:
448,192,94744,1,0,0:0:0:0:
192,192,94744,1,6,0:0:0:0:
64,192,94744,1,0,0:0:0:0:
320,192,94832,1,0,0:0:0:0:
64,192,94920,1,0,0:0:0:0:
320,192,95009,1,0,0:0:0:0:
448,192,95009,1,6,0:0:0:0:
192,192,95009,1,0,0:0:0:0:
64,192,95097,1,0,0:0:0:0:
320,192,95097,1,0,0:0:0:0:
448,192,95185,1,0,0:0:0:0:
192,192,95273,1,2,0:0:0:0:
64,192,95273,1,0,0:0:0:0:
192,192,95362,1,2,0:0:0:0:
64,192,95362,1,0,0:0:0:0:
64,192,95450,1,0,0:0:0:0:
320,192,95450,1,0,0:0:0:0:
448,192,95450,1,10,0:0:0:0:
192,192,95538,1,0,0:0:0:0:
320,192,95626,1,0,0:0:0:0:
320,192,95715,1,0,0:0:0:0:
192,192,95803,1,0,0:0:0:0:
192,192,95891,1,0,0:0:0:0:
448,192,95891,1,0,0:0:0:0:
64,192,95979,1,0,0:0:0:0:
320,192,95979,1,6,0:0:0:0:
448,192,95979,1,0,0:0:0:0:
192,192,96067,1,0,0:0:0:0:
448,192,96156,1,0,0:0:0:0:
320,192,96244,1,0,0:0:0:0:
448,192,96332,1,0,0:0:0:0:
192,192,96332,1,10,0:0:0:0:
64,192,96332,1,0,0:0:0:0:
320,192,96420,1,0,0:0:0:0:
64,192,96509,1,0,0:0:0:0:
192,192,96553,1,0,0:0:0:0:
320,192,96597,1,0,0:0:0:0:
448,192,96641,1,0,0:0:0:0:
192,192,96685,1,0,0:0:0:0:
64,192,96729,1,0,0:0:0:0:
448,192,96773,1,0,0:0:0:0:
320,192,96817,1,0,0:0:0:0:
64,192,96862,1,0,0:0:0:0:
192,192,96862,1,6,0:0:0:0:
320,192,96950,1,0,0:0:0:0:
448,192,97038,1,0,0:0:0:0:
448,192,97126,1,0,0:0:0:0:
320,192,97215,1,6,0:0:0:0:
192,192,97215,1,0,0:0:0:0:
64,192,97215,1,0,0:0:0:0:
64,192,97303,1,0,0:0:0:0:
320,192,97391,1,0,0:0:0:0:
448,192,97391,1,2,0:0:0:0:
320,192,97479,1,0,0:0:0:0:
192,192,97567,1,10,0:0:0:0:
64,192,97567,1,0,0:0:0:0:
448,192,97567,1,0,0:0:0:0:
448,192,97744,1,0,0:0:0:0:
192,192,97744,1,0,0:0:0:0:
320,192,97832,1,10,0:0:0:0:
192,192,97832,1,0,0:0:0:0:
64,192,97832,1,0,0:0:0:0:
192,192,98009,1,0,0:0:0:0:
448,192,98009,1,0,0:0:0:0:
320,192,98097,1,0,0:0:0:0:
192,192,98097,1,0,0:0:0:0:
64,192,98097,1,10,0:0:0:0:
448,192,98185,1,0,0:0:0:0:
320,192,98273,1,0,0:0:0:0:
64,192,98273,1,0,0:0:0:0:
64,192,98362,1,0,0:0:0:0:
448,192,98450,1,2,0:0:0:0:
192,192,98479,1,0,0:0:0:0:
320,192,98538,1,0,0:0:0:0:
192,192,98626,1,2,0:0:0:0:
448,192,98656,1,0,0:0:0:0:
64,192,98715,1,0,0:0:0:0:
192,192,98803,128,0,98979:0:0:0:0:
320,192,98803,128,6,98979:0:0:0:0:
448,192,98803,128,0,98979:0:0:0:0:
64,192,98979,1,0,0:0:0:0:
448,192,99067,1,0,0:0:0:0:
320,192,99156,1,0,0:0:0:0:
192,192,99156,1,10,0:0:0:0:
64,192,99156,1,0,0:0:0:0:
448,192,99244,1,0,0:0:0:0:
192,192,99332,1,0,0:0:0:0:
320,192,99420,1,0,0:0:0:0:
64,192,99420,1,0,0:0:0:0:
448,192,99509,1,0,0:0:0:0:
192,192,99509,1,0,0:0:0:0:
320,192,99597,1,0,0:0:0:0:
192,192,99685,1,6,0:0:0:0:
64,192,99685,1,0,0:0:0:0:
448,192,99685,1,0,0:0:0:0:
64,192,99773,1,0,0:0:0:0:
320,192,99862,1,0,0:0:0:0:
64,192,99950,1,0,0:0:0:0:
320,192,100038,1,6,0:0:0:0:
192,192,100038,1,0,0:0:0:0:
448,192,100038,1,0,0:0:0:0:
448,192,100126,1,0,0:0:0:0:
192,192,100215,1,0,0:0:0:0:
192,192,100303,1,2,0:0:0:0:
320,192,100303,1,0,0:0:0:0:
448,192,100391,1,6,0:0:0:0:
64,192,100391,1,0,0:0:0:0:
320,192,100435,1,0,0:0:0:0:
192,192,100479,1,0,0:0:0:0:
64,192,100523,1,0,0:0:0:0:
448,192,100567,1,0,0:0:0:0:
192,192,100612,1,0,0:0:0:0:
320,192,100656,1,0,0:0:0:0:
64,192,100656,1,2,0:0:0:0:
448,192,100744,1,0,0:0:0:0:
192,192,100744,1,10,0:0:0:0:
320,192,100832,1,10,0:0:0:0:
448,192,100920,1,6,0:0:0:0:
64,192,100920,1,0,0:0:0:0:
192,192,100965,1,0,0:0:0:0:
320,192,101009,1,0,0:0:0:0:
448,192,101053,1,0,0:0:0:0:
64,192,101097,1,0,0:0:0:0:
320,192,101141,1,0,0:0:0:0:
448,192,101185,1,2,0:0:0:0:
192,192,101185,1,0,0:0:0:0:
320,192,101273,1,10,0:0:0:0:
64,192,101273,1,0,0:0:0:0:
192,192,101362,1,10,0:0:0:0:
64,192,101450,1,6,0:0:0:0:
448,192,101450,1,0,0:0:0:0:
192,192,101494,1,0,0:0:0:0:
320,192,101538,1,0,0:0:0:0:
64,192,101582,1,0,0:0:0:0:
192,192,101626,1,0,0:0:0:0:
448,192,101670,1,0,0:0:0:0:
64,192,101715,1,2,0:0:0:0:
320,192,101715,1,0,0:0:0:0:
192,192,101803,1,10,0:0:0:0:
448,192,101803,1,0,0:0:0:0:
320,192,101891,5,0,0:0:0:0:
64,192,101979,5,0,0:0:0:0:
448,192,101979,1,6,0:0:0:0:
320,192,102023,1,0,0:0:0:0:
192,192,102067,1,0,0:0:0:0:
448,192,102112,1,0,0:0:0:0:
320,192,102156,1,0,0:0:0:0:
64,192,102200,1,0,0:0:0:0:
192,192,102244,1,2,0:0:0:0:
448,192,102244,1,0,0:0:0:0:
64,192,102332,1,0,0:0:0:0:
320,192,102332,1,10,0:0:0:0:
192,192,102420,1,0,0:0:0:0:
64,192,102420,1,8,0:0:0:0:
320,192,102509,1,0,0:0:0:0:
448,192,102509,1,6,0:0:0:0:
64,192,102597,1,0,0:0:0:0:
192,192,102641,1,0,0:0:0:0:
320,192,102685,1,0,0:0:0:0:
448,192,102729,1,0,0:0:0:0:
64,192,102773,1,0,0:0:0:0:
192,192,102817,1,0,0:0:0:0:
320,192,102862,1,4,0:0:0:0:
64,192,102950,1,0,0:0:0:0:
448,192,103038,128,4,103215:0:0:0:0:
320,192,103126,1,0,0:0:0:0:
192,192,103215,1,0,0:0:0:0:
64,192,103215,1,14,0:0:0:0:
