osu file format v14

[General]
AudioFilename: audio.mp3
AudioLeadIn: 0
PreviewTime: 34038
Countdown: 0
SampleSet: Soft
StackLeniency: 0.7
Mode: 3
LetterboxInBreaks: 0
SpecialStyle: 0
WidescreenStoryboard: 1

[Editor]
Bookmarks: 7215,12862,18509,24156,29803,35450,41097,46744,52391,58038,63685,69332,74979,80626,86273,91920,97567,103215
DistanceSpacing: 3
BeatDivisor: 2
GridSize: 4
TimelineZoom: 1.3

[Metadata]
Title:Feelsleft0ut
TitleUnicode:Feelsleft0ut
Artist:Zekk
ArtistUnicode:Zekk
Creator:Kamuy
Version:advanced
Source:osu!
Tags:future bass electronic instrumental featured artist fa bunnrei chara -plus- chrubble feelsleftout feels left out neglected alone rocma _asriel
BeatmapID:2391316
BeatmapSetID:1145368

[Difficulty]
HPDrainRate:7.3
CircleSize:4
OverallDifficulty:7.3
ApproachRate:5
SliderMultiplier:1.4
SliderTickRate:1

[Events]
//Background and Video events
0,0,"feelsleft0ut.jpg",0,0
//Break Periods
//Storyboard Layer 0 (Background)
//Storyboard Layer 1 (Fail)
//Storyboard Layer 2 (Pass)
//Storyboard Layer 3 (Foreground)
//Storyboard Layer 4 (Overlay)
//Storyboard Sound Samples

[TimingPoints]
1568,352.941176470588,4,2,20,70,1,0
1656,-100,4,2,20,40,0,0
12862,-100,4,2,11,60,0,0
18509,-100,4,2,11,65,0,0
24156,-100,4,2,10,70,0,0
29803,-100,4,2,10,80,0,0
32979,-100,4,2,10,70,0,0
33332,-100,4,2,10,60,0,0
34038,-100,4,2,10,70,0,0
34126,-100,4,2,11,70,0,0
35450,-100,4,2,10,80,0,0
36332,-100,4,2,10,85,0,0
57509,-100,4,2,11,75,0,0
58038,-100,4,2,20,70,0,0
58126,-100,4,2,11,70,0,0
69332,-100,4,2,10,75,0,0
80626,-100,4,2,10,80,0,0
81332,-100,4,2,10,85,0,0
103215,-100,4,2,20,85,0,0

[HitObjects]
320,192,1568,5,12,0:0:0:0:
448,192,1568,1,2,0:0:0:0:
320,192,2979,1,2,0:0:0:0:
192,192,4391,1,2,0:0:0:0:
192,192,5803,1,2,0:0:0:0:
320,192,7215,1,2,0:0:0:0:
64,192,7391,1,0,0:0:0:0:
192,192,7567,1,0,0:0:0:0:
320,192,7920,1,0,0:0:0:0:
64,192,8097,1,0,0:0:0:0:
192,192,8273,1,0,0:0:0:0:
64,192,8626,1,2,0:0:0:0:
192,192,8803,1,0,0:0:0:0:
448,192,8979,1,0,0:0:0:0:
64,192,9332,1,0,0:0:0:0:
192,192,9509,1,0,0:0:0:0:
448,192,9685,1,0,0:0:0:0:
192,192,10038,1,2,0:0:0:0:
64,192,10215,1,0,0:0:0:0:
320,192,10391,1,0,0:0:0:0:
192,192,10744,1,0,0:0:0:0:
64,192,10920,1,0,0:0:0:0:
320,192,11097,1,0,0:0:0:0:
192,192,11450,1,2,0:0:0:0:
192,192,12332,1,2,0:0:0:0:
448,192,12509,1,2,0:0:0:0:
64,192,12597,1,2,0:0:0:0:
320,192,12862,1,2,0:0:0:0:
448,192,12862,1,0,0:0:0:0:
192,192,13038,1,0,0:0:0:0:
448,192,13215,1,8,0:0:0:0:
448,192,13567,1,2,0:0:0:0:
192,192,13744,1,2,0:0:0:0:
64,192,13920,1,8,0:0:0:0:
320,192,14273,1,2,0:0:0:0:
192,192,14450,1,0,0:0:0:0:
448,192,14626,1,8,0:0:0:0:
320,192,14803,1,2,0:0:0:0:
64,192,14979,1,2,0:0:0:0:
448,192,15156,1,8,0:0:0:0:
64,192,15332,1,8,0:0:0:0:
320,192,15685,1,2,0:0:0:0:
192,192,15862,1,0,0:0:0:0:
448,192,16038,1,8,0:0:0:0:
448,192,16391,1,2,0:0:0:0:
192,192,16567,1,2,0:0:0:0:
64,192,16744,1,8,0:0:0:0:
320,192,16920,1,0,0:0:0:0:
192,192,17097,1,2,0:0:0:0:
192,192,17362,1,2,0:0:0:0:
448,192,17715,1,0,0:0:0:0:
64,192,17803,1,8,0:0:0:0:
320,192,18067,1,2,0:0:0:0:
64,192,18332,1,8,0:0:0:0:
192,192,18509,1,4,0:0:0:0:
448,192,18509,1,2,0:0:0:0:
64,192,18862,1,8,0:0:0:0:
448,192,19038,1,8,0:0:0:0:
448,192,19303,1,8,0:0:0:0:
192,192,19391,1,2,0:0:0:0:
64,192,19567,1,8,0:0:0:0:
320,192,19920,1,2,0:0:0:0:
64,192,20273,1,8,0:0:0:0:
448,192,20450,1,10,0:0:0:0:
64,192,20803,1,8,0:0:0:0:
320,192,20979,1,8,0:0:0:0:
64,192,21156,1,2,0:0:0:0:
192,192,21332,1,2,0:0:0:0:
448,192,21685,1,8,0:0:0:0:
64,192,21862,1,8,0:0:0:0:
64,192,22126,1,8,0:0:0:0:
320,192,22215,1,2,0:0:0:0:
448,192,22391,1,8,0:0:0:0:
192,192,22744,1,12,0:0:0:0:
192,192,23009,1,12,0:0:0:0:
320,192,23450,1,4,0:0:0:0:
448,192,23450,1,2,0:0:0:0:
64,192,23626,1,8,0:0:0:0:
448,192,23803,1,8,0:0:0:0:
64,192,23979,1,8,0:0:0:0:
192,192,24156,1,12,0:0:0:0:
448,192,24156,1,2,0:0:0:0:
64,192,24509,1,8,0:0:0:0:
192,192,24509,1,2,0:0:0:0:
64,192,24862,1,8,0:0:0:0:
192,192,24862,1,2,0:0:0:0:
64,192,25215,1,8,0:0:0:0:
192,192,25215,1,2,0:0:0:0:
320,192,25567,1,8,0:0:0:0:
448,192,25567,1,2,0:0:0:0:
320,192,25920,1,8,0:0:0:0:
448,192,25920,1,2,0:0:0:0:
320,192,26273,1,8,0:0:0:0:
448,192,26273,1,2,0:0:0:0:
320,192,26626,128,8,26979:0:0:0:0:
448,192,26626,1,2,0:0:0:0:
64,192,26979,1,12,0:0:0:0:
192,192,26979,1,2,0:0:0:0:
64,192,27332,1,8,0:0:0:0:
192,192,27332,1,2,0:0:0:0:
64,192,27685,1,8,0:0:0:0:
192,192,27685,1,2,0:0:0:0:
64,192,28038,1,8,0:0:0:0:
192,192,28038,1,2,0:0:0:0:
320,192,28391,1,8,0:0:0:0:
448,192,28391,1,2,0:0:0:0:
320,192,28744,1,8,0:0:0:0:
448,192,28744,1,2,0:0:0:0:
320,192,29097,1,8,0:0:0:0:
448,192,29097,1,2,0:0:0:0:
320,192,29450,128,2,29803:0:0:0:0:
64,192,29803,1,8,0:0:0:0:
192,192,29803,1,2,0:0:0:0:
192,192,30156,1,2,0:0:0:0:
320,192,30509,1,8,0:0:0:0:
448,192,30509,1,2,0:0:0:0:
320,192,30862,1,2,0:0:0:0:
64,192,31215,1,8,0:0:0:0:
192,192,31215,1,2,0:0:0:0:
192,192,31567,1,2,0:0:0:0:
320,192,31920,1,8,0:0:0:0:
448,192,31920,1,2,0:0:0:0:
320,192,32273,1,2,0:0:0:0:
64,192,32626,1,10,0:0:0:0:
192,192,32715,1,10,0:0:0:0:
320,192,32803,1,10,0:0:0:0:
448,192,32979,1,8,0:0:0:0:
320,192,33067,1,8,0:0:0:0:
192,192,33156,1,8,0:0:0:0:
64,192,33332,1,2,0:0:0:0:
192,192,33509,1,2,0:0:0:0:
320,192,33685,1,2,0:0:0:0:
448,192,33862,1,2,0:0:0:0:
64,192,34038,1,4,0:0:0:0:
192,192,34038,1,2,0:0:0:0:
64,192,34391,1,8,0:0:0:0:
320,192,34391,1,0,0:0:0:0:
448,192,34744,1,0,0:0:0:0:
320,192,34832,1,0,0:0:0:0:
192,192,34920,1,2,0:0:0:0:
64,192,35009,1,2,0:0:0:0:
448,192,35097,1,6,0:0:0:0:
320,192,35273,1,6,0:0:0:0:
64,192,35450,128,2,36156:0:0:0:0:
192,192,35450,1,0,0:0:0:0:
448,192,35803,128,0,36156:0:0:0:0:
192,192,36156,1,8,0:0:0:0:
320,192,36156,1,2,0:0:0:0:
320,192,36332,1,4,0:0:0:0:
448,192,36332,1,2,0:0:0:0:
64,192,36509,1,4,0:0:0:0:
192,192,36509,1,2,0:0:0:0:
320,192,36685,1,4,0:0:0:0:
448,192,36685,1,2,0:0:0:0:
64,192,36862,1,0,0:0:0:0:
192,192,37038,1,8,0:0:0:0:
320,192,37038,1,2,0:0:0:0:
448,192,37215,128,0,37567:0:0:0:0:
64,192,37567,1,4,0:0:0:0:
192,192,37567,1,2,0:0:0:0:
320,192,37744,1,0,0:0:0:0:
64,192,37920,1,4,0:0:0:0:
192,192,37920,1,2,0:0:0:0:
320,192,38185,1,0,0:0:0:0:
448,192,38185,1,0,0:0:0:0:
64,192,38273,1,4,0:0:0:0:
192,192,38273,1,2,0:0:0:0:
320,192,38538,1,4,0:0:0:0:
448,192,38538,1,2,0:0:0:0:
64,192,38803,1,2,0:0:0:0:
448,192,38891,1,2,0:0:0:0:
192,192,38979,1,8,0:0:0:0:
320,192,38979,1,2,0:0:0:0:
64,192,39156,1,2,0:0:0:0:
192,192,39244,1,8,0:0:0:0:
320,192,39244,1,2,0:0:0:0:
320,192,39509,1,4,0:0:0:0:
448,192,39509,1,2,0:0:0:0:
192,192,39862,1,8,0:0:0:0:
320,192,39862,1,2,0:0:0:0:
64,192,40038,128,0,40391:0:0:0:0:
320,192,40391,1,8,0:0:0:0:
448,192,40391,1,2,0:0:0:0:
192,192,40567,1,0,0:0:0:0:
320,192,40744,1,8,0:0:0:0:
448,192,40744,1,2,0:0:0:0:
64,192,40920,1,0,0:0:0:0:
192,192,40920,1,0,0:0:0:0:
320,192,41097,1,12,0:0:0:0:
448,192,41097,128,2,41803:0:0:0:0:
64,192,41450,128,0,41803:0:0:0:0:
192,192,41803,1,8,0:0:0:0:
320,192,41803,1,2,0:0:0:0:
64,192,41979,1,4,0:0:0:0:
192,192,41979,1,2,0:0:0:0:
320,192,42156,1,4,0:0:0:0:
448,192,42156,1,2,0:0:0:0:
64,192,42332,1,4,0:0:0:0:
192,192,42332,1,2,0:0:0:0:
448,192,42509,1,0,0:0:0:0:
192,192,42685,1,8,0:0:0:0:
320,192,42685,1,2,0:0:0:0:
64,192,42862,128,0,43215:0:0:0:0:
320,192,43215,1,4,0:0:0:0:
448,192,43215,1,2,0:0:0:0:
64,192,43567,1,4,0:0:0:0:
192,192,43567,1,2,0:0:0:0:
320,192,43832,1,2,0:0:0:0:
448,192,43832,1,0,0:0:0:0:
64,192,43920,1,4,0:0:0:0:
192,192,43920,1,2,0:0:0:0:
320,192,44185,1,2,0:0:0:0:
64,192,44273,1,10,0:0:0:0:
320,192,44450,1,4,0:0:0:0:
448,192,44450,1,2,0:0:0:0:
192,192,44715,1,2,0:0:0:0:
448,192,44803,1,10,0:0:0:0:
64,192,44979,1,4,0:0:0:0:
192,192,44979,1,2,0:0:0:0:
320,192,45244,1,2,0:0:0:0:
64,192,45332,1,2,0:0:0:0:
320,192,45509,1,8,0:0:0:0:
448,192,45509,1,2,0:0:0:0:
192,192,45685,1,8,0:0:0:0:
448,192,45862,1,8,0:0:0:0:
64,192,46038,1,4,0:0:0:0:
192,192,46038,1,2,0:0:0:0:
320,192,46391,1,4,0:0:0:0:
448,192,46391,1,2,0:0:0:0:
64,192,46744,1,4,0:0:0:0:
192,192,46744,1,2,0:0:0:0:
448,192,47097,1,0,0:0:0:0:
64,192,47273,1,0,0:0:0:0:
448,192,47362,1,0,0:0:0:0:
64,192,47450,1,8,0:0:0:0:
192,192,47450,1,2,0:0:0:0:
320,192,47626,1,4,0:0:0:0:
448,192,47626,1,2,0:0:0:0:
64,192,47803,1,4,0:0:0:0:
192,192,47803,1,2,0:0:0:0:
320,192,47979,1,4,0:0:0:0:
448,192,47979,1,2,0:0:0:0:
64,192,48156,1,0,0:0:0:0:
192,192,48332,1,8,0:0:0:0:
320,192,48332,1,2,0:0:0:0:
448,192,48509,128,0,48862:0:0:0:0:
64,192,48862,1,4,0:0:0:0:
192,192,48862,1,2,0:0:0:0:
320,192,49038,1,0,0:0:0:0:
64,192,49215,1,4,0:0:0:0:
192,192,49215,1,2,0:0:0:0:
320,192,49479,1,2,0:0:0:0:
448,192,49479,1,0,0:0:0:0:
64,192,49567,1,4,0:0:0:0:
192,192,49567,1,2,0:0:0:0:
320,192,49832,1,4,0:0:0:0:
448,192,49832,1,2,0:0:0:0:
64,192,50097,1,2,0:0:0:0:
448,192,50185,1,2,0:0:0:0:
192,192,50273,1,8,0:0:0:0:
320,192,50273,1,2,0:0:0:0:
64,192,50450,1,2,0:0:0:0:
192,192,50538,1,8,0:0:0:0:
320,192,50538,1,2,0:0:0:0:
320,192,50803,1,4,0:0:0:0:
448,192,50803,1,2,0:0:0:0:
192,192,51156,1,8,0:0:0:0:
320,192,51156,1,2,0:0:0:0:
64,192,51332,128,0,51685:0:0:0:0:
320,192,51685,1,4,0:0:0:0:
448,192,51685,1,2,0:0:0:0:
192,192,51862,1,0,0:0:0:0:
320,192,52038,1,4,0:0:0:0:
448,192,52038,1,2,0:0:0:0:
64,192,52215,1,2,0:0:0:0:
192,192,52215,1,0,0:0:0:0:
320,192,52391,1,8,0:0:0:0:
448,192,52391,1,2,0:0:0:0:
64,192,52656,1,8,0:0:0:0:
192,192,52656,1,2,0:0:0:0:
320,192,52920,1,8,0:0:0:0:
448,192,52920,1,2,0:0:0:0:
64,192,53273,1,2,0:0:0:0:
320,192,53273,1,0,0:0:0:0:
320,192,53450,1,2,0:0:0:0:
64,192,53626,128,4,53803:0:0:0:0:
192,192,53626,128,2,53803:0:0:0:0:
320,192,53979,1,8,0:0:0:0:
448,192,53979,1,2,0:0:0:0:
64,192,54156,1,0,0:0:0:0:
192,192,54244,1,0,0:0:0:0:
448,192,54332,1,0,0:0:0:0:
64,192,54509,1,4,0:0:0:0:
192,192,54509,1,2,0:0:0:0:
320,192,54862,1,4,0:0:0:0:
448,192,54862,1,2,0:0:0:0:
64,192,55126,1,2,0:0:0:0:
192,192,55126,1,0,0:0:0:0:
320,192,55215,1,4,0:0:0:0:
448,192,55215,1,2,0:0:0:0:
192,192,55479,1,2,0:0:0:0:
64,192,55567,1,10,0:0:0:0:
320,192,55744,1,4,0:0:0:0:
448,192,55744,1,2,0:0:0:0:
64,192,56009,1,2,0:0:0:0:
192,192,56097,1,10,0:0:0:0:
320,192,56273,1,4,0:0:0:0:
448,192,56273,1,2,0:0:0:0:
192,192,56450,1,0,0:0:0:0:
448,192,56538,1,2,0:0:0:0:
64,192,56803,1,4,0:0:0:0:
192,192,56803,1,2,0:0:0:0:
448,192,57067,1,0,0:0:0:0:
64,192,57156,1,10,0:0:0:0:
192,192,57244,1,8,0:0:0:0:
320,192,57332,1,4,0:0:0:0:
448,192,57332,1,2,0:0:0:0:
64,192,57509,1,8,0:0:0:0:
448,192,57685,1,0,0:0:0:0:
64,192,57862,1,8,0:0:0:0:
448,192,57950,1,0,0:0:0:0:
64,192,58038,1,4,0:0:0:0:
192,192,58038,1,2,0:0:0:0:
320,192,58215,1,0,0:0:0:0:
448,192,58391,1,8,0:0:0:0:
448,192,58744,1,2,0:0:0:0:
192,192,58920,1,2,0:0:0:0:
64,192,59097,1,8,0:0:0:0:
320,192,59450,1,2,0:0:0:0:
448,192,59803,1,8,0:0:0:0:
192,192,59979,1,2,0:0:0:0:
448,192,60156,1,2,0:0:0:0:
64,192,60332,1,8,0:0:0:0:
448,192,60509,1,8,0:0:0:0:
64,192,60685,1,2,0:0:0:0:
448,192,60773,1,2,0:0:0:0:
192,192,60862,1,2,0:0:0:0:
448,192,61215,1,8,0:0:0:0:
192,192,61391,1,0,0:0:0:0:
64,192,61567,1,2,0:0:0:0:
320,192,61744,1,2,0:0:0:0:
64,192,61920,1,8,0:0:0:0:
448,192,62009,1,0,0:0:0:0:
320,192,62097,1,0,0:0:0:0:
192,192,62273,1,2,0:0:0:0:
192,192,62538,1,2,0:0:0:0:
448,192,62891,1,0,0:0:0:0:
64,192,62979,1,8,0:0:0:0:
448,192,63156,1,0,0:0:0:0:
192,192,63244,1,2,0:0:0:0:
448,192,63332,1,2,0:0:0:0:
64,192,63420,1,2,0:0:0:0:
320,192,63509,1,8,0:0:0:0:
192,192,63685,1,6,0:0:0:0:
448,192,64038,1,8,0:0:0:0:
64,192,64215,1,8,0:0:0:0:
448,192,64391,1,0,0:0:0:0:
64,192,64479,1,8,0:0:0:0:
320,192,64567,1,2,0:0:0:0:
64,192,64744,1,8,0:0:0:0:
448,192,64920,1,0,0:0:0:0:
320,192,65097,1,2,0:0:0:0:
64,192,65450,1,8,0:0:0:0:
320,192,65626,1,10,0:0:0:0:
64,192,65803,1,0,0:0:0:0:
448,192,65979,1,8,0:0:0:0:
64,192,66156,1,8,0:0:0:0:
448,192,66332,1,2,0:0:0:0:
64,192,66420,1,8,0:0:0:0:
320,192,66509,1,2,0:0:0:0:
192,192,66685,1,0,0:0:0:0:
448,192,66773,1,0,0:0:0:0:
320,192,67038,1,8,0:0:0:0:
64,192,67215,1,0,0:0:0:0:
192,192,67391,1,0,0:0:0:0:
448,192,67567,1,8,0:0:0:0:
64,192,67744,1,0,0:0:0:0:
320,192,67920,1,12,0:0:0:0:
192,192,68097,1,0,0:0:0:0:
64,192,68273,1,0,0:0:0:0:
448,192,68450,1,0,0:0:0:0:
64,192,68626,1,4,0:0:0:0:
192,192,68626,1,2,0:0:0:0:
448,192,68803,1,8,0:0:0:0:
192,192,68979,1,8,0:0:0:0:
448,192,69156,1,8,0:0:0:0:
64,192,69332,1,12,0:0:0:0:
320,192,69332,1,2,0:0:0:0:
320,192,69685,1,8,0:0:0:0:
448,192,69685,1,2,0:0:0:0:
320,192,70038,1,8,0:0:0:0:
448,192,70038,1,2,0:0:0:0:
320,192,70391,1,8,0:0:0:0:
448,192,70391,1,2,0:0:0:0:
64,192,70744,1,8,0:0:0:0:
192,192,70744,1,2,0:0:0:0:
64,192,71097,1,8,0:0:0:0:
192,192,71097,1,2,0:0:0:0:
64,192,71450,1,8,0:0:0:0:
192,192,71450,1,2,0:0:0:0:
64,192,71803,1,8,0:0:0:0:
192,192,71803,128,2,72156:0:0:0:0:
320,192,72156,1,12,0:0:0:0:
448,192,72156,1,2,0:0:0:0:
320,192,72509,1,8,0:0:0:0:
448,192,72509,1,2,0:0:0:0:
320,192,72862,1,8,0:0:0:0:
448,192,72862,1,2,0:0:0:0:
320,192,73215,1,8,0:0:0:0:
448,192,73215,1,2,0:0:0:0:
64,192,73567,1,8,0:0:0:0:
192,192,73567,1,2,0:0:0:0:
64,192,73920,1,8,0:0:0:0:
192,192,73920,1,2,0:0:0:0:
64,192,74273,1,8,0:0:0:0:
192,192,74273,1,2,0:0:0:0:
192,192,74626,128,0,74979:0:0:0:0:
320,192,74979,1,8,0:0:0:0:
448,192,74979,1,2,0:0:0:0:
320,192,75332,1,2,0:0:0:0:
64,192,75685,1,8,0:0:0:0:
192,192,75685,1,2,0:0:0:0:
192,192,76038,1,2,0:0:0:0:
320,192,76391,1,8,0:0:0:0:
448,192,76391,1,2,0:0:0:0:
320,192,76744,1,2,0:0:0:0:
64,192,77097,1,8,0:0:0:0:
192,192,77097,1,2,0:0:0:0:
192,192,77450,1,2,0:0:0:0:
320,192,77803,1,4,0:0:0:0:
448,192,77803,1,2,0:0:0:0:
192,192,78067,1,2,0:0:0:0:
448,192,78156,1,10,0:0:0:0:
64,192,78332,1,4,0:0:0:0:
192,192,78332,1,2,0:0:0:0:
320,192,78597,1,2,0:0:0:0:
64,192,78685,1,10,0:0:0:0:
320,192,78862,1,4,0:0:0:0:
448,192,78862,1,2,0:0:0:0:
192,192,79126,1,2,0:0:0:0:
448,192,79215,1,2,0:0:0:0:
64,192,79391,1,8,0:0:0:0:
192,192,79391,1,2,0:0:0:0:
320,192,79567,1,0,0:0:0:0:
448,192,79744,1,2,0:0:0:0:
64,192,79920,1,14,0:0:0:0:
448,192,80097,1,0,0:0:0:0:
320,192,80185,1,0,0:0:0:0:
64,192,80273,1,12,0:0:0:0:
192,192,80273,1,2,0:0:0:0:
320,192,80626,128,2,81332:0:0:0:0:
448,192,80626,1,0,0:0:0:0:
192,192,80979,128,0,81332:0:0:0:0:
64,192,81332,1,8,0:0:0:0:
448,192,81332,1,2,0:0:0:0:
64,192,81509,1,4,0:0:0:0:
192,192,81509,1,2,0:0:0:0:
320,192,81685,1,4,0:0:0:0:
448,192,81685,1,2,0:0:0:0:
64,192,81862,1,4,0:0:0:0:
192,192,81862,1,2,0:0:0:0:
448,192,82038,1,0,0:0:0:0:
192,192,82215,1,8,0:0:0:0:
320,192,82215,1,2,0:0:0:0:
64,192,82479,1,0,0:0:0:0:
448,192,82567,1,0,0:0:0:0:
64,192,82744,1,4,0:0:0:0:
192,192,82744,1,2,0:0:0:0:
320,192,82920,1,0,0:0:0:0:
64,192,83097,1,4,0:0:0:0:
192,192,83097,1,2,0:0:0:0:
320,192,83362,1,2,0:0:0:0:
448,192,83362,1,0,0:0:0:0:
64,192,83450,1,4,0:0:0:0:
192,192,83450,1,2,0:0:0:0:
320,192,83715,1,4,0:0:0:0:
448,192,83715,1,2,0:0:0:0:
64,192,83979,1,2,0:0:0:0:
448,192,84067,1,2,0:0:0:0:
192,192,84156,1,8,0:0:0:0:
320,192,84156,1,2,0:0:0:0:
64,192,84332,1,0,0:0:0:0:
192,192,84509,1,0,0:0:0:0:
320,192,84685,1,4,0:0:0:0:
448,192,84685,1,2,0:0:0:0:
192,192,85038,1,8,0:0:0:0:
320,192,85038,1,2,0:0:0:0:
64,192,85215,128,0,85567:0:0:0:0:
320,192,85567,1,8,0:0:0:0:
448,192,85567,1,2,0:0:0:0:
64,192,85920,1,8,0:0:0:0:
192,192,85920,1,2,0:0:0:0:
320,192,86097,1,2,0:0:0:0:
448,192,86097,1,0,0:0:0:0:
64,192,86273,1,12,0:0:0:0:
192,192,86273,128,2,86979:0:0:0:0:
320,192,86626,128,0,86979:0:0:0:0:
64,192,86979,1,8,0:0:0:0:
448,192,86979,1,2,0:0:0:0:
320,192,87156,1,4,0:0:0:0:
448,192,87156,1,2,0:0:0:0:
64,192,87332,1,4,0:0:0:0:
192,192,87332,1,2,0:0:0:0:
320,192,87509,1,4,0:0:0:0:
448,192,87509,1,2,0:0:0:0:
64,192,87685,1,0,0:0:0:0:
192,192,87862,1,8,0:0:0:0:
320,192,87862,1,2,0:0:0:0:
448,192,88126,1,0,0:0:0:0:
64,192,88215,1,0,0:0:0:0:
320,192,88391,1,4,0:0:0:0:
448,192,88391,1,2,0:0:0:0:
320,192,88744,1,4,0:0:0:0:
448,192,88744,1,2,0:0:0:0:
64,192,89009,1,2,0:0:0:0:
192,192,89009,1,0,0:0:0:0:
320,192,89097,1,4,0:0:0:0:
448,192,89097,1,2,0:0:0:0:
64,192,89362,1,2,0:0:0:0:
448,192,89450,1,10,0:0:0:0:
64,192,89626,1,4,0:0:0:0:
192,192,89626,1,2,0:0:0:0:
448,192,89891,1,2,0:0:0:0:
64,192,89979,1,10,0:0:0:0:
320,192,90156,1,4,0:0:0:0:
448,192,90156,1,2,0:0:0:0:
192,192,90420,1,2,0:0:0:0:
448,192,90509,1,2,0:0:0:0:
64,192,90685,1,8,0:0:0:0:
192,192,90685,1,2,0:0:0:0:
320,192,90862,1,8,0:0:0:0:
448,192,90950,1,8,0:0:0:0:
64,192,91038,1,8,0:0:0:0:
192,192,91126,1,8,0:0:0:0:
320,192,91215,1,4,0:0:0:0:
448,192,91215,1,2,0:0:0:0:
64,192,91567,1,4,0:0:0:0:
192,192,91567,1,2,0:0:0:0:
448,192,91744,128,0,92626:0:0:0:0:
64,192,92626,1,8,0:0:0:0:
192,192,92626,1,2,0:0:0:0:
320,192,92891,1,8,0:0:0:0:
448,192,92891,1,2,0:0:0:0:
64,192,93156,1,8,0:0:0:0:
192,192,93156,1,2,0:0:0:0:
448,192,93332,1,0,0:0:0:0:
192,192,93509,1,8,0:0:0:0:
320,192,93509,1,2,0:0:0:0:
64,192,93773,1,0,0:0:0:0:
448,192,93862,1,0,0:0:0:0:
64,192,94038,1,4,0:0:0:0:
192,192,94038,1,2,0:0:0:0:
320,192,94215,1,0,0:0:0:0:
64,192,94391,1,4,0:0:0:0:
192,192,94391,1,2,0:0:0:0:
320,192,94656,1,2,0:0:0:0:
448,192,94656,1,0,0:0:0:0:
64,192,94744,1,4,0:0:0:0:
192,192,94744,1,2,0:0:0:0:
320,192,95009,1,4,0:0:0:0:
448,192,95009,1,2,0:0:0:0:
64,192,95273,1,2,0:0:0:0:
448,192,95362,1,2,0:0:0:0:
192,192,95450,1,8,0:0:0:0:
320,192,95450,1,2,0:0:0:0:
64,192,95626,1,0,0:0:0:0:
448,192,95803,1,0,0:0:0:0:
320,192,95891,1,0,0:0:0:0:
64,192,95979,1,4,0:0:0:0:
192,192,95979,1,2,0:0:0:0:
448,192,96156,1,0,0:0:0:0:
192,192,96332,1,8,0:0:0:0:
320,192,96332,1,2,0:0:0:0:
64,192,96509,128,0,96862:0:0:0:0:
320,192,96862,1,4,0:0:0:0:
448,192,96862,1,2,0:0:0:0:
192,192,97038,1,0,0:0:0:0:
320,192,97215,1,4,0:0:0:0:
448,192,97215,1,2,0:0:0:0:
64,192,97391,1,2,0:0:0:0:
192,192,97391,1,0,0:0:0:0:
320,192,97567,1,8,0:0:0:0:
448,192,97567,1,2,0:0:0:0:
64,192,97832,1,8,0:0:0:0:
192,192,97832,1,2,0:0:0:0:
320,192,98097,1,8,0:0:0:0:
448,192,98097,1,2,0:0:0:0:
64,192,98450,1,2,0:0:0:0:
320,192,98450,1,0,0:0:0:0:
320,192,98626,1,2,0:0:0:0:
64,192,98803,128,4,98979:0:0:0:0:
192,192,98803,128,2,98979:0:0:0:0:
320,192,99156,1,8,0:0:0:0:
448,192,99156,1,2,0:0:0:0:
192,192,99420,1,0,0:0:0:0:
448,192,99509,1,0,0:0:0:0:
64,192,99685,1,4,0:0:0:0:
192,192,99685,1,2,0:0:0:0:
320,192,100038,1,4,0:0:0:0:
448,192,100038,1,2,0:0:0:0:
64,192,100303,1,2,0:0:0:0:
192,192,100303,1,0,0:0:0:0:
320,192,100391,1,4,0:0:0:0:
448,192,100391,1,2,0:0:0:0:
192,192,100656,1,2,0:0:0:0:
64,192,100744,1,10,0:0:0:0:
320,192,100920,1,4,0:0:0:0:
448,192,100920,1,2,0:0:0:0:
64,192,101185,1,2,0:0:0:0:
192,192,101273,1,10,0:0:0:0:
320,192,101450,1,4,0:0:0:0:
448,192,101450,1,2,0:0:0:0:
192,192,101715,1,2,0:0:0:0:
448,192,101803,1,10,0:0:0:0:
64,192,101979,1,4,0:0:0:0:
192,192,101979,1,2,0:0:0:0:
320,192,102244,1,2,0:0:0:0:
448,192,102332,1,10,0:0:0:0:
64,192,102509,128,4,103215:0:0:0:0:
192,192,102509,1,2,0:0:0:0:
320,192,103215,1,12,0:0:0:0:
448,192,103215,1,2,0:0:0:0:
