osu file format v14

[General]
AudioFilename: audio.mp3
AudioLeadIn: 0
PreviewTime: 80095
Countdown: 0
SampleSet: Soft
StackLeniency: 0.7
Mode: 2
LetterboxInBreaks: 0
WidescreenStoryboard: 0

[Editor]
Bookmarks: 12684,23978,35272,47272,69154,88919,97389,103037
DistanceSpacing: 0.5
BeatDivisor: 4
GridSize: 4
TimelineZoom: 2.899999

[Metadata]
Title:Feelsleft0ut
TitleUnicode:Feelsleft0ut
Artist:Zekk
ArtistUnicode:Zekk
Creator:AJamez
Version::)
Source:
Tags:future bass futurebass feelsleftout kaede takagaki hardcore electronic dance dubstep trap dnb drumstep feels left out depression tfw got kicked from bn :joy:
BeatmapID:1788564
BeatmapSetID:856040

[Difficulty]
HPDrainRate:6
CircleSize:4
OverallDifficulty:9.5
ApproachRate:9.5
SliderMultiplier:2.5
SliderTickRate:1

[Events]
//Background and Video events
0,0,"background.jpg",0,0
//Break Periods
//Storyboard Layer 0 (Background)
//Storyboard Layer 1 (Fail)
//Storyboard Layer 2 (Pass)
//Storyboard Layer 3 (Foreground)
//Storyboard Sound Samples

[TimingPoints]
1395,352.941176470588,4,2,1,60,1,0
12689,-133.333333333333,4,2,1,35,0,0
13042,-200,4,2,1,35,0,0
13571,-66.6666666666667,4,2,1,35,0,0
13747,-100,4,2,1,35,0,0
15512,-133.333333333333,4,2,1,35,0,0
15865,-200,4,2,1,35,0,0
16394,-66.6666666666667,4,2,1,35,0,0
16571,-100,4,2,1,35,0,0
16924,-133.333333333333,4,2,1,35,0,0
17630,-100,4,2,1,35,0,0
17894,-133.333333333333,4,2,1,35,0,0
18159,-100,4,2,1,35,0,0
18336,-133.333333333333,4,2,1,35,0,0
18689,-100,4,2,1,35,0,0
18865,-200,4,2,1,35,0,0
19130,-50,4,2,1,35,0,0
19218,-66.6666666666667,4,2,1,35,0,0
19394,-100,4,2,1,35,0,0
19747,-133.333333333333,4,2,1,35,0,0
20100,-100,4,2,1,35,0,0
21159,-133.333333333333,4,2,1,35,0,0
21512,-100,4,2,1,35,0,0
21689,-200,4,2,1,35,0,0
22042,-100,4,2,1,35,0,0
22218,-100,4,2,1,35,0,0
22571,-100,4,2,1,35,0,0
22747,-200,4,2,1,35,0,0
23277,-100,4,2,1,35,0,0
23894,-33.3333333333333,4,2,1,35,0,0
23983,-100,4,2,1,35,0,0
30159,-90.9090909090909,4,2,1,60,0,0
30689,-83.3333333333333,4,2,1,60,0,0
31218,-76.9230769230769,4,2,1,60,0,0
31747,-71.4285714285714,4,2,1,60,0,0
32277,-66.6666666666667,4,2,1,60,0,0
33865,-90.9090909090909,4,2,1,60,0,0
34218,-71.4285714285714,4,2,1,60,0,0
34747,-50,4,2,1,60,0,0
35277,-66.6666666666667,4,2,1,60,0,1
35983,-200,4,2,1,60,0,1
36159,-66.6666666666667,4,2,1,60,0,1
36865,-58.8235294117647,4,2,1,60,0,1
38100,-31.25,4,2,1,60,0,1
38365,-38.4615384615385,4,2,1,60,0,1
38630,-76.9230769230769,4,2,1,60,0,1
39336,-66.6666666666667,4,2,1,60,0,1
40571,-50,4,2,1,60,0,1
40924,-66.6666666666667,4,2,1,60,0,1
41630,-200,4,2,1,60,0,1
41806,-66.6666666666667,4,2,1,60,0,1
43394,-76.9230769230769,4,2,1,60,0,1
43747,-66.6666666666667,4,2,1,60,0,1
45512,-76.9230769230769,4,2,1,60,0,1
46571,-100,4,2,1,60,0,1
46924,-111.111111111111,4,2,1,60,0,1
47277,-200,4,2,1,60,0,1
47453,-66.6666666666667,4,2,1,60,0,1
49394,-40,4,2,1,60,0,1
49659,-35.7142857142857,4,2,1,60,0,1
49924,-100,4,2,1,60,0,1
50100,-100,4,2,1,60,0,1
50365,-66.6666666666667,4,2,1,60,0,1
52218,-50,4,2,1,60,0,1
52924,-100,4,2,1,60,0,1
53100,-66.6666666666667,4,2,1,60,0,1
53453,-50,4,2,1,60,0,1
54689,-66.6666666666667,4,2,1,60,0,1
55042,-50,4,2,1,60,0,1
55394,-66.6666666666667,4,2,1,60,0,1
56100,-55.5555555555556,4,2,1,60,0,1
56630,-66.6666666666667,4,2,1,60,0,1
57336,-83.3333333333333,4,2,1,60,0,1
57512,-111.111111111111,4,2,1,60,0,1
57689,-166.666666666667,4,2,1,60,0,1
57865,-142.857142857143,4,2,1,35,0,0
68453,-90.909090909091,4,2,1,40,0,0
68630,-71.4285714285714,4,2,1,45,0,0
68806,-58.8235294117647,4,2,1,50,0,0
68983,-50,4,2,1,55,0,0
69159,-100,4,2,1,30,0,0
77630,-100,4,2,1,50,0,0
79747,-66.6666666666667,4,2,1,70,0,0
80453,-83.3333333333333,4,2,1,60,0,1
81159,-25,4,2,1,60,0,1
81336,-28.5714285714286,4,2,1,60,0,1
81512,-35.7142857142857,4,2,1,60,0,1
81689,-40,4,2,1,60,0,1
81865,-62.5,4,2,1,60,0,1
83277,-66.6666666666667,4,2,1,60,0,1
83806,-105.263157894737,4,2,1,60,0,1
84512,-62.5,4,2,1,60,0,1
84865,-66.6666666666667,4,2,1,60,0,1
85218,-76.9230769230769,4,2,1,60,0,1
85394,-83.3333333333333,4,2,1,60,0,1
85571,-90.9090909090909,4,2,1,60,0,1
85747,-76.9230769230769,4,2,1,60,0,1
85924,-66.6666666666667,4,2,1,60,0,1
86100,-100,4,2,1,60,0,1
86806,-66.6666666666667,4,2,1,60,0,1
87336,-76.9230769230769,4,2,1,60,0,1
87689,-90.9090909090909,4,2,1,60,0,1
88042,-71.4285714285714,4,2,1,60,0,1
88218,-58.8235294117647,4,2,1,60,0,1
88571,-76.9230769230769,4,2,1,60,0,1
88924,-62.5,4,2,1,60,0,1
89453,-83.3333333333333,4,2,1,60,0,1
89983,-58.8235294117647,4,2,1,60,0,1
90512,-66.6666666666667,4,2,1,60,0,1
90689,-55.5555555555556,4,2,1,60,0,1
91042,-66.6666666666667,4,2,1,60,0,1
91394,-105.263157894737,4,2,1,60,0,1
91571,-105.263157894737,4,2,1,5,0,1
91659,-105.263157894737,4,2,1,50,0,1
92718,-62.5,4,2,1,60,0,1
92983,-71.4285714285714,4,2,1,60,0,1
93865,-66.6666666666667,4,2,1,60,0,1
94571,-58.8235294117647,4,2,1,60,0,1
95453,-76.9230769230769,4,2,1,60,0,1
95630,-125,4,2,1,60,0,1
95806,-90.9090909090909,4,2,1,60,0,1
96159,-62.5,4,2,1,60,0,1
96336,-71.4285714285714,4,2,1,60,0,1
98630,-52.6315789473684,4,2,1,60,0,1
99512,-58.8235294117647,4,2,1,60,0,1
100218,-62.5,4,2,1,60,0,1
103042,-62.5,4,2,1,60,0,0

[Colours]
Combo1 : 0,255,0
Combo2 : 0,255,255
Combo3 : 147,89,217
Combo4 : 255,0,0

[HitObjects]
57,380,12689,6,0,L|37:265,1,93.7500035762788,0|0,0:0|0:0,0:0:0:0:
209,217,13042,2,0,L|76:185,1,125,8|0,0:0|0:0,0:0:0:0:
246,96,13571,2,0,L|142:73,1,93.7500035762788,0|0,0:0|0:0,0:0:0:0:
219,29,13747,2,0,L|305:13,1,62.5,8|0,0:0|0:0,0:0:0:0:
217,171,13924,2,0,L|130:195,1,62.5,0|0,0:0|0:0,0:0:0:0:
340,255,14100,6,0,P|330:346|308:362,1,125,0|0,0:0|0:0,0:0:0:0:
246,368,14365,1,0,0:0:0:0:
308,361,14453,1,8,0:0:0:0:
183,283,14630,1,0,0:0:0:0:
417,167,14806,2,0,L|276:142,1,125,0|8,0:0|0:0,0:0:0:0:
349,111,15071,1,0,0:0:0:0:
293,82,15159,1,8,0:0:0:0:
161,40,15336,2,0,L|243:28,1,62.5,8|8,0:0|0:0,0:0:0:0:
403,249,15512,6,0,L|279:290,1,93.7500035762788,0|0,0:0|0:0,0:0:0:0:
461,338,15865,2,0,L|408:346,1,31.25,8|0,0:0|0:0,0:0:0:0:
368,351,16042,2,0,L|456:338,1,62.5,0|0,0:0|0:0,0:0:0:0:
461,338,16306,1,0,0:0:0:0:
413,346,16394,1,0,0:0:0:0:
254,272,16571,2,0,L|393:246,1,125,8|0,0:0|0:0,0:0:0:0:
136,163,16924,5,0,0:0:0:0:
283,107,17100,2,0,L|157:75,1,93.7500035762788,0|0,0:0|0:0,0:0:0:0:
249,59,17365,1,0,0:0:0:0:
193,46,17453,1,0,0:0:0:0:
248,38,17542,1,8,0:0:0:0:
300,30,17630,6,0,L|155:9,1,125,8|0,0:0|0:0,0:0:0:0:
122,18,17894,1,0,0:0:0:0:
186,75,17983,2,0,L|119:86,1,46.8750017881394,0|0,0:0|0:0,0:0:0:0:
207,146,18159,2,0,L|283:157,1,62.5,8|0,0:0|0:0,0:0:0:0:
68,221,18336,6,0,L|53:342,1,93.7500035762788,0|0,0:0|0:0,0:0:0:0:
148,344,18689,1,8,0:0:0:0:
385,335,18865,2,0,L|297:320,1,62.5,8|0,0:0|0:0,0:0:0:0:
265,309,19130,1,0,0:0:0:0:
430,240,19218,2,0,L|412:140,1,93.7500035762788,0|0,0:0|0:0,0:0:0:0:
334,99,19394,2,0,L|428:55,1,62.5,0|0,0:0|0:0,0:0:0:0:
201,53,19571,2,0,L|283:55,1,62.5,8|8,0:0|0:0,0:0:0:0:
190,173,19747,6,0,L|308:187,1,93.7500035762788,0|0,0:0|0:0,0:0:0:0:
39,283,20100,1,0,0:0:0:0:
187,344,20277,2,0,L|42:373,1,125,8|0,0:0|0:0,0:0:0:0:
197,257,20630,1,0,0:0:0:0:
355,214,20806,2,0,L|270:189,1,62.5,8|8,0:0|0:0,0:0:0:0:
389,136,20983,2,0,L|455:121,1,62.5,8|0,0:0|0:0,0:0:0:0:
263,69,21159,6,0,L|122:52,1,140.625005364418,0|0,0:0|0:0,0:0:0:0:
182,28,21512,1,8,0:0:0:0:
46,148,21689,2,0,L|121:148,1,62.5,8|0,0:0|0:0,0:0:0:0:
203,195,21953,1,8,0:0:0:0:
135,249,22042,2,0,L|74:241,1,62.5
246,339,22218,2,0,L|118:369,1,125,0|8,0:0|0:0,0:0:0:0:
188,319,22483,1,0,0:0:0:0:
429,288,22571,6,0,L|418:220,1,62.5,8|0,0:0|0:0,0:0:0:0:
319,176,22747,2,0,L|310:98,1,62.5,8|0,0:0|0:0,0:0:0:0:
253,91,23012,1,8,0:0:0:0:
308,57,23100,1,8,0:0:0:0:
245,37,23189,1,8,0:0:0:0:
57,131,23277,1,8,0:0:0:0:
193,200,23453,5,8,0:0:0:0:
152,204,23511,1,0,0:0:0:0:
121,231,23570,1,0,0:0:0:0:
111,271,23629,1,8,0:0:0:0:
126,309,23688,1,0,0:0:0:0:
161,331,23747,1,0,0:0:0:0:
202,330,23805,1,8,0:0:0:0:
443,313,23894,2,0,L|446:250,1,62.5000023841859,0|0,0:0|0:0,0:0:0:0:
268,126,23983,6,0,L|138:128,1,125,6|0,0:0|0:0,0:0:0:0:
354,45,24336,1,2,0:0:0:0:
226,29,24512,1,8,0:0:0:0:
399,150,24689,1,2,0:0:0:0:
266,217,24865,1,8,0:0:0:0:
456,359,25042,2,0,L|477:207,1,125,2|8,0:0|0:0,0:0:0:0:
243,123,25306,1,0,0:0:0:0:
295,108,25394,6,0,L|427:75,1,125,2|8,0:0|0:0,0:0:0:0:
158,368,25747,1,2,0:0:0:0:
286,384,25923,1,8,0:0:0:0:
113,263,26100,1,2,0:0:0:0:
246,196,26276,1,8,0:0:0:0:
56,54,26453,2,0,L|35:206,1,125,8|8,0:0|0:0,0:0:0:0:
272,289,26718,1,8,0:0:0:0:
196,271,26806,6,0,L|334:244,1,125,6|0,0:0|0:0,0:0:0:0:
144,168,27159,1,2,0:0:0:0:
281,147,27336,2,0,L|288:72,1,62.5,8|0,0:0|0:0,0:0:0:0:
104,77,27512,2,0,P|15:121|15:169,1,125,2|8,0:0|0:0,0:0:0:0:
75,206,27777,1,0,0:0:0:0:
296,354,27865,2,0,L|171:348,1,125,2|8,0:0|0:0,0:0:0:0:
438,278,28218,5,2,0:0:0:0:
292,216,28394,2,0,L|381:191,2,62.5,8|0|2,0:0|0:0|0:0,0:0:0:0:
463,118,28747,1,8,0:0:0:0:
164,137,28924,2,0,L|154:12,1,125,2|8,0:0|0:0,0:0:0:0:
343,17,29277,2,0,L|421:7,1,62.5,8|8,0:0|0:0,0:0:0:0:
330,98,29453,2,0,L|406:88,1,62.5,8|8,0:0|0:0,0:0:0:0:
175,231,29630,6,0,L|341:255,1,125,6|0,0:0|0:0,0:0:0:0:
314,301,29894,1,8,0:0:0:0:
107,366,29983,2,0,L|124:302,1,62.5,10|0,0:0|0:0,0:0:0:0:
228,156,30159,6,0,L|83:224,1,137.500004196167,2|0,0:0|0:0,0:0:0:0:
158,150,30424,1,8,0:0:0:0:
374,120,30512,2,0,L|301:99,1,68.7500020980836,10|0,0:0|0:0,0:0:0:0:
212,69,30689,6,0,L|365:22,1,149.999995422363,2|0,0:0|0:0,0:0:0:0:
288,11,30953,1,8,0:0:0:0:
464,148,31042,2,0,L|459:235,1,74.9999977111817,10|0,0:0|0:0,0:0:0:0:
368,292,31218,6,0,L|200:341,1,162.499992561341,2|0,0:0|0:0,0:0:0:0:
194,289,31483,1,8,0:0:0:0:
347,194,31571,2,0,L|371:113,1,81.2499962806703,10|0,0:0|0:0,0:0:0:0:
204,44,31747,6,0,L|377:15,1,174.999994659424,2|0,0:0|0:0,0:0:0:0:
216,170,32012,1,8,0:0:0:0:
59,284,32100,2,0,L|152:293,1,87.499997329712,10|0,0:0|0:0,0:0:0:0:
336,347,32277,2,0,L|230:361,1,93.7500035762788,10|0,0:0|0:0,0:0:0:0:
350,353,32453,5,8,0:0:0:0:
410,283,32541,1,8,0:0:0:0:
419,191,32629,1,8,0:0:0:0:
372,112,32717,1,8,0:0:0:0:
288,75,32806,2,0,L|174:64,1,93.7500035762788,8|8,0:0|0:0,0:0:0:0:
306,178,32983,2,0,L|199:165,1,93.7500035762788,8|0,0:0|0:0,0:0:0:0:
334,257,33159,6,0,L|458:266,1,93.7500035762788,0|0,1:1|1:1,0:0:0:0:
333,344,33336,2,0,L|239:337,1,93.7500035762788,0|0,1:1|1:1,0:0:0:0:
84,262,33512,2,0,L|176:276,1,93.7500035762788,0|0,1:1|1:1,0:0:0:0:
372,112,33689,2,0,L|282:138,1,93.7500035762788,0|0,1:1|1:1,0:0:0:0:
53,355,33865,6,0,P|82:208|163:151,1,206.250006294251
281,138,34218,2,0,L|375:113,1,87.499997329712,8|0,0:0|0:0,0:0:0:0:
176,276,34394,2,0,L|69:264,1,87.499997329712,8|0,0:0|0:0,0:0:0:0:
291,359,34571,2,0,L|186:345,1,87.499997329712,8|8,0:0|0:0,0:0:0:0:
370,266,34747,5,0,3:0:0:0:
325,265,34791,1,0,0:0:0:0:
280,264,34835,1,0,3:0:0:0:
325,266,34879,1,0,0:0:0:0:
369,266,34923,1,0,1:0:0:0:
112,157,35100,1,0,1:0:0:0:
262,136,35277,6,0,P|124:202|395:376,1,656.250025033952,0|0,1:0|1:0,0:0:0:0:
224,304,35983,2,0,L|275:289,1,31.25,6|0,0:0|0:0,0:0:0:0:
433,197,36159,2,0,L|436:99,1,93.7500035762788,4|0,0:0|0:0,0:0:0:0:
254,89,36336,2,0,L|358:60,1,93.7500035762788,0|0,0:0|0:0,0:0:0:0:
161,40,36512,6,0,P|259:88|166:227,1,281.250010728836,4|8,0:0|0:0,0:0:0:0:
108,267,36865,2,0,L|222:312,1,106.250002026558,10|0,0:0|0:0,0:0:0:0:
411,354,37042,1,8,0:0:0:0:
327,340,37130,1,8,0:0:0:0:
409,269,37218,1,8,0:0:0:0:
260,114,37306,1,8,0:0:0:0:
342,213,37394,6,0,P|434:150|296:30,1,318.750006079674,6|0,0:0|0:0,0:0:0:0:
236,25,37747,2,0,P|345:56|246:202,1,318.750006079674,6|0,0:0|0:0,0:0:0:0:
59,285,38100,6,0,L|466:389,1,400
446,384,38365,2,0,L|128:303,1,324.999985122681,0|0,0:0|0:0,0:0:0:0:
39,212,38630,1,8,0:0:0:0:
64,56,38718,1,8,0:0:0:0:
262,51,38806,2,0,L|155:17,2,81.2499962806703,2|0|8,0:0|0:0|0:0,0:0:0:0:
100,134,39071,2,0,L|214:171,1,81.2499962806703,10|0,0:0|0:0,0:0:0:0:
100,297,39247,1,0,0:0:0:0:
326,381,39336,6,0,B|263:263|263:263|121:217,1,281.250010728836,14|0,0:0|0:0,0:0:0:0:
300,200,39689,2,0,L|202:167,1,93.7500035762788,2|0,0:0|0:0,0:0:0:0:
132,99,39865,2,0,L|236:76,1,93.7500035762788
305,17,40042,2,0,L|201:-3,1,93.7500035762788,8|8,0:0|0:0,0:0:0:0:
57,332,40218,2,0,L|160:314,1,93.7500035762788,4|0,0:0|0:0,0:0:0:0:
419,258,40394,2,0,L|309:233,1,93.7500035762788,0|0,0:0|0:0,0:0:0:0:
238,236,40571,2,0,P|366:284|205:363,1,375,4|0,0:0|0:0,0:0:0:0:
477,127,40924,6,0,P|359:164|514:352,1,468.750017881394,4|0,0:0|0:0,0:0:0:0:
457,306,41453,1,0,0:0:0:0:
390,273,41542,1,2,0:0:0:0:
186,170,41630,2,0,L|236:156,1,31.25
446,151,41806,2,0,L|447:47,1,93.7500035762788
273,55,41983,2,0,L|268:-57,1,93.7500035762788,0|0,0:0|0:0,0:0:0:0:
70,73,42159,6,0,P|164:117|83:291,1,281.250010728836,4|0,0:0|0:0,0:0:0:0:
48,334,42512,2,0,L|159:368,1,93.7500035762788,8|0,0:0|0:0,0:0:0:0:
308,297,42689,2,0,L|189:328,1,93.7500035762788,8|8,0:0|0:0,0:0:0:0:
376,203,42865,2,0,L|254:230,1,93.7500035762788,8|8,0:0|0:0,0:0:0:0:
101,176,43042,6,0,L|220:150,1,93.7500035762788
280,41,43218,2,0,L|267:155,1,93.7500035762788
60,254,43394,2,0,L|177:278,1,81.2499962806703
227,371,43570,2,0,L|142:385,1,81.2499962806703
332,253,43747,6,0,L|471:246,1,93.7500035762788,4|0,0:0|0:0,0:0:0:0:
445,170,43924,1,0,0:0:0:0:
351,167,44012,1,0,0:0:0:0:
464,89,44100,2,0,L|325:82,1,93.7500035762788,10|10,0:0|0:0,0:0:0:0:
139,191,44277,6,0,L|278:184,1,93.7500035762788,4|0,0:0|0:0,0:0:0:0:
249,131,44453,1,0,0:0:0:0:
173,76,44541,1,0,0:0:0:0:
82,58,44630,2,0,L|39:169,1,93.7500035762788,10|10,0:0|0:0,0:0:0:0:
295,244,44806,2,0,L|331:348,1,93.7500035762788,4|0,0:0|0:0,0:0:0:0:
217,317,44983,2,0,L|190:407,1,93.7500035762788,0|0,0:0|0:0,0:0:0:0:
296,246,45159,2,0,L|332:344,1,93.7500035762788,10|10,0:0|0:0,0:0:0:0:
148,227,45336,2,0,L|243:181,1,93.7500035762788,4|0,0:0|0:0,0:0:0:0:
331,101,45512,6,0,L|228:73,3,81.2499962806703,8|8|8|8,0:0|0:0|0:0|0:0,0:0:0:0:
424,77,45865,1,6,0:0:0:0:
349,125,45953,1,0,0:0:0:0:
362,213,46041,1,0,0:0:0:0:
447,238,46129,1,0,0:0:0:0:
286,167,46218,1,6,0:0:0:0:
211,215,46306,1,0,0:0:0:0:
224,303,46394,1,0,0:0:0:0:
309,328,46482,1,0,0:0:0:0:
96,358,46571,6,0,L|72:149,1,187.5
161,55,46924,2,0,L|183:226,1,168.749994850159,0|0,0:0|0:0,0:0:0:0:
415,324,47277,6,0,L|470:322,1,31.25,2|0,0:0|0:0,0:0:0:0:
301,242,47453,2,0,L|203:234,1,93.7500035762788,6|0,0:0|0:0,0:0:0:0:
403,146,47630,2,0,L|295:129,1,93.7500035762788,6|0,0:0|0:0,0:0:0:0:
96,126,47806,6,0,P|196:161|100:285,1,281.250010728836,6|8,0:0|0:0,0:0:0:0:
46,338,48159,2,0,L|140:368,1,93.7500035762788,8|0,0:0|0:0,0:0:0:0:
249,306,48336,1,8,0:0:0:0:
157,281,48424,1,8,0:0:0:0:
273,218,48512,1,8,0:0:0:0:
182,188,48600,1,8,0:0:0:0:
328,95,48689,5,14,0:0:0:0:
390,180,48777,1,0,0:0:0:0:
486,221,48865,1,0,0:0:0:0:
382,264,48953,1,12,0:0:0:0:
195,219,49042,5,14,0:0:0:0:
284,198,49130,1,0,0:0:0:0:
348,131,49218,1,0,0:0:0:0:
365,40,49306,1,0,0:0:0:0:
152,50,49394,6,0,L|396:265,1,312.5,2|0,0:0|0:0,0:0:0:0:
387,257,49659,2,0,L|27:398,1,349.999989318848,2|0,0:0|0:0,0:0:0:0:
150,301,49924,2,0,L|51:297,1,62.5,0|0,0:0|0:0,0:0:0:0:
284,198,50100,2,0,L|416:160,1,125,6|0,0:0|0:0,0:0:0:0:
148,94,50365,2,0,L|-17:66,1,93.7500035762788,6|0,0:0|0:0,0:0:0:0:
113,130,50542,1,8,0:0:0:0:
318,300,50630,6,0,P|225:204|63:171,1,281.250010728836,14|0,0:0|0:0,0:0:0:0:
249,134,50983,2,0,L|363:109,1,93.7500035762788,2|0,0:0|0:0,0:0:0:0:
246,46,51159,2,0,L|121:36,1,93.7500035762788,0|0,0:0|0:0,0:0:0:0:
268,229,51336,2,0,L|388:235,1,93.7500035762788,12|8,0:0|0:0,0:0:0:0:
272,322,51512,2,0,L|163:340,1,93.7500035762788,6|0,0:0|0:0,0:0:0:0:
83,260,51689,2,0,L|185:243,1,93.7500035762788,4|0,0:0|0:0,0:0:0:0:
411,58,51865,1,6,0:0:0:0:
132,146,52042,1,0,0:0:0:0:
449,384,52218,6,0,L|479:117,1,250,2|0,0:0|0:0,0:0:0:0:
376,89,52483,2,0,L|92:48,1,250,2|0,0:0|0:0,0:0:0:0:
202,169,52747,1,2,0:0:0:0:
287,221,52835,1,0,0:0:0:0:
127,268,52924,2,0,L|242:283,1,62.5
268,356,53100,2,0,L|156:372,1,93.7500035762788
338,155,53277,2,0,L|254:95,1,93.7500035762788
85,63,53453,6,0,P|231:126|87:277,1,375,6|8,0:0|0:0,0:0:0:0:
53,329,53806,1,8,0:0:0:0:
150,364,53894,1,8,0:0:0:0:
336,153,53983,2,0,L|239:248,1,125,8|8,0:0|0:0,0:0:0:0:
336,153,54159,2,0,L|213:228,1,125,8|8,0:0|0:0,0:0:0:0:
417,74,54336,6,0,P|495:181|326:326,1,375,6|0,0:0|0:0,0:0:0:0:
146,93,54689,2,0,P|238:132|137:272,1,281.250010728836,10|8,0:0|0:0,0:0:0:0:
105,291,55042,6,0,L|432:346,1,250,6|0,0:0|0:0,0:0:0:0:
371,282,55306,1,0,0:0:0:0:
219,166,55394,2,0,L|333:142,1,93.7500035762788
137,22,55571,6,0,P|70:129|79:271,1,187.500007152558,6|0,0:0|0:0,0:0:0:0:
148,219,55836,1,0,0:0:0:0:
302,240,55924,2,0,L|193:288,1,93.7500035762788
413,360,56100,6,0,B|336:199|336:199|274:158|274:158|221:142|221:142|167:163,1,337.499989700318,6|0,0:0|0:0,0:0:0:0:
100,299,56453,1,0,0:0:0:0:
195,360,56542,1,0,0:0:0:0:
356,170,56630,6,0,P|253:234|356:323,1,281.250010728836,6|0,0:0|0:0,0:0:0:0:
501,256,56983,2,0,L|368:257,1,93.7500035762788,8|8,0:0|0:0,0:0:0:0:
214,104,57159,2,0,L|358:84,1,93.7500035762788,0|0,0:0|0:0,0:0:0:0:
210,196,57336,2,0,L|194:293,1,74.9999977111817,8|8,0:0|0:0,0:0:0:0:
302,336,57512,2,0,L|208:349,1,56.2499982833863,8|8,0:0|0:0,0:0:0:0:
39,207,57689,2,0,L|97:220,1,37.4999988555909,8|8,0:0|0:0,0:0:0:0:
331,195,57865,6,0,P|390:150|351:66,1,174.999994659424,0|8,0:0|0:0,0:0:0:0:
215,47,58394,1,8,0:0:0:0:
384,315,58571,2,0,L|269:342,2,87.499997329712,8|0|0,0:0|0:0|0:0,0:0:0:0:
234,250,59100,2,0,L|216:198,1,43.749998664856,0|0,0:0|0:0,0:0:0:0:
183,171,59277,2,0,L|68:148,1,87.499997329712,0|0,0:0|0:0,0:0:0:0:
151,117,59542,1,0,0:0:0:0:
209,100,59630,2,0,L|272:89,1,43.749998664856,8|0,0:0|0:0,0:0:0:0:
74,31,59806,5,0,0:0:0:0:
225,262,59983,2,0,L|106:292,1,87.499997329712,0|8,0:0|0:0,0:0:0:0:
299,375,60336,2,0,L|413:388,1,87.499997329712,0|8,0:0|0:0,0:0:0:0:
435,363,60600,1,8,0:0:0:0:
383,316,60689,6,0,L|288:301,1,87.499997329712,0|0,0:0|0:0,0:0:0:0:
234,282,60953,1,0,0:0:0:0:
297,238,61042,2,0,L|403:253,1,87.499997329712,8|0,0:0|0:0,0:0:0:0:
345,202,61306,1,0,0:0:0:0:
131,140,61394,6,0,L|212:133,1,43.749998664856,8|0,0:0|0:0,0:0:0:0:
253,95,61571,2,0,L|154:77,1,87.499997329712,0|0,0:0|0:0,0:0:0:0:
228,50,61836,1,0,0:0:0:0:
285,46,61924,1,0,0:0:0:0:
341,75,62012,1,0,0:0:0:0:
176,227,62100,6,0,L|58:245,1,87.499997329712,0|0,0:0|0:0,0:0:0:0:
86,291,62365,2,0,L|211:267,1,87.499997329712,0|0,0:0|0:0,0:0:0:0:
218,303,62630,1,0,0:0:0:0:
174,339,62718,1,8,0:0:0:0:
220,358,62806,6,0,L|330:363,1,87.499997329712,8|0,0:0|0:0,0:0:0:0:
261,341,63071,1,0,0:0:0:0:
218,303,63159,1,8,0:0:0:0:
170,276,63247,1,8,0:0:0:0:
228,249,63336,1,8,0:0:0:0:
470,228,63512,6,0,L|462:109,1,87.499997329712,0|0,0:0|0:0,0:0:0:0:
395,113,63777,1,0,0:0:0:0:
325,100,63865,2,0,L|228:83,1,87.499997329712,8|8,0:0|0:0,0:0:0:0:
395,113,64130,1,0,0:0:0:0:
360,218,64218,1,0,0:0:0:0:
283,266,64306,2,0,L|352:296,1,43.749998664856,0|0,0:0|0:0,0:0:0:0:
193,342,64571,2,0,L|304:369,1,87.499997329712,8|0,0:0|0:0,0:0:0:0:
92,255,64924,5,0,0:0:0:0:
220,219,65100,2,0,L|235:111,1,87.499997329712,0|0,0:0|0:0,0:0:0:0:
172,111,65365,1,0,0:0:0:0:
106,111,65453,2,0,L|85:11,1,87.499997329712,0|8,0:0|0:0,0:0:0:0:
257,16,65806,2,0,L|317:16,1,43.749998664856,0|0,0:0|0:0,0:0:0:0:
258,96,65983,2,0,L|166:112,1,87.499997329712,8|8,0:0|0:0,0:0:0:0:
226,151,66247,1,0,0:0:0:0:
401,264,66336,6,0,L|463:268,4,43.749998664856,0|0|0|0|0,0:0|0:0|0:0|0:0|0:0,0:0:0:0:
341,266,66777,1,0,0:0:0:0:
177,356,66865,6,0,L|115:360,4,43.749998664856,0|0|0|0|0,0:0|0:0|0:0|0:0|0:0,0:0:0:0:
237,358,67306,1,0,0:0:0:0:
412,323,67394,5,0,0:0:0:0:
370,310,67482,1,0,0:0:0:0:
328,297,67570,1,0,0:0:0:0:
286,284,67658,1,0,0:0:0:0:
328,297,67746,1,0,0:0:0:0:
478,221,67924,2,0,L|400:195,1,43.749998664856,0|0,0:0|0:0,0:0:0:0:
289,133,68189,2,0,L|344:129,2,43.749998664856,0|0|0,0:0|0:0|0:0,0:0:0:0:
106,200,68453,6,0,L|185:207,1,68.7500020980836,0|0,0:0|0:0,0:0:0:0:
266,279,68630,2,0,L|172:294,1,87.499997329712,8|0,0:0|0:0,0:0:0:0:
101,297,68806,1,8,0:0:0:0:
42,259,68864,1,0,0:0:0:0:
24,192,68923,1,0,0:0:0:0:
54,130,68982,1,8,0:0:0:0:
118,104,69041,1,0,0:0:0:0:
376,113,69159,6,0,L|390:315,1,187.5,6|0,0:0|0:0,0:0:0:0:
169,297,69512,1,2,0:0:0:0:
319,212,69689,1,8,0:0:0:0:
49,81,69865,1,2,0:0:0:0:
107,99,69953,1,0,0:0:0:0:
141,150,70041,1,8,0:0:0:0:
135,211,70129,1,0,0:0:0:0:
92,255,70217,1,2,0:0:0:0:
31,262,70306,1,0,0:0:0:0:
92,317,70394,2,0,L|171:327,1,62.5,8|0,0:0|0:0,0:0:0:0:
317,330,70571,5,2,0:0:0:0:
361,287,70659,1,0,0:0:0:0:
363,227,70747,1,8,0:0:0:0:
322,182,70835,1,0,0:0:0:0:
261,179,70924,1,2,0:0:0:0:
322,178,71012,1,0,0:0:0:0:
364,135,71100,1,8,0:0:0:0:
362,74,71188,1,0,0:0:0:0:
317,32,71276,1,2,0:0:0:0:
257,36,71365,1,0,0:0:0:0:
335,97,71453,6,0,L|260:118,1,62.5,8|0,0:0|0:0,0:0:0:0:
356,168,71630,2,0,L|286:189,1,62.5,2|0,0:0|0:0,0:0:0:0:
379,237,71806,2,0,L|313:258,1,62.5,8|0,0:0|0:0,0:0:0:0:
139,351,71983,5,6,0:0:0:0:
269,358,72159,1,8,0:0:0:0:
339,332,72247,2,0,L|214:299,1,125,0|0,0:0|0:0,0:0:0:0:
294,270,72512,1,8,0:0:0:0:
107,188,72689,5,2,0:0:0:0:
269,202,72865,1,8,0:0:0:0:
267,139,72953,1,0,0:0:0:0:
266,77,73041,1,2,0:0:0:0:
423,42,73218,1,8,0:0:0:0:
94,53,73394,5,2,0:0:0:0:
268,259,73571,2,0,L|139:293,1,125,8|2,0:0|0:0,0:0:0:0:
51,337,73836,2,0,L|210:377,1,125,0|0,0:0|0:0,0:0:0:0:
366,308,74100,2,0,L|292:329,1,62.5,2|0,0:0|0:0,0:0:0:0:
375,238,74277,2,0,L|439:248,1,62.5,8|0,0:0|0:0,0:0:0:0:
364,162,74453,2,0,L|277:171,1,62.5,0|0,0:0|0:0,0:0:0:0:
116,89,74630,2,0,L|189:84,1,62.5,8|0,0:0|0:0,0:0:0:0:
402,79,74806,6,0,L|258:62,1,125,6|8,0:0|0:0,0:0:0:0:
229,94,75071,1,0,0:0:0:0:
298,148,75159,2,0,L|221:171,1,62.5,2|0,0:0|0:0,0:0:0:0:
60,239,75336,6,0,L|208:271,1,125,10|0,0:0|0:0,0:0:0:0:
111,286,75600,1,0,0:0:0:0:
118,344,75689,1,10,0:0:0:0:
188,342,75777,1,0,0:0:0:0:
372,384,75865,6,0,L|358:248,1,125,2|8,0:0|0:0,0:0:0:0:
355,217,76130,1,0,0:0:0:0:
269,208,76218,1,2,0:0:0:0:
261,167,76306,1,0,0:0:0:0:
470,118,76394,6,0,L|319:77,1,125,10|0,0:0|0:0,0:0:0:0:
297,78,76659,1,0,0:0:0:0:
348,49,76747,1,10,0:0:0:0:
292,42,76836,1,0,0:0:0:0:
85,167,76924,6,0,L|98:317,1,125,2|8,0:0|0:0,0:0:0:0:
150,300,77189,1,0,0:0:0:0:
98,324,77277,1,2,0:0:0:0:
157,335,77365,1,0,0:0:0:0:
208,346,77453,1,10,0:0:0:0:
157,335,77542,1,0,0:0:0:0:
331,269,77630,5,0,0:0:0:0:
362,265,77674,1,0,0:0:0:0:
393,262,77718,1,0,0:0:0:0:
424,258,77762,1,0,0:0:0:0:
455,255,77806,1,0,0:0:0:0:
431,258,77850,1,0,0:0:0:0:
400,263,77894,1,0,0:0:0:0:
223,197,77983,2,0,L|328:179,1,62.5,10|0,0:0|0:0,0:0:0:0:
89,240,78159,5,0,0:0:0:0:
61,215,78203,1,0,0:0:0:0:
46,180,78247,1,0,0:0:0:0:
46,142,78291,1,0,0:0:0:0:
63,108,78335,1,0,0:0:0:0:
92,84,78379,1,0,0:0:0:0:
130,75,78423,1,0,0:0:0:0:
319,264,78512,2,0,L|210:285,1,62.5,10|0,0:0|0:0,0:0:0:0:
472,321,78689,5,0,0:0:0:0:
469,289,78733,1,0,0:0:0:0:
467,258,78777,1,0,0:0:0:0:
464,227,78821,1,0,0:0:0:0:
462,196,78865,1,0,0:0:0:0:
459,165,78909,1,0,0:0:0:0:
457,134,78953,1,0,0:0:0:0:
241,194,79042,2,0,L|315:182,1,62.5,10|0,0:0|0:0,0:0:0:0:
108,112,79218,6,0,L|23:96,1,62.5,0|0,0:0|0:0,0:0:0:0:
231,56,79394,2,0,L|166:24,1,62.5,0|0,0:0|0:0,0:0:0:0:
362,40,79571,2,0,L|312:-11,1,62.5,10|0,0:0|0:0,0:0:0:0:
472,150,79747,2,0,L|372:125,1,93.7500035762788,4|0,0:0|0:0,0:0:0:0:
177,273,79924,2,0,L|158:365,2,62.5000023841859,0|0|0,0:0|0:0|0:0,0:0:0:0:
391,384,80100,5,4,0:0:0:0:
445,357,80158,1,0,0:0:0:0:
467,300,80217,1,0,0:0:0:0:
443,243,80276,1,0,0:0:0:0:
387,219,80335,1,0,0:0:0:0:
31,160,80453,6,0,L|489:104,1,449.99998626709,0|0,0:0|0:0,0:0:0:0:
472,73,81071,1,0,0:0:0:0:
108,86,81159,2,0,L|487:49,1,375,6|0,0:0|0:0,0:0:0:0:
472,73,81336,2,0,L|112:112,1,328.125003129244,6|0,0:0|0:0,0:0:0:0:
137,146,81512,2,0,L|452:110,1,262.499991989136,6|0,0:0|0:0,0:0:0:0:
390,149,81689,6,0,L|204:168,1,156.25,6|0,0:0|0:0,0:0:0:0:
151,225,81865,2,0,L|261:242,1,100,0|0,0:0|0:0,0:0:0:0:
333,268,82042,1,8,0:0:0:0:
237,272,82130,1,8,0:0:0:0:
190,356,82218,1,8,0:0:0:0:
237,439,82306,1,8,0:0:0:0:
332,444,82394,1,8,0:0:0:0:
241,339,82483,1,8,0:0:0:0:
60,66,82571,6,0,L|265:182,1,200,6|0,0:0|0:0,0:0:0:0:
150,118,82836,1,8,0:0:0:0:
304,209,82924,2,0,L|114:314,1,200,6|8,0:0|0:0,0:0:0:0:
215,257,83189,1,0,0:0:0:0:
402,245,83277,6,0,L|231:163,1,187.500007152558,4|0,0:0|0:0,0:0:0:0:
139,217,83542,2,0,L|321:302,1,187.500007152558,4|0,0:0|0:0,0:0:0:0:
121,149,83806,2,0,L|196:131,1,59.3749984145165
236,119,83983,6,0,L|119:77,1,118.749996829033,8|8,0:0|0:0,0:0:0:0:
55,59,84247,1,8,0:0:0:0:
222,34,84336,1,8,2:0:0:0:
387,84,84424,1,8,0:0:0:0:
208,198,84512,6,0,P|347:239|207:332,1,300,2|0,0:0|0:0,0:0:0:0:
124,241,84865,2,0,L|220:191,1,93.7500035762788,8|8,0:0|0:0,0:0:0:0:
137,320,85042,2,0,L|250:259,1,93.7500035762788,8|8,0:0|0:0,0:0:0:0:
377,160,85218,2,0,L|282:108,1,81.2499962806703,8|0,0:0|0:0,0:0:0:0:
127,59,85394,2,0,L|44:38,1,74.9999977111817,6|0,0:0|0:0,0:0:0:0:
155,136,85571,2,0,L|247:108,1,68.7500020980836
38,234,85747,2,0,L|48:337,1,81.2499962806703,6|0,0:0|0:0,0:0:0:0:
247,320,85924,2,0,L|139:366,1,93.7500035762788,6|0,0:0|0:0,0:0:0:0:
404,384,86100,6,0,L|383:173,1,187.5,6|0,0:0|0:0,0:0:0:0:
344,190,86423,1,0,0:0:0:0:
303,183,86482,1,0,0:0:0:0:
262,177,86541,1,0,0:0:0:0:
251,173,86600,1,0,0:0:0:0:
292,175,86659,1,0,0:0:0:0:
334,178,86717,1,0,0:0:0:0:
491,103,86806,6,0,L|390:65,1,93.7500035762788
238,175,86983,2,0,L|147:220,1,93.7500035762788,6|0,0:0|0:0,0:0:0:0:
340,265,87159,2,0,L|373:390,1,93.7500035762788,6|4,0:0|0:0,0:0:0:0:
178,282,87336,6,0,L|364:262,1,162.499992561341,6|0,0:0|0:0,0:0:0:0:
262,262,87600,1,0,0:0:0:0:
54,135,87689,1,6,0:0:0:0:
116,157,87777,1,0,0:0:0:0:
143,218,87865,1,0,0:0:0:0:
118,280,87953,1,8,0:0:0:0:
55,304,88041,1,8,0:0:0:0:
237,370,88130,1,0,0:0:0:0:
410,275,88218,6,0,P|354:149|162:75,1,318.750006079674,6|0,0:0|0:0,0:0:0:0:
384,91,88571,2,0,L|283:109,1,81.2499962806703,12|8,0:0|0:0,0:0:0:0:
210,162,88747,2,0,L|324:184,1,81.2499962806703,8|8,0:0|0:0,0:0:0:0:
130,296,88924,6,0,L|107:198,1,100,12|8,0:0|0:0,0:0:0:0:
210,162,89100,2,0,L|233:50,1,100,8|8,0:0|0:0,0:0:0:0:
336,248,89277,2,0,L|384:140,1,100,2|0,0:0|0:0,0:0:0:0:
166,358,89453,6,0,L|270:385,1,74.9999977111817,4|8,0:0|0:0,0:0:0:0:
317,270,89630,2,0,L|232:286,1,74.9999977111817,8|8,0:0|0:0,0:0:0:0:
166,358,89806,2,0,L|264:383,1,74.9999977111817,2|0,0:0|0:0,0:0:0:0:
437,324,89983,6,0,L|464:204,1,106.250002026558,4|0,0:0|0:0,0:0:0:0:
352,181,90159,2,0,L|330:57,1,106.250002026558,0|8,0:0|0:0,0:0:0:0:
225,120,90336,2,0,L|178:8,1,106.250002026558,14|0,0:0|0:0,0:0:0:0:
384,384,90512,6,0,L|284:366,1,93.7500035762788,2|0,0:0|0:0,0:0:0:0:
116,309,90689,1,8,0:0:0:0:
204,343,90777,1,8,0:0:0:0:
287,297,90865,1,8,0:0:0:0:
370,332,90953,1,8,0:0:0:0:
152,226,91042,6,0,P|254:183|127:160,1,281.250010728836,4|0,0:0|0:0,0:0:0:0:
352,68,91394,2,0,L|217:40,1,118.749996829033,6|0,0:0|0:0,0:0:0:0:
355,152,91659,6,0,P|258:173|423:326,1,474.999987316132,0|0,0:0|0:0,0:0:0:0:
118,314,92453,6,0,L|101:185,1,118.749996829033,12|8,0:0|0:0,0:0:0:0:
281,125,92718,2,0,L|268:-87,1,200,6|0,0:0|0:0,0:0:0:0:
458,220,92983,2,0,L|264:256,1,174.999994659424,0|8,0:0|0:0,0:0:0:0:
365,280,93247,1,0,0:0:0:0:
436,235,93335,5,8,0:0:0:0:
445,151,93423,1,8,0:0:0:0:
383,93,93511,1,8,0:0:0:0:
300,106,93600,1,8,0:0:0:0:
392,117,93689,2,8,L|306:136,1,87.499997329712
112,355,93865,6,0,L|217:384,1,93.7500035762788,6|0,0:0|0:0,0:0:0:0:
94,268,94042,2,0,L|83:150,1,93.7500035762788,8|8,0:0|0:0,0:0:0:0:
302,150,94218,2,0,L|199:132,1,93.7500035762788,6|0,0:0|0:0,0:0:0:0:
127,54,94394,2,0,L|234:28,1,93.7500035762788,8|0,0:0|0:0,0:0:0:0:
445,151,94571,6,0,L|436:383,1,212.500004053116,6|0,0:0|0:0,0:0:0:0:
252,184,94836,2,0,L|254:407,1,212.500004053116,6|8,0:0|0:0,0:0:0:0:
168,367,95100,1,8,0:0:0:0:
71,341,95189,1,8,0:0:0:0:
275,97,95277,5,8,0:0:0:0:
175,116,95365,1,8,0:0:0:0:
148,213,95453,1,8,0:0:0:0:
223,281,95541,1,8,0:0:0:0:
400,308,95630,2,0,L|432:312,2,33.3333333333333,8|0|0,0:0|0:0|0:0,0:0:0:0:
325,233,95806,6,0,L|107:172,1,206.250006294251,6|0,0:0|0:0,0:0:0:0:
290,113,96159,2,0,L|290:-22,1,100
457,126,96336,2,0,L|460:22,1,87.499997329712,8|8,0:0|0:0,0:0:0:0:
345,309,96512,2,0,L|447:312,1,87.499997329712,8|8,0:0|0:0,0:0:0:0:
267,363,96689,6,0,L|40:225,1,262.499991989136,12|8,0:0|0:0,0:0:0:0:
224,191,97042,2,0,L|121:135,1,87.499997329712,6|0,0:0|0:0,0:0:0:0:
345,309,97218,2,0,L|254:259,1,87.499997329712,6|0,0:0|0:0,0:0:0:0:
94,282,97394,6,0,L|75:87,1,174.999994659424,2|0,0:0|0:0,0:0:0:0:
270,110,97659,2,0,B|277:-42|277:-42|274:37,1,174.999994659424,2|0,0:0|0:0,0:0:0:0:
458,145,97924,1,2,0:0:0:0:
374,152,98012,1,0,0:0:0:0:
338,227,98100,1,0,0:0:0:0:
385,296,98188,1,0,0:0:0:0:
468,292,98277,2,0,L|366:302,1,87.499997329712,8|0,0:0|0:0,0:0:0:0:
212,352,98453,2,0,L|321:371,1,87.499997329712,8|0,0:0|0:0,0:0:0:0:
78,329,98630,6,0,P|147:212|366:159,1,356.249990487099,6|8,0:0|0:0,0:0:0:0:
274,192,98983,1,8,0:0:0:0:
349,155,99071,1,8,0:0:0:0:
241,114,99159,1,8,0:0:0:0:
319,80,99247,1,8,0:0:0:0:
207,40,99336,1,8,0:0:0:0:
286,8,99424,1,8,0:0:0:0:
482,259,99512,6,0,P|428:139|207:95,1,318.750006079674,6|0,0:0|0:0,0:0:0:0:
429,9,99865,2,0,L|337:66,1,106.250002026558,6|0,0:0|0:0,0:0:0:0:
178,243,100042,2,0,L|82:179,1,106.250002026558
306,362,100218,6,0,L|340:35,1,300,6|0,0:0|0:0,0:0:0:0:
216,26,100571,2,0,L|169:8,2,50,8|8|8,0:0|0:0|0:0,0:0:0:0:
432,263,100747,6,0,P|367:163|158:140,1,300,6|0,0:0|0:0,0:0:0:0:
306,362,101100,2,0,L|361:345,2,50,8|0|8,0:0|0:0|0:0,0:0:0:0:
81,354,101277,6,0,P|154:259|364:195,1,300
128,56,101630,2,0,L|240:-21,1,100
415,124,101806,6,0,P|304:145|418:282,1,300,6|0,0:0|0:0,0:0:0:0:
447,361,102159,2,0,L|328:365,1,100,8|8,0:0|0:0,0:0:0:0:
132,323,102336,5,4,0:0:0:0:
231,262,102424,1,0,0:0:0:0:
182,252,102468,1,0,0:0:0:0:
149,216,102512,1,0,0:0:0:0:
145,167,102556,1,0,0:0:0:0:
172,126,102600,1,0,0:0:0:0:
218,109,102644,1,0,0:0:0:0:
265,123,102689,2,0,L|159:76,1,100
395,238,102865,2,0,L|297:206,1,100
63,373,103042,5,0,0:0:0:0:
