osu file format v14

[General]
AudioFilename: audio.mp3
AudioLeadIn: 0
PreviewTime: 48936
Countdown: 0
SampleSet: Soft
StackLeniency: 0.7
Mode: 3
LetterboxInBreaks: 0
SpecialStyle: 0
WidescreenStoryboard: 0

[Editor]
Bookmarks: 12549,24936,37323,49710,62097,74484,86871,99258,111645,124032,136420,148807,161194,173581,185968,198355
DistanceSpacing: 2.8
BeatDivisor: 8
GridSize: 16
TimelineZoom: 2.5

[Metadata]
Title:Falling Down feat. Renko x TRIANGLE
TitleUnicode:Falling Down feat. Renko × TRI△NGLE
Artist:Zekk
ArtistUnicode:Zekk
Creator:AelSan
Version:Down Down with You
Source:
Tags:fa featured mappers' guild mg artist jpop j-pop techno future core electronic japanese english SPD GAR speed garage Trinity Force diverse system tano*c megarex C94 comiket comic market 94 コミックマーケット94 MRX-024 MRX-041 hybrid
BeatmapID:4108379
BeatmapSetID:1978898

[Difficulty]
HPDrainRate:7.5
CircleSize:4
OverallDifficulty:7.5
ApproachRate:5
SliderMultiplier:1.4
SliderTickRate:1

[Events]
//Background and Video events
0,0,"FondoZekk_Raiden.png",0,0
//Break Periods
//Storyboard Layer 0 (Background)
//Storyboard Layer 1 (Fail)
//Storyboard Layer 2 (Pass)
//Storyboard Layer 3 (Foreground)
//Storyboard Layer 4 (Overlay)
//Storyboard Sound Samples
Sample,130226,0,"crash1.wav",40

[TimingPoints]
162,387.096774193548,4,2,1,60,1,0

[HitObjects]
64,192,162,5,2,0:0:0:53:
192,192,162,1,0,0:0:0:0:
448,192,162,1,0,0:0:0:0:
320,192,549,1,2,0:0:0:53:
448,192,549,1,0,0:0:0:40:crash1.wav
64,192,678,1,0,0:0:0:0:
320,192,742,1,0,0:0:0:0:
192,192,871,1,0,0:0:0:0:
64,192,936,1,2,0:0:0:53:
448,192,936,1,0,0:0:0:0:
320,192,1129,1,0,0:0:0:0:
64,192,1323,1,2,0:0:0:53:
192,192,1323,1,0,0:0:0:0:
320,192,1452,1,0,0:0:0:0:
448,192,1516,1,0,0:0:0:0:
192,192,1645,1,0,0:0:0:0:
64,192,1710,1,2,0:0:0:53:
320,192,1710,1,0,0:0:0:0:
448,192,1839,1,0,0:0:0:0:
192,192,1903,1,0,0:0:0:0:
320,192,2032,1,0,0:0:0:0:
64,192,2097,1,2,0:0:0:53:
448,192,2097,1,0,0:0:0:0:
192,192,2226,1,0,0:0:0:0:
64,192,2291,1,0,0:0:0:0:
320,192,2484,128,2,2549:0:0:0:53:
448,192,2484,1,0,0:0:0:0:
64,192,2613,128,0,2678:0:0:0:0:
448,192,2678,128,0,2742:0:0:0:0:
64,192,2871,1,2,0:0:0:53:
320,192,2871,128,0,2936:0:0:0:0:
192,192,3065,1,0,0:0:0:0:
448,192,3065,128,0,3129:0:0:0:0:
64,192,3258,1,2,0:0:0:53:
192,192,3258,128,0,3323:0:0:0:0:
448,192,3387,1,0,0:0:0:0:
192,192,3452,1,0,0:0:0:0:
64,192,3645,1,2,0:0:0:53:
448,192,3645,1,0,0:0:0:0:
320,192,3839,1,0,0:0:0:0:
192,192,3968,1,0,0:0:0:0:
320,192,4032,1,2,0:0:0:53:
448,192,4032,1,0,0:0:0:0:
64,192,4226,1,0,0:0:0:0:
192,192,4420,1,2,0:0:0:53:
448,192,4420,1,0,0:0:0:0:
64,192,4613,1,0,0:0:0:0:
320,192,4742,1,0,0:0:0:0:
64,192,4807,1,2,0:0:0:53:
192,192,4807,1,0,0:0:0:30:fx1.wav
448,192,4936,1,0,0:0:0:0:
320,192,5000,1,0,0:0:0:0:
64,192,5194,1,2,0:0:0:53:
320,192,5194,1,0,0:0:0:0:
64,192,5387,1,0,0:0:0:60:snare2.wav
192,192,5387,1,0,0:0:0:0:
448,192,5484,1,0,0:0:0:0:
320,192,5581,1,2,0:0:0:53:
448,192,5581,1,0,0:0:0:0:
64,192,5678,1,0,0:0:0:0:
192,192,5774,1,2,0:0:0:53:
320,192,5774,1,0,0:0:0:0:
64,192,5903,1,2,0:0:0:53:
192,192,5903,1,0,0:0:0:0:
448,192,5968,1,0,0:0:0:0:
192,192,6097,1,2,0:0:0:53:
320,192,6097,1,0,0:0:0:0:
64,192,6161,1,2,0:0:0:53:
448,192,6161,1,0,0:0:0:0:
64,192,6291,1,2,0:0:0:53:
448,192,6291,1,0,0:0:0:0:
192,192,6355,1,2,0:0:0:53:
320,192,6355,1,0,0:0:0:0:
192,192,6549,1,0,0:0:0:0:
448,192,6549,1,0,0:0:0:0:
64,192,6742,1,2,0:0:0:53:
320,192,6742,1,0,0:0:0:30:crash1.wav
448,192,6871,1,0,0:0:0:0:
192,192,6936,1,0,0:0:0:0:
320,192,7065,1,0,0:0:0:0:
64,192,7129,1,2,0:0:0:53:
448,192,7129,1,0,0:0:0:0:
192,192,7323,1,0,0:0:0:0:
320,192,7516,1,2,0:0:0:53:
448,192,7516,1,0,0:0:0:0:
192,192,7645,1,0,0:0:0:0:
64,192,7710,1,0,0:0:0:0:
320,192,7839,1,0,0:0:0:0:
192,192,7903,1,2,0:0:0:53:
448,192,7903,1,0,0:0:0:0:
64,192,8032,1,0,0:0:0:0:
320,192,8097,1,0,0:0:0:0:
192,192,8226,1,0,0:0:0:0:
64,192,8291,1,2,0:0:0:53:
448,192,8291,1,0,0:0:0:0:
320,192,8420,1,0,0:0:0:0:
448,192,8484,1,0,0:0:0:0:
64,192,8678,1,2,0:0:0:53:
192,192,8678,128,0,8742:0:0:0:0:
448,192,8807,128,0,8871:0:0:0:0:
64,192,8871,128,0,8936:0:0:0:0:
192,192,9065,128,2,9129:0:0:0:53:
448,192,9065,1,0,0:0:0:0:
64,192,9258,128,0,9323:0:0:0:0:
320,192,9258,1,0,0:0:0:0:
192,192,9387,1,0,0:0:0:0:
320,192,9452,128,2,9516:0:0:0:53:
448,192,9452,1,0,0:0:0:0:
64,192,9581,1,0,0:0:0:0:
320,192,9645,1,0,0:0:0:20:snare.wav
192,192,9774,1,0,0:0:0:0:
64,192,9839,1,2,0:0:0:53:
448,192,9839,1,0,0:0:0:0:
192,192,10032,1,0,0:0:0:0:
320,192,10161,1,0,0:0:0:0:
64,192,10226,1,2,0:0:0:26:
192,192,10226,1,0,0:0:0:30:snare.wav
448,192,10274,1,0,0:0:0:10:snare.wav
320,192,10323,1,0,0:0:0:10:snare.wav
64,192,10420,1,0,0:0:0:10:snare.wav
192,192,10613,1,2,0:0:0:26:
320,192,10613,1,0,0:0:0:10:snare.wav
448,192,10661,1,0,0:0:0:10:snare.wav
64,192,10710,1,0,0:0:0:10:snare.wav
320,192,10807,1,0,0:0:0:10:snare.wav
192,192,10936,1,0,0:0:0:0:
320,192,11000,1,2,0:0:0:53:
448,192,11000,1,0,0:0:0:30:hihat1.wav
64,192,11194,1,2,0:0:0:53:
320,192,11194,1,0,0:0:0:0:
192,192,11387,1,2,0:0:0:8:soft-hitwhistle.wav
320,192,11452,1,2,0:0:0:8:soft-hitwhistle.wav
192,192,11516,1,2,0:0:0:18:soft-hitwhistle.wav
320,192,11581,1,2,0:0:0:28:soft-hitwhistle.wav
192,192,11645,1,2,0:0:0:35:soft-hitwhistle.wav
320,192,11710,1,2,0:0:0:40:soft-hitwhistle.wav
64,192,11774,1,2,0:0:0:53:
192,192,11774,1,0,0:0:0:0:
192,192,11968,128,0,12161:0:0:0:0:
320,192,11968,1,0,0:0:0:0:
448,192,12032,1,0,0:0:0:0:
320,192,12097,128,0,12226:0:0:0:0:
64,192,12161,1,2,0:0:0:53:
448,192,12161,128,0,12226:0:0:0:0:
320,192,12291,1,0,0:0:0:0:
64,192,12355,128,0,12549:0:0:0:0:
192,192,12484,128,0,12549:0:0:0:0:
320,192,12549,128,2,13000:0:0:0:53:
448,192,12549,128,0,12742:0:0:0:40:crash1.wav
64,192,12678,1,0,0:0:0:0:
192,192,12742,128,0,12807:0:0:0:0:
448,192,12871,1,0,0:0:0:0:
64,192,12936,128,8,13000:0:0:0:53:
192,192,12936,128,2,13000:0:0:0:0:
320,192,13065,128,0,13194:0:0:0:0:
64,192,13129,128,0,13194:0:0:0:0:
448,192,13129,1,0,0:0:0:0:
192,192,13258,1,0,0:0:0:0:
320,192,13323,1,2,0:0:0:53:
448,192,13323,1,0,0:0:0:0:
320,192,13452,128,0,13516:0:0:0:0:
64,192,13516,1,0,0:0:0:0:
448,192,13516,128,0,13581:0:0:0:0:
192,192,13645,128,0,13710:0:0:0:0:
64,192,13710,1,8,0:0:0:53:
448,192,13710,1,2,0:0:0:0:
64,192,13839,128,0,13903:0:0:0:0:
320,192,13903,128,0,13968:0:0:0:0:
448,192,13903,1,0,0:0:0:0:
192,192,14032,1,0,0:0:0:0:
320,192,14097,128,2,14291:0:0:0:53:
448,192,14097,128,0,14226:0:0:0:0:
64,192,14226,1,0,0:0:0:0:
192,192,14291,128,0,14355:0:0:0:0:
448,192,14291,1,0,0:0:0:0:
448,192,14420,128,0,14484:0:0:0:0:
64,192,14484,128,8,14549:0:0:0:53:
320,192,14484,1,2,0:0:0:0:
320,192,14613,128,0,14678:0:0:0:0:
192,192,14678,128,0,14742:0:0:0:0:
448,192,14678,1,0,0:0:0:0:
320,192,14807,128,0,14871:0:0:0:0:
64,192,14871,128,2,14936:0:0:0:53:
192,192,14871,1,0,0:0:0:0:
320,192,15000,128,0,15065:0:0:0:0:
192,192,15065,128,0,15129:0:0:0:0:
448,192,15065,1,0,0:0:0:0:
64,192,15194,128,0,15258:0:0:0:0:
320,192,15258,1,8,0:0:0:53:
448,192,15258,128,2,15387:0:0:0:0:
320,192,15387,128,0,15516:0:0:0:0:
64,192,15452,1,0,0:0:0:0:
192,192,15452,128,0,15516:0:0:0:0:
448,192,15581,128,0,15645:0:0:0:0:
64,192,15645,128,2,15903:0:0:0:53:
192,192,15645,128,0,15774:0:0:0:0:
320,192,15774,1,0,0:0:0:0:
192,192,15839,1,0,0:0:0:0:
448,192,15839,128,0,15903:0:0:0:0:
320,192,15968,128,0,16032:0:0:0:0:
64,192,16032,1,8,0:0:0:53:
192,192,16032,1,2,0:0:0:0:
64,192,16161,128,0,16226:0:0:0:0:
320,192,16226,1,0,0:0:0:0:
448,192,16226,128,0,16355:0:0:0:0:
192,192,16355,128,0,16420:0:0:0:0:
64,192,16420,1,2,0:0:0:53:
320,192,16420,1,0,0:0:0:0:
320,192,16549,1,0,0:0:0:0:
64,192,16613,1,0,0:0:0:0:
448,192,16613,128,0,16742:0:0:0:0:
320,192,16742,128,0,16807:0:0:0:0:
64,192,16807,1,8,0:0:0:53:
192,192,16807,1,2,0:0:0:0:
192,192,16936,1,0,0:0:0:0:
64,192,17000,1,0,0:0:0:0:
448,192,17000,1,0,0:0:0:0:
320,192,17129,1,0,0:0:0:0:
64,192,17194,128,2,17387:0:0:0:53:
192,192,17194,128,0,17323:0:0:0:0:
448,192,17323,1,0,0:0:0:0:
192,192,17387,1,0,0:0:0:0:
320,192,17387,128,0,17452:0:0:0:0:
448,192,17516,128,0,17581:0:0:0:0:
64,192,17581,1,8,0:0:0:53:
192,192,17581,1,2,0:0:0:0:
192,192,17710,1,0,0:0:0:0:
320,192,17774,1,0,0:0:0:0:
448,192,17774,128,0,17903:0:0:0:0:
64,192,17903,128,0,17968:0:0:0:0:
192,192,17968,1,2,0:0:0:53:
448,192,17968,1,0,0:0:0:0:
448,192,18097,1,0,0:0:0:0:
192,192,18161,128,0,18291:0:0:0:0:
320,192,18161,1,0,0:0:0:0:
320,192,18291,128,0,18355:0:0:0:0:
64,192,18355,1,8,0:0:0:53:
448,192,18355,1,2,0:0:0:0:
448,192,18484,128,0,18549:0:0:0:0:
64,192,18549,128,0,18613:0:0:0:0:
320,192,18549,1,0,0:0:0:0:
64,192,18678,128,0,18742:0:0:0:0:
320,192,18742,1,2,0:0:0:53:
448,192,18742,1,0,0:0:0:0:
320,192,18871,1,0,0:0:0:0:
64,192,18936,1,2,0:0:0:53:
192,192,18936,1,0,0:0:0:0:
448,192,19065,1,0,0:0:0:0:
192,192,19129,128,10,19194:0:0:0:53:
320,192,19129,1,0,0:0:0:30:hihat1.wav
320,192,19258,128,0,19323:0:0:0:0:
64,192,19323,1,0,0:0:0:0:
448,192,19323,128,0,19452:0:0:0:0:
192,192,19452,128,0,19516:0:0:0:0:
64,192,19516,1,2,0:0:0:53:
448,192,19516,128,0,19581:0:0:0:0:
64,192,19645,128,0,19774:0:0:0:0:
320,192,19710,128,0,19774:0:0:0:0:
448,192,19710,1,0,0:0:0:0:
192,192,19839,128,0,19903:0:0:0:0:
64,192,19903,1,8,0:0:0:53:
448,192,19903,1,2,0:0:0:0:
448,192,20032,128,0,20097:0:0:0:0:
64,192,20097,1,0,0:0:0:0:
320,192,20097,128,0,20161:0:0:0:0:
192,192,20226,1,0,0:0:0:0:
320,192,20291,128,2,20420:0:0:0:53:
448,192,20291,128,0,20484:0:0:0:0:
192,192,20420,1,0,0:0:0:0:
64,192,20484,128,0,20549:0:0:0:0:
320,192,20484,1,0,0:0:0:0:
448,192,20613,128,0,20678:0:0:0:0:
192,192,20678,1,8,0:0:0:53:
320,192,20678,128,2,20742:0:0:0:0:
192,192,20807,128,0,20871:0:0:0:0:
320,192,20871,1,0,0:0:0:0:
448,192,20871,128,0,20936:0:0:0:0:
64,192,21000,128,0,21065:0:0:0:0:
192,192,21065,1,2,0:0:0:53:
448,192,21065,1,0,0:0:0:0:
448,192,21194,128,0,21258:0:0:0:0:
64,192,21258,128,0,21323:0:0:0:0:
320,192,21258,1,0,0:0:0:0:
192,192,21387,128,0,21452:0:0:0:0:
320,192,21452,1,8,0:0:0:53:
448,192,21452,128,2,21516:0:0:0:0:
320,192,21581,128,0,21710:0:0:0:0:
64,192,21645,1,0,0:0:0:0:
192,192,21645,128,0,21774:0:0:0:0:
448,192,21774,128,0,21839:0:0:0:0:
64,192,21839,128,2,22032:0:0:0:53:
192,192,21839,128,0,21968:0:0:0:0:
320,192,21968,1,0,0:0:0:0:
192,192,22032,1,0,0:0:0:0:
448,192,22032,1,0,0:0:0:0:
320,192,22161,1,0,0:0:0:0:
64,192,22226,1,8,0:0:0:53:
448,192,22226,1,0,0:0:0:0:
192,192,22355,1,0,0:0:0:0:
320,192,22420,128,0,22549:0:0:0:0:
64,192,22549,128,0,22613:0:0:0:0:
192,192,22613,1,0,0:0:0:0:
320,192,22742,1,0,0:0:0:0:
448,192,22807,128,0,22936:0:0:0:0:
192,192,22936,128,0,23000:0:0:0:0:
64,192,23000,1,8,0:0:0:53:
320,192,23000,1,0,0:0:0:0:
448,192,23129,1,0,0:0:0:0:
192,192,23194,128,0,23258:0:0:0:0:
320,192,23323,1,0,0:0:0:0:
64,192,23387,128,2,23774:0:0:0:40:crash1.wav
448,192,23387,128,0,24549:0:0:0:40:crash1.wav
64,192,23968,1,0,0:0:0:30:tom1.wav
320,192,23968,1,0,0:0:0:0:
64,192,24097,1,0,0:0:0:30:tom2.wav
192,192,24097,1,0,0:0:0:0:
192,192,24549,1,2,0:0:0:53:
320,192,24549,1,0,0:0:0:0:
64,192,24936,1,2,0:0:0:0:
192,192,24936,1,0,0:0:0:0:
448,192,24936,1,0,0:0:0:0:
192,192,26484,1,0,0:0:0:0:
448,192,26484,1,0,0:0:0:0:
64,192,27258,1,0,0:0:0:0:
448,192,27258,1,0,0:0:0:0:
64,192,28032,1,0,0:0:0:0:
320,192,28032,1,0,0:0:0:0:
64,192,29581,1,0,0:0:0:0:
448,192,29581,1,0,0:0:0:0:
192,192,31129,1,0,0:0:0:20:soft-hitclap.wav
448,192,31129,1,0,0:0:0:0:
448,192,31516,1,0,0:0:0:20:soft-hitclap.wav
448,192,31903,1,0,0:0:0:20:soft-hitclap.wav
448,192,32291,1,0,0:0:0:20:soft-hitclap.wav
64,192,32678,1,0,0:0:0:20:soft-hitclap.wav
320,192,32678,1,0,0:0:0:0:
448,192,33065,1,0,0:0:0:20:soft-hitclap.wav
64,192,33452,1,0,0:0:0:20:soft-hitclap.wav
192,192,33452,1,0,0:0:0:0:
448,192,33839,1,0,0:0:0:20:soft-hitclap.wav
192,192,34226,1,0,0:0:0:20:soft-hitclap.wav
448,192,34226,1,0,0:0:0:0:
64,192,34613,1,0,0:0:0:20:soft-hitclap.wav
64,192,35000,1,0,0:0:0:20:soft-hitclap.wav
64,192,35387,1,0,0:0:0:20:soft-hitclap.wav
64,192,35774,1,0,0:0:0:20:soft-hitclap.wav
448,192,35774,1,0,0:0:0:0:
192,192,35823,1,0,0:0:0:0:
320,192,36161,1,0,0:0:0:20:soft-hitclap.wav
192,192,36549,1,0,0:0:0:20:soft-hitclap.wav
448,192,36791,1,0,0:0:0:0:
192,192,36839,1,0,0:0:0:0:
320,192,36887,1,0,0:0:0:0:
64,192,36936,1,0,0:0:0:40:snare.wav
448,192,36936,1,0,0:0:0:0:
320,192,37129,1,0,0:0:0:30:snare.wav
448,192,37178,1,0,0:0:0:30:snare.wav
64,192,37226,1,0,0:0:0:30:snare.wav
192,192,37226,1,0,0:0:0:0:
64,192,37323,128,2,37420:0:0:0:0:
448,192,37323,128,0,37420:0:0:0:40:crash1.wav
320,192,37420,1,0,0:0:0:0:
192,192,37516,1,0,0:0:0:30:Snare3.wav
448,192,37516,1,0,0:0:0:0:
64,192,37613,1,0,0:0:0:30:Snare3.wav
320,192,37710,1,0,0:0:0:30:Snare3.wav
448,192,37710,1,0,0:0:0:0:
64,192,37807,1,0,0:0:0:0:
192,192,37807,1,0,0:0:0:0:
320,192,37903,1,0,0:0:0:30:Snare3.wav
448,192,37903,1,0,0:0:0:0:
64,192,38097,1,0,0:0:0:30:Snare3.wav
320,192,38097,1,0,0:0:0:0:
192,192,38194,1,0,0:0:0:0:
64,192,38291,1,0,0:0:0:30:Snare3.wav
448,192,38291,1,0,0:0:0:0:
320,192,38387,1,0,0:0:0:0:
64,192,38484,1,0,0:0:0:0:
192,192,38484,1,0,0:0:0:0:
448,192,38581,1,0,0:0:0:30:Snare3.wav
64,192,38678,1,0,0:0:0:30:Snare3.wav
320,192,38678,1,0,0:0:0:0:
448,192,38726,1,0,0:0:0:30:Snare3.wav
192,192,38774,1,0,0:0:0:30:Snare3.wav
64,192,38823,1,0,0:0:0:30:Snare3.wav
320,192,38871,1,0,0:0:0:30:Snare3.wav
448,192,38871,1,0,0:0:0:0:
192,192,38968,1,0,0:0:0:0:
320,192,39065,1,0,0:0:0:30:Snare3.wav
448,192,39065,1,0,0:0:0:0:
64,192,39161,1,0,0:0:0:30:Snare3.wav
192,192,39258,1,0,0:0:0:30:Snare3.wav
320,192,39258,1,0,0:0:0:0:
64,192,39355,1,0,0:0:0:0:
448,192,39355,1,0,0:0:0:0:
192,192,39452,1,0,0:0:0:30:Snare3.wav
320,192,39452,1,0,0:0:0:0:
64,192,39645,1,0,0:0:0:30:Snare3.wav
448,192,39645,1,0,0:0:0:0:
192,192,39742,1,0,0:0:0:0:
320,192,39839,1,0,0:0:0:30:Snare3.wav
448,192,39839,1,0,0:0:0:0:
64,192,39936,1,0,0:0:0:0:
192,192,40032,1,0,0:0:0:0:
448,192,40032,1,0,0:0:0:0:
320,192,40129,1,0,0:0:0:30:Snare3.wav
64,192,40226,1,0,0:0:0:30:Snare3.wav
448,192,40226,1,0,0:0:0:0:
192,192,40274,1,0,0:0:0:30:Snare3.wav
320,192,40323,1,0,0:0:0:30:Snare3.wav
448,192,40371,1,0,0:0:0:30:Snare3.wav
64,192,40420,1,0,0:0:0:30:Snare3.wav
192,192,40420,1,0,0:0:0:0:
320,192,40516,1,0,0:0:0:0:
64,192,40613,1,0,0:0:0:0:
448,192,40613,1,0,0:0:0:0:
192,192,40710,1,0,0:0:0:30:Snare3.wav
320,192,40807,1,0,0:0:0:30:Snare3.wav
448,192,40807,1,0,0:0:0:0:
64,192,40903,1,0,0:0:0:0:
192,192,40903,1,0,0:0:0:0:
320,192,41000,1,0,0:0:0:30:Snare3.wav
448,192,41000,1,0,0:0:0:0:
192,192,41194,1,0,0:0:0:30:Snare3.wav
448,192,41194,1,0,0:0:0:0:
320,192,41291,1,0,0:0:0:0:
64,192,41387,1,0,0:0:0:30:Snare3.wav
448,192,41387,1,0,0:0:0:0:
192,192,41484,1,0,0:0:0:0:
320,192,41581,1,0,0:0:0:0:
448,192,41581,1,0,0:0:0:0:
64,192,41678,1,0,0:0:0:30:Snare3.wav
192,192,41774,1,0,0:0:0:30:Snare3.wav
448,192,41774,1,0,0:0:0:0:
64,192,41823,1,0,0:0:0:30:Snare3.wav
320,192,41871,1,0,0:0:0:30:Snare3.wav
448,192,41920,1,0,0:0:0:30:Snare3.wav
64,192,41968,1,0,0:0:0:30:Snare3.wav
192,192,41968,1,0,0:0:0:0:
320,192,42065,1,0,0:0:0:0:
64,192,42161,1,0,0:0:0:0:
448,192,42161,1,0,0:0:0:0:
192,192,42258,1,0,0:0:0:30:Snare3.wav
64,192,42355,1,0,0:0:0:30:Snare3.wav
448,192,42355,1,0,0:0:0:0:
192,192,42452,1,0,0:0:0:0:
320,192,42452,1,0,0:0:0:0:
64,192,42549,1,0,0:0:0:30:Snare3.wav
448,192,42549,1,0,0:0:0:0:
192,192,42742,1,0,0:0:0:30:Snare3.wav
448,192,42742,1,0,0:0:0:0:
320,192,42839,1,0,0:0:0:0:
64,192,42936,1,0,0:0:0:30:Snare3.wav
192,192,42936,1,0,0:0:0:0:
320,192,43032,1,0,0:0:0:0:
64,192,43129,1,0,0:0:0:0:
448,192,43129,1,0,0:0:0:0:
192,192,43226,1,0,0:0:0:30:Snare3.wav
64,192,43323,1,0,0:0:0:30:Snare3.wav
448,192,43323,1,0,0:0:0:0:
192,192,43371,1,0,0:0:0:30:Snare3.wav
320,192,43420,1,0,0:0:0:30:Snare3.wav
448,192,43468,1,0,0:0:0:30:Snare3.wav
64,192,43516,128,2,43613:0:0:0:0:
192,192,43516,128,0,43613:0:0:0:30:Snare3.wav
448,192,43613,1,0,0:0:0:0:
64,192,43710,1,0,0:0:0:30:Snare3.wav
320,192,43710,1,0,0:0:0:0:
192,192,43807,1,0,0:0:0:0:
320,192,43903,1,0,0:0:0:30:Snare3.wav
448,192,43903,1,0,0:0:0:0:
64,192,44000,1,0,0:0:0:0:
192,192,44000,1,0,0:0:0:0:
320,192,44097,1,0,0:0:0:30:Snare3.wav
448,192,44097,1,0,0:0:0:0:
64,192,44291,1,0,0:0:0:30:Snare3.wav
448,192,44291,1,0,0:0:0:0:
192,192,44387,1,0,0:0:0:0:
320,192,44484,1,0,0:0:0:30:Snare3.wav
448,192,44484,1,0,0:0:0:0:
64,192,44581,1,0,0:0:0:0:
192,192,44678,1,0,0:0:0:30:Snare3.wav
320,192,44678,1,0,0:0:0:0:
448,192,44774,1,0,0:0:0:0:
64,192,44871,1,0,0:0:0:30:Snare3.wav
320,192,44871,1,0,0:0:0:0:
192,192,44968,1,0,0:0:0:0:
320,192,45065,1,0,0:0:0:30:Snare3.wav
448,192,45065,1,0,0:0:0:0:
64,192,45161,1,0,0:0:0:0:
192,192,45258,1,0,0:0:0:30:Snare3.wav
448,192,45258,1,0,0:0:0:0:
320,192,45355,1,0,0:0:0:0:
64,192,45452,1,0,0:0:0:30:Snare3.wav
192,192,45452,1,0,0:0:0:0:
320,192,45549,1,0,0:0:0:0:
448,192,45549,1,0,0:0:0:0:
64,192,45645,1,0,0:0:0:30:Snare3.wav
192,192,45645,1,0,0:0:0:0:
64,192,45839,1,0,0:0:0:30:Snare3.wav
448,192,45839,1,0,0:0:0:0:
320,192,45936,1,0,0:0:0:0:
64,192,46032,1,0,0:0:0:30:Snare3.wav
192,192,46032,1,0,0:0:0:0:
448,192,46129,1,0,0:0:0:0:
192,192,46226,1,0,0:0:0:30:Snare3.wav
320,192,46226,1,0,0:0:0:0:
64,192,46323,1,0,0:0:0:0:
192,192,46420,1,0,0:0:0:30:Snare3.wav
448,192,46420,1,0,0:0:0:0:
320,192,46516,1,0,0:0:0:0:
64,192,46613,1,0,0:0:0:30:Snare3.wav
192,192,46613,1,0,0:0:0:0:
448,192,46710,1,0,0:0:0:30:Snare3.wav
192,192,46807,1,0,0:0:0:30:Snare3.wav
320,192,46903,1,0,0:0:0:30:Snare3.wav
64,192,47000,1,0,0:0:0:30:Snare3.wav
448,192,47000,1,0,0:0:0:0:
192,192,47097,1,0,0:0:0:30:Snare3.wav
320,192,47194,1,0,0:0:0:30:Snare3.wav
448,192,47291,1,0,0:0:0:30:Snare3.wav
64,192,47387,1,0,0:0:0:30:Snare3.wav
192,192,47387,1,0,0:0:0:0:
320,192,47484,1,0,0:0:0:30:Snare3.wav
64,192,47581,1,0,0:0:0:30:Snare3.wav
192,192,47678,1,0,0:0:0:30:Snare3.wav
320,192,47774,1,0,0:0:0:30:Snare3.wav
448,192,47774,1,0,0:0:0:0:
64,192,47871,1,0,0:0:0:30:Snare3.wav
192,192,47968,1,0,0:0:0:30:Snare3.wav
320,192,48065,1,0,0:0:0:30:Snare3.wav
64,192,48161,1,2,0:0:0:0:
192,192,48161,1,0,0:0:0:40:crash1.wav
448,192,48161,1,0,0:0:0:0:
192,192,48742,1,0,0:0:0:0:
192,192,49129,1,0,0:0:0:0:
192,192,49516,1,0,0:0:0:0:
320,192,49613,1,0,0:0:0:0:
64,192,49710,1,2,0:0:0:0:
192,192,49710,1,0,0:0:0:0:
448,192,49710,1,0,0:0:0:0:
64,192,50097,1,2,0:0:0:0:
320,192,50097,128,8,50226:0:0:0:0:
448,192,50097,128,0,50355:0:0:0:40:crash1.wav
64,192,50226,128,0,50355:0:0:0:0:
192,192,50291,128,0,50355:0:0:0:0:
320,192,50291,1,0,0:0:0:0:
448,192,50420,1,0,0:0:0:0:
192,192,50484,128,2,50613:0:0:0:0:
320,192,50484,128,0,50742:0:0:0:0:
64,192,50613,1,0,0:0:0:0:
192,192,50678,1,0,0:0:0:0:
448,192,50678,1,0,0:0:0:0:
320,192,50807,1,0,0:0:0:0:
64,192,50871,128,8,51000:0:0:0:0:
192,192,50871,128,2,51129:0:0:0:0:
448,192,51000,1,0,0:0:0:0:
64,192,51065,1,0,0:0:0:0:
320,192,51065,1,0,0:0:0:0:
448,192,51194,1,0,0:0:0:0:
64,192,51258,1,2,0:0:0:0:
320,192,51258,1,0,0:0:0:0:
64,192,51387,1,0,0:0:0:0:
320,192,51452,1,0,0:0:0:0:
448,192,51452,1,0,0:0:0:0:
192,192,51581,1,0,0:0:0:0:
64,192,51645,1,2,0:0:0:0:
448,192,51645,128,8,51774:0:0:0:0:
320,192,51774,1,0,0:0:0:0:
64,192,51839,1,0,0:0:0:0:
192,192,51839,128,0,51968:0:0:0:0:
320,192,51968,1,0,0:0:0:0:
64,192,52032,128,2,52161:0:0:0:0:
448,192,52032,1,0,0:0:0:0:
192,192,52161,1,0,0:0:0:0:
320,192,52226,128,0,52355:0:0:0:0:
448,192,52226,1,0,0:0:0:0:
192,192,52355,1,0,0:0:0:0:
64,192,52420,1,8,0:0:0:0:
448,192,52420,128,2,52549:0:0:0:0:
320,192,52549,1,0,0:0:0:0:
64,192,52613,1,0,0:0:0:0:
192,192,52613,128,0,52742:0:0:0:0:
448,192,52742,1,0,0:0:0:0:
64,192,52807,1,2,0:0:0:0:
320,192,52807,128,0,53000:0:0:0:0:
64,192,52936,128,0,53000:0:0:0:0:
192,192,53000,1,0,0:0:0:0:
448,192,53000,1,0,0:0:0:0:
192,192,53129,1,0,0:0:0:0:
64,192,53194,1,2,0:0:0:0:
320,192,53194,128,8,53387:0:0:0:0:
64,192,53323,128,0,53387:0:0:0:0:
192,192,53387,1,0,0:0:0:0:
448,192,53387,1,0,0:0:0:0:
64,192,53516,1,0,0:0:0:0:
192,192,53581,128,2,53774:0:0:0:0:
448,192,53581,1,0,0:0:0:0:
448,192,53710,128,0,53774:0:0:0:0:
64,192,53774,1,0,0:0:0:0:
320,192,53774,1,0,0:0:0:0:
320,192,53903,1,0,0:0:0:0:
192,192,53968,128,8,54161:0:0:0:0:
448,192,53968,1,2,0:0:0:0:
448,192,54097,128,0,54161:0:0:0:0:
64,192,54161,1,0,0:0:0:0:
320,192,54161,1,0,0:0:0:0:
448,192,54291,1,0,0:0:0:0:
64,192,54355,1,2,0:0:0:0:
192,192,54355,1,0,0:0:0:0:
320,192,54484,1,0,0:0:0:0:
192,192,54549,1,0,0:0:0:0:
448,192,54549,1,0,0:0:0:0:
192,192,54678,1,0,0:0:0:0:
320,192,54742,1,2,0:0:0:0:
448,192,54742,1,8,0:0:0:0:
64,192,54871,1,0,0:0:0:0:
192,192,54936,1,0,0:0:0:0:
320,192,54936,1,0,0:0:0:0:
64,192,55065,1,0,0:0:0:0:
320,192,55129,1,2,0:0:0:0:
448,192,55129,128,0,55258:0:0:0:0:
192,192,55258,1,0,0:0:0:0:
64,192,55323,128,0,55452:0:0:0:0:
320,192,55323,1,0,0:0:0:0:
320,192,55452,1,0,0:0:0:0:
64,192,55516,1,8,0:0:0:0:
192,192,55516,128,2,55645:0:0:0:0:
320,192,55645,1,0,0:0:0:0:
192,192,55710,1,0,0:0:0:0:
448,192,55710,128,0,55839:0:0:0:0:
192,192,55839,1,0,0:0:0:0:
64,192,55903,128,2,56032:0:0:0:0:
320,192,55903,128,0,56161:0:0:0:30:hihat1.wav
192,192,56032,1,0,0:0:0:0:
64,192,56097,1,0,0:0:0:0:
448,192,56097,1,0,0:0:0:0:
192,192,56226,1,0,0:0:0:0:
64,192,56291,1,2,0:0:0:0:
320,192,56291,128,8,56420:0:0:0:0:
448,192,56291,128,0,56549:0:0:0:0:
64,192,56420,128,0,56549:0:0:0:0:
192,192,56484,128,0,56549:0:0:0:0:
320,192,56484,1,0,0:0:0:0:
448,192,56613,1,0,0:0:0:0:
64,192,56678,128,2,56936:0:0:0:0:
192,192,56678,128,0,56807:0:0:0:0:
320,192,56807,1,0,0:0:0:0:
192,192,56871,1,0,0:0:0:0:
448,192,56871,1,0,0:0:0:0:
320,192,57000,1,0,0:0:0:0:
64,192,57065,128,8,57323:0:0:0:0:
192,192,57065,128,2,57194:0:0:0:0:
448,192,57194,1,0,0:0:0:0:
192,192,57258,1,0,0:0:0:0:
320,192,57258,1,0,0:0:0:0:
448,192,57387,1,0,0:0:0:0:
64,192,57452,1,2,0:0:0:0:
320,192,57452,1,0,0:0:0:0:
64,192,57581,1,0,0:0:0:0:
320,192,57645,1,0,0:0:0:0:
448,192,57645,1,0,0:0:0:0:
192,192,57774,1,0,0:0:0:0:
64,192,57839,1,2,0:0:0:0:
448,192,57839,128,8,57968:0:0:0:0:
320,192,57968,1,0,0:0:0:0:
64,192,58032,1,0,0:0:0:0:
192,192,58032,128,0,58161:0:0:0:0:
320,192,58161,1,0,0:0:0:0:
64,192,58226,128,2,58355:0:0:0:0:
448,192,58226,1,0,0:0:0:0:
192,192,58355,1,0,0:0:0:0:
320,192,58420,128,0,58549:0:0:0:0:
448,192,58420,1,0,0:0:0:0:
192,192,58549,1,0,0:0:0:0:
64,192,58613,1,8,0:0:0:0:
448,192,58613,128,2,58742:0:0:0:0:
320,192,58742,1,0,0:0:0:0:
64,192,58807,1,0,0:0:0:0:
192,192,58807,128,0,58936:0:0:0:0:
448,192,58936,1,0,0:0:0:0:
64,192,59000,128,2,59194:0:0:0:0:
192,192,59000,1,0,0:0:0:0:
192,192,59129,128,0,59194:0:0:0:0:
320,192,59194,1,0,0:0:0:0:
448,192,59194,1,0,0:0:0:0:
448,192,59323,1,0,0:0:0:0:
192,192,59387,128,2,59581:0:0:0:0:
320,192,59387,1,8,0:0:0:0:
320,192,59516,128,0,59581:0:0:0:0:
64,192,59581,1,0,0:0:0:0:
448,192,59581,1,0,0:0:0:0:
64,192,59710,1,0,0:0:0:0:
192,192,59774,1,2,0:0:0:0:
320,192,59774,128,0,59968:0:0:0:0:
192,192,59903,128,0,59968:0:0:0:0:
64,192,59968,1,0,0:0:0:0:
448,192,59968,1,0,0:0:0:0:
192,192,60097,1,0,0:0:0:0:
64,192,60161,1,8,0:0:0:0:
320,192,60161,1,2,0:0:0:0:
448,192,60161,128,0,60355:0:0:0:0:
320,192,60291,128,0,60355:0:0:0:0:
64,192,60355,1,0,0:0:0:0:
192,192,60355,1,0,0:0:0:0:
64,192,60452,128,0,60742:0:0:0:0:
448,192,60452,128,0,60742:0:0:0:0:
192,192,60549,1,10,0:0:0:0:
320,192,60549,1,0,0:0:0:40:crash1.wav
192,192,60742,1,8,0:0:0:0:
320,192,60742,1,2,0:0:0:0:
64,192,60936,1,8,0:0:0:0:
448,192,60936,1,0,0:0:0:0:
320,192,61065,1,0,0:0:0:20:soft-hitwhistle.wav
64,192,61129,1,0,0:0:0:30:soft-hitwhistle.wav
192,192,61129,1,0,0:0:0:0:
320,192,61194,1,0,0:0:0:50:soft-hitwhistle.wav
448,192,61194,1,0,0:0:0:0:
64,192,61258,1,0,0:0:0:50:soft-hitwhistle.wav
192,192,61258,1,0,0:0:0:0:
320,192,61323,1,2,0:0:0:0:
448,192,61323,1,0,0:0:0:0:
64,192,61452,1,0,0:0:0:0:
192,192,61516,1,0,0:0:0:40:snare.wav
448,192,61516,1,0,0:0:0:0:
320,192,61645,1,0,0:0:0:0:
64,192,61710,1,8,0:0:0:0:
192,192,61710,1,2,0:0:0:0:
320,192,61839,1,0,0:0:0:0:
64,192,61903,1,2,0:0:0:0:
448,192,61903,1,0,0:0:0:0:
192,192,62097,1,2,0:0:0:0:
320,192,62097,1,0,0:0:0:40:crash1.wav
448,192,62097,1,0,0:0:0:0:
64,192,63258,1,2,0:0:0:0:
192,192,63258,1,0,0:0:0:0:
320,192,63387,1,0,0:0:0:0:
64,192,63452,1,2,0:0:0:0:
192,192,63452,1,0,0:0:0:0:
320,192,63581,1,0,0:0:0:0:
64,192,63645,1,2,0:0:0:0:
448,192,63645,1,0,0:0:0:0:
192,192,63839,1,0,0:0:0:0:
320,192,63839,1,0,0:0:0:0:
64,192,64032,1,10,0:0:0:0:
448,192,64032,1,0,0:0:0:40:crash1.wav
320,192,64097,1,0,0:0:0:0:
192,192,64161,1,0,0:0:0:0:
64,192,64226,1,0,0:0:0:0:
448,192,64226,1,0,0:0:0:0:
320,192,64355,1,0,0:0:0:0:
64,192,64420,1,2,0:0:0:0:
192,192,64420,1,0,0:0:0:0:
192,192,64549,1,0,0:0:0:0:
320,192,64613,1,0,0:0:0:0:
448,192,64613,1,0,0:0:0:0:
192,192,64742,1,0,0:0:0:0:
64,192,64807,1,2,0:0:0:0:
320,192,64807,1,8,0:0:0:0:
320,192,64903,1,0,0:0:0:0:
192,192,64952,1,0,0:0:0:0:
64,192,65000,1,0,0:0:0:0:
448,192,65000,1,0,0:0:0:0:
64,192,65097,1,0,0:0:0:0:
320,192,65097,1,0,0:0:0:0:
320,192,65194,1,2,0:0:0:0:
448,192,65194,1,0,0:0:0:0:
64,192,65323,1,0,0:0:0:0:
192,192,65387,1,0,0:0:0:0:
448,192,65387,1,0,0:0:0:0:
320,192,65452,1,0,0:0:0:0:
64,192,65516,1,0,0:0:0:0:
192,192,65581,1,8,0:0:0:0:
320,192,65581,1,2,0:0:0:0:
64,192,65645,1,0,0:0:0:0:
448,192,65710,1,0,0:0:0:0:
192,192,65774,1,0,0:0:0:0:
320,192,65774,1,0,0:0:0:0:
448,192,65839,1,0,0:0:0:0:
320,192,65903,1,0,0:0:0:0:
64,192,65968,1,2,0:0:0:0:
192,192,65968,1,0,0:0:0:0:
448,192,66032,1,0,0:0:0:0:
320,192,66097,1,0,0:0:0:0:
64,192,66161,1,0,0:0:0:0:
192,192,66161,1,0,0:0:0:0:
320,192,66226,1,0,0:0:0:0:
448,192,66291,1,0,0:0:0:0:
64,192,66355,1,2,0:0:0:0:
192,192,66355,1,8,0:0:0:0:
320,192,66420,1,0,0:0:0:0:
64,192,66484,1,0,0:0:0:0:
320,192,66549,1,0,0:0:0:0:
448,192,66549,1,0,0:0:0:0:
192,192,66613,1,0,0:0:0:0:
64,192,66678,1,0,0:0:0:0:
192,192,66742,1,2,0:0:0:0:
448,192,66742,1,0,0:0:0:0:
320,192,66807,1,0,0:0:0:0:
448,192,66871,1,0,0:0:0:0:
64,192,66936,1,0,0:0:0:0:
320,192,66936,1,0,0:0:0:0:
192,192,67000,1,0,0:0:0:0:
64,192,67065,1,0,0:0:0:0:
320,192,67129,1,8,0:0:0:0:
448,192,67129,1,2,0:0:0:0:
192,192,67194,1,0,0:0:0:0:
448,192,67258,1,0,0:0:0:0:
192,192,67323,1,0,0:0:0:0:
320,192,67323,1,0,0:0:0:0:
320,192,67452,1,0,0:0:0:0:
64,192,67516,1,2,0:0:0:0:
192,192,67516,1,0,0:0:0:0:
64,192,67645,1,0,0:0:0:0:
320,192,67710,1,0,0:0:0:0:
448,192,67710,1,0,0:0:0:0:
192,192,67839,1,0,0:0:0:0:
320,192,67839,1,0,0:0:0:0:
64,192,67903,1,2,0:0:0:0:
448,192,67903,1,8,0:0:0:0:
192,192,68032,1,0,0:0:0:0:
320,192,68097,1,0,0:0:0:0:
448,192,68097,1,0,0:0:0:0:
320,192,68226,1,0,0:0:0:0:
64,192,68291,1,2,0:0:0:0:
192,192,68291,1,0,0:0:0:0:
64,192,68484,1,2,0:0:0:0:
192,192,68484,1,0,0:0:0:0:
64,192,68678,1,10,0:0:0:0:
192,192,68678,1,0,0:0:0:30:hihat1.wav
320,192,68807,1,0,0:0:0:0:
64,192,68871,1,0,0:0:0:0:
448,192,68871,1,0,0:0:0:0:
192,192,68936,1,0,0:0:0:0:
320,192,69000,1,0,0:0:0:0:
64,192,69065,1,2,0:0:0:0:
448,192,69065,1,0,0:0:0:0:
64,192,69194,1,0,0:0:0:0:
320,192,69258,1,0,0:0:0:0:
448,192,69258,1,0,0:0:0:0:
192,192,69387,1,0,0:0:0:0:
320,192,69387,1,0,0:0:0:0:
64,192,69452,1,2,0:0:0:0:
448,192,69452,1,8,0:0:0:0:
320,192,69581,1,0,0:0:0:0:
448,192,69581,1,0,0:0:0:0:
64,192,69645,1,0,0:0:0:0:
192,192,69645,1,0,0:0:0:0:
64,192,69774,1,0,0:0:0:0:
448,192,69774,1,0,0:0:0:0:
192,192,69839,1,2,0:0:0:0:
320,192,69839,1,0,0:0:0:0:
192,192,69968,1,0,0:0:0:0:
64,192,70032,1,0,0:0:0:0:
448,192,70032,1,0,0:0:0:0:
320,192,70097,1,0,0:0:0:0:
192,192,70161,1,0,0:0:0:0:
64,192,70226,1,8,0:0:0:0:
448,192,70226,1,2,0:0:0:0:
320,192,70355,1,0,0:0:0:0:
64,192,70420,1,0,0:0:0:0:
192,192,70420,1,0,0:0:0:0:
192,192,70549,1,0,0:0:0:0:
320,192,70549,1,0,0:0:0:0:
64,192,70613,1,2,0:0:0:0:
448,192,70613,1,0,0:0:0:0:
320,192,70742,1,0,0:0:0:0:
448,192,70742,1,0,0:0:0:0:
64,192,70807,1,0,0:0:0:0:
192,192,70807,1,0,0:0:0:0:
192,192,70936,1,0,0:0:0:0:
320,192,70936,1,0,0:0:0:0:
64,192,71000,1,2,0:0:0:0:
448,192,71000,1,8,0:0:0:0:
64,192,71129,1,0,0:0:0:0:
448,192,71129,1,0,0:0:0:0:
192,192,71194,1,0,0:0:0:0:
320,192,71194,1,0,0:0:0:0:
64,192,71323,1,0,0:0:0:0:
192,192,71323,1,0,0:0:0:0:
320,192,71387,1,2,0:0:0:0:
448,192,71387,1,0,0:0:0:0:
64,192,71581,128,0,71774:0:0:0:0:
320,192,71774,1,8,0:0:0:0:
192,192,71968,128,0,72161:0:0:0:0:
448,192,72161,1,0,0:0:0:0:
320,192,72355,128,0,72549:0:0:0:0:
64,192,72549,1,8,0:0:0:0:
192,192,72742,128,0,72936:0:0:0:0:
320,192,72936,1,2,0:0:0:0:
448,192,72936,1,0,0:0:0:30:hihat1.wav
64,192,73516,1,0,0:0:0:30:tom1.wav
448,192,73645,1,0,0:0:0:30:tom2.wav
320,192,73710,1,2,0:0:0:8:soft-hitwhistle.wav
64,192,73774,1,2,0:0:0:8:soft-hitwhistle.wav
448,192,73839,1,2,0:0:0:18:soft-hitwhistle.wav
192,192,73903,1,2,0:0:0:28:soft-hitwhistle.wav
320,192,73968,1,2,0:0:0:35:soft-hitwhistle.wav
448,192,73968,1,0,0:0:0:0:
64,192,74032,1,2,0:0:0:40:soft-hitwhistle.wav
192,192,74032,1,0,0:0:0:0:
320,192,74097,1,2,0:0:0:53:
448,192,74097,1,0,0:0:0:0:
64,192,74484,1,2,0:0:0:0:
320,192,74484,1,0,0:0:0:0:
448,192,74678,128,0,74807:0:0:0:0:
320,192,74742,128,0,74871:0:0:0:0:
192,192,74807,128,0,75000:0:0:0:0:
64,192,74871,128,10,75258:0:0:0:0:
448,192,74871,1,0,0:0:0:40:crash1.wav
320,192,75000,1,0,0:0:0:0:
192,192,75065,1,0,0:0:0:0:
448,192,75065,1,0,0:0:0:0:
448,192,75194,1,0,0:0:0:0:
192,192,75258,1,2,0:0:0:0:
320,192,75258,128,0,75387:0:0:0:0:
64,192,75387,1,0,0:0:0:0:
192,192,75452,1,0,0:0:0:0:
448,192,75452,1,0,0:0:0:0:
192,192,75581,1,0,0:0:0:0:
64,192,75645,1,2,0:0:0:0:
320,192,75645,1,8,0:0:0:0:
448,192,75774,1,0,0:0:0:0:
192,192,75839,128,0,75968:0:0:0:0:
320,192,75839,1,0,0:0:0:0:
320,192,75968,128,0,76032:0:0:0:0:
64,192,76032,128,2,76226:0:0:0:0:
448,192,76032,1,0,0:0:0:0:
320,192,76161,1,0,0:0:0:0:
192,192,76226,1,0,0:0:0:0:
448,192,76226,1,0,0:0:0:0:
192,192,76355,1,0,0:0:0:0:
320,192,76420,1,8,0:0:0:0:
448,192,76420,1,2,0:0:0:0:
192,192,76549,1,0,0:0:0:0:
64,192,76613,128,0,76742:0:0:0:0:
448,192,76613,1,0,0:0:0:0:
320,192,76678,128,0,76807:0:0:0:0:
192,192,76742,1,0,0:0:0:0:
64,192,76807,1,2,0:0:0:0:
448,192,76807,1,0,0:0:0:0:
192,192,76936,128,0,77065:0:0:0:0:
320,192,77000,128,0,77129:0:0:0:0:
448,192,77000,1,0,0:0:0:0:
64,192,77129,1,0,0:0:0:0:
448,192,77129,128,0,77323:0:0:0:0:
192,192,77194,1,2,0:0:0:0:
320,192,77194,1,8,0:0:0:0:
192,192,77323,128,0,77452:0:0:0:0:
64,192,77387,1,0,0:0:0:0:
448,192,77387,128,0,77581:0:0:0:0:
192,192,77516,1,0,0:0:0:0:
64,192,77581,1,2,0:0:0:0:
320,192,77581,128,0,77774:0:0:0:0:
448,192,77710,1,0,0:0:0:0:
64,192,77774,1,0,0:0:0:0:
192,192,77774,1,0,0:0:0:0:
192,192,77903,1,0,0:0:0:0:
320,192,77968,1,8,0:0:0:0:
448,192,77968,1,2,0:0:0:0:
64,192,78097,128,0,78226:0:0:0:0:
192,192,78161,128,0,78226:0:0:0:0:
320,192,78161,1,0,0:0:0:0:
320,192,78291,128,0,78549:0:0:0:0:
64,192,78355,1,2,0:0:0:0:
448,192,78355,1,0,0:0:0:0:
64,192,78484,1,0,0:0:0:0:
192,192,78549,128,0,78678:0:0:0:0:
448,192,78549,1,0,0:0:0:0:
320,192,78678,1,0,0:0:0:0:
64,192,78742,1,2,0:0:0:0:
448,192,78742,128,8,78936:0:0:0:0:
192,192,78871,1,0,0:0:0:0:
64,192,78936,1,0,0:0:0:0:
320,192,78936,128,0,79065:0:0:0:0:
448,192,79065,1,0,0:0:0:0:
192,192,79129,128,2,79516:0:0:0:0:
320,192,79129,1,0,0:0:0:0:
448,192,79258,1,0,0:0:0:0:
64,192,79323,1,0,0:0:0:0:
320,192,79323,1,0,0:0:0:0:
64,192,79452,1,0,0:0:0:0:
320,192,79516,1,8,0:0:0:0:
448,192,79516,1,2,0:0:0:0:
192,192,79645,1,0,0:0:0:0:
64,192,79710,128,0,79839:0:0:0:0:
448,192,79710,128,0,79903:0:0:0:0:
320,192,79839,1,0,0:0:0:0:
64,192,79903,1,2,0:0:0:0:
192,192,79903,1,0,0:0:0:0:
192,192,80032,128,0,80291:0:0:0:0:
320,192,80097,128,0,80226:0:0:0:0:
448,192,80097,1,0,0:0:0:0:
64,192,80226,1,0,0:0:0:0:
320,192,80291,1,2,0:0:0:0:
448,192,80291,1,8,0:0:0:0:
192,192,80420,1,0,0:0:0:0:
64,192,80484,1,0,0:0:0:0:
320,192,80484,128,0,80678:0:0:0:0:
64,192,80613,128,0,80742:0:0:0:0:
192,192,80678,128,2,80742:0:0:0:0:
448,192,80678,128,0,81000:0:0:0:30:hihat1.wav
320,192,80807,1,0,0:0:0:0:
64,192,80871,1,0,0:0:0:0:
192,192,80871,1,0,0:0:0:0:
64,192,81000,1,0,0:0:0:0:
320,192,81065,1,8,0:0:0:0:
448,192,81065,1,2,0:0:0:0:
192,192,81194,1,0,0:0:0:0:
64,192,81258,1,0,0:0:0:0:
448,192,81258,1,0,0:0:0:0:
320,192,81387,1,0,0:0:0:0:
64,192,81452,1,2,0:0:0:0:
192,192,81452,128,0,81581:0:0:0:0:
320,192,81516,128,0,81645:0:0:0:0:
448,192,81581,128,0,81710:0:0:0:0:
64,192,81645,1,0,0:0:0:0:
192,192,81645,128,0,81839:0:0:0:0:
64,192,81774,128,0,81839:0:0:0:0:
320,192,81839,1,2,0:0:0:0:
448,192,81839,1,8,0:0:0:0:
64,192,81968,1,0,0:0:0:0:
192,192,82032,1,0,0:0:0:0:
320,192,82032,128,0,82226:0:0:0:0:
448,192,82161,1,0,0:0:0:0:
64,192,82226,1,2,0:0:0:0:
192,192,82226,128,0,82420:0:0:0:0:
448,192,82355,1,0,0:0:0:0:
64,192,82420,1,0,0:0:0:0:
320,192,82420,1,0,0:0:0:0:
320,192,82549,128,0,82613:0:0:0:0:
64,192,82613,128,2,82678:0:0:0:0:
448,192,82613,1,8,0:0:0:0:
192,192,82742,1,0,0:0:0:0:
320,192,82807,128,0,83000:0:0:0:0:
448,192,82807,1,0,0:0:0:0:
64,192,82936,1,0,0:0:0:0:
192,192,83000,1,2,0:0:0:0:
448,192,83000,1,0,0:0:0:0:
320,192,83129,1,0,0:0:0:0:
64,192,83194,1,0,0:0:0:0:
192,192,83194,1,0,0:0:0:0:
448,192,83258,1,0,0:0:0:0:
320,192,83323,128,0,83452:0:0:0:0:
64,192,83387,1,8,0:0:0:0:
192,192,83387,128,2,83645:0:0:0:0:
448,192,83516,1,0,0:0:0:0:
64,192,83581,1,0,0:0:0:0:
320,192,83581,128,0,83774:0:0:0:0:
64,192,83710,1,0,0:0:0:0:
192,192,83774,1,2,0:0:0:0:
448,192,83774,128,0,84032:0:0:0:0:
320,192,83903,1,0,0:0:0:0:
64,192,83968,1,0,0:0:0:0:
192,192,83968,1,0,0:0:0:0:
192,192,84097,1,0,0:0:0:0:
64,192,84161,1,8,0:0:0:0:
448,192,84161,1,2,0:0:0:0:
320,192,84291,128,0,84355:0:0:0:0:
64,192,84355,1,0,0:0:0:0:
192,192,84355,128,0,84420:0:0:0:0:
448,192,84484,128,0,84742:0:0:0:0:
192,192,84549,1,2,0:0:0:0:
320,192,84549,1,0,0:0:0:0:
64,192,84678,1,0,0:0:0:0:
192,192,84742,128,0,84871:0:0:0:0:
320,192,84742,1,0,0:0:0:0:
448,192,84871,1,0,0:0:0:0:
192,192,84936,1,8,0:0:0:0:
320,192,84936,128,2,85194:0:0:0:0:
448,192,85065,1,0,0:0:0:0:
64,192,85129,1,0,0:0:0:0:
192,192,85129,128,0,85194:0:0:0:0:
192,192,85258,1,0,0:0:0:0:
64,192,85323,128,2,85452:0:0:0:0:
320,192,85323,1,8,0:0:0:0:
448,192,85323,128,0,85710:0:0:0:30:hihat1.wav
64,192,85516,128,8,85645:0:0:0:0:
320,192,85516,1,2,0:0:0:0:
64,192,85710,1,8,0:0:0:0:
192,192,85710,1,0,0:0:0:0:
320,192,85774,1,2,0:0:0:8:soft-hitwhistle.wav
192,192,85839,1,2,0:0:0:18:soft-hitwhistle.wav
320,192,85903,1,2,0:0:0:28:soft-hitwhistle.wav
448,192,85903,1,0,0:0:0:0:
64,192,85968,1,2,0:0:0:35:soft-hitwhistle.wav
192,192,85968,1,0,0:0:0:0:
320,192,86032,1,2,0:0:0:40:soft-hitwhistle.wav
448,192,86032,1,0,0:0:0:0:
64,192,86097,1,2,0:0:0:53:
192,192,86097,1,0,0:0:0:0:
448,192,86226,128,0,86291:0:0:0:0:
64,192,86291,1,0,0:0:0:40:snare.wav
320,192,86291,128,0,86420:0:0:0:0:
64,192,86420,128,0,86484:0:0:0:0:
320,192,86484,1,8,0:0:0:0:
448,192,86484,1,2,0:0:0:0:
320,192,86613,1,0,0:0:0:0:
64,192,86678,1,2,0:0:0:0:
192,192,86678,128,0,86807:0:0:0:0:
64,192,86871,128,2,87645:0:0:0:0:
320,192,86871,1,0,0:0:0:40:crash1.wav
448,192,86871,1,0,0:0:0:0:
192,192,87839,128,0,87968:0:0:0:0:
320,192,87903,128,0,88097:0:0:0:0:
448,192,87968,128,0,88355:0:0:0:0:
64,192,88032,1,2,0:0:0:0:
192,192,88032,1,0,0:0:0:0:
64,192,88226,1,2,0:0:0:0:
192,192,88226,1,0,0:0:0:0:
320,192,88226,128,0,88355:0:0:0:0:
64,192,88420,128,2,88807:0:0:0:0:
192,192,88420,128,0,88678:0:0:0:0:
320,192,88807,1,10,0:0:0:0:
448,192,88807,1,0,0:0:0:40:crash1.wav
64,192,88936,1,0,0:0:0:0:
192,192,89000,128,0,89129:0:0:0:0:
448,192,89000,1,0,0:0:0:0:
320,192,89129,1,0,0:0:0:0:
64,192,89194,1,2,0:0:0:0:
448,192,89194,1,0,0:0:0:0:
192,192,89323,128,0,89452:0:0:0:0:
320,192,89387,128,0,89516:0:0:0:0:
448,192,89387,1,0,0:0:0:0:
64,192,89516,1,0,0:0:0:0:
448,192,89516,128,0,89710:0:0:0:0:
192,192,89581,1,2,0:0:0:0:
320,192,89581,1,8,0:0:0:0:
192,192,89710,1,0,0:0:0:0:
64,192,89774,1,0,0:0:0:0:
320,192,89774,128,0,89968:0:0:0:0:
448,192,89903,1,0,0:0:0:0:
64,192,89968,1,2,0:0:0:0:
192,192,89968,128,0,90161:0:0:0:0:
320,192,90097,1,0,0:0:0:0:
64,192,90161,1,0,0:0:0:0:
448,192,90161,1,0,0:0:0:0:
320,192,90291,128,0,90355:0:0:0:0:
192,192,90355,1,8,0:0:0:0:
448,192,90355,1,2,0:0:0:0:
64,192,90484,128,0,90613:0:0:0:0:
192,192,90549,128,0,90613:0:0:0:0:
320,192,90549,1,0,0:0:0:0:
320,192,90678,128,0,90936:0:0:0:0:
64,192,90742,1,2,0:0:0:0:
448,192,90742,1,0,0:0:0:0:
64,192,90871,1,0,0:0:0:0:
192,192,90936,128,0,91065:0:0:0:0:
448,192,90936,1,0,0:0:0:0:
320,192,91065,1,0,0:0:0:0:
64,192,91129,1,2,0:0:0:0:
448,192,91129,128,8,91323:0:0:0:0:
192,192,91258,1,0,0:0:0:0:
64,192,91323,1,0,0:0:0:0:
320,192,91323,128,0,91452:0:0:0:0:
448,192,91452,1,0,0:0:0:0:
192,192,91516,128,2,91903:0:0:0:0:
320,192,91516,1,0,0:0:0:0:
448,192,91645,1,0,0:0:0:0:
64,192,91710,1,0,0:0:0:0:
320,192,91710,1,0,0:0:0:0:
64,192,91839,1,0,0:0:0:0:
320,192,91903,1,8,0:0:0:0:
448,192,91903,1,2,0:0:0:0:
192,192,92032,128,0,92097:0:0:0:0:
64,192,92097,128,0,92226:0:0:0:0:
448,192,92097,128,0,92291:0:0:0:0:
320,192,92226,1,0,0:0:0:0:
64,192,92291,1,2,0:0:0:0:
192,192,92291,1,0,0:0:0:0:
192,192,92420,128,0,92678:0:0:0:0:
320,192,92484,128,0,92613:0:0:0:0:
448,192,92484,1,0,0:0:0:0:
64,192,92613,1,0,0:0:0:0:
320,192,92678,1,2,0:0:0:0:
448,192,92678,1,8,0:0:0:0:
192,192,92807,1,0,0:0:0:0:
64,192,92871,1,0,0:0:0:0:
320,192,92871,128,0,93065:0:0:0:0:
64,192,93000,128,0,93129:0:0:0:0:
192,192,93065,128,2,93129:0:0:0:0:
448,192,93065,128,0,93387:0:0:0:0:
64,192,93258,1,2,0:0:0:0:
192,192,93258,1,0,0:0:0:0:
320,192,93387,1,0,0:0:0:0:
64,192,93452,1,10,0:0:0:0:
192,192,93452,1,0,0:0:0:30:hihat1.wav
320,192,93581,128,0,93645:0:0:0:0:
64,192,93645,1,0,0:0:0:0:
448,192,93645,128,0,93710:0:0:0:0:
192,192,93774,128,0,93839:0:0:0:0:
320,192,93839,128,2,93903:0:0:0:0:
448,192,93839,1,0,0:0:0:0:
64,192,93903,128,0,94032:0:0:0:0:
192,192,93968,128,0,94097:0:0:0:0:
320,192,94032,128,0,94226:0:0:0:0:
448,192,94032,1,0,0:0:0:0:
448,192,94161,1,0,0:0:0:0:
64,192,94226,1,2,0:0:0:0:
192,192,94226,1,8,0:0:0:0:
448,192,94355,1,0,0:0:0:0:
192,192,94420,128,0,94613:0:0:0:0:
320,192,94420,1,0,0:0:0:0:
64,192,94549,128,0,94613:0:0:0:0:
320,192,94613,128,2,94807:0:0:0:0:
448,192,94613,1,0,0:0:0:0:
64,192,94742,1,0,0:0:0:0:
192,192,94807,1,0,0:0:0:0:
448,192,94807,1,0,0:0:0:0:
192,192,94936,128,0,95000:0:0:0:0:
64,192,95000,1,8,0:0:0:0:
448,192,95000,128,2,95065:0:0:0:0:
192,192,95129,1,0,0:0:0:0:
64,192,95194,1,0,0:0:0:0:
320,192,95194,128,0,95387:0:0:0:0:
64,192,95323,1,0,0:0:0:0:
192,192,95387,1,2,0:0:0:0:
448,192,95387,1,0,0:0:0:0:
192,192,95516,128,0,95581:0:0:0:0:
64,192,95581,128,0,95645:0:0:0:0:
448,192,95581,1,0,0:0:0:0:
320,192,95645,1,0,0:0:0:0:
192,192,95710,1,0,0:0:0:0:
64,192,95774,128,2,95903:0:0:0:0:
448,192,95774,1,8,0:0:0:0:
320,192,95903,1,0,0:0:0:0:
192,192,95968,128,0,96161:0:0:0:0:
448,192,95968,1,0,0:0:0:0:
448,192,96097,1,0,0:0:0:0:
64,192,96161,1,2,0:0:0:0:
320,192,96161,128,0,96355:0:0:0:0:
448,192,96355,1,0,0:0:0:0:
192,192,96484,1,0,0:0:0:0:
64,192,96549,128,8,96613:0:0:0:0:
448,192,96549,1,0,0:0:0:0:
320,192,96613,128,0,96678:0:0:0:0:
192,192,96678,128,0,96742:0:0:0:0:
448,192,96742,128,0,96807:0:0:0:0:
320,192,96807,128,0,96871:0:0:0:0:
192,192,96871,128,0,96936:0:0:0:0:
64,192,96936,128,0,97000:0:0:0:0:
192,192,97129,128,0,97194:0:0:0:0:
448,192,97129,1,0,0:0:0:0:
64,192,97323,1,8,0:0:0:0:
192,192,97323,128,0,97452:0:0:0:0:
448,192,97387,128,0,97581:0:0:0:0:
192,192,97516,1,0,0:0:0:0:
320,192,97516,128,0,97645:0:0:0:0:
64,192,97645,128,0,97710:0:0:0:0:
192,192,97710,128,2,98355:0:0:0:0:
448,192,97710,1,0,0:0:0:30:hihat1.wav
320,192,97903,128,0,97968:0:0:0:0:
448,192,97968,128,0,98032:0:0:0:0:
64,192,98032,128,0,98097:0:0:0:0:
320,192,98097,128,0,98161:0:0:0:0:
320,192,98226,128,0,98291:0:0:0:0:
448,192,98291,128,0,98484:0:0:0:30:tom1.wav
320,192,98420,128,0,98484:0:0:0:30:tom2.wav
192,192,98484,1,0,0:0:0:0:
192,192,98613,128,0,98871:0:0:0:0:
320,192,98807,128,0,98871:0:0:0:0:
64,192,98871,1,2,0:0:0:0:
448,192,98871,1,0,0:0:0:0:
320,192,99000,128,0,99129:0:0:0:0:
448,192,99065,128,0,99258:0:0:0:0:
64,192,99258,1,2,0:0:0:0:
192,192,99258,1,0,0:0:0:0:
320,192,99645,1,2,0:0:0:53:
448,192,99645,1,0,0:0:0:40:crash1.wav
64,192,99774,1,0,0:0:0:0:
320,192,99839,1,0,0:0:0:0:
192,192,99968,1,0,0:0:0:0:
64,192,100032,1,2,0:0:0:53:
448,192,100032,1,0,0:0:0:0:
320,192,100226,1,0,0:0:0:0:
64,192,100420,1,2,0:0:0:53:
192,192,100420,1,0,0:0:0:0:
320,192,100549,1,0,0:0:0:0:
448,192,100613,1,0,0:0:0:0:
192,192,100742,1,0,0:0:0:0:
64,192,100807,1,2,0:0:0:53:
320,192,100807,1,0,0:0:0:0:
448,192,100936,1,0,0:0:0:0:
192,192,101000,1,0,0:0:0:0:
320,192,101129,1,0,0:0:0:0:
64,192,101194,1,2,0:0:0:53:
448,192,101194,1,0,0:0:0:0:
192,192,101323,1,0,0:0:0:0:
64,192,101387,1,0,0:0:0:0:
320,192,101581,128,2,101645:0:0:0:53:
448,192,101581,1,0,0:0:0:0:
64,192,101710,128,0,101774:0:0:0:0:
448,192,101774,128,0,101839:0:0:0:0:
64,192,101968,1,2,0:0:0:53:
320,192,101968,128,0,102032:0:0:0:0:
192,192,102161,1,0,0:0:0:0:
448,192,102161,128,0,102226:0:0:0:0:
64,192,102355,1,2,0:0:0:53:
192,192,102355,128,0,102420:0:0:0:0:
448,192,102484,1,0,0:0:0:0:
192,192,102549,1,0,0:0:0:0:
64,192,102742,1,2,0:0:0:53:
448,192,102742,1,0,0:0:0:0:
320,192,102936,1,0,0:0:0:0:
192,192,103065,1,0,0:0:0:0:
320,192,103129,1,2,0:0:0:53:
448,192,103129,1,0,0:0:0:0:
64,192,103323,1,0,0:0:0:0:
192,192,103516,1,2,0:0:0:53:
448,192,103516,1,0,0:0:0:0:
64,192,103710,1,0,0:0:0:0:
320,192,103839,1,0,0:0:0:0:
64,192,103903,1,2,0:0:0:53:
192,192,103903,1,0,0:0:0:30:fx1.wav
448,192,104032,1,0,0:0:0:0:
320,192,104097,1,0,0:0:0:0:
64,192,104291,1,2,0:0:0:53:
320,192,104291,1,0,0:0:0:0:
64,192,104484,1,0,0:0:0:60:snare2.wav
192,192,104484,1,0,0:0:0:0:
448,192,104581,1,0,0:0:0:0:
320,192,104678,1,2,0:0:0:53:
448,192,104678,1,0,0:0:0:0:
64,192,104774,1,0,0:0:0:0:
192,192,104871,1,2,0:0:0:53:
320,192,104871,1,0,0:0:0:0:
64,192,105000,1,2,0:0:0:53:
192,192,105000,1,0,0:0:0:0:
448,192,105065,1,0,0:0:0:0:
192,192,105194,1,2,0:0:0:53:
320,192,105194,1,0,0:0:0:0:
64,192,105258,1,2,0:0:0:53:
448,192,105258,1,0,0:0:0:0:
64,192,105387,1,2,0:0:0:53:
448,192,105387,1,0,0:0:0:0:
192,192,105452,1,2,0:0:0:53:
320,192,105452,1,0,0:0:0:0:
192,192,105645,1,0,0:0:0:0:
448,192,105645,1,0,0:0:0:0:
64,192,105839,1,2,0:0:0:53:
320,192,105839,1,0,0:0:0:30:crash1.wav
448,192,105968,1,0,0:0:0:0:
192,192,106032,1,0,0:0:0:0:
320,192,106161,1,0,0:0:0:0:
64,192,106226,1,2,0:0:0:53:
448,192,106226,1,0,0:0:0:0:
192,192,106420,1,0,0:0:0:0:
320,192,106613,1,2,0:0:0:53:
448,192,106613,1,0,0:0:0:0:
192,192,106742,1,0,0:0:0:0:
64,192,106807,1,0,0:0:0:0:
320,192,106936,1,0,0:0:0:0:
192,192,107000,1,2,0:0:0:53:
448,192,107000,1,0,0:0:0:0:
64,192,107129,1,0,0:0:0:0:
320,192,107194,1,0,0:0:0:0:
192,192,107323,1,0,0:0:0:0:
64,192,107387,1,2,0:0:0:53:
448,192,107387,1,0,0:0:0:0:
320,192,107516,1,0,0:0:0:0:
448,192,107581,1,0,0:0:0:0:
64,192,107774,1,2,0:0:0:53:
192,192,107774,128,0,107839:0:0:0:0:
448,192,107903,128,0,107968:0:0:0:0:
64,192,107968,128,0,108032:0:0:0:0:
192,192,108161,128,2,108226:0:0:0:53:
448,192,108161,1,0,0:0:0:0:
64,192,108355,128,0,108420:0:0:0:0:
320,192,108355,1,0,0:0:0:0:
192,192,108484,1,0,0:0:0:0:
320,192,108549,128,2,108613:0:0:0:53:
448,192,108549,1,0,0:0:0:0:
64,192,108678,1,0,0:0:0:0:
320,192,108742,1,0,0:0:0:20:snare.wav
192,192,108871,1,0,0:0:0:0:
64,192,108936,1,2,0:0:0:53:
448,192,108936,1,0,0:0:0:0:
192,192,109129,1,0,0:0:0:0:
320,192,109258,1,0,0:0:0:0:
64,192,109323,1,2,0:0:0:26:
192,192,109323,1,0,0:0:0:30:snare.wav
448,192,109371,1,0,0:0:0:10:snare.wav
320,192,109420,1,0,0:0:0:10:snare.wav
64,192,109516,1,0,0:0:0:10:snare.wav
192,192,109710,1,2,0:0:0:26:
320,192,109710,1,0,0:0:0:10:snare.wav
448,192,109758,1,0,0:0:0:10:snare.wav
64,192,109807,1,0,0:0:0:10:snare.wav
320,192,109903,1,0,0:0:0:10:snare.wav
192,192,110032,1,0,0:0:0:0:
320,192,110097,1,2,0:0:0:53:
448,192,110097,1,0,0:0:0:30:hihat1.wav
64,192,110291,1,2,0:0:0:53:
320,192,110291,1,0,0:0:0:0:
192,192,110484,1,2,0:0:0:8:soft-hitwhistle.wav
320,192,110549,1,2,0:0:0:8:soft-hitwhistle.wav
192,192,110613,1,2,0:0:0:18:soft-hitwhistle.wav
320,192,110678,1,2,0:0:0:28:soft-hitwhistle.wav
192,192,110742,1,2,0:0:0:35:soft-hitwhistle.wav
320,192,110807,1,2,0:0:0:40:soft-hitwhistle.wav
64,192,110871,1,2,0:0:0:53:
192,192,110871,1,0,0:0:0:0:
64,192,111065,1,0,0:0:0:10:soft-hitwhistle.wav
448,192,111065,1,0,0:0:0:0:
320,192,111129,1,0,0:0:0:20:soft-hitwhistle.wav
192,192,111194,1,0,0:0:0:30:soft-hitwhistle.wav
64,192,111258,1,2,0:0:0:53:
448,192,111258,1,0,0:0:0:0:
320,192,111452,128,0,111645:0:0:0:0:
448,192,111581,128,0,111645:0:0:0:0:
64,192,111645,1,2,0:0:0:53:
192,192,111645,1,0,0:0:0:40:crash1.wav
320,192,113194,1,0,0:0:0:0:
448,192,113194,1,0,0:0:0:0:
192,192,113968,1,0,0:0:0:0:
320,192,113968,1,0,0:0:0:0:
64,192,114742,1,0,0:0:0:0:
192,192,114742,1,0,0:0:0:0:
192,192,116291,1,0,0:0:0:0:
448,192,116291,1,0,0:0:0:0:
64,192,117839,1,0,0:0:0:20:soft-hitclap.wav
320,192,117839,1,0,0:0:0:0:
448,192,118226,1,0,0:0:0:20:soft-hitclap.wav
448,192,118613,1,0,0:0:0:20:soft-hitclap.wav
448,192,119000,1,0,0:0:0:20:soft-hitclap.wav
192,192,119387,1,0,0:0:0:20:soft-hitclap.wav
448,192,119387,1,0,0:0:0:0:
64,192,119774,1,0,0:0:0:20:soft-hitclap.wav
192,192,120161,1,0,0:0:0:20:soft-hitclap.wav
320,192,120161,1,0,0:0:0:0:
448,192,120549,1,0,0:0:0:20:soft-hitclap.wav
192,192,120936,1,0,0:0:0:20:soft-hitclap.wav
320,192,120936,1,0,0:0:0:0:
64,192,121323,1,0,0:0:0:20:soft-hitclap.wav
64,192,121710,1,0,0:0:0:20:soft-hitclap.wav
64,192,122097,1,0,0:0:0:20:soft-hitclap.wav
192,192,122484,1,0,0:0:0:20:soft-hitclap.wav
448,192,122484,1,0,0:0:0:0:
64,192,122532,1,0,0:0:0:0:
320,192,122871,1,0,0:0:0:20:soft-hitclap.wav
192,192,123258,1,0,0:0:0:20:soft-hitclap.wav
64,192,123500,1,0,0:0:0:0:
320,192,123549,1,0,0:0:0:0:
192,192,123597,1,0,0:0:0:0:
64,192,123645,1,0,0:0:0:40:snare.wav
448,192,123645,1,0,0:0:0:0:
192,192,123839,1,0,0:0:0:30:snare.wav
64,192,123887,1,0,0:0:0:30:snare.wav
320,192,123936,1,0,0:0:0:30:snare.wav
448,192,123936,1,0,0:0:0:0:
64,192,124032,128,2,124129:0:0:0:0:
448,192,124032,128,0,124129:0:0:0:40:crash1.wav
192,192,124129,1,0,0:0:0:0:
64,192,124226,1,0,0:0:0:30:Snare3.wav
320,192,124226,1,0,0:0:0:0:
448,192,124323,1,0,0:0:0:30:Snare3.wav
64,192,124420,1,0,0:0:0:30:Snare3.wav
192,192,124420,1,0,0:0:0:0:
320,192,124516,1,0,0:0:0:0:
448,192,124516,1,0,0:0:0:0:
64,192,124613,1,0,0:0:0:30:Snare3.wav
192,192,124613,1,0,0:0:0:0:
192,192,124807,1,0,0:0:0:30:Snare3.wav
448,192,124807,1,0,0:0:0:0:
320,192,124903,1,0,0:0:0:0:
64,192,125000,1,0,0:0:0:30:Snare3.wav
448,192,125000,1,0,0:0:0:0:
192,192,125097,1,0,0:0:0:0:
320,192,125194,1,0,0:0:0:0:
448,192,125194,1,0,0:0:0:0:
64,192,125291,1,0,0:0:0:30:Snare3.wav
192,192,125387,1,0,0:0:0:30:Snare3.wav
448,192,125387,1,0,0:0:0:0:
64,192,125436,1,0,0:0:0:30:Snare3.wav
320,192,125484,1,0,0:0:0:30:Snare3.wav
448,192,125532,1,0,0:0:0:30:Snare3.wav
64,192,125581,1,0,0:0:0:30:Snare3.wav
192,192,125581,1,0,0:0:0:0:
320,192,125678,1,0,0:0:0:0:
64,192,125774,1,0,0:0:0:30:Snare3.wav
192,192,125774,1,0,0:0:0:0:
448,192,125871,1,0,0:0:0:30:Snare3.wav
192,192,125968,1,0,0:0:0:30:Snare3.wav
320,192,125968,1,0,0:0:0:0:
64,192,126065,1,0,0:0:0:0:
448,192,126065,1,0,0:0:0:0:
192,192,126161,1,0,0:0:0:30:Snare3.wav
320,192,126161,1,0,0:0:0:0:
64,192,126355,1,0,0:0:0:30:Snare3.wav
448,192,126355,1,0,0:0:0:0:
320,192,126452,1,0,0:0:0:0:
64,192,126549,1,0,0:0:0:30:Snare3.wav
192,192,126549,1,0,0:0:0:0:
448,192,126645,1,0,0:0:0:0:
64,192,126742,1,0,0:0:0:0:
320,192,126742,1,0,0:0:0:0:
192,192,126839,1,0,0:0:0:30:Snare3.wav
64,192,126936,1,0,0:0:0:30:Snare3.wav
448,192,126936,1,0,0:0:0:0:
320,192,126984,1,0,0:0:0:30:Snare3.wav
192,192,127032,1,0,0:0:0:30:Snare3.wav
64,192,127081,1,0,0:0:0:30:Snare3.wav
320,192,127129,1,0,0:0:0:30:Snare3.wav
448,192,127129,1,0,0:0:0:0:
192,192,127226,1,0,0:0:0:0:
64,192,127323,1,0,0:0:0:30:Snare3.wav
448,192,127323,1,0,0:0:0:0:
320,192,127420,1,0,0:0:0:30:Snare3.wav
64,192,127516,1,0,0:0:0:30:Snare3.wav
192,192,127516,1,0,0:0:0:0:
320,192,127613,1,0,0:0:0:0:
448,192,127613,1,0,0:0:0:0:
64,192,127710,1,0,0:0:0:30:Snare3.wav
192,192,127710,1,0,0:0:0:0:
448,192,127807,1,0,0:0:0:0:
64,192,127903,1,0,0:0:0:30:Snare3.wav
320,192,127903,1,0,0:0:0:0:
192,192,128000,1,0,0:0:0:0:
64,192,128097,1,0,0:0:0:30:Snare3.wav
448,192,128097,1,0,0:0:0:0:
320,192,128194,1,0,0:0:0:0:
64,192,128291,1,0,0:0:0:0:
192,192,128291,1,0,0:0:0:0:
448,192,128387,1,0,0:0:0:30:Snare3.wav
64,192,128484,1,0,0:0:0:30:Snare3.wav
320,192,128484,1,0,0:0:0:0:
448,192,128532,1,0,0:0:0:30:Snare3.wav
192,192,128581,1,0,0:0:0:30:Snare3.wav
64,192,128629,1,0,0:0:0:30:Snare3.wav
320,192,128678,1,0,0:0:0:30:Snare3.wav
448,192,128678,1,0,0:0:0:0:
192,192,128774,1,0,0:0:0:0:
64,192,128871,1,0,0:0:0:30:Snare3.wav
448,192,128871,1,0,0:0:0:0:
320,192,128968,1,0,0:0:0:30:Snare3.wav
64,192,129065,1,0,0:0:0:30:Snare3.wav
448,192,129065,1,0,0:0:0:0:
192,192,129161,1,0,0:0:0:0:
320,192,129161,1,0,0:0:0:0:
64,192,129258,1,0,0:0:0:30:Snare3.wav
448,192,129258,1,0,0:0:0:0:
192,192,129355,1,0,0:0:0:0:
64,192,129452,1,0,0:0:0:30:Snare3.wav
320,192,129452,1,0,0:0:0:0:
192,192,129549,1,0,0:0:0:0:
320,192,129645,1,0,0:0:0:30:Snare3.wav
448,192,129645,1,0,0:0:0:0:
192,192,129742,1,0,0:0:0:0:
64,192,129839,1,0,0:0:0:0:
448,192,129839,1,0,0:0:0:0:
320,192,129936,1,0,0:0:0:30:Snare3.wav
64,192,130032,1,0,0:0:0:30:Snare3.wav
448,192,130032,1,0,0:0:0:0:
320,192,130081,1,0,0:0:0:30:Snare3.wav
192,192,130129,1,0,0:0:0:30:Snare3.wav
64,192,130178,1,0,0:0:0:30:Snare3.wav
320,192,130226,128,2,130323:0:0:0:0:
448,192,130226,128,0,130323:0:0:0:30:Snare3.wav
64,192,130323,1,0,0:0:0:0:
192,192,130420,1,0,0:0:0:30:Snare3.wav
448,192,130420,1,0,0:0:0:0:
320,192,130516,1,0,0:0:0:0:
64,192,130613,1,0,0:0:0:30:Snare3.wav
192,192,130613,1,0,0:0:0:0:
320,192,130710,1,0,0:0:0:0:
448,192,130710,1,0,0:0:0:0:
64,192,130807,1,0,0:0:0:30:Snare3.wav
192,192,130807,1,0,0:0:0:0:
64,192,131000,1,0,0:0:0:30:Snare3.wav
448,192,131000,1,0,0:0:0:0:
320,192,131097,1,0,0:0:0:0:
64,192,131194,1,0,0:0:0:30:Snare3.wav
192,192,131194,1,0,0:0:0:0:
448,192,131291,1,0,0:0:0:0:
192,192,131387,1,0,0:0:0:30:Snare3.wav
320,192,131387,1,0,0:0:0:0:
64,192,131484,1,0,0:0:0:0:
192,192,131581,1,0,0:0:0:30:Snare3.wav
448,192,131581,1,0,0:0:0:0:
320,192,131678,1,0,0:0:0:0:
64,192,131774,1,0,0:0:0:30:Snare3.wav
192,192,131774,1,0,0:0:0:0:
448,192,131871,1,0,0:0:0:0:
64,192,131968,1,0,0:0:0:30:Snare3.wav
320,192,131968,1,0,0:0:0:0:
192,192,132065,1,0,0:0:0:0:
320,192,132161,1,0,0:0:0:30:Snare3.wav
448,192,132161,1,0,0:0:0:0:
64,192,132258,1,0,0:0:0:0:
192,192,132258,1,0,0:0:0:0:
320,192,132355,1,0,0:0:0:30:Snare3.wav
448,192,132355,1,0,0:0:0:0:
192,192,132452,1,0,0:0:0:0:
64,192,132549,1,0,0:0:0:30:Snare3.wav
448,192,132549,1,0,0:0:0:0:
192,192,132645,1,0,0:0:0:0:
320,192,132742,1,0,0:0:0:30:Snare3.wav
448,192,132742,1,0,0:0:0:0:
64,192,132839,1,0,0:0:0:0:
192,192,132936,1,0,0:0:0:30:Snare3.wav
320,192,132936,1,0,0:0:0:0:
448,192,133032,1,0,0:0:0:0:
64,192,133129,1,0,0:0:0:30:Snare3.wav
320,192,133129,1,0,0:0:0:0:
192,192,133226,1,0,0:0:0:0:
320,192,133323,1,0,0:0:0:30:Snare3.wav
448,192,133323,1,0,0:0:0:0:
64,192,133420,1,0,0:0:0:30:Snare3.wav
320,192,133516,1,0,0:0:0:30:Snare3.wav
192,192,133613,1,0,0:0:0:30:Snare3.wav
64,192,133710,1,0,0:0:0:30:Snare3.wav
448,192,133710,1,0,0:0:0:0:
320,192,133807,1,0,0:0:0:30:Snare3.wav
192,192,133903,1,0,0:0:0:30:Snare3.wav
64,192,134000,1,0,0:0:0:30:Snare3.wav
320,192,134097,1,0,0:0:0:30:Snare3.wav
448,192,134097,1,0,0:0:0:0:
192,192,134194,1,0,0:0:0:30:Snare3.wav
448,192,134291,1,0,0:0:0:30:Snare3.wav
320,192,134387,1,0,0:0:0:30:Snare3.wav
64,192,134484,1,0,0:0:0:30:Snare3.wav
192,192,134484,1,0,0:0:0:0:
448,192,134581,1,0,0:0:0:30:Snare3.wav
320,192,134678,1,0,0:0:0:30:Snare3.wav
192,192,134774,1,0,0:0:0:30:Snare3.wav
64,192,134871,1,2,0:0:0:0:
320,192,134871,1,0,0:0:0:40:crash1.wav
448,192,134871,1,0,0:0:0:0:
64,192,135065,1,0,0:0:0:0:
448,192,135258,1,0,0:0:0:0:
192,192,135452,1,0,0:0:0:0:
320,192,135549,1,0,0:0:0:0:
192,192,135839,1,0,0:0:0:0:
448,192,136032,1,0,0:0:0:0:
192,192,136226,1,0,0:0:0:0:
320,192,136323,1,0,0:0:0:0:
64,192,136420,1,2,0:0:0:0:
192,192,136420,1,0,0:0:0:0:
448,192,136420,1,0,0:0:0:0:
64,192,136807,1,2,0:0:0:0:
320,192,136807,128,8,137065:0:0:0:0:
448,192,136807,128,0,136936:0:0:0:40:crash1.wav
64,192,136936,128,0,137065:0:0:0:0:
192,192,137000,128,0,137065:0:0:0:0:
448,192,137000,1,0,0:0:0:0:
448,192,137129,1,0,0:0:0:0:
192,192,137194,128,2,137452:0:0:0:0:
320,192,137194,128,0,137323:0:0:0:0:
64,192,137323,1,0,0:0:0:0:
320,192,137387,1,0,0:0:0:0:
448,192,137387,1,0,0:0:0:0:
320,192,137516,1,0,0:0:0:0:
64,192,137581,128,8,137839:0:0:0:0:
192,192,137581,128,2,137710:0:0:0:0:
448,192,137710,1,0,0:0:0:0:
192,192,137774,1,0,0:0:0:0:
320,192,137774,1,0,0:0:0:0:
448,192,137903,1,0,0:0:0:0:
64,192,137968,1,2,0:0:0:0:
320,192,137968,1,0,0:0:0:0:
64,192,138097,1,0,0:0:0:0:
320,192,138161,1,0,0:0:0:0:
448,192,138161,1,0,0:0:0:0:
192,192,138291,1,0,0:0:0:0:
64,192,138355,1,2,0:0:0:0:
320,192,138355,128,8,138484:0:0:0:0:
64,192,138484,1,0,0:0:0:0:
192,192,138549,1,0,0:0:0:0:
448,192,138549,128,0,138678:0:0:0:0:
320,192,138678,1,0,0:0:0:0:
64,192,138742,128,2,138871:0:0:0:0:
192,192,138742,1,0,0:0:0:0:
192,192,138871,1,0,0:0:0:0:
320,192,138936,128,0,139065:0:0:0:0:
448,192,138936,1,0,0:0:0:0:
192,192,139065,1,0,0:0:0:0:
320,192,139129,1,8,0:0:0:0:
448,192,139129,128,2,139258:0:0:0:0:
320,192,139258,1,0,0:0:0:0:
64,192,139323,1,0,0:0:0:0:
192,192,139323,128,0,139452:0:0:0:0:
448,192,139452,1,0,0:0:0:0:
192,192,139516,1,2,0:0:0:0:
320,192,139516,128,0,139710:0:0:0:0:
192,192,139645,128,0,139710:0:0:0:0:
64,192,139710,1,0,0:0:0:0:
448,192,139710,1,0,0:0:0:0:
64,192,139839,1,0,0:0:0:0:
192,192,139903,1,2,0:0:0:0:
320,192,139903,128,8,140097:0:0:0:0:
192,192,140032,128,0,140097:0:0:0:0:
64,192,140097,1,0,0:0:0:0:
448,192,140097,1,0,0:0:0:0:
64,192,140226,1,0,0:0:0:0:
192,192,140291,128,2,140484:0:0:0:0:
320,192,140291,1,0,0:0:0:0:
320,192,140420,128,0,140484:0:0:0:0:
64,192,140484,1,0,0:0:0:0:
448,192,140484,1,0,0:0:0:0:
448,192,140613,1,0,0:0:0:0:
192,192,140678,128,8,140871:0:0:0:0:
320,192,140678,1,2,0:0:0:0:
320,192,140807,128,0,140871:0:0:0:0:
64,192,140871,1,0,0:0:0:0:
448,192,140871,1,0,0:0:0:0:
448,192,141000,1,0,0:0:0:0:
64,192,141065,1,2,0:0:0:0:
192,192,141065,1,0,0:0:0:0:
320,192,141194,1,0,0:0:0:0:
192,192,141258,1,0,0:0:0:0:
448,192,141258,1,0,0:0:0:0:
192,192,141387,1,0,0:0:0:0:
320,192,141452,1,2,0:0:0:0:
448,192,141452,1,8,0:0:0:0:
64,192,141581,1,0,0:0:0:0:
192,192,141645,1,0,0:0:0:0:
320,192,141645,1,0,0:0:0:0:
64,192,141774,1,0,0:0:0:0:
320,192,141839,1,2,0:0:0:0:
448,192,141839,128,0,141968:0:0:0:0:
192,192,141968,1,0,0:0:0:0:
64,192,142032,128,0,142161:0:0:0:0:
320,192,142032,1,0,0:0:0:0:
320,192,142161,1,0,0:0:0:0:
64,192,142226,1,8,0:0:0:0:
192,192,142226,128,2,142355:0:0:0:0:
320,192,142355,1,0,0:0:0:0:
192,192,142420,1,0,0:0:0:0:
448,192,142420,128,0,142549:0:0:0:0:
192,192,142549,1,0,0:0:0:0:
64,192,142613,128,2,142871:0:0:0:0:
320,192,142613,128,0,142742:0:0:0:30:hihat1.wav
192,192,142742,1,0,0:0:0:0:
320,192,142807,1,0,0:0:0:0:
448,192,142807,1,0,0:0:0:0:
192,192,142936,1,0,0:0:0:0:
64,192,143000,1,2,0:0:0:0:
320,192,143000,128,8,143258:0:0:0:0:
448,192,143000,128,0,143129:0:0:0:0:
64,192,143129,128,0,143258:0:0:0:0:
192,192,143194,128,0,143258:0:0:0:0:
448,192,143194,1,0,0:0:0:0:
320,192,143323,1,0,0:0:0:0:
64,192,143387,128,2,143516:0:0:0:0:
192,192,143387,128,0,143645:0:0:0:0:
448,192,143516,1,0,0:0:0:0:
64,192,143581,1,0,0:0:0:0:
320,192,143581,1,0,0:0:0:0:
320,192,143710,1,0,0:0:0:0:
64,192,143774,128,8,143903:0:0:0:0:
192,192,143774,128,2,144032:0:0:0:0:
320,192,143903,1,0,0:0:0:0:
64,192,143968,1,0,0:0:0:0:
448,192,143968,1,0,0:0:0:0:
448,192,144097,1,0,0:0:0:0:
64,192,144161,1,2,0:0:0:0:
320,192,144161,1,0,0:0:0:0:
64,192,144291,1,0,0:0:0:0:
320,192,144355,1,0,0:0:0:0:
448,192,144355,1,0,0:0:0:0:
192,192,144484,1,0,0:0:0:0:
64,192,144549,1,2,0:0:0:0:
448,192,144549,128,8,144678:0:0:0:0:
320,192,144678,1,0,0:0:0:0:
64,192,144742,1,0,0:0:0:0:
192,192,144742,128,0,144871:0:0:0:0:
320,192,144871,1,0,0:0:0:0:
64,192,144936,128,2,145065:0:0:0:0:
448,192,144936,1,0,0:0:0:0:
192,192,145065,1,0,0:0:0:0:
320,192,145129,128,0,145258:0:0:0:0:
448,192,145129,1,0,0:0:0:0:
192,192,145258,1,0,0:0:0:0:
64,192,145323,1,8,0:0:0:0:
448,192,145323,128,2,145452:0:0:0:0:
320,192,145452,1,0,0:0:0:0:
64,192,145516,1,0,0:0:0:0:
192,192,145516,128,0,145645:0:0:0:0:
448,192,145645,1,0,0:0:0:0:
64,192,145710,128,2,145903:0:0:0:0:
320,192,145710,1,0,0:0:0:0:
320,192,145839,128,0,145903:0:0:0:0:
192,192,145903,1,0,0:0:0:0:
448,192,145903,1,0,0:0:0:0:
64,192,146032,1,0,0:0:0:0:
192,192,146097,128,2,146291:0:0:0:0:
448,192,146097,1,8,0:0:0:0:
448,192,146226,128,0,146291:0:0:0:0:
64,192,146291,1,0,0:0:0:0:
320,192,146291,1,0,0:0:0:0:
192,192,146420,1,0,0:0:0:0:
64,192,146484,1,2,0:0:0:0:
320,192,146484,128,0,146678:0:0:0:0:
64,192,146613,128,0,146678:0:0:0:0:
192,192,146678,1,0,0:0:0:0:
448,192,146678,1,0,0:0:0:0:
320,192,146807,1,0,0:0:0:0:
64,192,146871,1,8,0:0:0:0:
192,192,146871,1,2,0:0:0:0:
448,192,146871,128,0,147065:0:0:0:0:
192,192,147000,128,0,147065:0:0:0:0:
64,192,147065,1,0,0:0:0:0:
320,192,147065,1,0,0:0:0:0:
64,192,147161,128,0,147452:0:0:0:0:
448,192,147161,128,0,147452:0:0:0:0:
192,192,147258,1,10,0:0:0:0:
320,192,147258,1,0,0:0:0:40:crash1.wav
192,192,147452,1,8,0:0:0:0:
320,192,147452,1,2,0:0:0:0:
64,192,147645,1,8,0:0:0:0:
448,192,147645,1,0,0:0:0:0:
320,192,147774,1,0,0:0:0:20:soft-hitwhistle.wav
64,192,147839,1,0,0:0:0:30:soft-hitwhistle.wav
192,192,147839,1,0,0:0:0:0:
320,192,147903,1,0,0:0:0:50:soft-hitwhistle.wav
448,192,147903,1,0,0:0:0:0:
64,192,147968,1,0,0:0:0:50:soft-hitwhistle.wav
192,192,147968,1,0,0:0:0:0:
320,192,148032,1,2,0:0:0:0:
448,192,148032,1,0,0:0:0:0:
64,192,148161,1,0,0:0:0:0:
192,192,148226,1,0,0:0:0:40:snare.wav
448,192,148226,1,0,0:0:0:0:
320,192,148355,1,0,0:0:0:0:
64,192,148420,1,8,0:0:0:0:
192,192,148420,1,2,0:0:0:0:
320,192,148549,1,0,0:0:0:0:
64,192,148613,1,2,0:0:0:0:
448,192,148613,1,0,0:0:0:0:
192,192,148807,1,2,0:0:0:0:
320,192,148807,1,0,0:0:0:40:crash1.wav
448,192,148807,1,0,0:0:0:0:
320,192,149968,1,2,0:0:0:0:
448,192,149968,1,0,0:0:0:0:
192,192,150097,1,0,0:0:0:0:
320,192,150161,1,2,0:0:0:0:
448,192,150161,1,0,0:0:0:0:
192,192,150291,1,0,0:0:0:0:
64,192,150355,1,2,0:0:0:0:
448,192,150355,1,0,0:0:0:0:
192,192,150549,1,0,0:0:0:0:
320,192,150549,1,0,0:0:0:0:
64,192,150742,1,10,0:0:0:0:
448,192,150742,1,0,0:0:0:40:crash1.wav
192,192,150807,1,0,0:0:0:0:
320,192,150871,1,0,0:0:0:0:
64,192,150936,1,0,0:0:0:0:
448,192,150936,1,0,0:0:0:0:
192,192,151065,1,0,0:0:0:0:
320,192,151129,1,2,0:0:0:0:
448,192,151129,1,0,0:0:0:0:
320,192,151258,1,0,0:0:0:0:
64,192,151323,1,0,0:0:0:0:
192,192,151323,1,0,0:0:0:0:
320,192,151452,1,0,0:0:0:0:
192,192,151516,1,2,0:0:0:0:
448,192,151516,1,8,0:0:0:0:
192,192,151613,1,0,0:0:0:0:
320,192,151661,1,0,0:0:0:0:
64,192,151710,1,0,0:0:0:0:
448,192,151710,1,0,0:0:0:0:
192,192,151807,1,0,0:0:0:0:
448,192,151807,1,0,0:0:0:0:
64,192,151903,1,2,0:0:0:0:
192,192,151903,1,0,0:0:0:0:
448,192,152032,1,0,0:0:0:0:
64,192,152097,1,0,0:0:0:0:
320,192,152097,1,0,0:0:0:0:
192,192,152161,1,0,0:0:0:0:
448,192,152226,1,0,0:0:0:0:
192,192,152291,1,8,0:0:0:0:
320,192,152291,1,2,0:0:0:0:
448,192,152355,1,0,0:0:0:0:
64,192,152420,1,0,0:0:0:0:
192,192,152484,1,0,0:0:0:0:
320,192,152484,1,0,0:0:0:0:
64,192,152549,1,0,0:0:0:0:
192,192,152613,1,0,0:0:0:0:
320,192,152678,1,2,0:0:0:0:
448,192,152678,1,0,0:0:0:0:
64,192,152742,1,0,0:0:0:0:
192,192,152807,1,0,0:0:0:0:
320,192,152871,1,0,0:0:0:0:
448,192,152871,1,0,0:0:0:0:
192,192,152936,1,0,0:0:0:0:
64,192,153000,1,0,0:0:0:0:
320,192,153065,1,2,0:0:0:0:
448,192,153065,1,8,0:0:0:0:
192,192,153129,1,0,0:0:0:0:
448,192,153194,1,0,0:0:0:0:
64,192,153258,1,0,0:0:0:0:
192,192,153258,1,0,0:0:0:0:
320,192,153323,1,0,0:0:0:0:
448,192,153387,1,0,0:0:0:0:
64,192,153452,1,2,0:0:0:0:
320,192,153452,1,0,0:0:0:0:
192,192,153516,1,0,0:0:0:0:
64,192,153581,1,0,0:0:0:0:
192,192,153645,1,0,0:0:0:0:
448,192,153645,1,0,0:0:0:0:
320,192,153710,1,0,0:0:0:0:
448,192,153774,1,0,0:0:0:0:
64,192,153839,1,8,0:0:0:0:
192,192,153839,1,2,0:0:0:0:
64,192,153968,1,0,0:0:0:0:
192,192,154032,1,0,0:0:0:0:
320,192,154032,1,0,0:0:0:0:
192,192,154161,1,0,0:0:0:0:
320,192,154226,1,2,0:0:0:0:
448,192,154226,1,0,0:0:0:0:
448,192,154355,1,0,0:0:0:0:
64,192,154420,1,0,0:0:0:0:
192,192,154420,1,0,0:0:0:0:
192,192,154549,1,0,0:0:0:0:
320,192,154549,1,0,0:0:0:0:
64,192,154613,1,2,0:0:0:0:
448,192,154613,1,8,0:0:0:0:
320,192,154742,1,0,0:0:0:0:
64,192,154807,1,0,0:0:0:0:
192,192,154807,1,0,0:0:0:0:
192,192,154936,1,0,0:0:0:0:
320,192,155000,1,2,0:0:0:0:
448,192,155000,1,0,0:0:0:0:
320,192,155194,1,2,0:0:0:0:
448,192,155194,1,0,0:0:0:0:
64,192,155323,1,0,0:0:0:0:
320,192,155387,1,10,0:0:0:0:
448,192,155387,1,0,0:0:0:30:hihat1.wav
192,192,155516,1,0,0:0:0:0:
64,192,155581,1,0,0:0:0:0:
448,192,155581,1,0,0:0:0:0:
320,192,155645,1,0,0:0:0:0:
192,192,155710,1,0,0:0:0:0:
64,192,155774,1,2,0:0:0:0:
448,192,155774,1,0,0:0:0:0:
448,192,155903,1,0,0:0:0:0:
64,192,155968,1,0,0:0:0:0:
192,192,155968,1,0,0:0:0:0:
192,192,156097,1,0,0:0:0:0:
320,192,156097,1,0,0:0:0:0:
64,192,156161,1,2,0:0:0:0:
448,192,156161,1,8,0:0:0:0:
64,192,156291,1,0,0:0:0:0:
192,192,156291,1,0,0:0:0:0:
320,192,156355,1,0,0:0:0:0:
448,192,156355,1,0,0:0:0:0:
64,192,156484,1,0,0:0:0:0:
448,192,156484,1,0,0:0:0:0:
192,192,156549,1,2,0:0:0:0:
320,192,156549,1,0,0:0:0:0:
320,192,156678,1,0,0:0:0:0:
64,192,156742,1,0,0:0:0:0:
448,192,156742,1,0,0:0:0:0:
192,192,156807,1,0,0:0:0:0:
320,192,156871,1,0,0:0:0:0:
64,192,156936,1,8,0:0:0:0:
448,192,156936,1,2,0:0:0:0:
192,192,157065,1,0,0:0:0:0:
320,192,157129,1,0,0:0:0:0:
448,192,157129,1,0,0:0:0:0:
192,192,157258,1,0,0:0:0:0:
320,192,157258,1,0,0:0:0:0:
64,192,157323,1,2,0:0:0:0:
448,192,157323,1,0,0:0:0:0:
64,192,157452,1,0,0:0:0:0:
192,192,157452,1,0,0:0:0:0:
320,192,157516,1,0,0:0:0:0:
448,192,157516,1,0,0:0:0:0:
64,192,157645,1,0,0:0:0:0:
320,192,157645,1,0,0:0:0:0:
192,192,157710,1,2,0:0:0:0:
448,192,157710,1,8,0:0:0:0:
64,192,157839,1,0,0:0:0:0:
448,192,157839,1,0,0:0:0:0:
192,192,157903,1,0,0:0:0:0:
320,192,157903,1,0,0:0:0:0:
320,192,158032,1,0,0:0:0:0:
448,192,158032,1,0,0:0:0:0:
64,192,158097,1,2,0:0:0:0:
192,192,158097,1,0,0:0:0:0:
448,192,158291,128,0,158484:0:0:0:0:
192,192,158484,1,8,0:0:0:0:
320,192,158678,128,0,158871:0:0:0:0:
64,192,158871,1,0,0:0:0:0:
192,192,159065,128,0,159258:0:0:0:0:
448,192,159258,1,8,0:0:0:0:
320,192,159452,128,0,159645:0:0:0:0:
64,192,159645,1,2,0:0:0:0:
192,192,159645,1,0,0:0:0:30:hihat1.wav
64,192,160226,1,0,0:0:0:30:tom1.wav
448,192,160355,1,0,0:0:0:30:tom2.wav
320,192,160420,1,2,0:0:0:8:soft-hitwhistle.wav
64,192,160484,1,2,0:0:0:8:soft-hitwhistle.wav
448,192,160549,1,2,0:0:0:18:soft-hitwhistle.wav
64,192,160613,1,2,0:0:0:28:soft-hitwhistle.wav
192,192,160613,1,0,0:0:0:0:
320,192,160742,1,2,0:0:0:40:soft-hitwhistle.wav
448,192,160742,1,0,0:0:0:0:
64,192,160807,1,2,0:0:0:53:
192,192,160807,1,0,0:0:0:0:
64,192,161194,1,2,0:0:0:0:
320,192,161194,1,0,0:0:0:0:
448,192,161387,128,0,161516:0:0:0:0:
320,192,161452,128,0,161581:0:0:0:0:
192,192,161516,128,0,161710:0:0:0:0:
64,192,161581,128,10,161968:0:0:0:0:
448,192,161581,1,0,0:0:0:40:crash1.wav
320,192,161710,1,0,0:0:0:0:
192,192,161774,1,0,0:0:0:0:
448,192,161774,1,0,0:0:0:0:
448,192,161903,1,0,0:0:0:0:
192,192,161968,1,2,0:0:0:0:
320,192,161968,128,0,162097:0:0:0:0:
64,192,162097,1,0,0:0:0:0:
192,192,162161,1,0,0:0:0:0:
448,192,162161,1,0,0:0:0:0:
192,192,162291,1,0,0:0:0:0:
64,192,162355,1,2,0:0:0:0:
320,192,162355,1,8,0:0:0:0:
448,192,162484,1,0,0:0:0:0:
192,192,162549,128,0,162678:0:0:0:0:
320,192,162549,1,0,0:0:0:0:
320,192,162678,128,0,162742:0:0:0:0:
64,192,162742,128,2,162936:0:0:0:0:
448,192,162742,1,0,0:0:0:0:
320,192,162871,1,0,0:0:0:0:
192,192,162936,1,0,0:0:0:0:
448,192,162936,1,0,0:0:0:0:
192,192,163065,1,0,0:0:0:0:
320,192,163129,1,8,0:0:0:0:
448,192,163129,1,2,0:0:0:0:
192,192,163258,1,0,0:0:0:0:
64,192,163323,128,0,163452:0:0:0:0:
448,192,163323,1,0,0:0:0:0:
320,192,163387,128,0,163516:0:0:0:0:
192,192,163452,1,0,0:0:0:0:
64,192,163516,1,2,0:0:0:0:
448,192,163516,1,0,0:0:0:0:
192,192,163645,128,0,163774:0:0:0:0:
320,192,163710,128,0,163839:0:0:0:0:
448,192,163710,1,0,0:0:0:0:
64,192,163839,1,0,0:0:0:0:
448,192,163839,128,0,164032:0:0:0:0:
192,192,163903,1,2,0:0:0:0:
320,192,163903,1,8,0:0:0:0:
192,192,164032,128,0,164161:0:0:0:0:
64,192,164097,1,0,0:0:0:0:
448,192,164097,128,0,164291:0:0:0:0:
192,192,164226,1,0,0:0:0:0:
64,192,164291,1,2,0:0:0:0:
320,192,164291,128,0,164484:0:0:0:0:
448,192,164420,1,0,0:0:0:0:
64,192,164484,1,0,0:0:0:0:
192,192,164484,1,0,0:0:0:0:
192,192,164613,1,0,0:0:0:0:
320,192,164678,1,8,0:0:0:0:
448,192,164678,1,2,0:0:0:0:
64,192,164807,128,0,164936:0:0:0:0:
192,192,164871,128,0,164936:0:0:0:0:
320,192,164871,1,0,0:0:0:0:
320,192,165000,128,0,165258:0:0:0:0:
64,192,165065,1,2,0:0:0:0:
448,192,165065,1,0,0:0:0:0:
64,192,165194,1,0,0:0:0:0:
192,192,165258,128,0,165387:0:0:0:0:
448,192,165258,1,0,0:0:0:0:
320,192,165387,1,0,0:0:0:0:
64,192,165452,1,2,0:0:0:0:
448,192,165452,128,8,165645:0:0:0:0:
192,192,165581,1,0,0:0:0:0:
64,192,165645,1,0,0:0:0:0:
320,192,165645,128,0,165774:0:0:0:0:
448,192,165774,1,0,0:0:0:0:
192,192,165839,128,2,166226:0:0:0:0:
320,192,165839,1,0,0:0:0:0:
448,192,165968,1,0,0:0:0:0:
64,192,166032,1,0,0:0:0:0:
320,192,166032,1,0,0:0:0:0:
64,192,166161,1,0,0:0:0:0:
320,192,166226,1,8,0:0:0:0:
448,192,166226,1,2,0:0:0:0:
192,192,166355,1,0,0:0:0:0:
64,192,166420,128,0,166549:0:0:0:0:
448,192,166420,128,0,166613:0:0:0:0:
320,192,166549,1,0,0:0:0:0:
64,192,166613,1,2,0:0:0:0:
192,192,166613,1,0,0:0:0:0:
192,192,166742,128,0,167000:0:0:0:0:
320,192,166807,128,0,166936:0:0:0:0:
448,192,166807,1,0,0:0:0:0:
64,192,166936,1,0,0:0:0:0:
320,192,167000,1,2,0:0:0:0:
448,192,167000,1,8,0:0:0:0:
192,192,167129,1,0,0:0:0:0:
64,192,167194,1,0,0:0:0:0:
320,192,167194,128,0,167387:0:0:0:0:
64,192,167323,128,0,167452:0:0:0:0:
192,192,167387,128,2,167452:0:0:0:0:
448,192,167387,128,0,167710:0:0:0:30:hihat1.wav
320,192,167516,1,0,0:0:0:0:
64,192,167581,1,0,0:0:0:0:
192,192,167581,1,0,0:0:0:0:
64,192,167710,1,0,0:0:0:0:
320,192,167774,1,8,0:0:0:0:
448,192,167774,1,2,0:0:0:0:
192,192,167903,1,0,0:0:0:0:
64,192,167968,1,0,0:0:0:0:
448,192,167968,1,0,0:0:0:0:
320,192,168097,1,0,0:0:0:0:
64,192,168161,1,2,0:0:0:0:
192,192,168161,128,0,168291:0:0:0:0:
320,192,168226,128,0,168355:0:0:0:0:
448,192,168291,128,0,168420:0:0:0:0:
64,192,168355,1,0,0:0:0:0:
192,192,168355,128,0,168549:0:0:0:0:
64,192,168484,128,0,168549:0:0:0:0:
320,192,168549,1,2,0:0:0:0:
448,192,168549,1,8,0:0:0:0:
64,192,168678,1,0,0:0:0:0:
192,192,168742,1,0,0:0:0:0:
320,192,168742,128,0,168936:0:0:0:0:
448,192,168871,1,0,0:0:0:0:
64,192,168936,1,2,0:0:0:0:
192,192,168936,128,0,169129:0:0:0:0:
448,192,169065,1,0,0:0:0:0:
64,192,169129,1,0,0:0:0:0:
320,192,169129,1,0,0:0:0:0:
320,192,169258,128,0,169323:0:0:0:0:
64,192,169323,128,2,169387:0:0:0:0:
448,192,169323,1,8,0:0:0:0:
192,192,169452,1,0,0:0:0:0:
320,192,169516,128,0,169710:0:0:0:0:
448,192,169516,1,0,0:0:0:0:
64,192,169645,1,0,0:0:0:0:
192,192,169710,1,2,0:0:0:0:
448,192,169710,1,0,0:0:0:0:
320,192,169839,1,0,0:0:0:0:
64,192,169903,1,0,0:0:0:0:
192,192,169903,1,0,0:0:0:0:
448,192,169968,1,0,0:0:0:0:
320,192,170032,128,0,170161:0:0:0:0:
64,192,170097,1,8,0:0:0:0:
192,192,170097,128,2,170355:0:0:0:0:
448,192,170226,1,0,0:0:0:0:
64,192,170291,1,0,0:0:0:0:
320,192,170291,128,0,170484:0:0:0:0:
64,192,170420,1,0,0:0:0:0:
192,192,170484,1,2,0:0:0:0:
448,192,170484,128,0,170742:0:0:0:0:
320,192,170613,1,0,0:0:0:0:
64,192,170678,1,0,0:0:0:0:
192,192,170678,1,0,0:0:0:0:
192,192,170807,1,0,0:0:0:0:
64,192,170871,1,8,0:0:0:0:
448,192,170871,1,2,0:0:0:0:
320,192,171000,128,0,171065:0:0:0:0:
64,192,171065,1,0,0:0:0:0:
192,192,171065,128,0,171129:0:0:0:0:
448,192,171194,128,0,171452:0:0:0:0:
192,192,171258,1,2,0:0:0:0:
320,192,171258,1,0,0:0:0:0:
64,192,171387,1,0,0:0:0:0:
192,192,171452,128,0,171581:0:0:0:0:
320,192,171452,1,0,0:0:0:0:
448,192,171581,1,0,0:0:0:0:
192,192,171645,1,8,0:0:0:0:
320,192,171645,128,2,171903:0:0:0:0:
448,192,171774,1,0,0:0:0:0:
64,192,171839,1,0,0:0:0:0:
192,192,171839,128,0,171903:0:0:0:0:
192,192,171968,1,0,0:0:0:0:
64,192,172032,128,2,172161:0:0:0:0:
320,192,172032,1,8,0:0:0:0:
448,192,172032,128,0,172420:0:0:0:30:hihat1.wav
64,192,172226,128,8,172355:0:0:0:0:
320,192,172226,1,2,0:0:0:0:
64,192,172420,1,8,0:0:0:0:
192,192,172420,1,0,0:0:0:0:
320,192,172484,1,2,0:0:0:8:soft-hitwhistle.wav
192,192,172549,1,2,0:0:0:18:soft-hitwhistle.wav
320,192,172613,1,2,0:0:0:28:soft-hitwhistle.wav
448,192,172613,1,0,0:0:0:0:
64,192,172678,1,2,0:0:0:35:soft-hitwhistle.wav
192,192,172678,1,0,0:0:0:0:
320,192,172742,1,2,0:0:0:40:soft-hitwhistle.wav
448,192,172742,1,0,0:0:0:0:
64,192,172807,1,2,0:0:0:53:
192,192,172807,1,0,0:0:0:0:
448,192,172936,128,0,173000:0:0:0:0:
64,192,173000,1,2,0:0:0:0:
320,192,173000,128,0,173129:0:0:0:40:snare.wav
64,192,173129,128,0,173194:0:0:0:0:
320,192,173194,1,8,0:0:0:0:
448,192,173194,1,2,0:0:0:0:
320,192,173323,1,0,0:0:0:0:
64,192,173387,1,2,0:0:0:0:
192,192,173387,128,0,173516:0:0:0:0:
64,192,173581,128,2,174355:0:0:0:0:
320,192,173581,1,0,0:0:0:40:crash1.wav
448,192,173581,1,0,0:0:0:0:
192,192,174549,128,0,174678:0:0:0:0:
320,192,174613,128,0,174807:0:0:0:0:
448,192,174678,128,0,175065:0:0:0:0:
64,192,174742,1,2,0:0:0:0:
192,192,174742,1,0,0:0:0:0:
64,192,174936,1,2,0:0:0:0:
192,192,174936,1,0,0:0:0:0:
320,192,174936,128,0,175065:0:0:0:0:
64,192,175129,128,2,175516:0:0:0:0:
192,192,175129,128,0,175323:0:0:0:0:
192,192,175387,128,0,175516:0:0:0:0:
320,192,175516,1,10,0:0:0:0:
448,192,175516,1,0,0:0:0:40:crash1.wav
64,192,175645,1,0,0:0:0:0:
192,192,175710,128,0,175839:0:0:0:0:
448,192,175710,1,0,0:0:0:0:
320,192,175839,1,0,0:0:0:0:
64,192,175903,1,2,0:0:0:0:
448,192,175903,1,0,0:0:0:0:
192,192,176032,128,0,176161:0:0:0:0:
320,192,176097,128,0,176226:0:0:0:0:
448,192,176097,1,0,0:0:0:0:
64,192,176226,1,0,0:0:0:0:
448,192,176226,128,0,176420:0:0:0:0:
192,192,176291,1,2,0:0:0:0:
320,192,176291,1,8,0:0:0:0:
192,192,176420,1,0,0:0:0:0:
64,192,176484,1,0,0:0:0:0:
320,192,176484,128,0,176678:0:0:0:0:
448,192,176613,1,0,0:0:0:0:
64,192,176678,1,2,0:0:0:0:
192,192,176678,128,0,176871:0:0:0:0:
320,192,176807,1,0,0:0:0:0:
64,192,176871,1,0,0:0:0:0:
448,192,176871,1,0,0:0:0:0:
320,192,177000,128,0,177065:0:0:0:0:
192,192,177065,1,8,0:0:0:0:
448,192,177065,1,2,0:0:0:0:
64,192,177194,128,0,177323:0:0:0:0:
192,192,177258,128,0,177323:0:0:0:0:
320,192,177258,1,0,0:0:0:0:
320,192,177387,128,0,177645:0:0:0:0:
64,192,177452,1,2,0:0:0:0:
448,192,177452,1,0,0:0:0:0:
64,192,177581,1,0,0:0:0:0:
192,192,177645,128,0,177774:0:0:0:0:
448,192,177645,1,0,0:0:0:0:
320,192,177774,1,0,0:0:0:0:
64,192,177839,1,2,0:0:0:0:
448,192,177839,128,8,178032:0:0:0:0:
192,192,177968,1,0,0:0:0:0:
64,192,178032,1,0,0:0:0:0:
320,192,178032,128,0,178161:0:0:0:0:
448,192,178161,1,0,0:0:0:0:
192,192,178226,128,2,178613:0:0:0:0:
320,192,178226,1,0,0:0:0:0:
448,192,178355,1,0,0:0:0:0:
64,192,178420,1,0,0:0:0:0:
320,192,178420,1,0,0:0:0:0:
64,192,178549,1,0,0:0:0:0:
320,192,178613,1,8,0:0:0:0:
448,192,178613,1,2,0:0:0:0:
192,192,178742,128,0,178807:0:0:0:0:
64,192,178807,128,0,178936:0:0:0:0:
448,192,178807,128,0,179000:0:0:0:0:
320,192,178936,1,0,0:0:0:0:
64,192,179000,1,2,0:0:0:0:
192,192,179000,1,0,0:0:0:0:
192,192,179129,128,0,179387:0:0:0:0:
320,192,179194,128,0,179323:0:0:0:0:
448,192,179194,1,0,0:0:0:0:
64,192,179323,1,0,0:0:0:0:
320,192,179387,1,2,0:0:0:0:
448,192,179387,1,8,0:0:0:0:
192,192,179516,1,0,0:0:0:0:
64,192,179581,1,0,0:0:0:0:
320,192,179581,128,0,179774:0:0:0:0:
64,192,179710,128,0,179839:0:0:0:0:
192,192,179774,128,2,179839:0:0:0:0:
448,192,179774,128,0,180097:0:0:0:0:
64,192,179968,1,2,0:0:0:0:
192,192,179968,1,0,0:0:0:0:
320,192,180097,1,0,0:0:0:0:
64,192,180161,1,10,0:0:0:0:
192,192,180161,1,0,0:0:0:30:hihat1.wav
320,192,180291,128,0,180355:0:0:0:0:
64,192,180355,1,0,0:0:0:0:
448,192,180355,128,0,180420:0:0:0:0:
192,192,180484,128,0,180549:0:0:0:0:
320,192,180549,128,2,180613:0:0:0:0:
448,192,180549,1,0,0:0:0:0:
64,192,180613,128,0,180742:0:0:0:0:
192,192,180678,128,0,180807:0:0:0:0:
320,192,180742,128,0,180936:0:0:0:0:
448,192,180742,1,0,0:0:0:0:
448,192,180871,1,0,0:0:0:0:
64,192,180936,1,2,0:0:0:0:
192,192,180936,1,8,0:0:0:0:
448,192,181065,1,0,0:0:0:0:
192,192,181129,128,0,181323:0:0:0:0:
320,192,181129,1,0,0:0:0:0:
64,192,181258,128,0,181323:0:0:0:0:
320,192,181323,128,2,181516:0:0:0:0:
448,192,181323,1,0,0:0:0:0:
64,192,181452,1,0,0:0:0:0:
192,192,181516,1,0,0:0:0:0:
448,192,181516,1,0,0:0:0:0:
192,192,181645,128,0,181710:0:0:0:0:
64,192,181710,1,8,0:0:0:0:
448,192,181710,128,2,181774:0:0:0:0:
192,192,181839,1,0,0:0:0:0:
64,192,181903,1,0,0:0:0:0:
320,192,181903,128,0,182097:0:0:0:0:
64,192,182032,1,0,0:0:0:0:
192,192,182097,1,2,0:0:0:0:
448,192,182097,1,0,0:0:0:0:
192,192,182226,128,0,182291:0:0:0:0:
64,192,182291,128,0,182355:0:0:0:0:
448,192,182291,1,0,0:0:0:0:
320,192,182355,1,0,0:0:0:0:
192,192,182420,1,0,0:0:0:0:
64,192,182484,128,2,182613:0:0:0:0:
448,192,182484,1,8,0:0:0:0:
320,192,182613,1,0,0:0:0:0:
192,192,182678,128,0,182871:0:0:0:0:
448,192,182678,1,0,0:0:0:0:
448,192,182807,1,0,0:0:0:0:
64,192,182871,1,2,0:0:0:0:
320,192,182871,128,0,183065:0:0:0:0:
448,192,183065,1,0,0:0:0:0:
192,192,183194,1,0,0:0:0:0:
64,192,183258,128,8,183323:0:0:0:0:
448,192,183258,1,0,0:0:0:0:
320,192,183323,128,0,183387:0:0:0:0:
192,192,183387,128,0,183452:0:0:0:0:
448,192,183452,128,0,183516:0:0:0:0:
320,192,183516,128,0,183581:0:0:0:0:
192,192,183581,128,0,183645:0:0:0:0:
64,192,183645,128,0,183710:0:0:0:0:
192,192,183839,128,0,183903:0:0:0:0:
448,192,183839,1,0,0:0:0:0:
64,192,184032,1,8,0:0:0:0:
192,192,184032,128,0,184161:0:0:0:0:
448,192,184097,128,0,184291:0:0:0:0:
192,192,184226,1,0,0:0:0:0:
320,192,184226,128,0,184355:0:0:0:0:
64,192,184355,128,0,184420:0:0:0:0:
192,192,184420,128,2,185065:0:0:0:0:
448,192,184420,1,0,0:0:0:30:hihat1.wav
320,192,184613,128,0,184678:0:0:0:0:
448,192,184678,128,0,184742:0:0:0:0:
64,192,184742,128,0,184807:0:0:0:0:
320,192,184807,128,0,184871:0:0:0:0:
320,192,184936,128,0,185000:0:0:0:0:
448,192,185000,128,0,185194:0:0:0:30:tom1.wav
320,192,185129,128,0,185194:0:0:0:30:tom2.wav
192,192,185194,1,0,0:0:0:0:
192,192,185323,128,0,185581:0:0:0:0:
320,192,185516,128,0,185581:0:0:0:0:
64,192,185581,1,2,0:0:0:0:
448,192,185581,1,0,0:0:0:0:
320,192,185710,128,0,185839:0:0:0:0:
448,192,185774,128,0,185968:0:0:0:0:
64,192,185968,128,2,186161:0:0:0:0:
192,192,185968,128,0,186097:0:0:0:40:crash1.wav
320,192,186097,1,0,0:0:0:0:
192,192,186161,1,0,0:0:0:0:
448,192,186161,1,0,0:0:0:0:
192,192,186291,1,0,0:0:0:0:
320,192,186355,128,2,186420:0:0:0:0:
448,192,186355,128,8,186549:0:0:0:0:
192,192,186484,1,0,0:0:0:0:
64,192,186549,1,0,0:0:0:0:
320,192,186549,1,0,0:0:0:0:
320,192,186678,1,0,0:0:0:0:
64,192,186742,128,2,186936:0:0:0:0:
192,192,186742,128,0,186807:0:0:0:0:
320,192,186871,1,0,0:0:0:0:
192,192,186936,1,0,0:0:0:0:
448,192,186936,1,0,0:0:0:0:
192,192,187065,1,0,0:0:0:0:
320,192,187129,128,8,187194:0:0:0:0:
448,192,187129,128,2,187323:0:0:0:0:
192,192,187258,1,0,0:0:0:0:
64,192,187323,1,0,0:0:0:0:
320,192,187323,1,0,0:0:0:0:
320,192,187452,1,0,0:0:0:0:
64,192,187516,1,2,0:0:0:0:
192,192,187516,1,0,0:0:0:0:
448,192,187645,1,0,0:0:0:0:
192,192,187710,1,0,0:0:0:0:
320,192,187710,1,0,0:0:0:0:
192,192,187839,1,0,0:0:0:0:
320,192,187903,128,2,188032:0:0:0:0:
448,192,187903,1,8,0:0:0:0:
64,192,188032,1,0,0:0:0:0:
192,192,188097,128,0,188226:0:0:0:0:
320,192,188097,1,0,0:0:0:0:
320,192,188226,1,0,0:0:0:0:
192,192,188291,1,2,0:0:0:0:
448,192,188291,128,0,188420:0:0:0:0:
320,192,188420,1,0,0:0:0:0:
64,192,188484,128,0,188613:0:0:0:0:
448,192,188484,1,0,0:0:0:0:
448,192,188613,1,0,0:0:0:0:
192,192,188678,1,8,0:0:0:0:
320,192,188678,128,2,188807:0:0:0:0:
64,192,188807,1,0,0:0:0:0:
192,192,188871,1,0,0:0:0:0:
448,192,188871,128,0,189000:0:0:0:0:
192,192,189000,1,0,0:0:0:0:
320,192,189065,1,2,0:0:0:0:
448,192,189065,1,0,0:0:0:0:
320,192,189194,1,0,0:0:0:0:
64,192,189258,1,0,0:0:0:0:
192,192,189258,1,0,0:0:0:0:
448,192,189387,1,0,0:0:0:0:
64,192,189452,1,2,0:0:0:0:
192,192,189452,1,8,0:0:0:0:
320,192,189581,1,0,0:0:0:0:
64,192,189645,1,0,0:0:0:0:
192,192,189645,128,0,189839:0:0:0:0:
320,192,189774,128,0,189839:0:0:0:0:
64,192,189839,1,2,0:0:0:0:
448,192,189839,1,0,0:0:0:0:
192,192,189968,1,0,0:0:0:0:
320,192,190032,1,0,0:0:0:0:
448,192,190032,1,0,0:0:0:0:
64,192,190161,1,0,0:0:0:0:
320,192,190226,1,8,0:0:0:0:
448,192,190226,1,2,0:0:0:0:
192,192,190355,1,0,0:0:0:0:
320,192,190420,1,0,0:0:0:0:
448,192,190420,1,0,0:0:0:0:
64,192,190613,1,2,0:0:0:0:
448,192,190613,128,0,190807:0:0:0:0:
192,192,190742,1,0,0:0:0:0:
64,192,190807,1,0,0:0:0:0:
320,192,190807,1,0,0:0:0:0:
448,192,190936,1,0,0:0:0:0:
64,192,191000,1,2,0:0:0:0:
320,192,191000,1,8,0:0:0:0:
192,192,191129,1,0,0:0:0:0:
64,192,191194,1,0,0:0:0:0:
320,192,191194,1,0,0:0:0:0:
320,192,191323,1,0,0:0:0:0:
192,192,191387,1,2,0:0:0:0:
448,192,191387,1,0,0:0:0:0:
64,192,191516,128,0,191581:0:0:0:0:
192,192,191581,1,0,0:0:0:0:
448,192,191581,1,0,0:0:0:0:
320,192,191710,1,0,0:0:0:0:
192,192,191774,1,8,0:0:0:0:
448,192,191774,1,2,0:0:0:0:
64,192,191903,1,0,0:0:0:0:
192,192,191968,1,0,0:0:0:0:
448,192,191968,1,0,0:0:0:0:
448,192,192097,1,0,0:0:0:0:
64,192,192161,128,2,192355:0:0:0:0:
192,192,192161,128,0,192291:0:0:0:0:
320,192,192291,1,0,0:0:0:0:
192,192,192355,1,0,0:0:0:0:
448,192,192355,1,0,0:0:0:0:
192,192,192484,1,0,0:0:0:0:
320,192,192549,128,10,192613:0:0:0:0:
448,192,192549,128,0,192742:0:0:0:30:hihat1.wav
192,192,192678,1,0,0:0:0:0:
64,192,192742,1,0,0:0:0:0:
320,192,192742,1,0,0:0:0:0:
320,192,192871,1,0,0:0:0:0:
64,192,192936,128,2,193129:0:0:0:0:
192,192,192936,128,0,193000:0:0:0:0:
320,192,193065,1,0,0:0:0:0:
192,192,193129,1,0,0:0:0:0:
448,192,193129,1,0,0:0:0:0:
192,192,193258,1,0,0:0:0:0:
320,192,193323,128,8,193387:0:0:0:0:
448,192,193323,128,2,193516:0:0:0:0:
192,192,193452,1,0,0:0:0:0:
64,192,193516,1,0,0:0:0:0:
320,192,193516,1,0,0:0:0:0:
320,192,193645,1,0,0:0:0:0:
64,192,193710,1,2,0:0:0:0:
192,192,193710,1,0,0:0:0:0:
448,192,193839,1,0,0:0:0:0:
192,192,193903,1,0,0:0:0:0:
320,192,193903,1,0,0:0:0:0:
192,192,194032,1,0,0:0:0:0:
320,192,194097,128,2,194226:0:0:0:0:
448,192,194097,1,8,0:0:0:0:
64,192,194226,1,0,0:0:0:0:
192,192,194291,128,0,194420:0:0:0:0:
320,192,194291,1,0,0:0:0:0:
320,192,194420,1,0,0:0:0:0:
192,192,194484,1,2,0:0:0:0:
448,192,194484,128,0,194613:0:0:0:0:
320,192,194613,1,0,0:0:0:0:
64,192,194678,128,0,194807:0:0:0:0:
448,192,194678,1,0,0:0:0:0:
448,192,194807,1,0,0:0:0:0:
192,192,194871,1,8,0:0:0:0:
320,192,194871,128,2,195000:0:0:0:0:
64,192,195000,1,0,0:0:0:0:
192,192,195065,1,0,0:0:0:0:
448,192,195065,128,0,195194:0:0:0:0:
192,192,195194,1,0,0:0:0:0:
320,192,195258,128,2,195452:0:0:0:0:
448,192,195258,1,0,0:0:0:0:
192,192,195387,128,0,195452:0:0:0:0:
64,192,195452,1,0,0:0:0:0:
448,192,195452,1,0,0:0:0:0:
320,192,195581,1,0,0:0:0:0:
64,192,195645,1,2,0:0:0:0:
192,192,195645,128,8,195839:0:0:0:0:
320,192,195774,128,0,195839:0:0:0:0:
64,192,195839,1,0,0:0:0:0:
448,192,195839,1,0,0:0:0:0:
192,192,195968,1,0,0:0:0:0:
320,192,196032,128,2,196226:0:0:0:0:
448,192,196032,1,0,0:0:0:0:
192,192,196161,128,0,196226:0:0:0:0:
64,192,196226,1,0,0:0:0:0:
448,192,196226,1,0,0:0:0:0:
320,192,196355,1,0,0:0:0:0:
64,192,196420,1,8,0:0:0:0:
192,192,196420,128,2,196613:0:0:0:0:
320,192,196549,128,0,196613:0:0:0:0:
64,192,196613,1,0,0:0:0:0:
448,192,196613,1,0,0:0:0:0:
64,192,196742,128,0,197000:0:0:0:0:
448,192,196742,128,0,197000:0:0:0:0:
192,192,196807,1,2,0:0:0:0:
320,192,196807,1,0,0:0:0:40:crash1.wav
192,192,197000,1,0,0:0:0:0:
320,192,197000,1,0,0:0:0:0:
448,192,197194,1,0,0:0:0:0:
192,192,197291,1,0,0:0:0:0:
320,192,197339,1,0,0:0:0:0:
64,192,197387,1,0,0:0:0:30:tom1.wav
448,192,197387,1,0,0:0:0:0:
192,192,197516,1,0,0:0:0:30:tom2.wav
320,192,197581,1,0,0:0:0:0:
448,192,197581,1,0,0:0:0:0:
320,192,197678,1,0,0:0:0:0:
64,192,197774,1,0,0:0:0:0:
192,192,197774,1,0,0:0:0:0:
192,192,197871,1,0,0:0:0:0:
320,192,197968,1,2,0:0:0:0:
448,192,197968,1,0,0:0:0:0:
64,192,198161,128,0,198258:0:0:0:0:
320,192,198258,128,0,198355:0:0:0:0:
64,192,198355,1,2,0:0:0:53:
192,192,198355,1,0,0:0:0:30:fx1.wav
192,192,198549,1,0,0:0:0:0:
448,192,198549,1,0,0:0:0:0:
64,192,198742,1,2,0:0:0:53:
448,192,198742,1,0,0:0:0:0:
192,192,198807,1,0,0:0:0:0:
320,192,198871,1,0,0:0:0:0:
64,192,198936,1,0,0:0:0:0:
448,192,198936,1,0,0:0:0:0:
192,192,199065,1,0,0:0:0:0:
320,192,199129,1,2,0:0:0:53:
448,192,199129,1,0,0:0:0:0:
64,192,199323,1,0,0:0:0:0:
320,192,199323,1,0,0:0:0:0:
64,192,199516,1,2,0:0:0:53:
192,192,199516,1,0,0:0:0:0:
320,192,199581,1,0,0:0:0:0:
448,192,199645,1,0,0:0:0:0:
192,192,199710,1,0,0:0:0:0:
320,192,199710,1,0,0:0:0:0:
64,192,199774,1,0,0:0:0:0:
192,192,199839,1,0,0:0:0:0:
320,192,199903,1,2,0:0:0:53:
448,192,199903,1,0,0:0:0:0:
320,192,200032,1,0,0:0:0:0:
64,192,200097,1,0,0:0:0:0:
192,192,200097,1,0,0:0:0:0:
192,192,200226,1,0,0:0:0:0:
64,192,200291,1,2,0:0:0:53:
448,192,200291,1,0,0:0:0:0:
448,192,200420,1,0,0:0:0:0:
64,192,200484,1,0,0:0:0:0:
320,192,200484,1,0,0:0:0:0:
64,192,200613,1,0,0:0:0:0:
320,192,200678,1,2,0:0:0:53:
448,192,200678,1,0,0:0:0:0:
192,192,200742,1,0,0:0:0:0:
448,192,200807,1,0,0:0:0:0:
64,192,200871,1,0,0:0:0:0:
192,192,200871,1,0,0:0:0:0:
320,192,200936,1,0,0:0:0:0:
64,192,201000,1,0,0:0:0:0:
320,192,201065,1,2,0:0:0:53:
448,192,201065,1,0,0:0:0:0:
192,192,201194,1,0,0:0:0:0:
64,192,201258,1,0,0:0:0:0:
320,192,201258,1,0,0:0:0:0:
192,192,201387,1,0,0:0:0:0:
320,192,201452,1,2,0:0:0:53:
448,192,201452,1,0,0:0:0:0:
64,192,201516,1,0,0:0:0:0:
192,192,201581,1,0,0:0:0:0:
64,192,201645,1,0,0:0:0:0:
320,192,201645,1,0,0:0:0:0:
448,192,201774,1,0,0:0:0:0:
192,192,201839,1,2,0:0:0:53:
320,192,201839,1,0,0:0:0:0:
64,192,202032,1,0,0:0:0:0:
320,192,202032,1,0,0:0:0:0:
64,192,202161,1,0,0:0:0:0:
320,192,202226,1,2,0:0:0:53:
448,192,202226,1,0,0:0:0:0:
192,192,202291,1,0,0:0:0:0:
64,192,202355,1,0,0:0:0:0:
192,192,202420,1,0,0:0:0:0:
320,192,202420,1,0,0:0:0:0:
448,192,202484,1,0,0:0:0:0:
320,192,202549,1,0,0:0:0:0:
64,192,202613,1,2,0:0:0:53:
192,192,202613,1,0,0:0:0:0:
192,192,202807,1,0,0:0:0:0:
448,192,202807,1,0,0:0:0:0:
320,192,202871,1,0,0:0:0:0:
64,192,202936,1,0,0:0:0:0:
192,192,203000,1,2,0:0:0:53:
320,192,203000,1,0,0:0:0:30:fx1.wav
448,192,203000,1,0,0:0:0:0:
448,192,203129,1,0,0:0:0:0:
64,192,203194,1,0,0:0:0:0:
192,192,203194,1,0,0:0:0:0:
192,192,203323,1,0,0:0:0:0:
320,192,203323,1,0,0:0:0:0:
64,192,203387,1,2,0:0:0:53:
448,192,203387,1,0,0:0:0:0:
320,192,203581,1,0,0:0:0:60:snare2.wav
448,192,203581,1,0,0:0:0:0:
192,192,203645,1,0,0:0:0:0:
448,192,203710,1,0,0:0:0:0:
64,192,203774,1,2,0:0:0:53:
192,192,203774,1,0,0:0:0:0:
320,192,203839,1,0,0:0:0:0:
448,192,203903,1,0,0:0:0:0:
64,192,203968,1,2,0:0:0:53:
192,192,203968,1,0,0:0:0:0:
320,192,204032,1,0,0:0:0:0:
64,192,204097,1,2,0:0:0:53:
192,192,204097,1,0,0:0:0:0:
320,192,204161,1,0,0:0:0:0:
448,192,204161,1,0,0:0:0:0:
192,192,204291,1,2,0:0:0:53:
448,192,204291,1,0,0:0:0:0:
64,192,204355,1,2,0:0:0:53:
320,192,204355,1,0,0:0:0:0:
64,192,204484,1,2,0:0:0:53:
320,192,204484,1,0,0:0:0:0:
192,192,204549,1,2,0:0:0:53:
448,192,204549,1,0,0:0:0:0:
320,192,204613,1,0,0:0:0:0:
64,192,204678,1,0,0:0:0:0:
192,192,204742,1,0,0:0:0:0:
320,192,204807,1,0,0:0:0:0:
448,192,204871,1,0,0:0:0:0:
64,192,204936,1,2,0:0:0:53:
192,192,204936,1,0,0:0:0:30:crash1.wav
192,192,205129,1,0,0:0:0:0:
448,192,205129,1,0,0:0:0:0:
320,192,205258,1,0,0:0:0:0:
64,192,205323,1,2,0:0:0:53:
192,192,205323,1,0,0:0:0:0:
64,192,205452,1,0,0:0:0:0:
320,192,205516,1,0,0:0:0:0:
448,192,205516,1,0,0:0:0:0:
192,192,205645,1,0,0:0:0:0:
448,192,205645,1,0,0:0:0:0:
64,192,205710,1,2,0:0:0:53:
320,192,205710,1,0,0:0:0:0:
192,192,205839,1,0,0:0:0:0:
320,192,205839,1,0,0:0:0:0:
64,192,205903,1,0,0:0:0:0:
448,192,205903,1,0,0:0:0:0:
64,192,206032,1,0,0:0:0:0:
320,192,206032,1,0,0:0:0:0:
192,192,206097,1,2,0:0:0:53:
448,192,206097,1,0,0:0:0:0:
192,192,206226,1,0,0:0:0:0:
320,192,206226,1,0,0:0:0:0:
64,192,206291,1,0,0:0:0:0:
448,192,206291,1,0,0:0:0:0:
320,192,206420,1,0,0:0:0:0:
448,192,206420,1,0,0:0:0:0:
64,192,206484,1,2,0:0:0:53:
192,192,206484,1,0,0:0:0:0:
192,192,206613,1,0,0:0:0:0:
448,192,206613,1,0,0:0:0:0:
64,192,206678,1,0,0:0:0:0:
320,192,206678,1,0,0:0:0:0:
64,192,206807,1,0,0:0:0:0:
192,192,206807,1,0,0:0:0:0:
320,192,206871,1,2,0:0:0:53:
448,192,206871,1,0,0:0:0:0:
192,192,207000,1,0,0:0:0:0:
320,192,207000,1,0,0:0:0:0:
64,192,207065,1,0,0:0:0:0:
448,192,207065,1,0,0:0:0:0:
192,192,207194,1,0,0:0:0:0:
448,192,207194,1,0,0:0:0:0:
64,192,207258,1,2,0:0:0:53:
320,192,207258,1,0,0:0:0:0:
64,192,207387,1,0,0:0:0:0:
192,192,207387,1,0,0:0:0:0:
320,192,207452,1,0,0:0:0:0:
448,192,207452,1,0,0:0:0:0:
64,192,207581,1,0,0:0:0:0:
448,192,207581,1,0,0:0:0:0:
192,192,207645,1,2,0:0:0:53:
320,192,207645,1,0,0:0:0:0:
320,192,207774,1,0,0:0:0:0:
64,192,207839,1,0,0:0:0:30:snare.wav
192,192,207839,1,0,0:0:0:0:
448,192,207903,1,0,0:0:0:0:
64,192,207968,1,0,0:0:0:0:
320,192,208032,1,2,0:0:0:53:
448,192,208032,1,0,0:0:0:0:
320,192,208161,1,0,0:0:0:0:
64,192,208226,1,0,0:0:0:30:snare.wav
448,192,208226,1,0,0:0:0:0:
192,192,208291,1,0,0:0:0:0:
320,192,208355,1,0,0:0:0:0:
64,192,208420,1,2,0:0:0:26:
192,192,208420,1,0,0:0:0:0:
320,192,208549,1,0,0:0:0:0:
64,192,208613,1,0,0:0:0:30:snare.wav
448,192,208613,1,0,0:0:0:0:
192,192,208678,1,0,0:0:0:0:
64,192,208742,1,0,0:0:0:0:
320,192,208807,1,2,0:0:0:26:
448,192,208807,1,0,0:0:0:0:
320,192,208936,1,0,0:0:0:0:
64,192,209000,1,0,0:0:0:30:snare.wav
192,192,209000,1,0,0:0:0:0:
448,192,209065,1,0,0:0:0:0:
192,192,209129,1,0,0:0:0:0:
64,192,209194,1,2,0:0:0:53:
320,192,209194,1,0,0:0:0:30:hihat1.wav
448,192,209194,1,0,0:0:0:0:
64,192,209387,1,2,0:0:0:0:
192,192,209387,1,0,0:0:0:0:
448,192,209387,1,0,0:0:0:0:
64,192,209581,1,2,0:0:0:0:
320,192,209581,1,0,0:0:0:0:
448,192,209581,1,0,0:0:0:0:
64,192,209774,1,2,0:0:0:0:
192,192,209774,1,0,0:0:0:0:
448,192,209774,1,0,0:0:0:0:
64,192,209871,1,2,0:0:0:0:
192,192,209871,1,0,0:0:0:0:
448,192,209871,1,0,0:0:0:0:
