osu file format v14

[General]
AudioFilename: audio.mp3
AudioLeadIn: 0
PreviewTime: 80032
Countdown: 0
SampleSet: Normal
StackLeniency: 0.7
Mode: 1
LetterboxInBreaks: 0
WidescreenStoryboard: 1

[Editor]
Bookmarks: 1591,12885,24179,35473,46767,58061,69355,80649,91943,103238,114532,125826,137120
DistanceSpacing: 3.7
BeatDivisor: 4
GridSize: 32
TimelineZoom: 1.9

[Metadata]
Title:Fallen
TitleUnicode:Fallen
Artist:Zekk
ArtistUnicode:Zekk
Creator:Hivie
Version:Muzukashii
Source:osu!
Tags:featured artist fa mappers' guild mg electronic instrumental EZ2AC NIGHT TRAVELER J-Core
BeatmapID:2396327
BeatmapSetID:1146734

[Difficulty]
HPDrainRate:6
CircleSize:2
OverallDifficulty:5
ApproachRate:9
SliderMultiplier:1.4
SliderTickRate:1

[Events]
//Background and Video events
0,0,"cute bg.jpg",0,-100
//Break Periods
//Storyboard Layer 0 (Background)
//Storyboard Layer 1 (Fail)
//Storyboard Layer 2 (Pass)
//Storyboard Layer 3 (Foreground)
//Storyboard Layer 4 (Overlay)
//Storyboard Sound Samples

[TimingPoints]
1591,352.941176470588,4,1,0,100,1,0
1591,-111.111111111111,4,1,0,100,0,0
12355,-108.108108108108,4,1,0,100,0,0
12532,-105.263157894737,4,1,0,100,0,0
12708,-102.564102564103,4,1,0,100,0,0
12885,-100,4,1,0,100,0,0
35561,-166.666666666667,4,1,0,50,0,0
46767,-125,4,1,0,100,0,0
58061,-111.111111111111,4,1,0,100,0,0
80296,-105.263157894737,4,1,0,100,0,0
80649,-100,4,1,0,100,0,1
91590,-100,4,1,0,100,0,0
91943,-100,4,1,0,100,0,1
103238,-100,4,1,0,100,0,0
103590,-111.111111111111,4,1,0,100,0,0
131826,-117.647058823529,4,1,0,100,0,0
134120,-114.285714285714,4,1,0,100,0,0
134296,-111.111111111111,4,1,0,100,0,0

[HitObjects]
256,96,1591,5,4,0:0:0:0:
256,192,1943,1,0,0:0:0:0:
256,192,2120,1,8,0:0:0:0:
256,192,2208,1,8,0:0:0:0:
256,192,2296,1,8,0:0:0:0:
256,192,2473,1,0,0:0:0:0:
256,192,2649,1,0,0:0:0:0:
256,192,2826,1,8,0:0:0:0:
256,192,3002,5,0,0:0:0:0:
256,192,3355,1,8,0:0:0:0:
256,192,3532,1,0,0:0:0:0:
256,192,3620,1,0,0:0:0:0:
256,192,3708,1,0,0:0:0:0:
256,192,3885,1,0,0:0:0:0:
256,192,4061,1,8,0:0:0:0:
256,192,4238,1,8,0:0:0:0:
256,192,4414,5,0,0:0:0:0:
256,192,4767,1,0,0:0:0:0:
256,192,4943,1,8,0:0:0:0:
256,192,5032,1,8,0:0:0:0:
256,192,5120,1,8,0:0:0:0:
256,192,5296,1,0,0:0:0:0:
256,192,5473,1,0,0:0:0:0:
256,192,5649,1,8,0:0:0:0:
256,192,5826,1,0,0:0:0:0:
256,192,6179,1,8,0:0:0:0:
256,192,6355,1,0,0:0:0:0:
256,192,6443,1,0,0:0:0:0:
256,192,6532,1,0,0:0:0:0:
256,192,6708,1,0,0:0:0:0:
256,192,6885,1,8,0:0:0:0:
256,192,6973,1,8,0:0:0:0:
256,192,7061,1,8,0:0:0:0:
256,96,7238,5,4,0:0:0:0:
256,192,7767,1,8,0:0:0:0:
256,192,7855,1,8,0:0:0:0:
256,192,7943,1,8,0:0:0:0:
256,192,8120,1,0,0:0:0:0:
256,192,8296,1,0,0:0:0:0:
256,192,8473,1,8,0:0:0:0:
256,192,8649,5,0,0:0:0:0:
256,192,9002,1,8,0:0:0:0:
256,192,9179,1,0,0:0:0:0:
256,192,9267,1,0,0:0:0:0:
256,192,9355,1,0,0:0:0:0:
256,192,9532,1,0,0:0:0:0:
256,192,9708,1,8,0:0:0:0:
256,192,9885,1,8,0:0:0:0:
256,192,10061,1,0,0:0:0:0:
256,192,10238,1,0,0:0:0:0:
256,192,10326,1,0,0:0:0:0:
256,192,10414,1,0,0:0:0:0:
256,192,10590,1,8,0:0:0:0:
256,192,10767,1,0,0:0:0:0:
256,192,10943,1,8,0:0:0:0:
256,192,11120,1,8,0:0:0:0:
256,192,11208,1,8,0:0:0:0:
256,192,11296,1,8,0:0:0:0:
256,96,11473,5,4,0:0:0:0:
256,192,12090,1,8,0:0:0:0:
256,192,12179,1,8,0:0:0:0:
256,192,12355,1,0,0:0:0:0:
256,192,12532,1,8,0:0:0:0:
256,192,12708,1,0,0:0:0:0:
256,96,12885,1,12,0:0:0:0:
256,192,13414,1,0,0:0:0:0:
256,192,13502,1,0,0:0:0:0:
256,192,13590,1,0,0:0:0:0:
256,192,13767,1,0,0:0:0:0:
256,192,13943,1,8,0:0:0:0:
256,192,14120,1,8,0:0:0:0:
256,192,14296,1,0,0:0:0:0:
256,192,14649,1,8,0:0:0:0:
256,192,14826,1,0,0:0:0:0:
256,192,15002,1,8,0:0:0:0:
256,192,15090,1,8,0:0:0:0:
256,192,15179,1,8,0:0:0:0:
256,192,15355,1,8,0:0:0:0:
256,192,15532,1,0,0:0:0:0:
256,192,15620,1,0,0:0:0:0:
256,192,15708,1,0,0:0:0:0:
256,192,16061,1,8,0:0:0:0:
256,192,16238,1,8,0:0:0:0:
256,192,16326,1,8,0:0:0:0:
256,192,16414,1,8,0:0:0:0:
256,192,16590,1,0,0:0:0:0:
256,192,16767,1,8,0:0:0:0:
256,192,16943,1,0,0:0:0:0:
256,192,17120,1,8,0:0:0:0:
256,192,17473,1,8,0:0:0:0:
256,192,17649,1,0,0:0:0:0:
256,192,17826,1,0,0:0:0:0:
256,192,17914,1,0,0:0:0:0:
256,192,18002,1,0,0:0:0:0:
256,192,18179,1,8,0:0:0:0:
256,192,18355,1,8,0:0:0:0:
256,192,18443,1,8,0:0:0:0:
256,192,18532,1,8,0:0:0:0:
256,192,19061,1,0,0:0:0:0:
256,192,19149,1,0,0:0:0:0:
256,192,19238,1,0,0:0:0:0:
256,192,19414,1,0,0:0:0:0:
256,192,19590,1,8,0:0:0:0:
256,192,19767,1,8,0:0:0:0:
256,192,19943,1,0,0:0:0:0:
256,192,20296,1,0,0:0:0:0:
256,192,20473,1,8,0:0:0:0:
256,192,20649,1,8,0:0:0:0:
256,192,20738,1,8,0:0:0:0:
256,192,20826,1,8,0:0:0:0:
256,192,21002,1,8,0:0:0:0:
256,192,21179,1,0,0:0:0:0:
256,192,21267,1,0,0:0:0:0:
256,192,21355,1,0,0:0:0:0:
256,192,21708,1,8,0:0:0:0:
256,192,21885,1,8,0:0:0:0:
256,192,21973,1,8,0:0:0:0:
256,192,22061,1,8,0:0:0:0:
256,192,22238,1,0,0:0:0:0:
256,192,22414,1,8,0:0:0:0:
256,192,22590,1,0,0:0:0:0:
256,192,22767,1,8,0:0:0:0:
256,192,22943,1,8,0:0:0:0:
256,192,23120,1,0,0:0:0:0:
256,192,23296,1,0,0:0:0:0:
256,192,23473,1,0,0:0:0:0:
256,192,23561,1,0,0:0:0:0:
256,192,23649,1,0,0:0:0:0:
256,192,23826,1,8,0:0:0:0:
256,192,23914,1,8,0:0:0:0:
256,192,24002,1,8,0:0:0:0:
256,96,24179,1,4,0:0:0:0:
256,192,24708,1,0,0:0:0:0:
256,192,24885,1,8,0:0:0:0:
256,192,25061,1,0,0:0:0:0:
256,192,25238,1,8,0:0:0:0:
256,192,25326,1,8,0:0:0:0:
256,192,25590,1,0,0:0:0:0:
256,192,25855,1,0,0:0:0:0:
256,192,25943,1,0,0:0:0:0:
256,192,26120,1,0,0:0:0:0:
256,192,26296,1,8,0:0:0:0:
256,192,26473,1,8,0:0:0:0:
256,192,26561,1,8,0:0:0:0:
256,192,26826,1,8,0:0:0:0:
256,192,27002,1,0,0:0:0:0:
256,192,27090,1,0,0:0:0:0:
256,192,27179,1,0,0:0:0:0:
256,192,27355,1,8,0:0:0:0:
256,192,27708,1,0,0:0:0:0:
256,192,27796,1,0,0:0:0:0:
256,192,27885,1,0,0:0:0:0:
256,192,28061,1,8,0:0:0:0:
256,192,28238,1,8,0:0:0:0:
256,192,28414,1,0,0:0:0:0:
256,192,28502,1,0,0:0:0:0:
256,192,28590,1,0,0:0:0:0:
256,192,28767,1,8,0:0:0:0:
256,192,28943,1,8,0:0:0:0:
256,192,29120,1,0,0:0:0:0:
256,192,29296,1,8,0:0:0:0:
256,192,29385,1,8,0:0:0:0:
256,192,29473,1,8,0:0:0:0:
256,192,29649,1,8,0:0:0:0:
256,192,29826,1,0,0:0:0:0:
256,192,30355,1,0,0:0:0:0:
256,192,30532,1,8,0:0:0:0:
256,192,30708,1,0,0:0:0:0:
256,192,30885,1,8,0:0:0:0:
256,192,30973,1,8,0:0:0:0:
256,192,31238,1,0,0:0:0:0:
256,192,31502,1,0,0:0:0:0:
256,192,31590,1,0,0:0:0:0:
256,192,31767,1,0,0:0:0:0:
256,192,31943,1,8,0:0:0:0:
256,192,32120,1,8,0:0:0:0:
256,192,32208,1,8,0:0:0:0:
256,192,32473,1,8,0:0:0:0:
256,192,32649,1,0,0:0:0:0:
256,192,32826,1,8,0:0:0:0:
256,192,32914,1,8,0:0:0:0:
256,192,33002,1,8,0:0:0:0:
256,192,33355,1,0,0:0:0:0:
256,192,33532,1,8,0:0:0:0:
256,192,33708,1,8,0:0:0:0:
256,192,33885,1,0,0:0:0:0:
256,192,34061,1,8,0:0:0:0:
256,192,34326,1,8,0:0:0:0:
256,192,34414,1,8,0:0:0:0:
256,192,34590,1,0,0:0:0:0:
256,192,34679,1,0,0:0:0:0:
256,192,34767,1,0,0:0:0:0:
256,192,34943,1,0,0:0:0:0:
256,192,35120,1,8,0:0:0:0:
256,192,35208,1,8,0:0:0:0:
256,192,35296,1,8,0:0:0:0:
256,96,35473,1,4,0:0:0:0:
256,192,36885,1,8,0:0:0:0:
256,192,37590,1,0,0:0:0:0:
256,192,38296,1,0,0:0:0:0:
256,192,41120,1,0,0:0:0:0:
256,192,42532,1,8,0:0:0:0:
256,192,43238,1,8,0:0:0:0:
256,192,43943,5,0,0:0:0:0:
256,192,45355,5,8,0:0:0:0:
255,97,46767,5,4,0:0:0:0:
256,192,48179,1,0,0:0:0:0:
256,192,49590,1,8,0:0:0:0:
256,192,50296,1,0,0:0:0:0:
256,192,51002,1,8,0:0:0:0:
256,192,51708,1,8,0:0:0:0:
256,192,52414,1,0,0:0:0:0:
256,192,53826,1,0,0:0:0:0:
256,192,55238,1,8,0:0:0:0:
256,192,56649,5,0,0:0:0:0:
256,192,57179,5,0,0:0:0:0:
256,192,57355,1,8,0:0:0:0:
256,96,58061,1,4,0:0:0:0:
256,192,58414,1,8,0:0:0:0:
256,192,58767,1,0,0:0:0:0:
256,192,58943,1,0,0:0:0:0:
256,192,59120,1,8,0:0:0:0:
256,192,59473,1,0,0:0:0:0:
256,192,59826,1,8,0:0:0:0:
256,192,60002,1,8,0:0:0:0:
256,192,60179,1,0,0:0:0:0:
256,192,60355,1,8,0:0:0:0:
256,192,60532,1,0,0:0:0:0:
256,192,60885,1,0,0:0:0:0:
256,192,61238,1,8,0:0:0:0:
256,192,61590,1,0,0:0:0:0:
256,192,61767,1,0,0:0:0:0:
256,192,61943,1,8,0:0:0:0:
256,192,62296,1,0,0:0:0:0:
256,192,62649,1,8,0:0:0:0:
256,192,62826,1,8,0:0:0:0:
256,192,63002,1,0,0:0:0:0:
256,192,63179,1,0,0:0:0:0:
256,192,63355,1,8,0:0:0:0:
256,192,63443,1,8,0:0:0:0:
256,192,63532,1,8,0:0:0:0:
256,96,63708,1,4,0:0:0:0:
256,192,64414,1,0,0:0:0:0:
256,192,64590,1,0,0:0:0:0:
256,192,64767,1,8,0:0:0:0:
256,192,65120,1,0,0:0:0:0:
256,192,65473,1,8,0:0:0:0:
256,192,65649,1,8,0:0:0:0:
256,192,65826,1,0,0:0:0:0:
256,192,66002,1,0,0:0:0:0:
256,192,66179,1,8,0:0:0:0:
256,192,66532,1,0,0:0:0:0:
256,192,66885,1,8,0:0:0:0:
256,192,67061,1,0,0:0:0:0:
256,192,67238,1,0,0:0:0:0:
256,192,67414,1,0,0:0:0:0:
256,192,67590,1,8,0:0:0:0:
256,192,67943,1,0,0:0:0:0:
256,192,68296,1,8,0:0:0:0:
256,192,68473,1,0,0:0:0:0:
256,192,68561,1,0,0:0:0:0:
256,192,68649,1,0,0:0:0:0:
256,192,68826,1,0,0:0:0:0:
256,192,69002,1,8,0:0:0:0:
256,192,69090,1,8,0:0:0:0:
256,192,69179,1,8,0:0:0:0:
256,96,69355,1,4,0:0:0:0:
256,192,69885,1,0,0:0:0:0:
256,192,70061,1,8,0:0:0:0:
256,192,70238,1,0,0:0:0:0:
256,192,70414,1,8,0:0:0:0:
256,192,70767,1,0,0:0:0:0:
256,192,71120,1,8,0:0:0:0:
256,192,71296,1,0,0:0:0:0:
256,192,71473,1,0,0:0:0:0:
256,192,71561,1,0,0:0:0:0:
256,192,71649,1,0,0:0:0:0:
256,192,71826,1,8,0:0:0:0:
256,192,72002,1,8,0:0:0:0:
256,192,72090,1,8,0:0:0:0:
256,192,72179,1,8,0:0:0:0:
256,192,72532,1,0,0:0:0:0:
256,192,72708,1,0,0:0:0:0:
256,192,72885,1,8,0:0:0:0:
256,192,73149,1,8,0:0:0:0:
256,192,73326,1,0,0:0:0:0:
256,192,73414,1,0,0:0:0:0:
256,192,73590,1,8,0:0:0:0:
256,192,73855,1,8,0:0:0:0:
256,192,74032,1,0,0:0:0:0:
256,192,74120,1,0,0:0:0:0:
256,192,74296,1,8,0:0:0:0:
256,192,74649,1,8,0:0:0:0:
256,192,74738,1,8,0:0:0:0:
256,192,74826,1,8,0:0:0:0:
256,96,75002,1,4,0:0:0:0:
256,192,75443,1,8,0:0:0:0:
256,192,75532,1,8,0:0:0:0:
256,192,75708,1,8,0:0:0:0:
256,192,75973,1,0,0:0:0:0:
256,192,76238,1,8,0:0:0:0:
256,96,76414,1,4,0:0:0:0:
256,192,76590,1,8,0:0:0:0:
256,192,76855,1,8,0:0:0:0:
256,192,76943,1,8,0:0:0:0:
256,192,77120,1,8,0:0:0:0:
256,192,77385,1,0,0:0:0:0:
256,192,77649,1,8,0:0:0:0:
256,192,77826,1,0,0:0:0:0:
256,192,77914,1,0,0:0:0:0:
256,192,78002,1,0,0:0:0:0:
256,192,78179,1,0,0:0:0:0:
256,192,78355,1,8,0:0:0:0:
256,192,78532,1,8,0:0:0:0:
256,192,78620,1,8,0:0:0:0:
256,192,78708,1,8,0:0:0:0:
256,192,78885,1,8,0:0:0:0:
256,192,79061,1,0,0:0:0:0:
256,192,79238,1,0,0:0:0:0:
256,192,79326,1,0,0:0:0:0:
256,192,79414,1,0,0:0:0:0:
256,192,79590,1,0,0:0:0:0:
256,192,79767,1,8,0:0:0:0:
256,192,79855,1,8,0:0:0:0:
256,192,80296,1,0,0:0:0:0:
256,96,80649,1,12,0:0:0:0:
256,192,81179,1,0,0:0:0:0:
256,192,81355,1,8,0:0:0:0:
256,192,81532,1,0,0:0:0:0:
256,192,81708,1,8,0:0:0:0:
256,192,81885,1,8,0:0:0:0:
256,192,81973,1,8,0:0:0:0:
256,192,82061,1,8,0:0:0:0:
256,192,82238,1,0,0:0:0:0:
256,192,82414,1,0,0:0:0:0:
256,192,82502,1,0,0:0:0:0:
256,192,82590,1,0,0:0:0:0:
256,192,82767,1,8,0:0:0:0:
256,192,82943,1,0,0:0:0:0:
256,192,83120,1,8,0:0:0:0:
256,192,83296,1,8,0:0:0:0:
256,192,83385,1,8,0:0:0:0:
256,192,83473,1,8,0:0:0:0:
256,192,83826,1,0,0:0:0:0:
256,192,83914,1,0,0:0:0:0:
256,192,84002,1,0,0:0:0:0:
256,192,84179,1,8,0:0:0:0:
256,192,84267,1,8,0:0:0:0:
256,192,84443,1,8,0:0:0:0:
256,192,84620,1,0,0:0:0:0:
256,192,84708,1,0,0:0:0:0:
256,192,84885,1,8,0:0:0:0:
256,192,85149,1,8,0:0:0:0:
256,192,85326,1,0,0:0:0:0:
256,192,85414,1,0,0:0:0:0:
256,192,85590,1,8,0:0:0:0:
256,192,85679,1,8,0:0:0:0:
256,192,85767,1,8,0:0:0:0:
256,192,85943,1,0,0:0:0:0:
256,192,86120,1,8,0:0:0:0:
256,192,86296,1,0,0:0:0:0:
256,192,86826,1,8,0:0:0:0:
256,192,87002,1,8,0:0:0:0:
256,192,87179,1,0,0:0:0:0:
256,192,87355,1,8,0:0:0:0:
256,192,87532,1,8,0:0:0:0:
256,192,87620,1,8,0:0:0:0:
256,192,87708,1,8,0:0:0:0:
256,192,87885,1,0,0:0:0:0:
256,192,88061,1,0,0:0:0:0:
256,192,88149,1,0,0:0:0:0:
256,192,88238,1,0,0:0:0:0:
256,192,88414,1,8,0:0:0:0:
256,192,88590,1,0,0:0:0:0:
256,192,88767,1,8,0:0:0:0:
256,192,88943,1,8,0:0:0:0:
256,192,89032,1,8,0:0:0:0:
256,192,89120,1,8,0:0:0:0:
256,192,89473,1,0,0:0:0:0:
256,192,89561,1,0,0:0:0:0:
256,192,89649,1,0,0:0:0:0:
256,192,89826,1,8,0:0:0:0:
256,192,89914,1,8,0:0:0:0:
256,192,90090,1,8,0:0:0:0:
256,192,90267,1,0,0:0:0:0:
256,192,90355,1,0,0:0:0:0:
256,192,90532,1,8,0:0:0:0:
256,192,90796,1,8,0:0:0:0:
256,192,90973,5,0,0:0:0:0:
256,192,91061,1,0,0:0:0:0:
256,192,91238,1,8,0:0:0:0:
256,192,91326,1,8,0:0:0:0:
256,192,91414,5,8,0:0:0:0:
256,192,91590,5,0,0:0:0:0:
256,192,91767,1,8,0:0:0:0:
256,96,91943,1,4,0:0:0:0:
256,192,92473,1,0,0:0:0:0:
256,192,92649,1,8,0:0:0:0:
256,192,92826,1,0,0:0:0:0:
256,192,92914,1,0,0:0:0:0:
256,192,93090,1,8,0:0:0:0:
256,192,93179,1,8,0:0:0:0:
256,192,93355,1,0,0:0:0:0:
256,192,93532,1,8,0:0:0:0:
256,192,93708,1,0,0:0:0:0:
256,192,93796,1,0,0:0:0:0:
256,192,93885,1,0,0:0:0:0:
256,192,94061,1,8,0:0:0:0:
256,192,94238,1,0,0:0:0:0:
256,192,94326,1,0,0:0:0:0:
256,192,94502,1,8,0:0:0:0:
256,192,94590,1,8,0:0:0:0:
256,192,94767,1,0,0:0:0:0:
256,192,95120,1,0,0:0:0:0:
256,192,95296,1,0,0:0:0:0:
256,192,95473,1,8,0:0:0:0:
256,192,95649,1,8,0:0:0:0:
256,192,95738,1,8,0:0:0:0:
256,192,95914,1,0,0:0:0:0:
256,192,96002,1,0,0:0:0:0:
256,192,96179,1,0,0:0:0:0:
256,192,96355,1,8,0:0:0:0:
256,192,96443,1,8,0:0:0:0:
256,192,96620,1,0,0:0:0:0:
256,192,96708,1,0,0:0:0:0:
256,192,96885,1,0,0:0:0:0:
256,192,97149,1,8,0:0:0:0:
256,192,97238,1,8,0:0:0:0:
256,192,97414,1,8,0:0:0:0:
256,192,97590,1,0,0:0:0:0:
256,192,98120,1,0,0:0:0:0:
256,192,98296,1,8,0:0:0:0:
256,192,98473,1,0,0:0:0:0:
256,192,98561,1,0,0:0:0:0:
256,192,98738,1,8,0:0:0:0:
256,192,98826,1,8,0:0:0:0:
256,192,99002,1,0,0:0:0:0:
256,192,99179,1,8,0:0:0:0:
256,192,99355,1,0,0:0:0:0:
256,192,99443,1,0,0:0:0:0:
256,192,99532,1,0,0:0:0:0:
256,192,99708,1,8,0:0:0:0:
256,192,99885,1,0,0:0:0:0:
256,192,99973,1,0,0:0:0:0:
256,192,100149,1,8,0:0:0:0:
256,192,100238,1,8,0:0:0:0:
256,192,100414,1,0,0:0:0:0:
256,192,100767,1,0,0:0:0:0:
256,192,100943,1,0,0:0:0:0:
256,192,101120,1,8,0:0:0:0:
256,192,101296,1,8,0:0:0:0:
256,192,101385,1,8,0:0:0:0:
256,192,101561,1,0,0:0:0:0:
256,192,101649,1,0,0:0:0:0:
256,192,101826,1,0,0:0:0:0:
256,192,102002,1,8,0:0:0:0:
256,192,102090,1,8,0:0:0:0:
256,192,102355,1,0,0:0:0:0:
256,192,102532,1,8,0:0:0:0:
256,192,102708,1,0,0:0:0:0:
256,192,102885,1,8,0:0:0:0:
256,192,102973,1,8,0:0:0:0:
256,192,103061,1,8,0:0:0:0:
256,96,103238,1,4,0:0:0:0:
256,192,103767,1,0,0:0:0:0:
256,192,103943,1,8,0:0:0:0:
256,192,104120,1,0,0:0:0:0:
256,192,104296,1,8,0:0:0:0:
256,192,104385,1,8,0:0:0:0:
256,192,104473,1,8,0:0:0:0:
256,192,104649,1,0,0:0:0:0:
256,192,105002,1,8,0:0:0:0:
256,192,105179,1,0,0:0:0:0:
256,192,105355,1,8,0:0:0:0:
256,192,105532,1,0,0:0:0:0:
256,192,105708,1,8,0:0:0:0:
256,192,105885,1,8,0:0:0:0:
256,192,105973,1,8,0:0:0:0:
256,192,106061,1,8,0:0:0:0:
256,192,106238,1,0,0:0:0:0:
256,192,106414,1,8,0:0:0:0:
256,192,106590,1,0,0:0:0:0:
256,192,106767,1,8,0:0:0:0:
256,192,107120,1,8,0:0:0:0:
256,192,107296,1,8,0:0:0:0:
256,192,107385,1,8,0:0:0:0:
256,192,107473,1,8,0:0:0:0:
256,192,107649,1,0,0:0:0:0:
256,192,107826,1,0,0:0:0:0:
256,192,108002,1,8,0:0:0:0:
256,192,108179,1,0,0:0:0:0:
256,192,108355,1,8,0:0:0:0:
256,192,108532,1,0,0:0:0:0:
256,192,108620,1,0,0:0:0:0:
256,192,108708,1,0,0:0:0:0:
256,192,108885,1,8,0:0:0:0:
256,192,109414,1,0,0:0:0:0:
256,192,109590,1,8,0:0:0:0:
256,192,109767,1,0,0:0:0:0:
256,192,109943,1,8,0:0:0:0:
256,192,110032,1,8,0:0:0:0:
256,192,110120,1,8,0:0:0:0:
256,192,110296,1,0,0:0:0:0:
256,192,110649,1,8,0:0:0:0:
256,192,110826,1,0,0:0:0:0:
256,192,111002,1,0,0:0:0:0:
256,192,111090,1,0,0:0:0:0:
256,192,111179,1,0,0:0:0:0:
256,192,111355,1,8,0:0:0:0:
256,192,111532,1,8,0:0:0:0:
256,192,111708,1,0,0:0:0:0:
256,192,111885,1,8,0:0:0:0:
256,192,112061,1,8,0:0:0:0:
256,192,112238,1,0,0:0:0:0:
256,192,112326,1,0,0:0:0:0:
256,192,112414,1,0,0:0:0:0:
256,192,112590,1,0,0:0:0:0:
256,192,112767,1,8,0:0:0:0:
256,192,113120,1,0,0:0:0:0:
256,192,113296,1,0,0:0:0:0:
256,192,113473,1,0,0:0:0:0:
256,192,113649,1,8,0:0:0:0:
256,192,113826,1,8,0:0:0:0:
256,192,113914,1,8,0:0:0:0:
256,192,114002,1,8,0:0:0:0:
256,192,114179,5,0,0:0:0:0:
256,192,114267,1,0,0:0:0:0:
256,192,114355,1,0,0:0:0:0:
256,96,114532,1,12,0:0:0:0:
256,192,115061,1,0,0:0:0:0:
256,192,115238,1,8,0:0:0:0:
256,192,115414,1,0,0:0:0:0:
256,192,115590,1,8,0:0:0:0:
256,192,115679,1,8,0:0:0:0:
256,192,115767,1,8,0:0:0:0:
256,192,115943,1,0,0:0:0:0:
256,192,116296,1,0,0:0:0:0:
256,192,116473,1,0,0:0:0:0:
256,192,116649,1,8,0:0:0:0:
256,192,116826,1,0,0:0:0:0:
256,192,117002,1,8,0:0:0:0:
256,192,117179,1,8,0:0:0:0:
256,192,117267,1,8,0:0:0:0:
256,192,117355,1,8,0:0:0:0:
256,192,117532,1,0,0:0:0:0:
256,192,117708,1,8,0:0:0:0:
256,192,117885,1,0,0:0:0:0:
256,192,118061,1,8,0:0:0:0:
256,192,118414,1,8,0:0:0:0:
256,192,118590,1,8,0:0:0:0:
256,192,118679,1,8,0:0:0:0:
256,192,118767,1,8,0:0:0:0:
256,192,118943,1,0,0:0:0:0:
256,192,119120,1,0,0:0:0:0:
256,192,119296,1,8,0:0:0:0:
256,192,119473,1,0,0:0:0:0:
256,192,119649,1,0,0:0:0:0:
256,192,119826,1,8,0:0:0:0:
256,192,119914,1,8,0:0:0:0:
256,192,120002,5,8,0:0:0:0:
256,192,120179,1,0,0:0:0:0:
256,192,120532,5,8,0:0:0:0:
256,192,120885,1,0,0:0:0:0:
256,192,121238,1,8,0:0:0:0:
256,192,121590,1,0,0:0:0:0:
256,192,121943,1,8,0:0:0:0:
256,192,122296,1,0,0:0:0:0:
256,192,122649,1,8,0:0:0:0:
256,192,123002,1,0,0:0:0:0:
256,192,123179,1,0,0:0:0:0:
256,192,123355,1,8,0:0:0:0:
256,192,123532,1,8,0:0:0:0:
256,192,123708,1,0,0:0:0:0:
256,192,123796,1,0,0:0:0:0:
256,192,123885,1,0,0:0:0:0:
256,192,124061,1,8,0:0:0:0:
256,192,124149,1,8,0:0:0:0:
256,192,124238,1,8,0:0:0:0:
256,96,124414,1,4,0:0:0:0:
256,192,125120,1,8,0:0:0:0:
256,192,125296,1,0,0:0:0:0:
256,192,125473,5,8,0:0:0:0:
256,192,125561,1,8,0:0:0:0:
256,192,125649,5,8,0:0:0:0:
256,96,125826,1,4,0:0:0:0:
256,192,126267,1,0,0:0:0:0:
256,192,126355,1,0,0:0:0:0:
256,192,126532,1,8,0:0:0:0:
256,192,126708,1,0,0:0:0:0:
256,192,126885,1,8,0:0:0:0:
256,192,126973,1,8,0:0:0:0:
256,192,127238,1,0,0:0:0:0:
256,192,127502,1,0,0:0:0:0:
256,192,127590,1,0,0:0:0:0:
256,192,127767,1,0,0:0:0:0:
256,192,127943,1,8,0:0:0:0:
256,192,128120,1,8,0:0:0:0:
256,192,128208,1,8,0:0:0:0:
256,192,128473,1,8,0:0:0:0:
256,192,128649,1,0,0:0:0:0:
256,192,128738,1,0,0:0:0:0:
256,192,128826,1,0,0:0:0:0:
256,96,129002,1,12,0:0:0:0:
256,192,129355,1,0,0:0:0:0:
256,192,129443,1,0,0:0:0:0:
256,192,129532,1,0,0:0:0:0:
256,192,129708,1,8,0:0:0:0:
256,192,129885,1,8,0:0:0:0:
256,192,130061,1,0,0:0:0:0:
256,192,130238,1,0,0:0:0:0:
256,192,130414,1,8,0:0:0:0:
256,192,130590,1,8,0:0:0:0:
256,192,130767,1,0,0:0:0:0:
256,192,130943,1,0,0:0:0:0:
256,192,131032,1,0,0:0:0:0:
256,192,131296,1,8,0:0:0:0:
256,192,131385,1,8,0:0:0:0:
256,192,131473,1,8,0:0:0:0:
256,192,131826,1,8,0:0:0:0:
256,192,132002,1,8,0:0:0:0:
256,192,132179,1,0,0:0:0:0:
256,192,132355,1,0,0:0:0:0:
256,192,132532,1,8,0:0:0:0:
256,192,132708,1,8,0:0:0:0:
256,96,132885,1,4,0:0:0:0:
256,192,133238,1,8,0:0:0:0:
256,192,133414,1,8,0:0:0:0:
256,192,133590,1,0,0:0:0:0:
256,192,133855,1,8,0:0:0:0:
256,192,133943,1,8,0:0:0:0:
256,192,134120,1,0,0:0:0:0:
256,192,134296,5,0,0:0:0:0:
256,192,134561,1,8,0:0:0:0:
256,192,134649,1,8,0:0:0:0:
256,192,134826,1,0,0:0:0:0:
256,192,135090,1,0,0:0:0:0:
256,192,135179,1,0,0:0:0:0:
256,192,135355,1,8,0:0:0:0:
256,192,135443,1,8,0:0:0:0:
256,192,135532,1,8,0:0:0:0:
256,96,135708,1,4,0:0:0:0:
256,192,136061,1,0,0:0:0:0:
256,192,136238,1,8,0:0:0:0:
256,192,136414,1,0,0:0:0:0:
256,192,136502,1,0,0:0:0:0:
256,192,136590,1,0,0:0:0:0:
256,192,136767,1,8,0:0:0:0:
256,192,136855,1,8,0:0:0:0:
256,192,136943,1,8,0:0:0:0:
256,192,137032,1,8,0:0:0:0:
