osu file format v14

[General]
AudioFilename: audio.mp3
AudioLeadIn: 0
PreviewTime: 80032
Countdown: 0
SampleSet: Normal
StackLeniency: 0.7
Mode: 1
LetterboxInBreaks: 0
WidescreenStoryboard: 0

[Editor]
Bookmarks: 1591,12885,24179,35473,46767,58061,69355,80649,91943,103238,114532,125826,137120
DistanceSpacing: 3.7
BeatDivisor: 4
GridSize: 32
TimelineZoom: 1.9

[Metadata]
Title:Fallen
TitleUnicode:Fallen
Artist:Zekk
ArtistUnicode:Zekk
Creator:Hivie
Version:Collapsed
Source:osu!
Tags:featured artist fa mappers' guild mg electronic instrumental EZ2AC NIGHT TRAVELER J-Core
BeatmapID:2394358
BeatmapSetID:1146734

[Difficulty]
HPDrainRate:6
CircleSize:2
OverallDifficulty:6
ApproachRate:9
SliderMultiplier:1.4
SliderTickRate:1

[Events]
//Background and Video events
0,0,"cute bg.jpg",0,-100
//Break Periods
//Storyboard Layer 0 (Background)
//Storyboard Layer 1 (Fail)
//Storyboard Layer 2 (Pass)
//Storyboard Layer 3 (Foreground)
//Storyboard Layer 4 (Overlay)
//Storyboard Sound Samples

[TimingPoints]
1591,352.941176470588,4,1,0,100,1,0
7238,-100,4,1,0,100,0,0
7414,-99.3788819875776,4,1,0,100,0,0
7590,-98.7654320987654,4,1,0,100,0,0
7679,-98.4615384615385,4,1,0,100,0,0
7767,-98.159509202454,4,1,0,100,0,0
7855,-97.8593272171254,4,1,0,100,0,0
7943,-97.5609756097561,4,1,0,100,0,0
8120,-96.969696969697,4,1,0,100,0,0
8296,-96.3855421686747,4,1,0,100,0,0
8385,-96.0960960960961,4,1,0,100,0,0
8473,-95.8083832335329,4,1,0,100,0,0
8649,-95.2380952380952,4,1,0,100,0,0
8826,-94.6745562130178,4,1,0,100,0,0
9002,-94.1176470588235,4,1,0,100,0,0
9090,-93.841642228739,4,1,0,100,0,0
9179,-93.5672514619883,4,1,0,100,0,0
9267,-93.2944606413994,4,1,0,100,0,0
9355,-93.0232558139535,4,1,0,100,0,0
9532,-92.485549132948,4,1,0,100,0,0
9708,-91.9540229885058,4,1,0,100,0,0
9796,-91.6905444126075,4,1,0,100,0,0
9885,-91.4285714285714,4,1,0,100,0,0
10061,-90.9090909090909,4,1,0,100,0,0
10149,-90.3980951313394,4,1,0,100,0,0
10238,-89.8928926184451,4,1,0,100,0,0
10326,-89.3932256025774,4,1,0,100,0,0
10414,-88.8991616809054,4,1,0,100,0,0
10502,-88.4104508225708,4,1,0,100,0,0
10590,-87.9270838279232,4,1,0,100,0,0
10679,-87.4490499972454,4,1,0,100,0,0
10767,-86.9761102717917,4,1,0,100,0,0
10855,-86.5082585108987,4,1,0,100,0,0
10943,-86.0454870862933,4,1,0,100,0,0
11032,-85.5875672076372,4,1,0,100,0,0
11120,-85.1345679548378,4,1,0,100,0,0
11208,-84.6862670208811,4,1,0,100,0,0
11296,-84.2426626746877,4,1,0,100,0,0
11385,-83.8037517263573,4,1,0,100,0,0
11473,-83.3693210902706,4,1,0,100,0,0
11649,-90.9090909090909,4,1,0,100,0,0
11914,-111.111111111111,4,1,0,100,0,0
12002,-109.395067157632,4,1,0,100,0,0
12090,-107.731339585342,4,1,0,100,0,0
12179,-106.11734668431,4,1,0,100,0,0
12355,-103.030328007352,4,1,0,100,0,0
12443,-101.553153936302,4,1,0,100,0,0
12532,-100.117738460429,4,1,0,100,0,0
12885,-83.3333333333333,4,1,0,100,0,0
32649,-83.3333333333333,4,1,0,100,0,0
32738,-82.9026540455666,4,1,0,100,0,0
32826,-82.4764035009584,4,1,0,100,0,0
32914,-82.0545810662336,4,1,0,100,0,0
33002,-81.6369848196027,4,1,0,100,0,0
33090,-81.2236175537233,4,1,0,100,0,0
33179,-80.8144153521528,4,1,0,100,0,0
33267,-80.4093802366609,4,1,0,100,0,0
33355,-80.00832086537,4,1,0,100,0,0
33443,-79.6112423812041,4,1,0,100,0,0
33532,-79.2180858058618,4,1,0,100,0,0
33620,-78.8288554601989,4,1,0,100,0,0
33708,-78.4433697702786,4,1,0,100,0,0
33796,-78.061635906479,4,1,0,100,0,0
33885,-77.6835993608194,4,1,0,100,0,0
33973,-77.3092664432944,4,1,0,100,0,0
34061,-76.9384646160001,4,1,0,100,0,0
34120,-76.6932332026481,4,1,0,100,0,0
34179,-76.4495601092311,4,1,0,100,0,0
34238,-76.2074305293063,4,1,0,100,0,0
34326,-75.8470983175597,4,1,0,100,0,0
34414,-75.4902145809349,4,1,0,100,0,0
34502,-75.1366171541405,4,1,0,100,0,0
34590,-74.7863167963337,4,1,0,100,0,0
34679,-74.4392676069339,4,1,0,100,0,0
34767,-74.0954794347997,4,1,0,100,0,0
34855,-73.7547977495936,4,1,0,100,0,0
34943,-73.4172345489759,4,1,0,100,0,0
35032,-73.0827472097007,4,1,0,100,0,0
35120,-72.7513468093078,4,1,0,100,0,0
35208,-72.4228859216428,4,1,0,100,0,0
35296,-72.0973776020845,4,1,0,100,0,0
35385,-71.7747822173671,4,1,0,100,0,0
35473,-71.4550608404115,4,1,0,100,0,0
35561,-166.666666666667,4,1,0,50,0,0
46767,-125,4,1,0,100,0,0
58061,-111.111111111111,4,1,0,100,0,0
69002,-111.111111111111,4,1,0,100,0,0
69179,-105.376298762882,4,1,0,100,0,0
69267,-102.725407794188,4,1,0,100,0,0
69355,-100,4,1,0,100,0,0
75002,-100,4,1,0,100,0,0
75179,-98.7685536728074,4,1,0,100,0,0
75267,-98.1642307212813,4,1,0,100,0,0
75443,-96.9773140969133,4,1,0,100,0,0
75532,-96.3945544788284,4,1,0,100,0,0
75708,-95.2498880813815,4,1,0,100,0,0
75796,-94.6876443986577,4,1,0,100,0,0
75885,-94.1319994201469,4,1,0,100,0,0
75973,-93.5829252337935,4,1,0,100,0,0
76149,-92.5036007026573,4,1,0,100,0,0
76238,-91.9732210769512,4,1,0,100,0,0
76414,-90.9305835924855,4,1,0,100,0,0
76590,-89.9112396242429,4,1,0,100,0,0
76678,-89.4100901074888,4,1,0,100,0,0
76854,-88.4244444071097,4,1,0,100,0,0
76943,-87.9396874447629,4,1,0,100,0,0
77119,-86.9860213463696,4,1,0,100,0,0
77207,-86.5168655977796,4,1,0,100,0,0
77296,-86.0527434475138,4,1,0,100,0,0
77384,-85.5935743191887,4,1,0,100,0,0
77560,-84.689853054636,4,1,0,100,0,0
77649,-84.2450756647147,4,1,0,100,0,0
77826,-83.3333333333333,4,1,0,100,0,0
77914,-82.7586435196258,4,1,0,100,0,0
78002,-82.1917583036279,4,1,0,100,0,0
78090,-81.6326530612245,4,1,0,100,0,0
78179,-81.0811029948927,4,1,0,100,0,0
78267,-80.5368911310359,4,1,0,100,0,0
78355,-80,4,1,0,100,0,0
78443,-79.4702197272105,4,1,0,100,0,0
78532,-78.9473476454348,4,1,0,100,0,0
78708,-77.9220981615839,4,1,0,100,0,0
78796,-77.4193348595265,4,1,0,100,0,0
78885,-76.9230769230769,4,1,0,100,0,0
78973,-76.4331404925199,4,1,0,100,0,0
79061,-75.9493478609246,4,1,0,100,0,0
79149,-75.4716981132076,4,1,0,100,0,0
79238,-75.0000187500047,4,1,0,100,0,0
79296,-74.6887904822581,4,1,0,100,0,0
79355,-74.3801898777487,4,1,0,100,0,0
79414,-74.0740740740741,4,1,0,100,0,0
79502,-73.6196499680123,4,1,0,100,0,0
79590,-73.1707138608015,4,1,0,100,0,0
79679,-72.7272727272727,4,1,0,100,0,0
79767,-72.2891740455841,4,1,0,100,0,0
79826,-71.9999942400005,4,1,0,100,0,0
79885,-71.7131702671459,4,1,0,100,0,0
79943,-71.4285714285714,4,1,0,100,0,0
80120,-83.3333333333333,4,1,0,100,0,0
80208,-86.8794634324339,4,1,0,100,0,0
80296,-90.7407256172865,4,1,0,100,0,0
80473,-99.5934594983278,4,1,0,100,0,0
80649,-76.9230769230769,4,1,0,100,0,1
91590,-76.9230769230769,4,1,0,100,0,0
91943,-76.9230769230769,4,1,0,100,0,1
101826,-76.9230769230769,4,1,0,100,0,1
101914,-76.5568993843294,4,1,0,100,0,1
102002,-76.1942496199812,4,1,0,100,0,1
102090,-75.8349618891399,4,1,0,100,0,1
102179,-75.4791036101655,4,1,0,100,0,1
102267,-75.1265130479728,4,1,0,100,0,1
102355,-74.7772013286413,4,1,0,100,0,1
102443,-74.4311783274272,4,1,0,100,0,1
102532,-74.0882880493369,4,1,0,100,0,1
102620,-73.748542544428,4,1,0,100,0,1
102708,-73.4119526404811,4,1,0,100,0,1
102796,-73.07836778004,4,1,0,100,0,1
102884,-72.7478537564446,4,1,0,100,0,1
102943,-72.5291494651701,4,1,0,100,0,1
103002,-72.3117039385293,4,1,0,100,0,1
103061,-72.0956103145748,4,1,0,100,0,1
103149,-71.7739064527613,4,1,0,100,0,1
103238,-71.4550097821908,4,1,0,100,0,0
103414,-76.9537400287191,4,1,0,100,0,0
103590,-83.3693210902706,4,1,0,100,0,0
120267,-100,4,1,0,100,0,0
120532,-100,4,1,0,100,0,0
120885,-97.2222627314984,4,1,0,100,0,0
121238,-94.594581811543,4,1,0,100,0,0
121590,-92.1052873961283,4,1,0,100,0,0
121767,-90.9090909090909,4,1,0,100,0,0
121943,-89.7435667324188,4,1,0,100,0,0
122120,-88.6076285851754,4,1,0,100,0,0
122296,-87.5000109375014,4,1,0,100,0,0
122473,-86.4197424173157,4,1,0,100,0,0
122649,-85.3658224271381,4,1,0,100,0,0
122826,-84.3373697198481,4,1,0,100,0,0
123002,-83.3333333333333,4,1,0,100,0,0
123090,-82.478648339911,4,1,0,100,0,0
123179,-81.6413170377265,4,1,0,100,0,0
123267,-80.8207508894324,4,1,0,100,0,0
123355,-80.016579435259,4,1,0,100,0,0
123443,-79.2282534289988,4,1,0,100,0,0
123532,-78.4553091099951,4,1,0,100,0,0
123620,-77.6972402717228,4,1,0,100,0,0
123708,-76.9537400287191,4,1,0,100,0,0
123796,-76.2243343138324,4,1,0,100,0,0
123885,-75.5086261054463,4,1,0,100,0,0
123973,-74.806177194888,4,1,0,100,0,0
124061,-74.1167323711499,4,1,0,100,0,0
124149,-73.4398799111084,4,1,0,100,0,0
124238,-72.7752779469803,4,1,0,100,0,0
124326,-72.1225968750721,4,1,0,100,0,0
124414,-71.4814677146803,4,1,0,100,0,0
125032,-100,4,1,0,100,0,0
125120,-97.826108223067,4,1,0,100,0,0
125296,-93.7499707031342,4,1,0,100,0,0
125473,-90.0000090000009,4,1,0,100,0,0
125532,-88.8157836305406,4,1,0,100,0,0
125590,-87.6623177390836,4,1,0,100,0,0
125649,-86.5384282544507,4,1,0,100,0,0
125738,-84.9056443574256,4,1,0,100,0,0
125826,-83.3333333333333,4,1,0,100,0,0
128473,-84.0336134453781,4,1,0,100,0,0
128561,-85.4700854700855,4,1,0,100,0,0
128649,-86.8794634324339,4,1,0,100,0,0
128737,-88.7680853877967,4,1,0,100,0,0
128826,-90.7407256172865,4,1,0,100,0,0
129002,-83.3333333333333,4,1,0,100,0,0
129179,-83.3333333333333,4,1,0,100,0,0
129267,-83.8323453691432,4,1,0,100,0,0
129355,-84.3373697198481,4,1,0,100,0,0
129443,-84.8485157024906,4,1,0,100,0,0
129532,-85.3658224271381,4,1,0,100,0,0
129620,-85.8895494749572,4,1,0,100,0,0
129708,-86.4197424173157,4,1,0,100,0,0
129885,-87.5000109375014,4,1,0,100,0,0
129973,-88.0503366164369,4,1,0,100,0,0
130061,-88.6076285851754,4,1,0,100,0,0
130149,-88.6076285851754,4,1,0,100,0,0
130238,-89.7435667324188,4,1,0,100,0,0
130414,-90.9090909090909,4,1,0,100,0,0
130590,-92.1052873961283,4,1,0,100,0,0
130679,-92.5925925925926,4,1,0,100,0,0
130767,-93.3332960000149,4,1,0,100,0,0
130855,-93.9597063195419,4,1,0,100,0,0
130943,-94.594581811543,4,1,0,100,0,0
131032,-95.2380952380952,4,1,0,100,0,0
131120,-95.8904240945786,4,1,0,100,0,0
131208,-96.5517507728968,4,1,0,100,0,0
131296,-97.2222627314984,4,1,0,100,0,0
131385,-97.9020568243118,4,1,0,100,0,0
131473,-98.5915215235151,4,1,0,100,0,0
131649,-100,4,1,0,100,0,0
133414,-95.2380952380952,4,1,0,100,0,0
133502,-93.0232558139535,4,1,0,100,0,0
133590,-90.9090909090909,4,1,0,100,0,0
134296,-90.9090909090909,4,1,0,100,0,0
134385,-89.3932256025774,4,1,0,100,0,0
134473,-87.9270838279232,4,1,0,100,0,0
134561,-86.5082585108987,4,1,0,100,0,0
134649,-85.1345679548378,4,1,0,100,0,0
134738,-83.8037517263573,4,1,0,100,0,0
134826,-82.5139015295602,4,1,0,100,0,0
134914,-81.2631544731303,4,1,0,100,0,0
135002,-80.049758930151,4,1,0,100,0,0
135090,-78.872066353492,4,1,0,100,0,0
135179,-77.7285842204756,4,1,0,100,0,0
135267,-76.6177258173388,4,1,0,100,0,0
135355,-75.5381717043073,4,1,0,100,0,0
135443,-74.4886170219898,4,1,0,100,0,0
135532,-73.467828437927,4,1,0,100,0,0
135620,-72.4746393118388,4,1,0,100,0,0
135708,-71.5079452477965,4,1,0,100,0,0
136061,-90.9090909090909,4,1,0,100,0,0
136149,-88.7728135034102,4,1,0,100,0,0
136238,-86.7347071532715,4,1,0,100,0,0
136326,-84.7880130098727,4,1,0,100,0,0
136414,-82.9268535395669,4,1,0,100,0,0
136502,-81.1455808522396,4,1,0,100,0,0
136590,-79.4392226395429,4,1,0,100,0,0
136679,-77.8032107829026,4,1,0,100,0,0
136767,-76.2331667638639,4,1,0,100,0,0
136855,-74.7252911484156,4,1,0,100,0,0
136943,-73.2758557520814,4,1,0,100,0,0
137002,-72.340422453599,4,1,0,100,0,0
137061,-71.4285714285714,4,1,0,100,0,0

[HitObjects]
256,96,1591,5,4,0:0:0:0:
256,192,1767,1,8,0:0:0:0:
256,192,1943,1,0,0:0:0:0:
256,192,2120,1,8,0:0:0:0:
256,192,2208,1,8,0:0:0:0:
256,192,2296,1,0,0:0:0:0:
256,192,2473,1,0,0:0:0:0:
256,192,2649,1,0,0:0:0:0:
256,192,2738,1,0,0:0:0:0:
256,192,2826,1,8,0:0:0:0:
256,192,3002,5,0,0:0:0:0:
256,192,3179,1,8,0:0:0:0:
256,192,3355,1,0,0:0:0:0:
256,192,3532,1,8,0:0:0:0:
256,192,3620,1,8,0:0:0:0:
256,192,3708,1,0,0:0:0:0:
256,192,3885,1,0,0:0:0:0:
256,192,4061,1,0,0:0:0:0:
256,192,4149,1,8,0:0:0:0:
256,192,4238,1,0,0:0:0:0:
256,192,4414,5,0,0:0:0:0:
256,192,4590,1,8,0:0:0:0:
256,192,4767,1,0,0:0:0:0:
256,192,4943,1,8,0:0:0:0:
256,192,5032,1,8,0:0:0:0:
256,192,5120,1,0,0:0:0:0:
256,192,5296,1,0,0:0:0:0:
256,192,5473,1,0,0:0:0:0:
256,192,5561,1,0,0:0:0:0:
256,192,5649,1,8,0:0:0:0:
256,192,5826,1,0,0:0:0:0:
256,192,6002,1,8,0:0:0:0:
256,192,6179,1,0,0:0:0:0:
256,192,6267,1,0,0:0:0:0:
256,192,6355,1,8,0:0:0:0:
256,192,6443,1,8,0:0:0:0:
256,192,6532,1,0,0:0:0:0:
256,192,6620,1,8,0:0:0:0:
256,192,6708,1,0,0:0:0:0:
256,192,6796,1,0,0:0:0:0:
256,192,6885,1,8,0:0:0:0:
256,192,6973,1,8,0:0:0:0:
256,192,7061,1,8,0:0:0:0:
256,192,7149,1,8,0:0:0:0:
256,96,7238,5,4,0:0:0:0:
256,192,7414,1,8,0:0:0:0:
256,192,7590,1,0,0:0:0:0:
256,192,7679,1,0,0:0:0:0:
256,192,7767,1,8,0:0:0:0:
256,192,7855,1,8,0:0:0:0:
256,192,7943,1,0,0:0:0:0:
256,192,8120,1,0,0:0:0:0:
256,192,8296,1,0,0:0:0:0:
256,192,8385,1,0,0:0:0:0:
256,192,8473,1,8,0:0:0:0:
256,192,8649,5,0,0:0:0:0:
256,192,8826,1,8,0:0:0:0:
256,192,9002,1,0,0:0:0:0:
256,192,9090,1,0,0:0:0:0:
256,192,9179,1,8,0:0:0:0:
256,192,9267,1,8,0:0:0:0:
256,192,9355,1,0,0:0:0:0:
256,192,9532,1,0,0:0:0:0:
256,192,9708,1,0,0:0:0:0:
256,192,9796,1,8,0:0:0:0:
256,192,9885,1,0,0:0:0:0:
256,192,10061,1,0,0:0:0:0:
256,192,10149,1,8,0:0:0:0:
256,192,10238,1,0,0:0:0:0:
256,192,10326,1,0,0:0:0:0:
256,192,10414,1,8,0:0:0:0:
256,192,10502,1,0,0:0:0:0:
256,192,10590,1,8,0:0:0:0:
256,192,10679,1,8,0:0:0:0:
256,192,10767,1,0,0:0:0:0:
256,192,10855,1,8,0:0:0:0:
256,192,10943,1,0,0:0:0:0:
256,192,11032,1,0,0:0:0:0:
256,192,11120,1,8,0:0:0:0:
256,192,11208,1,0,0:0:0:0:
256,192,11296,1,8,0:0:0:0:
256,192,11385,1,8,0:0:0:0:
256,96,11473,5,4,0:0:0:0:
256,192,11649,1,8,0:0:0:0:
256,192,11914,1,0,0:0:0:0:
256,192,12002,1,0,0:0:0:0:
256,192,12090,1,8,0:0:0:0:
256,192,12179,1,8,0:0:0:0:
256,192,12355,1,0,0:0:0:0:
256,192,12443,1,0,0:0:0:0:
256,192,12532,1,8,0:0:0:0:
256,192,12708,1,0,0:0:0:0:
256,96,12885,1,12,0:0:0:0:
256,192,13061,1,0,0:0:0:0:
256,192,13238,1,0,0:0:0:0:
256,192,13326,1,8,0:0:0:0:
256,192,13414,1,0,0:0:0:0:
256,192,13502,1,0,0:0:0:0:
256,192,13590,1,8,0:0:0:0:
256,192,13767,1,0,0:0:0:0:
256,192,13943,1,8,0:0:0:0:
256,192,14032,1,0,0:0:0:0:
256,192,14120,1,8,0:0:0:0:
256,192,14208,1,8,0:0:0:0:
256,192,14296,1,0,0:0:0:0:
256,192,14473,1,0,0:0:0:0:
256,192,14561,1,0,0:0:0:0:
256,192,14649,1,8,0:0:0:0:
256,192,14826,1,0,0:0:0:0:
256,192,15002,1,8,0:0:0:0:
256,192,15090,1,0,0:0:0:0:
256,192,15179,1,0,0:0:0:0:
256,192,15267,1,0,0:0:0:0:
256,192,15355,1,8,0:0:0:0:
256,192,15532,1,8,0:0:0:0:
256,192,15620,1,8,0:0:0:0:
256,192,15708,1,0,0:0:0:0:
256,192,15885,1,0,0:0:0:0:
256,192,16061,1,8,0:0:0:0:
256,192,16149,1,0,0:0:0:0:
256,192,16238,1,8,0:0:0:0:
256,192,16326,1,8,0:0:0:0:
256,192,16414,1,0,0:0:0:0:
256,192,16590,1,0,0:0:0:0:
256,192,16767,1,0,0:0:0:0:
256,192,16855,1,8,0:0:0:0:
256,192,16943,1,0,0:0:0:0:
256,192,17032,1,0,0:0:0:0:
256,192,17120,1,8,0:0:0:0:
256,192,17296,1,8,0:0:0:0:
256,192,17385,1,8,0:0:0:0:
256,192,17473,1,0,0:0:0:0:
256,192,17649,1,0,0:0:0:0:
256,192,17826,1,0,0:0:0:0:
256,192,17914,1,8,0:0:0:0:
256,192,18002,1,8,0:0:0:0:
256,192,18179,1,8,0:0:0:0:
256,192,18267,1,0,0:0:0:0:
256,192,18355,1,0,0:0:0:0:
256,192,18443,1,0,0:0:0:0:
256,192,18532,1,8,0:0:0:0:
256,192,18708,1,0,0:0:0:0:
256,192,18885,1,0,0:0:0:0:
256,192,18973,1,8,0:0:0:0:
256,192,19061,1,0,0:0:0:0:
256,192,19149,1,0,0:0:0:0:
256,192,19238,1,8,0:0:0:0:
256,192,19414,1,0,0:0:0:0:
256,192,19590,1,8,0:0:0:0:
256,192,19679,1,0,0:0:0:0:
256,192,19767,1,8,0:0:0:0:
256,192,19855,1,8,0:0:0:0:
256,192,19943,1,0,0:0:0:0:
256,192,20120,1,0,0:0:0:0:
256,192,20208,1,0,0:0:0:0:
256,192,20296,1,8,0:0:0:0:
256,192,20473,1,0,0:0:0:0:
256,192,20649,1,8,0:0:0:0:
256,192,20738,1,0,0:0:0:0:
256,192,20826,1,0,0:0:0:0:
256,192,20914,1,0,0:0:0:0:
256,192,21002,1,8,0:0:0:0:
256,192,21179,1,0,0:0:0:0:
256,192,21267,1,0,0:0:0:0:
256,192,21355,1,8,0:0:0:0:
256,192,21532,1,0,0:0:0:0:
256,192,21708,1,8,0:0:0:0:
256,192,21796,1,0,0:0:0:0:
256,192,21885,1,8,0:0:0:0:
256,192,21973,1,8,0:0:0:0:
256,192,22061,1,0,0:0:0:0:
256,192,22238,1,0,0:0:0:0:
256,192,22414,1,0,0:0:0:0:
256,192,22502,1,8,0:0:0:0:
256,192,22590,1,0,0:0:0:0:
256,192,22679,1,0,0:0:0:0:
256,192,22767,1,8,0:0:0:0:
256,192,22943,1,8,0:0:0:0:
256,192,23032,1,8,0:0:0:0:
256,192,23120,1,0,0:0:0:0:
256,192,23296,1,0,0:0:0:0:
256,192,23473,1,0,0:0:0:0:
256,192,23561,1,0,0:0:0:0:
256,192,23649,1,8,0:0:0:0:
256,192,23826,1,8,0:0:0:0:
256,192,23914,1,0,0:0:0:0:
256,192,24002,1,8,0:0:0:0:
256,192,24090,1,8,0:0:0:0:
256,96,24179,1,4,0:0:0:0:
256,192,24355,1,8,0:0:0:0:
256,192,24443,1,0,0:0:0:0:
256,192,24620,1,0,0:0:0:0:
256,192,24708,1,8,0:0:0:0:
256,192,24796,1,0,0:0:0:0:
256,192,24885,1,8,0:0:0:0:
256,192,25061,1,0,0:0:0:0:
256,192,25238,1,8,0:0:0:0:
256,192,25326,1,0,0:0:0:0:
256,192,25414,1,8,0:0:0:0:
256,192,25502,1,8,0:0:0:0:
256,192,25590,1,0,0:0:0:0:
256,192,25679,1,8,0:0:0:0:
256,192,25855,1,8,0:0:0:0:
256,192,25943,1,0,0:0:0:0:
256,192,26120,1,0,0:0:0:0:
256,192,26208,1,0,0:0:0:0:
256,192,26296,1,8,0:0:0:0:
256,192,26385,1,0,0:0:0:0:
256,192,26473,1,8,0:0:0:0:
256,192,26561,1,8,0:0:0:0:
256,192,26649,1,0,0:0:0:0:
256,192,26826,1,8,0:0:0:0:
256,192,27002,1,0,0:0:0:0:
256,192,27090,1,0,0:0:0:0:
256,192,27179,1,8,0:0:0:0:
256,192,27355,1,8,0:0:0:0:
256,192,27532,1,8,0:0:0:0:
256,192,27620,1,8,0:0:0:0:
256,192,27708,1,0,0:0:0:0:
256,192,27796,1,8,0:0:0:0:
256,192,27885,1,0,0:0:0:0:
256,192,27973,1,0,0:0:0:0:
256,192,28061,1,8,0:0:0:0:
256,192,28238,1,8,0:0:0:0:
256,192,28326,1,8,0:0:0:0:
256,192,28414,1,0,0:0:0:0:
256,192,28502,1,8,0:0:0:0:
256,192,28590,1,0,0:0:0:0:
256,192,28767,1,8,0:0:0:0:
256,192,28943,1,8,0:0:0:0:
256,192,29032,1,8,0:0:0:0:
256,192,29120,1,0,0:0:0:0:
256,192,29208,1,8,0:0:0:0:
256,192,29296,1,0,0:0:0:0:
256,192,29385,1,8,0:0:0:0:
256,192,29473,1,0,0:0:0:0:
256,192,29561,1,0,0:0:0:0:
256,192,29649,1,8,0:0:0:0:
256,192,29738,1,8,0:0:0:0:
256,192,29826,1,0,0:0:0:0:
256,192,30002,1,8,0:0:0:0:
256,192,30090,1,0,0:0:0:0:
256,192,30267,1,0,0:0:0:0:
256,192,30355,1,8,0:0:0:0:
256,192,30443,1,0,0:0:0:0:
256,192,30532,1,8,0:0:0:0:
256,192,30708,1,0,0:0:0:0:
256,192,30885,1,8,0:0:0:0:
256,192,30973,1,0,0:0:0:0:
256,192,31061,1,8,0:0:0:0:
256,192,31149,1,8,0:0:0:0:
256,192,31238,1,0,0:0:0:0:
256,192,31326,1,8,0:0:0:0:
256,192,31502,1,8,0:0:0:0:
256,192,31590,1,0,0:0:0:0:
256,192,31767,1,0,0:0:0:0:
256,192,31855,1,0,0:0:0:0:
256,192,31943,1,8,0:0:0:0:
256,192,32032,1,0,0:0:0:0:
256,192,32120,1,8,0:0:0:0:
256,192,32208,1,8,0:0:0:0:
256,192,32296,1,0,0:0:0:0:
256,192,32473,1,8,0:0:0:0:
256,192,32649,1,0,0:0:0:0:
256,192,32738,1,0,0:0:0:0:
256,192,32826,1,8,0:0:0:0:
256,192,32914,1,0,0:0:0:0:
256,192,33002,1,8,0:0:0:0:
256,192,33090,1,0,0:0:0:0:
256,192,33179,1,8,0:0:0:0:
256,192,33267,1,8,0:0:0:0:
256,192,33355,1,0,0:0:0:0:
256,192,33443,1,8,0:0:0:0:
256,192,33532,1,0,0:0:0:0:
256,192,33620,1,0,0:0:0:0:
256,192,33708,1,8,0:0:0:0:
256,192,33796,1,8,0:0:0:0:
256,192,33885,1,0,0:0:0:0:
256,192,33973,1,0,0:0:0:0:
160,192,34061,1,8,0:0:0:0:
160,192,34120,1,8,0:0:0:0:
160,192,34179,1,8,0:0:0:0:
160,192,34238,1,0,0:0:0:0:
256,192,34326,1,8,0:0:0:0:
256,192,34414,1,8,0:0:0:0:
256,192,34502,1,0,0:0:0:0:
256,192,34590,1,8,0:0:0:0:
256,192,34679,1,0,0:0:0:0:
256,192,34767,1,0,0:0:0:0:
256,192,34855,1,8,0:0:0:0:
256,192,34943,1,0,0:0:0:0:
256,192,35032,1,0,0:0:0:0:
256,192,35120,1,8,0:0:0:0:
256,192,35208,1,0,0:0:0:0:
256,192,35296,1,8,0:0:0:0:
256,192,35385,1,8,0:0:0:0:
256,96,35473,1,4,0:0:0:0:
256,192,36885,1,8,0:0:0:0:
256,192,37590,1,0,0:0:0:0:
256,192,38296,1,0,0:0:0:0:
256,192,41120,1,0,0:0:0:0:
256,192,42532,1,8,0:0:0:0:
256,192,43238,1,8,0:0:0:0:
256,192,43943,5,0,0:0:0:0:
256,192,45355,5,8,0:0:0:0:
255,97,46767,5,4,0:0:0:0:
256,192,48179,1,0,0:0:0:0:
256,192,49590,1,8,0:0:0:0:
256,192,50296,1,0,0:0:0:0:
256,192,51002,1,8,0:0:0:0:
256,192,51708,1,8,0:0:0:0:
256,192,52414,1,0,0:0:0:0:
256,192,53826,1,0,0:0:0:0:
256,192,55238,1,8,0:0:0:0:
256,192,56649,5,0,0:0:0:0:
256,192,57179,5,0,0:0:0:0:
256,192,57355,1,8,0:0:0:0:
256,192,57532,1,0,0:0:0:0:
256,96,58061,1,4,0:0:0:0:
256,192,58414,1,8,0:0:0:0:
256,192,58590,1,0,0:0:0:0:
256,192,58767,1,0,0:0:0:0:
256,192,58943,1,0,0:0:0:0:
256,192,59120,1,8,0:0:0:0:
256,192,59473,1,0,0:0:0:0:
256,192,59649,1,0,0:0:0:0:
256,192,59826,1,8,0:0:0:0:
256,192,60002,1,8,0:0:0:0:
256,192,60090,1,8,0:0:0:0:
256,192,60179,1,0,0:0:0:0:
256,192,60355,1,8,0:0:0:0:
256,192,60532,1,0,0:0:0:0:
256,192,60885,1,0,0:0:0:0:
256,192,61061,1,0,0:0:0:0:
256,192,61238,1,8,0:0:0:0:
256,192,61414,1,8,0:0:0:0:
256,192,61502,1,0,0:0:0:0:
256,192,61590,1,0,0:0:0:0:
256,192,61767,1,0,0:0:0:0:
256,192,61943,1,8,0:0:0:0:
256,192,62296,1,0,0:0:0:0:
256,192,62473,1,0,0:0:0:0:
256,192,62649,1,8,0:0:0:0:
256,192,62826,1,8,0:0:0:0:
256,192,62914,1,8,0:0:0:0:
256,192,63002,1,0,0:0:0:0:
256,192,63179,1,8,0:0:0:0:
256,192,63355,1,8,0:0:0:0:
256,192,63532,1,8,0:0:0:0:
256,192,63620,1,8,0:0:0:0:
256,96,63708,1,4,0:0:0:0:
256,192,64061,1,8,0:0:0:0:
256,192,64238,1,0,0:0:0:0:
256,192,64414,1,0,0:0:0:0:
256,192,64590,1,0,0:0:0:0:
256,192,64767,1,8,0:0:0:0:
256,192,65120,1,0,0:0:0:0:
256,192,65296,1,0,0:0:0:0:
256,192,65473,1,8,0:0:0:0:
256,192,65649,1,8,0:0:0:0:
256,192,65738,1,8,0:0:0:0:
256,192,65826,1,0,0:0:0:0:
256,192,66002,1,0,0:0:0:0:
256,192,66179,1,8,0:0:0:0:
256,192,66532,1,0,0:0:0:0:
256,192,66708,1,0,0:0:0:0:
256,192,66885,1,8,0:0:0:0:
256,192,67061,1,8,0:0:0:0:
256,192,67149,1,0,0:0:0:0:
256,192,67238,1,0,0:0:0:0:
256,192,67414,1,0,0:0:0:0:
256,192,67590,1,8,0:0:0:0:
256,192,67943,1,0,0:0:0:0:
256,192,68120,1,0,0:0:0:0:
256,192,68296,1,8,0:0:0:0:
256,192,68473,1,0,0:0:0:0:
256,192,68561,1,0,0:0:0:0:
256,192,68649,1,8,0:0:0:0:
256,192,68826,1,0,0:0:0:0:
256,192,69002,1,8,0:0:0:0:
256,192,69179,1,8,0:0:0:0:
256,192,69267,1,8,0:0:0:0:
256,96,69355,1,4,0:0:0:0:
256,192,69532,1,0,0:0:0:0:
256,192,69708,1,8,0:0:0:0:
256,192,69885,1,0,0:0:0:0:
256,192,69973,1,0,0:0:0:0:
256,192,70061,1,8,0:0:0:0:
256,192,70149,1,0,0:0:0:0:
256,192,70326,1,0,0:0:0:0:
256,192,70414,1,8,0:0:0:0:
256,192,70590,1,0,0:0:0:0:
256,192,70767,1,0,0:0:0:0:
256,192,70943,1,0,0:0:0:0:
256,192,71032,1,8,0:0:0:0:
256,192,71120,1,8,0:0:0:0:
256,192,71296,1,0,0:0:0:0:
256,192,71473,1,8,0:0:0:0:
256,192,71561,1,0,0:0:0:0:
256,192,71738,1,0,0:0:0:0:
256,192,71826,1,8,0:0:0:0:
256,192,71914,1,0,0:0:0:0:
256,192,72002,1,8,0:0:0:0:
256,192,72090,1,8,0:0:0:0:
256,192,72179,1,0,0:0:0:0:
256,192,72355,1,0,0:0:0:0:
256,192,72443,1,8,0:0:0:0:
256,192,72620,1,8,0:0:0:0:
256,192,72708,1,0,0:0:0:0:
256,192,72885,1,0,0:0:0:0:
256,192,72973,1,0,0:0:0:0:
256,192,73061,1,0,0:0:0:0:
256,192,73149,1,8,0:0:0:0:
256,192,73326,1,8,0:0:0:0:
256,192,73414,1,0,0:0:0:0:
256,192,73590,1,8,0:0:0:0:
256,192,73679,1,0,0:0:0:0:
256,192,73855,1,8,0:0:0:0:
256,192,74032,1,8,0:0:0:0:
256,192,74120,1,0,0:0:0:0:
256,192,74296,1,0,0:0:0:0:
256,192,74385,1,8,0:0:0:0:
256,192,74561,1,0,0:0:0:0:
256,192,74649,1,8,0:0:0:0:
256,192,74738,1,0,0:0:0:0:
256,192,74826,1,8,0:0:0:0:
256,192,74914,1,8,0:0:0:0:
256,96,75002,1,4,0:0:0:0:
256,192,75179,1,8,0:0:0:0:
256,192,75267,1,0,0:0:0:0:
256,192,75443,1,8,0:0:0:0:
256,192,75532,1,0,0:0:0:0:
256,192,75708,1,8,0:0:0:0:
256,192,75796,1,0,0:0:0:0:
256,192,75885,1,0,0:0:0:0:
256,192,75973,1,8,0:0:0:0:
256,192,76149,1,0,0:0:0:0:
256,192,76238,1,8,0:0:0:0:
256,96,76414,1,4,0:0:0:0:
256,192,76590,1,8,0:0:0:0:
256,192,76679,1,0,0:0:0:0:
256,192,76855,1,8,0:0:0:0:
256,192,76943,1,0,0:0:0:0:
256,192,77120,1,8,0:0:0:0:
256,192,77208,1,8,0:0:0:0:
256,192,77296,1,0,0:0:0:0:
256,192,77385,1,8,0:0:0:0:
256,192,77561,1,0,0:0:0:0:
256,192,77649,1,8,0:0:0:0:
256,192,77826,1,0,0:0:0:0:
256,192,77914,1,0,0:0:0:0:
256,192,78002,1,8,0:0:0:0:
256,192,78090,1,0,0:0:0:0:
256,192,78179,1,0,0:0:0:0:
256,192,78267,1,8,0:0:0:0:
256,192,78355,1,8,0:0:0:0:
256,192,78443,1,8,0:0:0:0:
256,192,78532,1,0,0:0:0:0:
256,192,78708,1,8,0:0:0:0:
256,192,78796,1,8,0:0:0:0:
256,192,78885,1,0,0:0:0:0:
256,192,78973,1,8,0:0:0:0:
256,192,79061,1,0,0:0:0:0:
256,192,79149,1,8,0:0:0:0:
160,192,79238,1,0,0:0:0:0:
160,192,79296,1,0,0:0:0:0:
160,192,79355,1,0,0:0:0:0:
160,192,79414,1,8,0:0:0:0:
256,192,79502,1,8,0:0:0:0:
256,192,79590,1,0,0:0:0:0:
256,192,79679,1,0,0:0:0:0:
160,192,79767,1,8,0:0:0:0:
160,192,79826,1,8,0:0:0:0:
160,192,79885,1,8,0:0:0:0:
256,192,80120,1,0,0:0:0:0:
256,192,80208,1,0,0:0:0:0:
256,192,80296,1,8,0:0:0:0:
256,192,80473,1,0,0:0:0:0:
256,96,80649,1,12,0:0:0:0:
256,192,80826,1,0,0:0:0:0:
256,192,80914,1,0,0:0:0:0:
256,192,81002,1,0,0:0:0:0:
256,192,81090,1,8,0:0:0:0:
256,192,81179,1,0,0:0:0:0:
256,192,81355,1,8,0:0:0:0:
256,192,81532,1,0,0:0:0:0:
256,192,81620,1,8,0:0:0:0:
256,192,81708,1,0,0:0:0:0:
256,192,81796,1,0,0:0:0:0:
256,192,81885,1,8,0:0:0:0:
256,192,81973,1,8,0:0:0:0:
256,192,82061,1,0,0:0:0:0:
256,192,82238,1,8,0:0:0:0:
256,192,82326,1,0,0:0:0:0:
256,192,82414,1,0,0:0:0:0:
256,192,82502,1,8,0:0:0:0:
256,192,82590,1,0,0:0:0:0:
256,192,82767,1,8,0:0:0:0:
256,192,82943,1,0,0:0:0:0:
256,192,83032,1,8,0:0:0:0:
256,192,83120,1,8,0:0:0:0:
256,192,83208,1,0,0:0:0:0:
256,192,83296,1,8,0:0:0:0:
256,192,83385,1,8,0:0:0:0:
256,192,83473,1,0,0:0:0:0:
256,192,83649,1,8,0:0:0:0:
256,192,83738,1,0,0:0:0:0:
256,192,83826,1,0,0:0:0:0:
256,192,83914,1,0,0:0:0:0:
256,192,84002,1,8,0:0:0:0:
256,192,84179,1,8,0:0:0:0:
256,192,84267,1,0,0:0:0:0:
256,192,84443,1,8,0:0:0:0:
256,192,84532,1,0,0:0:0:0:
256,192,84620,1,8,0:0:0:0:
256,192,84708,1,0,0:0:0:0:
256,192,84796,1,0,0:0:0:0:
256,192,84885,1,8,0:0:0:0:
256,192,84973,1,0,0:0:0:0:
256,192,85149,1,8,0:0:0:0:
256,192,85238,1,0,0:0:0:0:
256,192,85326,1,8,0:0:0:0:
256,192,85414,1,8,0:0:0:0:
256,192,85502,1,0,0:0:0:0:
256,192,85590,1,0,0:0:0:0:
256,192,85679,1,8,0:0:0:0:
256,192,85855,1,0,0:0:0:0:
256,192,85943,1,8,0:0:0:0:
256,192,86032,1,0,0:0:0:0:
256,192,86120,1,8,0:0:0:0:
256,192,86208,1,8,0:0:0:0:
256,192,86296,1,0,0:0:0:0:
256,192,86473,1,8,0:0:0:0:
256,192,86561,1,0,0:0:0:0:
256,192,86649,1,0,0:0:0:0:
256,192,86738,1,8,0:0:0:0:
256,192,86826,1,0,0:0:0:0:
256,192,87002,1,8,0:0:0:0:
256,192,87179,1,0,0:0:0:0:
256,192,87267,1,8,0:0:0:0:
256,192,87355,1,0,0:0:0:0:
256,192,87443,1,0,0:0:0:0:
256,192,87532,1,8,0:0:0:0:
256,192,87620,1,8,0:0:0:0:
256,192,87708,1,0,0:0:0:0:
256,192,87885,1,8,0:0:0:0:
256,192,87973,1,0,0:0:0:0:
256,192,88061,1,0,0:0:0:0:
256,192,88149,1,8,0:0:0:0:
256,192,88238,1,0,0:0:0:0:
256,192,88414,1,8,0:0:0:0:
256,192,88590,1,8,0:0:0:0:
256,192,88679,1,8,0:0:0:0:
256,192,88767,1,0,0:0:0:0:
256,192,88855,1,0,0:0:0:0:
256,192,88943,1,8,0:0:0:0:
256,192,89032,1,8,0:0:0:0:
256,192,89120,1,0,0:0:0:0:
256,192,89296,1,8,0:0:0:0:
256,192,89385,1,0,0:0:0:0:
256,192,89473,1,0,0:0:0:0:
256,192,89561,1,8,0:0:0:0:
256,192,89649,1,0,0:0:0:0:
256,192,89826,1,8,0:0:0:0:
256,192,89914,1,0,0:0:0:0:
256,192,90090,1,8,0:0:0:0:
256,192,90179,1,0,0:0:0:0:
256,192,90267,1,8,0:0:0:0:
256,192,90355,1,0,0:0:0:0:
256,192,90443,1,0,0:0:0:0:
256,192,90532,1,8,0:0:0:0:
256,192,90620,1,0,0:0:0:0:
256,192,90796,1,8,0:0:0:0:
256,192,90885,1,0,0:0:0:0:
256,192,90973,1,8,0:0:0:0:
256,192,91061,1,8,0:0:0:0:
256,192,91149,1,0,0:0:0:0:
256,192,91238,1,0,0:0:0:0:
256,192,91326,1,8,0:0:0:0:
256,192,91502,1,0,0:0:0:0:
256,192,91590,1,8,0:0:0:0:
256,192,91679,1,0,0:0:0:0:
256,192,91767,1,8,0:0:0:0:
256,192,91855,1,8,0:0:0:0:
256,96,91943,1,4,0:0:0:0:
256,192,92120,1,8,0:0:0:0:
256,192,92208,1,0,0:0:0:0:
256,192,92296,1,0,0:0:0:0:
256,192,92385,1,8,0:0:0:0:
256,192,92473,1,0,0:0:0:0:
256,192,92561,1,0,0:0:0:0:
256,192,92649,1,8,0:0:0:0:
256,192,92738,1,0,0:0:0:0:
256,192,92826,1,0,0:0:0:0:
256,192,92914,1,8,0:0:0:0:
256,192,93002,1,0,0:0:0:0:
256,192,93090,1,0,0:0:0:0:
256,192,93179,1,8,0:0:0:0:
256,192,93267,1,8,0:0:0:0:
256,192,93355,1,0,0:0:0:0:
256,192,93532,1,8,0:0:0:0:
256,192,93620,1,0,0:0:0:0:
256,192,93708,1,0,0:0:0:0:
256,192,93796,1,8,0:0:0:0:
256,192,93885,1,0,0:0:0:0:
256,192,93973,1,0,0:0:0:0:
256,192,94061,1,8,0:0:0:0:
256,192,94149,1,0,0:0:0:0:
256,192,94238,1,0,0:0:0:0:
256,192,94326,1,8,0:0:0:0:
256,192,94414,1,0,0:0:0:0:
256,192,94502,1,8,0:0:0:0:
256,192,94590,1,8,0:0:0:0:
256,192,94679,1,8,0:0:0:0:
256,192,94767,1,0,0:0:0:0:
256,192,94943,1,8,0:0:0:0:
256,192,95032,1,0,0:0:0:0:
256,192,95120,1,0,0:0:0:0:
256,192,95208,1,8,0:0:0:0:
256,192,95296,1,0,0:0:0:0:
256,192,95385,1,0,0:0:0:0:
256,192,95473,1,8,0:0:0:0:
256,192,95561,1,8,0:0:0:0:
256,192,95649,1,0,0:0:0:0:
256,192,95738,1,8,0:0:0:0:
256,192,95826,1,8,0:0:0:0:
256,192,95914,1,8,0:0:0:0:
256,192,96002,1,0,0:0:0:0:
256,192,96179,1,8,0:0:0:0:
256,192,96267,1,0,0:0:0:0:
256,192,96355,1,0,0:0:0:0:
256,192,96443,1,8,0:0:0:0:
256,192,96532,1,0,0:0:0:0:
256,192,96620,1,8,0:0:0:0:
256,192,96708,1,0,0:0:0:0:
256,192,96885,1,0,0:0:0:0:
256,192,96973,1,8,0:0:0:0:
256,192,97149,1,8,0:0:0:0:
256,192,97238,1,0,0:0:0:0:
256,192,97326,1,0,0:0:0:0:
256,192,97414,1,8,0:0:0:0:
256,192,97502,1,8,0:0:0:0:
256,192,97590,1,0,0:0:0:0:
256,192,97767,1,8,0:0:0:0:
256,192,97855,1,0,0:0:0:0:
256,192,97943,1,0,0:0:0:0:
256,192,98032,1,8,0:0:0:0:
256,192,98120,1,0,0:0:0:0:
256,192,98208,1,0,0:0:0:0:
256,192,98296,1,8,0:0:0:0:
256,192,98385,1,0,0:0:0:0:
256,192,98473,1,0,0:0:0:0:
256,192,98561,1,8,0:0:0:0:
256,192,98649,1,0,0:0:0:0:
256,192,98738,1,0,0:0:0:0:
256,192,98826,1,8,0:0:0:0:
256,192,98914,1,8,0:0:0:0:
256,192,99002,1,0,0:0:0:0:
256,192,99179,1,8,0:0:0:0:
256,192,99267,1,0,0:0:0:0:
256,192,99355,1,0,0:0:0:0:
256,192,99443,1,8,0:0:0:0:
256,192,99532,1,0,0:0:0:0:
256,192,99620,1,0,0:0:0:0:
256,192,99708,1,8,0:0:0:0:
256,192,99796,1,0,0:0:0:0:
256,192,99885,1,0,0:0:0:0:
256,192,99973,1,8,0:0:0:0:
256,192,100061,1,0,0:0:0:0:
256,192,100149,1,8,0:0:0:0:
256,192,100238,1,8,0:0:0:0:
256,192,100326,1,8,0:0:0:0:
256,192,100414,1,0,0:0:0:0:
256,192,100590,1,8,0:0:0:0:
256,192,100679,1,8,0:0:0:0:
256,192,100767,1,0,0:0:0:0:
256,192,100855,1,8,0:0:0:0:
256,192,100943,1,0,0:0:0:0:
256,192,101032,1,0,0:0:0:0:
256,192,101120,1,8,0:0:0:0:
256,192,101208,1,0,0:0:0:0:
256,192,101296,1,0,0:0:0:0:
256,192,101385,1,8,0:0:0:0:
256,192,101473,1,0,0:0:0:0:
256,192,101561,1,8,0:0:0:0:
256,192,101649,1,0,0:0:0:0:
256,192,101826,1,8,0:0:0:0:
256,192,101914,1,0,0:0:0:0:
256,192,102002,1,0,0:0:0:0:
256,192,102090,1,8,0:0:0:0:
256,192,102179,1,0,0:0:0:0:
256,192,102267,1,0,0:0:0:0:
256,192,102355,1,8,0:0:0:0:
256,192,102443,1,0,0:0:0:0:
256,192,102532,1,0,0:0:0:0:
256,192,102620,1,8,0:0:0:0:
256,192,102708,1,0,0:0:0:0:
256,192,102796,1,0,0:0:0:0:
160,192,102885,1,8,0:0:0:0:
160,192,102943,1,0,0:0:0:0:
160,192,103002,1,0,0:0:0:0:
160,192,103061,1,8,0:0:0:0:
256,192,103149,1,8,0:0:0:0:
256,96,103238,1,4,0:0:0:0:
256,192,103414,1,8,0:0:0:0:
256,192,103590,1,0,0:0:0:0:
256,192,103679,1,8,0:0:0:0:
256,192,103767,1,0,0:0:0:0:
256,192,103855,1,0,0:0:0:0:
256,192,103943,1,8,0:0:0:0:
256,192,104120,1,0,0:0:0:0:
256,192,104296,1,8,0:0:0:0:
256,192,104385,1,0,0:0:0:0:
256,192,104473,1,8,0:0:0:0:
256,192,104561,1,8,0:0:0:0:
256,192,104649,1,0,0:0:0:0:
256,192,104826,1,0,0:0:0:0:
256,192,104914,1,0,0:0:0:0:
256,192,105002,1,8,0:0:0:0:
256,192,105179,1,0,0:0:0:0:
256,192,105355,1,8,0:0:0:0:
256,192,105443,1,0,0:0:0:0:
256,192,105532,1,0,0:0:0:0:
256,192,105620,1,0,0:0:0:0:
256,192,105708,1,8,0:0:0:0:
256,192,105885,1,8,0:0:0:0:
256,192,105973,1,8,0:0:0:0:
256,192,106061,1,0,0:0:0:0:
256,192,106238,1,0,0:0:0:0:
256,192,106414,1,8,0:0:0:0:
256,192,106502,1,0,0:0:0:0:
256,192,106590,1,8,0:0:0:0:
256,192,106679,1,8,0:0:0:0:
256,192,106767,1,0,0:0:0:0:
256,192,106943,1,0,0:0:0:0:
256,192,107032,1,0,0:0:0:0:
256,192,107120,1,8,0:0:0:0:
256,192,107296,1,8,0:0:0:0:
256,192,107385,1,8,0:0:0:0:
256,192,107473,1,0,0:0:0:0:
256,192,107649,1,0,0:0:0:0:
256,192,107738,1,8,0:0:0:0:
256,192,107826,1,0,0:0:0:0:
256,192,107914,1,0,0:0:0:0:
256,192,108002,1,8,0:0:0:0:
256,192,108179,1,0,0:0:0:0:
256,192,108267,1,8,0:0:0:0:
256,192,108355,1,8,0:0:0:0:
256,192,108443,1,0,0:0:0:0:
256,192,108532,1,8,0:0:0:0:
256,192,108620,1,0,0:0:0:0:
256,192,108708,1,0,0:0:0:0:
256,192,108796,1,0,0:0:0:0:
256,192,108885,1,8,0:0:0:0:
256,192,109061,1,0,0:0:0:0:
256,192,109238,1,0,0:0:0:0:
256,192,109326,1,8,0:0:0:0:
256,192,109414,1,0,0:0:0:0:
256,192,109502,1,0,0:0:0:0:
256,192,109590,1,8,0:0:0:0:
256,192,109767,1,0,0:0:0:0:
256,192,109943,1,8,0:0:0:0:
256,192,110032,1,0,0:0:0:0:
256,192,110120,1,8,0:0:0:0:
256,192,110208,1,8,0:0:0:0:
256,192,110296,1,0,0:0:0:0:
256,192,110473,1,0,0:0:0:0:
256,192,110561,1,0,0:0:0:0:
256,192,110649,1,8,0:0:0:0:
256,192,110826,1,0,0:0:0:0:
256,192,111002,1,8,0:0:0:0:
256,192,111090,1,0,0:0:0:0:
256,192,111179,1,0,0:0:0:0:
256,192,111267,1,0,0:0:0:0:
256,192,111355,1,8,0:0:0:0:
256,192,111532,1,0,0:0:0:0:
256,192,111620,1,0,0:0:0:0:
256,192,111708,1,8,0:0:0:0:
256,192,111885,1,0,0:0:0:0:
256,192,112061,1,8,0:0:0:0:
256,192,112149,1,0,0:0:0:0:
256,192,112238,1,8,0:0:0:0:
256,192,112326,1,8,0:0:0:0:
256,192,112414,1,0,0:0:0:0:
256,192,112590,1,0,0:0:0:0:
256,192,112767,1,0,0:0:0:0:
256,192,112855,1,8,0:0:0:0:
256,192,112943,1,0,0:0:0:0:
256,192,113032,1,0,0:0:0:0:
256,192,113120,1,8,0:0:0:0:
256,192,113296,1,8,0:0:0:0:
256,192,113385,1,8,0:0:0:0:
256,192,113473,1,0,0:0:0:0:
256,192,113649,1,0,0:0:0:0:
256,192,113826,1,0,0:0:0:0:
256,192,113914,1,0,0:0:0:0:
256,192,114002,1,8,0:0:0:0:
256,192,114179,1,0,0:0:0:0:
256,192,114267,1,0,0:0:0:0:
256,192,114355,1,0,0:0:0:0:
256,192,114443,1,0,0:0:0:0:
256,96,114532,1,12,0:0:0:0:
256,192,114708,1,0,0:0:0:0:
256,192,114885,1,0,0:0:0:0:
256,192,114973,1,8,0:0:0:0:
256,192,115061,1,0,0:0:0:0:
256,192,115149,1,0,0:0:0:0:
256,192,115238,1,8,0:0:0:0:
256,192,115414,1,0,0:0:0:0:
256,192,115590,1,8,0:0:0:0:
256,192,115679,1,0,0:0:0:0:
256,192,115767,1,8,0:0:0:0:
256,192,115855,1,8,0:0:0:0:
256,192,115943,1,0,0:0:0:0:
256,192,116120,1,0,0:0:0:0:
256,192,116208,1,0,0:0:0:0:
256,192,116296,1,8,0:0:0:0:
256,192,116473,1,0,0:0:0:0:
256,192,116649,1,8,0:0:0:0:
256,192,116738,1,0,0:0:0:0:
256,192,116826,1,0,0:0:0:0:
256,192,116914,1,0,0:0:0:0:
256,192,117002,1,8,0:0:0:0:
256,192,117179,1,8,0:0:0:0:
256,192,117267,1,8,0:0:0:0:
256,192,117355,1,0,0:0:0:0:
256,192,117532,1,0,0:0:0:0:
256,192,117708,1,8,0:0:0:0:
256,192,117796,1,0,0:0:0:0:
256,192,117885,1,8,0:0:0:0:
256,192,117973,1,8,0:0:0:0:
256,192,118061,1,0,0:0:0:0:
256,192,118238,1,0,0:0:0:0:
256,192,118326,1,0,0:0:0:0:
256,192,118414,1,8,0:0:0:0:
256,192,118590,1,8,0:0:0:0:
256,192,118679,1,8,0:0:0:0:
256,192,118767,1,0,0:0:0:0:
256,192,118943,1,0,0:0:0:0:
256,192,119032,1,8,0:0:0:0:
256,192,119120,1,0,0:0:0:0:
256,192,119208,1,0,0:0:0:0:
256,192,119296,1,8,0:0:0:0:
256,192,119473,1,8,0:0:0:0:
256,192,119561,1,8,0:0:0:0:
256,192,119649,1,0,0:0:0:0:
256,192,119738,1,0,0:0:0:0:
256,192,119826,1,8,0:0:0:0:
256,192,119914,1,0,0:0:0:0:
256,192,120002,1,8,0:0:0:0:
256,192,120090,1,8,0:0:0:0:
256,192,120179,1,0,0:0:0:0:
256,192,120532,1,8,0:0:0:0:
256,192,120885,1,0,0:0:0:0:
256,192,121238,1,8,0:0:0:0:
256,192,121590,1,0,0:0:0:0:
256,192,121767,1,0,0:0:0:0:
256,192,121943,1,8,0:0:0:0:
256,192,122120,1,8,0:0:0:0:
256,192,122296,1,0,0:0:0:0:
256,192,122473,1,0,0:0:0:0:
256,192,122649,1,8,0:0:0:0:
256,192,122826,1,8,0:0:0:0:
256,192,123002,1,0,0:0:0:0:
256,192,123090,1,8,0:0:0:0:
256,192,123179,1,0,0:0:0:0:
256,192,123267,1,0,0:0:0:0:
256,192,123355,1,8,0:0:0:0:
256,192,123443,1,8,0:0:0:0:
256,192,123532,1,0,0:0:0:0:
256,192,123620,1,0,0:0:0:0:
256,192,123708,1,0,0:0:0:0:
256,192,123796,1,8,0:0:0:0:
256,192,123885,1,0,0:0:0:0:
256,192,123973,1,8,0:0:0:0:
256,192,124061,1,8,0:0:0:0:
256,192,124149,1,0,0:0:0:0:
256,192,124238,1,8,0:0:0:0:
256,192,124326,1,8,0:0:0:0:
256,96,124414,1,4,0:0:0:0:
256,192,125032,1,0,0:0:0:0:
256,192,125120,1,8,0:0:0:0:
256,192,125296,1,0,0:0:0:0:
160,192,125473,5,8,0:0:0:0:
160,192,125532,1,0,0:0:0:0:
160,192,125590,1,0,0:0:0:0:
160,192,125649,5,8,0:0:0:0:
256,192,125738,5,8,0:0:0:0:
256,96,125826,5,4,0:0:0:0:
256,192,126002,1,8,0:0:0:0:
256,192,126090,1,0,0:0:0:0:
256,192,126267,1,0,0:0:0:0:
256,192,126355,1,8,0:0:0:0:
256,192,126443,1,0,0:0:0:0:
256,192,126532,1,8,0:0:0:0:
256,192,126708,1,0,0:0:0:0:
256,192,126885,1,8,0:0:0:0:
256,192,126973,1,0,0:0:0:0:
256,192,127061,1,8,0:0:0:0:
256,192,127149,1,8,0:0:0:0:
256,192,127238,1,0,0:0:0:0:
256,192,127326,1,8,0:0:0:0:
256,192,127502,1,8,0:0:0:0:
256,192,127590,1,0,0:0:0:0:
256,192,127767,1,0,0:0:0:0:
256,192,127855,1,0,0:0:0:0:
256,192,127943,1,8,0:0:0:0:
256,192,128032,1,0,0:0:0:0:
256,192,128120,1,8,0:0:0:0:
256,192,128208,1,8,0:0:0:0:
256,192,128296,1,0,0:0:0:0:
256,192,128473,1,8,0:0:0:0:
256,192,128561,1,8,0:0:0:0:
256,192,128649,1,0,0:0:0:0:
256,192,128738,1,0,0:0:0:0:
256,192,128826,1,8,0:0:0:0:
256,96,129002,1,12,0:0:0:0:
256,192,129179,1,8,0:0:0:0:
256,192,129267,1,8,0:0:0:0:
256,192,129355,1,0,0:0:0:0:
256,192,129443,1,8,0:0:0:0:
256,192,129532,1,0,0:0:0:0:
256,192,129620,1,0,0:0:0:0:
256,192,129708,1,8,0:0:0:0:
256,192,129885,1,8,0:0:0:0:
256,192,129973,1,8,0:0:0:0:
256,192,130061,1,0,0:0:0:0:
256,192,130149,1,8,0:0:0:0:
256,192,130238,1,8,0:0:0:0:
256,192,130414,1,8,0:0:0:0:
256,192,130590,1,8,0:0:0:0:
256,192,130679,1,0,0:0:0:0:
256,192,130767,1,8,0:0:0:0:
256,192,130855,1,8,0:0:0:0:
256,192,130943,1,0,0:0:0:0:
256,192,131032,1,8,0:0:0:0:
256,192,131120,1,0,0:0:0:0:
256,192,131208,1,0,0:0:0:0:
256,192,131296,1,8,0:0:0:0:
256,192,131385,1,8,0:0:0:0:
256,96,131473,1,4,0:0:0:0:
256,192,131649,1,0,0:0:0:0:
256,192,131826,1,8,0:0:0:0:
256,192,132002,1,8,0:0:0:0:
256,192,132090,1,8,0:0:0:0:
256,192,132179,1,0,0:0:0:0:
256,192,132355,1,0,0:0:0:0:
256,192,132532,1,8,0:0:0:0:
256,192,132708,1,8,0:0:0:0:
256,96,132885,1,4,0:0:0:0:
256,192,133061,1,0,0:0:0:0:
256,192,133149,1,0,0:0:0:0:
256,192,133238,1,8,0:0:0:0:
256,192,133414,1,8,0:0:0:0:
256,192,133502,1,8,0:0:0:0:
160,192,133590,1,0,0:0:0:0:
160,192,133649,1,8,0:0:0:0:
160,192,133708,1,8,0:0:0:0:
160,192,133767,1,0,0:0:0:0:
256,192,133855,1,0,0:0:0:0:
256,192,133943,1,8,0:0:0:0:
256,192,134120,1,0,0:0:0:0:
256,192,134296,5,8,0:0:0:0:
256,192,134385,1,0,0:0:0:0:
256,192,134473,1,0,0:0:0:0:
256,192,134561,1,8,0:0:0:0:
256,192,134649,1,0,0:0:0:0:
256,192,134738,1,0,0:0:0:0:
256,192,134826,1,8,0:0:0:0:
256,192,134914,1,8,0:0:0:0:
256,192,135002,1,0,0:0:0:0:
256,192,135090,1,8,0:0:0:0:
256,192,135179,1,8,0:0:0:0:
256,192,135267,1,0,0:0:0:0:
256,192,135355,1,8,0:0:0:0:
256,192,135443,1,0,0:0:0:0:
256,192,135532,1,8,0:0:0:0:
256,192,135620,1,8,0:0:0:0:
256,96,135708,1,4,0:0:0:0:
256,192,136061,1,0,0:0:0:0:
256,192,136149,1,8,0:0:0:0:
256,192,136238,1,8,0:0:0:0:
256,192,136326,1,8,0:0:0:0:
256,192,136414,1,0,0:0:0:0:
256,192,136502,1,0,0:0:0:0:
256,192,136590,1,8,0:0:0:0:
256,192,136679,1,0,0:0:0:0:
256,192,136767,1,8,0:0:0:0:
256,192,136855,1,0,0:0:0:0:
160,192,136943,1,8,0:0:0:0:
160,192,137002,1,8,0:0:0:0:
160,192,137061,1,0,0:0:0:0:
