osu file format v14

[General]
AudioFilename: audio.mp3
AudioLeadIn: 0
PreviewTime: 80032
Countdown: 0
SampleSet: Normal
StackLeniency: 0.7
Mode: 1
LetterboxInBreaks: 0
WidescreenStoryboard: 1

[Editor]
Bookmarks: 1591,12885,24179,35473,46767,58061,69355,80649,91943,103238,114532,125826,137120
DistanceSpacing: 3.7
BeatDivisor: 4
GridSize: 32
TimelineZoom: 1.9

[Metadata]
Title:Fallen
TitleUnicode:Fallen
Artist:Zekk
ArtistUnicode:Zekk
Creator:Hivie
Version:Beginner
Source:osu!
Tags:featured artist fa mappers' guild mg electronic instrumental EZ2AC NIGHT TRAVELER J-Core
BeatmapID:2410095
BeatmapSetID:1146734

[Difficulty]
HPDrainRate:9
CircleSize:2
OverallDifficulty:2
ApproachRate:9
SliderMultiplier:1.4
SliderTickRate:1

[Events]
//Background and Video events
0,0,"cute bg.jpg",0,-100
//Break Periods
//Storyboard Layer 0 (Background)
//Storyboard Layer 1 (Fail)
//Storyboard Layer 2 (Pass)
//Storyboard Layer 3 (Foreground)
//Storyboard Layer 4 (Overlay)
//Storyboard Sound Samples

[TimingPoints]
1591,352.941176470588,4,1,0,100,1,0
1591,-133.333333333333,4,1,0,100,0,0
35561,-133.333333333333,4,1,0,50,0,0
46767,-133.333333333333,4,1,0,100,0,0
58061,-133.333333333333,4,1,0,100,0,0
80649,-133.333333333333,4,1,0,100,0,1
91590,-133.333333333333,4,1,0,100,0,0
91943,-133.333333333333,4,1,0,100,0,1
103238,-133.333333333333,4,1,0,100,0,0

[HitObjects]
256,96,1591,5,4,0:0:0:0:
256,192,2296,1,8,0:0:0:0:
256,192,3002,5,0,0:0:0:0:
256,192,3708,1,8,0:0:0:0:
256,192,4414,5,0,0:0:0:0:
256,192,5120,1,8,0:0:0:0:
256,192,5826,1,0,0:0:0:0:
256,192,6532,1,8,0:0:0:0:
256,96,7238,5,4,0:0:0:0:
256,192,8649,5,0,0:0:0:0:
256,192,10061,1,0,0:0:0:0:
256,192,10767,1,8,0:0:0:0:
256,96,11473,5,4,0:0:0:0:
256,96,12885,1,12,0:0:0:0:
256,192,13590,1,0,0:0:0:0:
256,192,14296,1,0,0:0:0:0:
256,192,15002,1,8,0:0:0:0:
256,192,15708,1,0,0:0:0:0:
256,192,17120,1,0,0:0:0:0:
256,192,17826,1,0,0:0:0:0:
256,192,18532,1,8,0:0:0:0:
256,192,19943,1,0,0:0:0:0:
256,192,20649,1,8,0:0:0:0:
256,192,21355,1,0,0:0:0:0:
256,192,22767,1,0,0:0:0:0:
256,192,23473,1,0,0:0:0:0:
256,96,24179,1,12,0:0:0:0:
256,192,25238,1,8,0:0:0:0:
256,192,25590,1,0,0:0:0:0:
256,192,26296,1,8,0:0:0:0:
256,192,27002,1,0,0:0:0:0:
256,192,27355,1,8,0:0:0:0:
256,192,28414,1,0,0:0:0:0:
256,192,29120,1,0,0:0:0:0:
256,192,29826,1,8,0:0:0:0:
256,192,30885,1,8,0:0:0:0:
256,192,31238,1,0,0:0:0:0:
256,192,31943,1,8,0:0:0:0:
256,192,32649,1,0,0:0:0:0:
256,192,33355,1,0,0:0:0:0:
256,192,34061,1,8,0:0:0:0:
256,192,34767,1,8,0:0:0:0:
256,96,35473,1,4,0:0:0:0:
256,192,36885,1,8,0:0:0:0:
256,192,38296,1,0,0:0:0:0:
256,192,41120,1,0,0:0:0:0:
256,192,42532,1,8,0:0:0:0:
256,192,43943,5,0,0:0:0:0:
256,192,45355,5,8,0:0:0:0:
255,97,46767,5,4,0:0:0:0:
256,192,48179,1,0,0:0:0:0:
256,192,49590,1,8,0:0:0:0:
256,192,51002,1,8,0:0:0:0:
256,192,52414,1,0,0:0:0:0:
256,192,53826,1,0,0:0:0:0:
256,192,55238,1,8,0:0:0:0:
256,192,56649,5,0,0:0:0:0:
256,192,57355,1,8,0:0:0:0:
256,96,58061,1,4,0:0:0:0:
256,192,59473,1,0,0:0:0:0:
256,192,60179,1,0,0:0:0:0:
256,192,60885,1,8,0:0:0:0:
256,192,61590,1,0,0:0:0:0:
256,192,62296,1,8,0:0:0:0:
256,192,63002,1,8,0:0:0:0:
256,96,63708,1,4,0:0:0:0:
256,192,65120,1,0,0:0:0:0:
256,192,65826,1,0,0:0:0:0:
256,192,66532,1,8,0:0:0:0:
256,192,67943,1,0,0:0:0:0:
256,192,68649,1,8,0:0:0:0:
256,96,69355,1,4,0:0:0:0:
256,192,70767,1,0,0:0:0:0:
256,192,71473,1,0,0:0:0:0:
256,192,72179,1,8,0:0:0:0:
256,192,73590,1,8,0:0:0:0:
256,192,74296,1,8,0:0:0:0:
256,96,75002,1,4,0:0:0:0:
256,96,76414,1,4,0:0:0:0:
256,96,77826,1,4,0:0:0:0:
256,96,78532,1,4,0:0:0:0:
256,192,79238,1,0,0:0:0:0:
256,192,79590,1,8,0:0:0:0:
256,96,80649,1,12,0:0:0:0:
256,192,82061,1,0,0:0:0:0:
256,192,82767,1,8,0:0:0:0:
256,192,83473,1,0,0:0:0:0:
256,192,84179,1,8,0:0:0:0:
256,192,84885,1,0,0:0:0:0:
256,192,85590,1,8,0:0:0:0:
256,192,86296,1,0,0:0:0:0:
256,192,87708,1,8,0:0:0:0:
256,192,88414,1,8,0:0:0:0:
256,192,89120,1,0,0:0:0:0:
256,192,89826,1,8,0:0:0:0:
256,192,90532,1,0,0:0:0:0:
256,192,91238,1,0,0:0:0:0:
256,192,91590,1,8,0:0:0:0:
256,192,91943,5,0,0:0:0:0:
256,192,93355,1,0,0:0:0:0:
256,192,94061,1,8,0:0:0:0:
256,192,94767,1,8,0:0:0:0:
256,192,95473,1,8,0:0:0:0:
256,192,96179,1,0,0:0:0:0:
256,192,96885,1,8,0:0:0:0:
256,192,97590,5,0,0:0:0:0:
256,192,99002,1,0,0:0:0:0:
256,192,99708,1,8,0:0:0:0:
256,192,100414,1,0,0:0:0:0:
256,192,101120,1,8,0:0:0:0:
256,192,101826,1,0,0:0:0:0:
256,192,102532,1,8,0:0:0:0:
256,192,102885,1,8,0:0:0:0:
256,192,103238,1,0,0:0:0:0:
256,192,104296,1,8,0:0:0:0:
256,192,104649,1,0,0:0:0:0:
256,192,105355,1,8,0:0:0:0:
256,192,106061,1,8,0:0:0:0:
256,192,106767,1,0,0:0:0:0:
256,192,107473,1,8,0:0:0:0:
256,192,108179,1,0,0:0:0:0:
256,192,108885,1,8,0:0:0:0:
256,192,110296,1,0,0:0:0:0:
256,192,111002,1,0,0:0:0:0:
256,192,111708,1,8,0:0:0:0:
256,192,112414,1,0,0:0:0:0:
256,192,113120,1,0,0:0:0:0:
256,192,113826,1,8,0:0:0:0:
256,192,114179,1,0,0:0:0:0:
256,192,114532,1,8,0:0:0:0:
256,192,115590,1,0,0:0:0:0:
256,192,115943,1,8,0:0:0:0:
256,192,116649,1,0,0:0:0:0:
256,192,117355,1,8,0:0:0:0:
256,192,118061,1,0,0:0:0:0:
256,192,118767,1,8,0:0:0:0:
256,192,119473,1,8,0:0:0:0:
256,192,120179,1,0,0:0:0:0:
256,192,121590,1,0,0:0:0:0:
256,192,123002,1,0,0:0:0:0:
256,192,123708,1,0,0:0:0:0:
256,96,124414,1,4,0:0:0:0:
256,192,125120,1,8,0:0:0:0:
256,96,125826,1,4,0:0:0:0:
256,192,126885,1,8,0:0:0:0:
256,192,127238,1,0,0:0:0:0:
256,192,127943,1,8,0:0:0:0:
256,192,128649,1,0,0:0:0:0:
256,192,129002,1,8,0:0:0:0:
256,192,130061,1,0,0:0:0:0:
256,192,130767,1,0,0:0:0:0:
256,96,131473,1,12,0:0:0:0:
256,96,132885,1,4,0:0:0:0:
256,192,134296,5,8,0:0:0:0:
256,192,135002,1,8,0:0:0:0:
256,96,135708,1,4,0:0:0:0:
256,192,136414,1,0,0:0:0:0:
256,192,136767,1,8,0:0:0:0:
