osu file format v14

[General]
AudioFilename: audio.mp3
AudioLeadIn: 0
PreviewTime: 80032
Countdown: 0
SampleSet: Soft
StackLeniency: 0.7
Mode: 3
LetterboxInBreaks: 0
SpecialStyle: 0
WidescreenStoryboard: 0

[Editor]
Bookmarks: 11473,24179,35473,46767,58061,69355,125826
DistanceSpacing: 2.8
BeatDivisor: 4
GridSize: 16
TimelineZoom: 1.1

[Metadata]
Title:Fallen
TitleUnicode:Fallen
Artist:Zekk
ArtistUnicode:Zekk
Creator:Faputa
Version:Normal
Source:EZ2AC : NIGHT TRAVELER
Tags:FAMoss KeppSado Shima Rin Tofu1222 Scotty osu! featured artist FA Mappers' Guild MG MPG Electronic Video Rhythm Game Instrumental
BeatmapID:2432470
BeatmapSetID:1166091

[Difficulty]
HPDrainRate:7
CircleSize:4
OverallDifficulty:7
ApproachRate:5
SliderMultiplier:1.4
SliderTickRate:1

[Events]
//Background and Video events
0,0,"CAi1sKN.jpeg",0,0
//Break Periods
//Storyboard Layer 0 (Background)
//Storyboard Layer 1 (Fail)
//Storyboard Layer 2 (Pass)
//Storyboard Layer 3 (Foreground)
//Storyboard Layer 4 (Overlay)
//Storyboard Sound Samples

[TimingPoints]
1591,352.941176470588,4,2,1,60,1,0
35649,-100,4,2,1,40,0,0
46767,-100,4,2,1,50,0,0
58061,-100,4,2,1,60,0,0
80649,-100,4,2,1,60,0,1
103238,-100,4,2,1,60,0,0

[HitObjects]
64,192,1591,1,2,0:0:0:0:
320,192,1591,1,4,0:0:0:0:
192,192,1767,1,0,0:0:0:40:35607__vexst__snaeregh.wav
320,192,1943,1,2,0:0:0:0:
448,192,1943,1,8,0:0:0:0:
64,192,2120,1,0,0:0:0:40:35607__vexst__snaeregh.wav
448,192,2296,1,2,0:0:0:0:
192,192,2473,1,0,0:0:0:40:35607__vexst__snaeregh.wav
320,192,2649,1,2,0:0:0:0:
448,192,2649,1,8,0:0:0:0:
320,192,3002,1,2,0:0:0:0:
448,192,3179,1,0,0:0:0:40:35607__vexst__snaeregh.wav
64,192,3355,1,8,0:0:0:0:
192,192,3355,1,2,0:0:0:0:
448,192,3532,1,0,0:0:0:40:35607__vexst__snaeregh.wav
64,192,3708,1,2,0:0:0:0:
320,192,3885,1,0,0:0:0:40:35607__vexst__snaeregh.wav
64,192,4061,1,8,0:0:0:0:
192,192,4061,1,2,0:0:0:0:
448,192,4414,1,2,0:0:0:0:
64,192,4590,1,0,0:0:0:40:35607__vexst__snaeregh.wav
192,192,4767,1,2,0:0:0:0:
320,192,4767,1,8,0:0:0:0:
448,192,4943,1,0,0:0:0:40:35607__vexst__snaeregh.wav
192,192,5120,1,2,0:0:0:0:
448,192,5296,1,0,0:0:0:40:35607__vexst__snaeregh.wav
192,192,5473,1,2,0:0:0:0:
320,192,5473,1,8,0:0:0:0:
64,192,5826,1,2,0:0:0:0:
192,192,6002,1,0,0:0:0:40:35607__vexst__snaeregh.wav
320,192,6179,1,8,0:0:0:0:
448,192,6179,1,2,0:0:0:0:
64,192,6355,1,0,0:0:0:40:35607__vexst__snaeregh.wav
320,192,6532,1,2,0:0:0:0:
192,192,6708,1,0,0:0:0:40:35607__vexst__snaeregh.wav
320,192,6885,1,8,0:0:0:0:
448,192,6885,128,2,7238:0:0:0:0:
64,192,7238,1,2,0:0:0:0:
192,192,7238,1,0,0:0:0:0:
192,192,7590,1,8,0:0:0:0:
320,192,7590,1,2,0:0:0:0:
64,192,7943,1,2,0:0:0:0:
192,192,7943,1,0,0:0:0:0:
192,192,8296,1,8,0:0:0:0:
320,192,8296,1,2,0:0:0:0:
320,192,8649,1,2,0:0:0:0:
448,192,8649,1,0,0:0:0:0:
192,192,9002,1,2,0:0:0:0:
320,192,9002,1,8,0:0:0:0:
320,192,9355,1,2,0:0:0:0:
448,192,9355,1,0,0:0:0:0:
192,192,9708,1,2,0:0:0:0:
320,192,9708,1,8,0:0:0:0:
64,192,10061,1,2,0:0:0:0:
192,192,10061,1,0,0:0:0:0:
320,192,10238,1,0,0:0:0:40:35607__vexst__snaeregh.wav
64,192,10414,1,8,0:0:0:0:
448,192,10414,1,2,0:0:0:0:
192,192,10590,1,0,0:0:0:40:35607__vexst__snaeregh.wav
320,192,10767,1,2,0:0:0:0:
448,192,10767,1,0,0:0:0:0:
192,192,10943,1,0,0:0:0:40:35607__vexst__snaeregh.wav
64,192,11120,1,8,0:0:0:0:
320,192,11120,1,2,0:0:0:0:
448,192,11296,1,0,0:0:0:40:35607__vexst__snaeregh.wav
64,192,11473,128,2,12179:0:0:0:0:
192,192,11473,1,0,0:0:0:0:
320,192,12179,1,0,0:0:0:70:VEC3 Snares 024.wav
448,192,12532,128,0,12885:0:0:0:70:VEC3 Snares 024.wav
64,192,12885,128,2,14296:0:0:0:0:
192,192,12885,1,4,0:0:0:0:
320,192,13238,128,10,13590:0:0:0:0:
192,192,13590,128,2,13943:0:0:0:0:
320,192,13943,128,10,14296:0:0:0:0:
448,192,14296,128,2,14649:0:0:0:0:
192,192,14649,128,10,15002:0:0:0:0:
320,192,15002,128,2,15708:0:0:0:0:
192,192,15355,128,10,15708:0:0:0:0:
64,192,15708,128,2,17120:0:0:0:0:
448,192,16061,128,10,16414:0:0:0:0:
192,192,16414,128,2,16767:0:0:0:0:
448,192,16767,128,10,17120:0:0:0:0:
320,192,17120,128,2,17473:0:0:0:0:
64,192,17473,128,10,17826:0:0:0:0:
320,192,17826,128,2,18179:0:0:0:0:
64,192,18179,128,10,18532:0:0:0:0:
192,192,18532,128,2,19943:0:0:0:0:
448,192,18885,128,10,19238:0:0:0:0:
320,192,19238,128,2,19590:0:0:0:0:
448,192,19590,128,10,19943:0:0:0:0:
320,192,19943,128,2,21355:0:0:0:0:
192,192,20296,128,10,20649:0:0:0:0:
64,192,20649,128,2,21002:0:0:0:0:
192,192,21002,128,10,21355:0:0:0:0:
448,192,21355,128,2,22767:0:0:0:0:
320,192,21708,128,10,22061:0:0:0:0:
64,192,22061,128,2,22414:0:0:0:0:
320,192,22414,128,10,22767:0:0:0:0:
192,192,22767,128,2,23120:0:0:0:0:
448,192,23120,128,10,23473:0:0:0:0:
320,192,23473,1,2,0:0:0:0:
192,192,24179,1,2,0:0:0:0:
448,192,24179,1,4,0:0:0:0:
64,192,24532,1,8,0:0:0:0:
192,192,24532,1,2,0:0:0:0:
320,192,24708,1,0,0:0:0:0:
448,192,24885,1,2,0:0:0:0:
64,192,25238,1,8,0:0:0:0:
192,192,25238,1,2,0:0:0:0:
448,192,25590,1,2,0:0:0:0:
64,192,25767,1,0,0:0:0:0:
192,192,25943,1,2,0:0:0:0:
320,192,25943,1,8,0:0:0:0:
448,192,26120,1,0,0:0:0:0:
192,192,26296,1,2,0:0:0:0:
320,192,26649,1,2,0:0:0:0:
448,192,26649,1,8,0:0:0:0:
192,192,27002,1,2,0:0:0:0:
64,192,27179,1,0,0:0:0:0:
320,192,27355,1,8,0:0:0:0:
448,192,27355,1,2,0:0:0:0:
64,192,27708,1,2,0:0:0:0:
192,192,27885,1,0,0:0:0:0:
320,192,28061,1,8,0:0:0:0:
448,192,28061,1,2,0:0:0:0:
192,192,28238,1,0,0:0:0:0:
448,192,28414,1,2,0:0:0:0:
64,192,28590,1,0,0:0:0:0:
192,192,28767,1,2,0:0:0:0:
320,192,28767,1,8,0:0:0:0:
448,192,29120,1,2,0:0:0:0:
320,192,29296,1,0,0:0:0:0:
64,192,29473,1,2,0:0:0:0:
192,192,29473,1,8,0:0:0:0:
448,192,29826,1,2,0:0:0:0:
192,192,30179,1,2,0:0:0:0:
320,192,30179,1,8,0:0:0:0:
448,192,30355,1,0,0:0:0:0:
64,192,30532,1,2,0:0:0:0:
192,192,30708,1,0,0:0:0:0:
320,192,30885,1,2,0:0:0:0:
448,192,30885,1,8,0:0:0:0:
192,192,31238,1,2,0:0:0:0:
320,192,31414,1,0,0:0:0:0:
64,192,31590,1,8,0:0:0:0:
192,192,31590,1,2,0:0:0:0:
448,192,31767,1,0,0:0:0:0:
320,192,31943,1,2,0:0:0:0:
192,192,32120,1,0,0:0:0:0:
320,192,32296,1,8,0:0:0:0:
448,192,32296,1,2,0:0:0:0:
192,192,32649,1,2,0:0:0:0:
320,192,32826,1,0,0:0:0:70:LR_Drum Rpd.wav
64,192,33002,1,2,0:0:0:0:
192,192,33002,1,8,0:0:0:0:
448,192,33179,1,0,0:0:0:70:LR_Drum Rpd.wav
192,192,33355,1,2,0:0:0:0:
64,192,33532,1,0,0:0:0:70:LR_Drum Rpd.wav
320,192,33708,1,2,0:0:0:0:
448,192,33708,1,8,0:0:0:0:
64,192,33885,1,0,0:0:0:70:LR_Drum Rpd.wav
192,192,34061,1,2,0:0:0:0:
448,192,34061,1,4,0:0:0:0:
320,192,34326,1,4,0:0:0:0:
448,192,34326,1,2,0:0:0:0:
64,192,34590,1,4,0:0:0:0:
192,192,34590,1,2,0:0:0:0:
320,192,34855,1,4,0:0:0:0:
448,192,34855,1,2,0:0:0:0:
64,192,35120,1,4,0:0:0:0:
192,192,35120,1,2,0:0:0:0:
320,192,35296,1,0,0:0:0:70:LR_Drum Rpd.wav
64,192,35473,128,2,38296:0:0:0:0:
448,192,35473,128,4,36885:0:0:0:0:
320,192,36885,128,0,37590:0:0:0:0:
448,192,37590,128,0,38296:0:0:0:0:
192,192,38296,128,0,40767:0:0:0:0:
192,192,41120,128,0,42532:0:0:0:0:
448,192,42532,128,0,43238:0:0:0:0:
320,192,43238,128,0,43590:0:0:0:0:
320,192,43943,128,0,45355:0:0:0:0:
192,192,45355,128,0,46767:0:0:0:0:
320,192,46767,1,2,0:0:0:0:
448,192,46767,128,4,48179:0:0:0:0:
192,192,48179,128,0,49590:0:0:0:0:
320,192,48885,128,0,49590:0:0:0:0:
448,192,49590,128,0,50296:0:0:0:0:
64,192,50296,128,0,51002:0:0:0:0:
320,192,51002,128,0,51708:0:0:0:0:
192,192,51708,128,0,52414:0:0:0:0:
448,192,52414,128,0,53826:0:0:0:0:
64,192,53826,128,0,55238:0:0:0:0:
320,192,54532,128,0,55238:0:0:0:0:
192,192,55238,128,0,56649:0:0:0:0:
192,192,57355,1,0,0:0:0:0:
64,192,58061,1,2,0:0:0:0:
448,192,58061,128,4,59473:0:0:0:0:
192,192,58414,1,0,0:0:0:40:35584__vexst__emn-snare-3.wav
192,192,59120,1,0,0:0:0:40:35584__vexst__emn-snare-3.wav
320,192,59473,128,0,60179:0:0:0:40:35607__vexst__snaeregh.wav
192,192,59826,1,0,0:0:0:40:35584__vexst__emn-snare-3.wav
448,192,60179,128,0,60885:0:0:0:40:35607__vexst__snaeregh.wav
192,192,60532,1,0,0:0:0:40:35584__vexst__emn-snare-3.wav
64,192,60885,128,0,62296:0:0:0:40:35607__vexst__snaeregh.wav
448,192,61238,1,0,0:0:0:40:35584__vexst__emn-snare-3.wav
192,192,61943,1,0,0:0:0:40:35584__vexst__emn-snare-3.wav
448,192,62296,128,0,63708:0:0:0:40:35607__vexst__snaeregh.wav
320,192,62649,1,0,0:0:0:40:35584__vexst__emn-snare-3.wav
64,192,63355,1,0,0:0:0:40:35584__vexst__emn-snare-3.wav
64,192,63708,1,2,0:0:0:0:
192,192,63708,128,4,65120:0:0:0:0:
320,192,64061,1,0,0:0:0:40:35584__vexst__emn-snare-3.wav
320,192,64767,1,0,0:0:0:40:35584__vexst__emn-snare-3.wav
64,192,65120,128,0,65826:0:0:0:40:35607__vexst__snaeregh.wav
320,192,65473,1,0,0:0:0:40:35584__vexst__emn-snare-3.wav
192,192,65826,128,0,66532:0:0:0:40:35607__vexst__snaeregh.wav
320,192,66179,1,0,0:0:0:40:35584__vexst__emn-snare-3.wav
448,192,66532,128,0,67943:0:0:0:40:35607__vexst__snaeregh.wav
64,192,66885,1,0,0:0:0:40:35584__vexst__emn-snare-3.wav
320,192,67590,1,0,0:0:0:40:35584__vexst__emn-snare-3.wav
64,192,67943,128,0,69355:0:0:0:40:35607__vexst__snaeregh.wav
192,192,68296,1,0,0:0:0:40:35584__vexst__emn-snare-3.wav
448,192,69002,1,0,0:0:0:40:35584__vexst__emn-snare-3.wav
320,192,69355,128,2,69708:0:0:0:0:
448,192,69355,1,4,0:0:0:0:
192,192,69708,128,0,70061:0:0:0:70:VEC3 Snares 042.wav
320,192,70061,128,0,70414:0:0:0:70:VEC3 Snares 042.wav
192,192,70414,128,0,70767:0:0:0:70:VEC3 Snares 042.wav
448,192,70767,128,0,71120:0:0:0:70:VEC3 Snares 042.wav
192,192,71120,128,0,71473:0:0:0:70:VEC3 Snares 042.wav
448,192,71473,128,0,71826:0:0:0:70:VEC3 Snares 042.wav
320,192,71826,1,0,0:0:0:70:VEC3 Snares 042.wav
192,192,72002,1,0,0:0:0:70:VEC3 Snares 042.wav
64,192,72179,128,0,72532:0:0:0:70:VEC3 Snares 042.wav
448,192,72532,128,0,72885:0:0:0:70:VEC3 Snares 042.wav
64,192,72885,128,0,73238:0:0:0:70:VEC3 Snares 042.wav
448,192,73238,128,0,73590:0:0:0:70:VEC3 Snares 042.wav
320,192,73590,128,0,73943:0:0:0:70:VEC3 Snares 042.wav
64,192,73943,128,0,74296:0:0:0:70:VEC3 Snares 042.wav
320,192,74296,128,0,74649:0:0:0:70:VEC3 Snares 042.wav
64,192,74649,1,0,0:0:0:70:VEC3 Snares 042.wav
192,192,74826,1,0,0:0:0:70:VEC3 Snares 042.wav
320,192,75002,1,2,0:0:0:0:
448,192,75002,128,4,75355:0:0:0:0:
192,192,75355,128,0,75708:0:0:0:70:VEC3 Snares 042.wav
320,192,75708,1,0,0:0:0:70:VEC3 Snares 042.wav
448,192,75885,1,0,0:0:0:70:LR_Drum Rpd.wav
64,192,76061,1,0,0:0:0:70:VEC3 Snares 042.wav
192,192,76238,1,0,0:0:0:70:LR_Drum Rpd.wav
320,192,76414,1,2,0:0:0:0:
448,192,76414,128,4,76767:0:0:0:0:
64,192,76767,128,0,77120:0:0:0:70:VEC3 Snares 042.wav
448,192,77120,1,0,0:0:0:70:VEC3 Snares 042.wav
320,192,77296,1,0,0:0:0:70:LR_Drum Rpd.wav
192,192,77473,1,0,0:0:0:70:VEC3 Snares 042.wav
64,192,77649,1,0,0:0:0:70:LR_Drum Rpd.wav
320,192,77826,1,2,0:0:0:0:
448,192,77826,1,4,0:0:0:0:
192,192,78002,1,0,0:0:0:70:LR_Drum Rpd.wav
320,192,78179,1,0,0:0:0:70:VEC3 Snares 042.wav
448,192,78355,1,0,0:0:0:70:LR_Drum Rpd.wav
64,192,78532,1,2,0:0:0:0:
192,192,78532,1,4,0:0:0:0:
448,192,78708,1,0,0:0:0:70:LR_Drum Rpd.wav
320,192,78885,1,0,0:0:0:70:VEC3 Snares 042.wav
192,192,79061,1,0,0:0:0:70:LR_Drum Rpd.wav
320,192,79238,1,2,0:0:0:0:
448,192,79238,1,4,0:0:0:0:
192,192,79414,1,0,0:0:0:70:LR_Drum Rpd.wav
448,192,79590,1,0,0:0:0:70:VEC3 Snares 042.wav
64,192,79767,1,0,0:0:0:70:LR_Drum Rpd.wav
64,192,80649,1,2,0:0:0:0:
320,192,80649,1,4,0:0:0:0:
448,192,80826,1,0,0:0:0:0:
64,192,81002,1,8,0:0:0:0:
192,192,81002,1,2,0:0:0:0:
320,192,81090,1,0,0:0:0:0:
192,192,81355,128,2,81620:0:0:0:0:
448,192,81355,1,0,0:0:0:0:
320,192,81620,128,0,81885:0:0:0:0:
64,192,81885,1,0,0:0:0:0:
192,192,82061,1,2,0:0:0:0:
448,192,82061,1,0,0:0:0:0:
64,192,82238,1,0,0:0:0:0:
320,192,82414,1,2,0:0:0:0:
448,192,82414,1,8,0:0:0:0:
192,192,82502,1,0,0:0:0:0:
64,192,82767,1,2,0:0:0:0:
320,192,82767,128,0,83032:0:0:0:0:
192,192,83032,128,0,83296:0:0:0:0:
448,192,83296,1,0,0:0:0:0:
64,192,83473,1,2,0:0:0:0:
192,192,83473,1,0,0:0:0:0:
320,192,83649,128,0,83914:0:0:0:0:
64,192,83914,128,0,84179:0:0:0:0:
320,192,84179,1,2,0:0:0:0:
448,192,84179,128,0,84443:0:0:0:0:
64,192,84443,1,0,0:0:0:0:
192,192,84620,128,0,84885:0:0:0:0:
320,192,84885,1,2,0:0:0:0:
448,192,84885,128,0,85149:0:0:0:0:
64,192,85149,1,0,0:0:0:0:
320,192,85326,1,0,0:0:0:0:
192,192,85414,1,0,0:0:0:0:
64,192,85590,1,2,0:0:0:0:
320,192,85679,1,0,0:0:0:0:
192,192,85855,1,0,0:0:0:0:
448,192,85943,1,10,0:0:0:0:
64,192,86296,1,2,0:0:0:0:
448,192,86296,1,0,0:0:0:0:
320,192,86473,1,0,0:0:0:0:
64,192,86649,1,2,0:0:0:0:
192,192,86649,1,8,0:0:0:0:
320,192,86738,1,0,0:0:0:0:
192,192,87002,128,2,87267:0:0:0:0:
448,192,87002,1,0,0:0:0:0:
320,192,87267,128,0,87532:0:0:0:0:
192,192,87532,1,0,0:0:0:0:
64,192,87708,1,2,0:0:0:0:
448,192,87708,1,0,0:0:0:0:
192,192,87885,1,0,0:0:0:0:
320,192,88061,1,8,0:0:0:0:
448,192,88061,1,2,0:0:0:0:
192,192,88149,1,0,0:0:0:0:
64,192,88414,1,2,0:0:0:0:
320,192,88414,128,0,88679:0:0:0:0:
192,192,88679,128,0,88943:0:0:0:0:
320,192,88943,1,0,0:0:0:0:
64,192,89120,1,2,0:0:0:0:
448,192,89120,1,0,0:0:0:0:
192,192,89296,128,0,89561:0:0:0:0:
448,192,89561,128,0,89826:0:0:0:0:
64,192,89826,128,2,90090:0:0:0:0:
192,192,89826,1,0,0:0:0:0:
448,192,90090,1,0,0:0:0:0:
192,192,90267,1,0,0:0:0:0:
320,192,90355,1,0,0:0:0:0:
64,192,90532,128,2,90796:0:0:0:0:
192,192,90532,1,0,0:0:0:0:
448,192,90796,1,0,0:0:0:0:
192,192,90973,1,0,0:0:0:0:
320,192,91061,1,0,0:0:0:0:
64,192,91238,1,2,0:0:0:0:
192,192,91238,128,0,91590:0:0:0:0:
448,192,91590,1,0,0:0:0:0:
192,192,91943,1,2,0:0:0:0:
320,192,91943,1,4,0:0:0:0:
448,192,92120,1,0,0:0:0:0:
64,192,92296,1,8,0:0:0:0:
192,192,92296,1,2,0:0:0:0:
320,192,92385,1,0,0:0:0:0:
64,192,92649,128,2,92914:0:0:0:0:
192,192,92914,128,0,93179:0:0:0:0:
448,192,93179,1,0,0:0:0:0:
192,192,93355,1,2,0:0:0:0:
320,192,93355,1,0,0:0:0:0:
64,192,93532,1,0,0:0:0:0:
320,192,93708,1,2,0:0:0:0:
448,192,93708,1,8,0:0:0:0:
192,192,93796,1,0,0:0:0:0:
448,192,94061,128,2,94326:0:0:0:0:
192,192,94326,128,0,94590:0:0:0:0:
320,192,94590,1,0,0:0:0:0:
64,192,94767,1,2,0:0:0:0:
192,192,94767,1,0,0:0:0:0:
448,192,94943,1,0,0:0:0:0:
64,192,95120,1,8,0:0:0:0:
192,192,95120,1,2,0:0:0:0:
448,192,95208,1,0,0:0:0:0:
192,192,95473,128,2,95738:0:0:0:0:
320,192,95473,1,0,0:0:0:0:
448,192,95738,1,0,0:0:0:0:
64,192,95914,128,0,96179:0:0:0:0:
320,192,96179,1,2,0:0:0:0:
448,192,96179,128,0,96443:0:0:0:0:
64,192,96443,1,0,0:0:0:0:
192,192,96620,1,0,0:0:0:0:
320,192,96708,1,0,0:0:0:0:
448,192,96885,1,2,0:0:0:0:
192,192,96973,1,0,0:0:0:0:
320,192,97149,1,0,0:0:0:0:
64,192,97238,1,10,0:0:0:0:
192,192,97590,1,2,0:0:0:0:
448,192,97590,1,0,0:0:0:0:
64,192,97767,1,0,0:0:0:0:
320,192,97943,1,2,0:0:0:0:
448,192,97943,1,8,0:0:0:0:
192,192,98032,1,0,0:0:0:0:
320,192,98296,128,2,98561:0:0:0:0:
64,192,98561,128,0,98826:0:0:0:0:
448,192,98826,1,0,0:0:0:0:
64,192,99002,1,2,0:0:0:0:
320,192,99002,1,0,0:0:0:0:
448,192,99179,1,0,0:0:0:0:
64,192,99355,1,8,0:0:0:0:
192,192,99355,1,2,0:0:0:0:
320,192,99443,1,0,0:0:0:0:
192,192,99708,128,2,99973:0:0:0:0:
448,192,99973,128,0,100238:0:0:0:0:
64,192,100238,1,0,0:0:0:0:
192,192,100414,1,2,0:0:0:0:
320,192,100414,1,0,0:0:0:0:
448,192,100590,1,0,0:0:0:70:LR_Drum Rpd.wav
64,192,100767,1,2,0:0:0:0:
192,192,100767,1,8,0:0:0:0:
320,192,100855,1,0,0:0:0:0:
64,192,101120,128,2,101385:0:0:0:0:
192,192,101120,1,0,0:0:0:0:
448,192,101385,1,0,0:0:0:0:
192,192,101561,1,0,0:0:0:70:LR_Drum Rpd.wav
320,192,101649,1,0,0:0:0:70:LR_Drum Rpd.wav
64,192,101826,1,2,0:0:0:0:
192,192,101826,1,4,0:0:0:0:
64,192,102090,1,4,0:0:0:0:
192,192,102090,1,2,0:0:0:0:
320,192,102355,1,4,0:0:0:0:
448,192,102355,1,2,0:0:0:0:
64,192,102620,1,4,0:0:0:0:
192,192,102620,1,2,0:0:0:0:
320,192,102885,1,4,0:0:0:0:
448,192,102885,1,2,0:0:0:0:
192,192,103061,1,0,0:0:0:70:LR_Drum Rpd.wav
64,192,103238,1,2,0:0:0:0:
320,192,103238,1,4,0:0:0:0:
448,192,103414,1,0,0:0:0:0:
64,192,103590,1,8,0:0:0:0:
192,192,103590,1,2,0:0:0:0:
320,192,103767,1,0,0:0:0:0:
192,192,103943,1,2,0:0:0:0:
448,192,103943,1,0,0:0:0:0:
64,192,104120,1,0,0:0:0:0:
320,192,104296,1,8,0:0:0:0:
448,192,104296,1,2,0:0:0:0:
64,192,104649,1,2,0:0:0:0:
320,192,104649,1,0,0:0:0:0:
448,192,104826,1,0,0:0:0:0:
64,192,105002,1,2,0:0:0:0:
192,192,105002,1,8,0:0:0:0:
320,192,105179,1,0,0:0:0:0:
192,192,105355,1,2,0:0:0:0:
448,192,105355,1,0,0:0:0:0:
320,192,105532,1,0,0:0:0:0:
64,192,105708,1,2,0:0:0:0:
192,192,105708,1,8,0:0:0:0:
64,192,106061,1,2,0:0:0:0:
320,192,106061,1,0,0:0:0:0:
192,192,106238,1,0,0:0:0:0:
320,192,106414,1,8,0:0:0:0:
448,192,106414,1,2,0:0:0:0:
64,192,106590,1,0,0:0:0:0:
192,192,106767,1,2,0:0:0:0:
448,192,106767,1,0,0:0:0:0:
64,192,106943,1,0,0:0:0:0:
320,192,107120,1,8,0:0:0:0:
448,192,107120,1,2,0:0:0:0:
64,192,107296,1,0,0:0:0:0:
192,192,107473,1,2,0:0:0:0:
448,192,107473,1,0,0:0:0:0:
320,192,107649,1,0,0:0:0:0:
64,192,107826,1,2,0:0:0:0:
192,192,107826,1,8,0:0:0:0:
320,192,108002,1,0,0:0:0:0:
192,192,108179,1,2,0:0:0:0:
448,192,108179,1,0,0:0:0:0:
320,192,108355,1,0,0:0:0:0:
64,192,108532,1,2,0:0:0:0:
192,192,108532,1,8,0:0:0:0:
320,192,108885,1,2,0:0:0:0:
448,192,108885,1,0,0:0:0:0:
64,192,109061,1,0,0:0:0:0:
192,192,109238,1,2,0:0:0:0:
448,192,109238,1,8,0:0:0:0:
320,192,109414,1,0,0:0:0:0:
64,192,109590,1,2,0:0:0:0:
192,192,109590,1,0,0:0:0:0:
448,192,109767,1,0,0:0:0:0:
64,192,109943,1,2,0:0:0:0:
320,192,109943,1,8,0:0:0:0:
192,192,110296,1,2,0:0:0:0:
320,192,110296,1,0,0:0:0:0:
64,192,110473,1,0,0:0:0:0:
192,192,110649,1,8,0:0:0:0:
448,192,110649,1,2,0:0:0:0:
64,192,110826,1,0,0:0:0:0:
320,192,111002,1,2,0:0:0:0:
448,192,111002,1,0,0:0:0:0:
64,192,111179,1,0,0:0:0:0:
192,192,111355,1,8,0:0:0:0:
448,192,111355,1,2,0:0:0:0:
320,192,111708,1,2,0:0:0:0:
448,192,111708,1,0,0:0:0:0:
192,192,111885,1,0,0:0:0:0:
64,192,112061,1,2,0:0:0:0:
320,192,112061,1,8,0:0:0:0:
448,192,112238,1,0,0:0:0:0:
64,192,112414,1,2,0:0:0:0:
192,192,112414,1,0,0:0:0:0:
448,192,112590,1,0,0:0:0:0:
64,192,112767,1,2,0:0:0:0:
320,192,112767,1,8,0:0:0:0:
448,192,112943,1,0,0:0:0:0:
192,192,113120,1,2,0:0:0:0:
320,192,113120,1,0,0:0:0:0:
64,192,113296,1,0,0:0:0:0:
192,192,113473,1,2,0:0:0:0:
448,192,113473,1,8,0:0:0:0:
64,192,113649,1,0,0:0:0:0:
192,192,113826,1,2,0:0:0:0:
320,192,113826,1,0,0:0:0:0:
192,192,114355,1,0,0:0:0:0:
320,192,114532,1,2,0:0:0:0:
448,192,114532,1,4,0:0:0:0:
64,192,114708,1,0,0:0:0:0:
192,192,114885,1,8,0:0:0:0:
320,192,114885,1,2,0:0:0:0:
64,192,115061,1,0,0:0:0:0:
320,192,115238,1,2,0:0:0:0:
448,192,115238,1,0,0:0:0:0:
192,192,115414,1,0,0:0:0:0:
64,192,115590,1,8,0:0:0:0:
448,192,115590,1,2,0:0:0:0:
320,192,115943,1,2,0:0:0:0:
448,192,115943,1,0,0:0:0:0:
64,192,116120,1,0,0:0:0:0:
192,192,116296,1,2,0:0:0:0:
320,192,116296,1,8,0:0:0:0:
64,192,116473,1,0,0:0:0:0:
320,192,116649,1,2,0:0:0:0:
448,192,116649,1,0,0:0:0:0:
192,192,116826,1,0,0:0:0:0:
64,192,117002,1,2,0:0:0:0:
448,192,117002,1,8,0:0:0:0:
64,192,117179,1,0,0:0:0:70:LR_Drum Rpd.wav
192,192,117355,1,2,0:0:0:0:
320,192,117355,1,0,0:0:0:0:
448,192,117532,1,0,0:0:0:0:
64,192,117708,1,8,0:0:0:0:
192,192,117708,1,2,0:0:0:0:
448,192,117885,1,0,0:0:0:0:
192,192,118061,1,2,0:0:0:0:
320,192,118061,1,0,0:0:0:0:
64,192,118238,1,0,0:0:0:0:
192,192,118414,1,8,0:0:0:0:
448,192,118414,1,2,0:0:0:0:
192,192,118767,1,2,0:0:0:0:
320,192,118767,1,0,0:0:0:0:
64,192,118943,1,0,0:0:0:0:
320,192,119120,1,2,0:0:0:0:
448,192,119120,1,8,0:0:0:0:
64,192,119296,1,0,0:0:0:0:
192,192,119473,1,2,0:0:0:0:
320,192,119473,1,0,0:0:0:0:
64,192,119649,1,0,0:0:0:0:
192,192,119826,1,2,0:0:0:0:
448,192,119826,1,8,0:0:0:0:
448,192,120002,1,0,0:0:0:70:LR_Drum Rpd.wav
64,192,120179,1,2,0:0:0:0:
192,192,120179,1,4,0:0:0:0:
320,192,120532,1,8,0:0:0:0:
192,192,120708,1,0,0:0:0:70:LR_Drum Rpd.wav
64,192,120885,1,0,0:0:0:0:
448,192,121061,1,0,0:0:0:70:LR_Drum Rpd.wav
320,192,121238,1,8,0:0:0:0:
192,192,121414,1,0,0:0:0:70:LR_Drum Rpd.wav
320,192,121590,1,0,0:0:0:0:
64,192,121767,1,0,0:0:0:70:LR_Drum Rpd.wav
320,192,121943,1,8,0:0:0:0:
448,192,122120,1,0,0:0:0:70:LR_Drum Rpd.wav
64,192,122296,1,0,0:0:0:0:
192,192,122473,1,0,0:0:0:70:LR_Drum Rpd.wav
320,192,122649,1,8,0:0:0:0:
192,192,122826,1,0,0:0:0:70:LR_Drum Rpd.wav
320,192,123002,1,2,0:0:0:0:
448,192,123002,1,0,0:0:0:0:
192,192,123179,1,2,0:0:0:0:
64,192,123355,1,2,0:0:0:0:
320,192,123355,1,8,0:0:0:0:
448,192,123532,1,2,0:0:0:0:
64,192,123708,1,2,0:0:0:0:
192,192,123708,1,0,0:0:0:0:
320,192,123885,1,2,0:0:0:0:
64,192,124061,1,8,0:0:0:0:
448,192,124061,1,2,0:0:0:0:
192,192,124238,1,2,0:0:0:0:
320,192,124414,1,4,0:0:0:0:
448,192,124414,128,2,125120:0:0:0:0:
192,192,125120,128,0,125826:0:0:0:70:VEC3 Snares 024.wav
64,192,125826,1,2,0:0:0:0:
448,192,125826,1,4,0:0:0:0:
320,192,126179,1,8,0:0:0:0:
448,192,126179,1,2,0:0:0:0:
192,192,126355,1,0,0:0:0:0:
64,192,126532,1,2,0:0:0:0:
320,192,126885,1,8,0:0:0:0:
448,192,126885,1,2,0:0:0:0:
192,192,127238,1,2,0:0:0:0:
320,192,127414,1,0,0:0:0:0:
64,192,127590,1,2,0:0:0:0:
448,192,127590,1,8,0:0:0:0:
320,192,127767,1,0,0:0:0:0:
192,192,127943,1,2,0:0:0:0:
320,192,128296,1,2,0:0:0:0:
448,192,128296,1,8,0:0:0:0:
64,192,128561,1,0,0:0:0:0:
192,192,128826,1,0,0:0:0:70:LR_Drum Rpd.wav
192,192,129002,1,10,0:0:0:0:
448,192,129002,1,4,0:0:0:0:
64,192,129355,1,2,0:0:0:0:
192,192,129532,1,0,0:0:0:0:
320,192,129708,1,8,0:0:0:0:
448,192,129708,1,2,0:0:0:0:
320,192,130061,1,2,0:0:0:0:
192,192,130238,1,0,0:0:0:0:
64,192,130414,1,2,0:0:0:0:
448,192,130414,1,8,0:0:0:0:
192,192,130590,1,0,0:0:0:0:
320,192,130767,1,2,0:0:0:0:
64,192,131120,1,2,0:0:0:0:
192,192,131120,1,8,0:0:0:0:
64,192,131473,1,2,0:0:0:0:
448,192,131473,1,4,0:0:0:0:
192,192,131649,1,0,0:0:0:0:
320,192,131826,1,8,0:0:0:0:
448,192,131826,1,0,0:0:0:0:
64,192,132002,1,0,0:0:0:0:
320,192,132179,1,0,0:0:0:70:LR_Drum Rpd.wav
192,192,132355,1,0,0:0:0:0:
320,192,132532,1,8,0:0:0:0:
448,192,132532,1,0,0:0:0:0:
64,192,132708,1,2,0:0:0:0:
192,192,132708,1,0,0:0:0:0:
64,192,132885,1,2,0:0:0:0:
448,192,132885,1,4,0:0:0:0:
320,192,133061,1,0,0:0:0:0:
64,192,133238,1,8,0:0:0:0:
192,192,133238,1,0,0:0:0:0:
448,192,133414,1,0,0:0:0:0:
192,192,133590,1,2,0:0:0:0:
320,192,133590,1,4,0:0:0:0:
192,192,133855,1,4,0:0:0:0:
320,192,133855,1,2,0:0:0:0:
192,192,134120,1,4,0:0:0:0:
320,192,134120,1,2,0:0:0:0:
64,192,134296,1,2,0:0:0:0:
448,192,134296,1,4,0:0:0:0:
192,192,134561,1,4,0:0:0:0:
320,192,134561,1,2,0:0:0:0:
64,192,134826,1,4,0:0:0:0:
448,192,134826,1,2,0:0:0:0:
64,192,135090,1,4,0:0:0:0:
448,192,135090,1,2,0:0:0:0:
192,192,135355,1,4,0:0:0:0:
320,192,135355,1,8,0:0:0:0:
64,192,135532,1,4,0:0:0:0:
320,192,135708,1,2,0:0:0:0:
448,192,135708,128,4,137120:0:0:0:0:
192,192,136414,128,0,137120:0:0:0:70:LR_Drum Rpd.wav
