osu file format v14

[General]
AudioFilename: audio.mp3
AudioLeadIn: 0
PreviewTime: 80032
Countdown: 0
SampleSet: Soft
StackLeniency: 0.7
Mode: 3
LetterboxInBreaks: 0
SpecialStyle: 0
WidescreenStoryboard: 0

[Editor]
Bookmarks: 11473,24179,35473,46767,58061,69355,125826
DistanceSpacing: 2.8
BeatDivisor: 4
GridSize: 16
TimelineZoom: 1.1

[Metadata]
Title:Fallen
TitleUnicode:Fallen
Artist:Zekk
ArtistUnicode:Zekk
Creator:Faputa
Version:Easy
Source:EZ2AC : NIGHT TRAVELER
Tags:FAMoss KeppSado Shima Rin Tofu1222 Scotty osu! featured artist FA Mappers' Guild MG MPG Electronic Video Rhythm Game Instrumental
BeatmapID:2540599
BeatmapSetID:1166091

[Difficulty]
HPDrainRate:6.5
CircleSize:4
OverallDifficulty:6.5
ApproachRate:5
SliderMultiplier:1.4
SliderTickRate:1

[Events]
//Background and Video events
0,0,"CAi1sKN.jpeg",0,0
//Break Periods
//Storyboard Layer 0 (Background)
//Storyboard Layer 1 (Fail)
//Storyboard Layer 2 (Pass)
//Storyboard Layer 3 (Foreground)
//Storyboard Layer 4 (Overlay)
//Storyboard Sound Samples

[TimingPoints]
1591,352.941176470588,4,2,1,60,1,0
35649,-100,4,2,1,40,0,0
46767,-100,4,2,1,50,0,0
58061,-100,4,2,1,60,0,0
80649,-100,4,2,1,60,0,1
103238,-100,4,2,1,60,0,0

[HitObjects]
64,192,1591,5,2,0:0:0:0:
192,192,1591,1,4,0:0:0:0:
448,192,1943,1,10,0:0:0:0:
192,192,2296,1,2,0:0:0:0:
448,192,2649,1,10,0:0:0:0:
320,192,3002,1,2,0:0:0:0:
64,192,3355,1,10,0:0:0:0:
448,192,3708,1,2,0:0:0:0:
64,192,4061,1,10,0:0:0:0:
192,192,4414,1,2,0:0:0:0:
320,192,4767,1,10,0:0:0:0:
192,192,5120,1,2,0:0:0:0:
320,192,5473,1,10,0:0:0:0:
448,192,5826,1,2,0:0:0:0:
192,192,6179,1,10,0:0:0:0:
320,192,6532,1,2,0:0:0:0:
192,192,6885,128,10,7238:0:0:0:0:
448,192,7238,1,2,0:0:0:0:
64,192,7590,1,10,0:0:0:0:
448,192,7943,1,2,0:0:0:0:
64,192,8296,1,10,0:0:0:0:
192,192,8649,1,2,0:0:0:0:
320,192,9002,1,10,0:0:0:0:
192,192,9355,1,2,0:0:0:0:
320,192,9708,1,10,0:0:0:0:
64,192,10061,1,2,0:0:0:0:
448,192,10414,1,10,0:0:0:0:
192,192,10767,1,2,0:0:0:0:
320,192,11120,1,10,0:0:0:0:
64,192,11473,128,2,12532:0:0:0:0:
192,192,12532,1,0,0:0:0:70:VEC3 Snares 024.wav
320,192,12885,1,2,0:0:0:0:
448,192,12885,128,4,13238:0:0:0:0:
192,192,13238,128,10,13590:0:0:0:0:
448,192,13590,128,2,13943:0:0:0:0:
192,192,13943,1,10,0:0:0:0:
320,192,14296,128,2,14649:0:0:0:0:
64,192,14649,128,10,15002:0:0:0:0:
448,192,15002,128,2,15355:0:0:0:0:
192,192,15355,1,10,0:0:0:0:
64,192,15708,128,2,16061:0:0:0:0:
320,192,16061,128,10,16414:0:0:0:0:
64,192,16414,128,2,16767:0:0:0:0:
320,192,16767,128,10,17120:0:0:0:0:
64,192,17120,1,2,0:0:0:0:
320,192,17473,1,10,0:0:0:0:
64,192,17826,1,2,0:0:0:0:
320,192,18179,1,10,0:0:0:0:
320,192,18532,128,2,18885:0:0:0:0:
192,192,18885,128,10,19238:0:0:0:0:
320,192,19238,128,2,19590:0:0:0:0:
192,192,19590,1,10,0:0:0:0:
64,192,19943,128,2,20296:0:0:0:0:
320,192,20296,128,10,20649:0:0:0:0:
64,192,20649,128,2,21002:0:0:0:0:
320,192,21002,1,10,0:0:0:0:
448,192,21355,128,2,21708:0:0:0:0:
64,192,21708,128,10,22061:0:0:0:0:
448,192,22061,128,2,22414:0:0:0:0:
64,192,22414,128,10,22767:0:0:0:0:
448,192,22767,1,2,0:0:0:0:
64,192,23120,1,10,0:0:0:0:
448,192,23473,1,2,0:0:0:0:
64,192,24179,1,2,0:0:0:0:
192,192,24179,1,4,0:0:0:0:
448,192,24532,1,10,0:0:0:0:
192,192,24885,1,2,0:0:0:0:
320,192,25061,1,0,0:0:0:0:
448,192,25238,1,10,0:0:0:0:
64,192,25590,1,2,0:0:0:0:
448,192,25943,1,10,0:0:0:0:
320,192,26120,1,0,0:0:0:0:
192,192,26296,1,2,0:0:0:0:
448,192,26649,1,10,0:0:0:0:
320,192,27002,1,2,0:0:0:0:
192,192,27179,1,0,0:0:0:0:
64,192,27355,1,10,0:0:0:0:
448,192,27708,1,2,0:0:0:0:
64,192,28061,1,10,0:0:0:0:
192,192,28414,1,2,0:0:0:0:
320,192,28590,1,0,0:0:0:0:
448,192,28767,1,10,0:0:0:0:
320,192,29120,1,2,0:0:0:0:
192,192,29296,1,0,0:0:0:0:
64,192,29473,1,10,0:0:0:0:
448,192,29826,1,2,0:0:0:0:
192,192,30179,1,10,0:0:0:0:
320,192,30355,1,0,0:0:0:0:
64,192,30532,1,2,0:0:0:0:
448,192,30885,1,10,0:0:0:0:
64,192,31238,1,2,0:0:0:0:
320,192,31414,1,0,0:0:0:0:
192,192,31590,1,10,0:0:0:0:
448,192,31943,1,2,0:0:0:0:
192,192,32296,1,10,0:0:0:0:
320,192,32649,1,2,0:0:0:0:
64,192,32826,1,0,0:0:0:70:LR_Drum Rpd.wav
192,192,33002,1,10,0:0:0:0:
320,192,33355,1,2,0:0:0:0:
448,192,33532,1,0,0:0:0:70:LR_Drum Rpd.wav
192,192,33708,1,10,0:0:0:0:
320,192,33885,1,0,0:0:0:70:LR_Drum Rpd.wav
64,192,34061,1,2,0:0:0:0:
192,192,34061,1,4,0:0:0:0:
448,192,34326,1,6,0:0:0:0:
64,192,34590,1,6,0:0:0:0:
448,192,34855,1,6,0:0:0:0:
64,192,35120,1,6,0:0:0:0:
192,192,35473,1,2,0:0:0:0:
320,192,35473,128,4,38296:0:0:0:0:
320,192,41120,1,0,0:0:0:0:
448,192,42532,1,0,0:0:0:0:
192,192,43238,1,0,0:0:0:0:
192,192,43943,1,0,0:0:0:0:
320,192,45355,1,0,0:0:0:0:
320,192,46767,1,2,0:0:0:0:
448,192,46767,1,4,0:0:0:0:
64,192,48179,1,0,0:0:0:0:
192,192,48885,1,0,0:0:0:0:
448,192,49590,1,0,0:0:0:0:
320,192,50296,1,0,0:0:0:0:
192,192,51002,1,0,0:0:0:0:
64,192,51708,1,0,0:0:0:0:
448,192,52414,128,0,53826:0:0:0:0:
192,192,53826,128,0,54532:0:0:0:0:
320,192,54532,1,0,0:0:0:0:
64,192,55238,1,0,0:0:0:0:
320,192,56649,1,0,0:0:0:0:
448,192,57355,1,0,0:0:0:0:
64,192,58061,1,2,0:0:0:0:
192,192,58061,1,4,0:0:0:0:
448,192,58414,1,0,0:0:0:40:35584__vexst__emn-snare-3.wav
448,192,59120,1,0,0:0:0:40:35584__vexst__emn-snare-3.wav
192,192,59473,1,0,0:0:0:40:35607__vexst__snaeregh.wav
320,192,59826,1,0,0:0:0:40:35584__vexst__emn-snare-3.wav
320,192,60532,1,0,0:0:0:40:35584__vexst__emn-snare-3.wav
448,192,60885,1,0,0:0:0:40:35607__vexst__snaeregh.wav
64,192,61238,1,0,0:0:0:40:35584__vexst__emn-snare-3.wav
64,192,61943,1,0,0:0:0:40:35584__vexst__emn-snare-3.wav
448,192,62296,1,0,0:0:0:40:35607__vexst__snaeregh.wav
192,192,62649,1,0,0:0:0:40:35584__vexst__emn-snare-3.wav
192,192,63355,1,0,0:0:0:40:35584__vexst__emn-snare-3.wav
320,192,63708,1,2,0:0:0:0:
448,192,63708,1,4,0:0:0:0:
64,192,64061,1,0,0:0:0:40:35584__vexst__emn-snare-3.wav
64,192,64767,1,0,0:0:0:40:35584__vexst__emn-snare-3.wav
192,192,65120,1,0,0:0:0:40:35607__vexst__snaeregh.wav
320,192,65473,1,0,0:0:0:40:35584__vexst__emn-snare-3.wav
320,192,66179,1,0,0:0:0:40:35584__vexst__emn-snare-3.wav
448,192,66532,1,0,0:0:0:40:35607__vexst__snaeregh.wav
192,192,66885,1,0,0:0:0:40:35584__vexst__emn-snare-3.wav
192,192,67590,1,0,0:0:0:40:35584__vexst__emn-snare-3.wav
64,192,67943,1,0,0:0:0:40:35607__vexst__snaeregh.wav
448,192,68296,1,0,0:0:0:40:35584__vexst__emn-snare-3.wav
448,192,69002,1,0,0:0:0:40:35584__vexst__emn-snare-3.wav
192,192,69355,1,2,0:0:0:0:
320,192,69355,1,4,0:0:0:0:
320,192,69708,1,0,0:0:0:70:VEC3 Snares 042.wav
320,192,70061,1,0,0:0:0:70:VEC3 Snares 042.wav
320,192,70414,1,0,0:0:0:70:VEC3 Snares 042.wav
64,192,70767,1,0,0:0:0:70:VEC3 Snares 042.wav
64,192,71120,1,0,0:0:0:70:VEC3 Snares 042.wav
64,192,71473,1,0,0:0:0:70:VEC3 Snares 042.wav
64,192,71826,1,0,0:0:0:70:VEC3 Snares 042.wav
320,192,72002,1,0,0:0:0:70:VEC3 Snares 042.wav
192,192,72179,1,0,0:0:0:70:VEC3 Snares 042.wav
192,192,72532,1,0,0:0:0:70:VEC3 Snares 042.wav
192,192,72885,1,0,0:0:0:70:VEC3 Snares 042.wav
192,192,73238,1,0,0:0:0:70:VEC3 Snares 042.wav
320,192,73590,1,0,0:0:0:70:VEC3 Snares 042.wav
320,192,73943,1,0,0:0:0:70:VEC3 Snares 042.wav
320,192,74296,1,0,0:0:0:70:VEC3 Snares 042.wav
320,192,74649,1,0,0:0:0:70:VEC3 Snares 042.wav
192,192,74826,1,0,0:0:0:70:VEC3 Snares 042.wav
64,192,75002,1,2,0:0:0:0:
448,192,75002,1,4,0:0:0:0:
64,192,75355,1,0,0:0:0:70:VEC3 Snares 042.wav
64,192,75708,1,0,0:0:0:70:VEC3 Snares 042.wav
64,192,76061,1,0,0:0:0:70:VEC3 Snares 042.wav
192,192,76414,1,2,0:0:0:0:
320,192,76414,1,4,0:0:0:0:
320,192,76767,1,0,0:0:0:70:VEC3 Snares 042.wav
320,192,77120,1,0,0:0:0:70:VEC3 Snares 042.wav
320,192,77473,1,0,0:0:0:70:VEC3 Snares 042.wav
64,192,77826,1,2,0:0:0:0:
192,192,77826,1,4,0:0:0:0:
64,192,78179,1,0,0:0:0:70:VEC3 Snares 042.wav
192,192,78355,1,0,0:0:0:70:LR_Drum Rpd.wav
320,192,78532,1,2,0:0:0:0:
448,192,78532,1,4,0:0:0:0:
448,192,78885,1,0,0:0:0:70:VEC3 Snares 042.wav
320,192,79061,1,0,0:0:0:70:LR_Drum Rpd.wav
64,192,79238,1,2,0:0:0:0:
192,192,79238,1,4,0:0:0:0:
64,192,79590,1,0,0:0:0:70:VEC3 Snares 042.wav
320,192,79767,1,0,0:0:0:70:LR_Drum Rpd.wav
64,192,80649,1,2,0:0:0:0:
192,192,80649,1,4,0:0:0:0:
448,192,80826,1,0,0:0:0:0:
320,192,81090,1,0,0:0:0:0:
320,192,81355,1,2,0:0:0:0:
192,192,81620,1,0,0:0:0:0:
320,192,81885,1,0,0:0:0:0:
64,192,82238,1,0,0:0:0:0:
320,192,82502,1,0,0:0:0:0:
192,192,82767,1,2,0:0:0:0:
320,192,83032,1,0,0:0:0:0:
448,192,83296,1,0,0:0:0:0:
64,192,83649,1,0,0:0:0:0:
192,192,83914,1,0,0:0:0:0:
320,192,84179,1,2,0:0:0:0:
192,192,84443,1,0,0:0:0:0:
192,192,84885,1,2,0:0:0:0:
320,192,85149,1,0,0:0:0:0:
448,192,85590,1,2,0:0:0:0:
320,192,85767,1,0,0:0:0:0:
192,192,85943,1,10,0:0:0:0:
448,192,86296,1,2,0:0:0:0:
64,192,86473,1,0,0:0:0:0:
192,192,86738,1,0,0:0:0:0:
192,192,87002,1,2,0:0:0:0:
320,192,87267,1,0,0:0:0:0:
192,192,87532,1,0,0:0:0:0:
448,192,87885,1,0,0:0:0:0:
192,192,88149,1,0,0:0:0:0:
320,192,88414,1,2,0:0:0:0:
192,192,88679,1,0,0:0:0:0:
64,192,88943,1,0,0:0:0:0:
448,192,89296,1,0,0:0:0:0:
320,192,89561,1,0,0:0:0:0:
192,192,89826,1,2,0:0:0:0:
448,192,90090,1,0,0:0:0:0:
320,192,90532,1,2,0:0:0:0:
192,192,90796,1,0,0:0:0:0:
64,192,91238,1,2,0:0:0:0:
192,192,91414,1,0,0:0:0:0:
320,192,91590,1,0,0:0:0:0:
64,192,91943,1,2,0:0:0:0:
192,192,91943,1,4,0:0:0:0:
448,192,92120,1,0,0:0:0:0:
320,192,92385,1,0,0:0:0:0:
192,192,92649,1,2,0:0:0:0:
64,192,92914,1,0,0:0:0:0:
192,192,93179,1,0,0:0:0:0:
448,192,93532,1,0,0:0:0:0:
320,192,93796,1,0,0:0:0:0:
192,192,94061,1,2,0:0:0:0:
64,192,94326,1,0,0:0:0:0:
320,192,94590,1,0,0:0:0:0:
448,192,94943,1,0,0:0:0:0:
448,192,95208,1,0,0:0:0:0:
192,192,95473,1,2,0:0:0:0:
320,192,95738,1,0,0:0:0:0:
64,192,96179,1,2,0:0:0:0:
448,192,96443,1,0,0:0:0:0:
192,192,96885,1,2,0:0:0:0:
320,192,97061,1,0,0:0:0:0:
448,192,97238,1,10,0:0:0:0:
64,192,97767,1,0,0:0:0:0:
192,192,98032,1,0,0:0:0:0:
320,192,98296,1,2,0:0:0:0:
448,192,98561,1,0,0:0:0:0:
320,192,98826,1,0,0:0:0:0:
64,192,99179,1,0,0:0:0:0:
192,192,99443,1,0,0:0:0:0:
320,192,99708,1,2,0:0:0:0:
448,192,99973,1,0,0:0:0:0:
192,192,100238,1,0,0:0:0:0:
448,192,100590,1,0,0:0:0:70:LR_Drum Rpd.wav
320,192,100855,1,0,0:0:0:0:
192,192,101120,1,2,0:0:0:0:
320,192,101385,1,0,0:0:0:0:
64,192,101826,1,6,0:0:0:0:
448,192,102090,1,6,0:0:0:0:
64,192,102355,1,6,0:0:0:0:
448,192,102620,1,6,0:0:0:0:
64,192,102885,1,6,0:0:0:0:
320,192,103238,1,2,0:0:0:0:
448,192,103238,128,4,103590:0:0:0:0:
64,192,103590,128,10,103943:0:0:0:0:
448,192,103943,128,2,104296:0:0:0:0:
64,192,104296,1,10,0:0:0:0:
320,192,104649,128,2,105002:0:0:0:0:
192,192,105002,128,10,105355:0:0:0:0:
448,192,105355,128,2,105708:0:0:0:0:
64,192,105708,1,10,0:0:0:0:
448,192,106061,128,2,106414:0:0:0:0:
320,192,106414,128,10,106767:0:0:0:0:
192,192,106767,128,2,107120:0:0:0:0:
64,192,107120,128,10,107473:0:0:0:0:
448,192,107473,1,2,0:0:0:0:
320,192,107826,1,10,0:0:0:0:
192,192,108179,1,2,0:0:0:0:
64,192,108532,1,10,0:0:0:0:
192,192,108885,128,2,109238:0:0:0:0:
448,192,109238,128,10,109590:0:0:0:0:
192,192,109590,128,2,109943:0:0:0:0:
448,192,109943,1,10,0:0:0:0:
64,192,110296,128,2,110649:0:0:0:0:
320,192,110649,128,10,111002:0:0:0:0:
192,192,111002,128,2,111355:0:0:0:0:
448,192,111355,1,10,0:0:0:0:
320,192,111708,128,2,112061:0:0:0:0:
192,192,112061,128,10,112414:0:0:0:0:
320,192,112414,128,2,112767:0:0:0:0:
192,192,112767,128,10,113120:0:0:0:0:
320,192,113120,1,2,0:0:0:0:
192,192,113473,1,10,0:0:0:0:
320,192,113826,1,2,0:0:0:0:
64,192,114532,128,2,114885:0:0:0:0:
192,192,114532,1,4,0:0:0:0:
448,192,114885,128,10,115238:0:0:0:0:
64,192,115238,128,2,115590:0:0:0:0:
448,192,115590,1,10,0:0:0:0:
192,192,115943,128,2,116296:0:0:0:0:
320,192,116296,128,10,116649:0:0:0:0:
64,192,116649,128,2,117002:0:0:0:0:
448,192,117002,1,10,0:0:0:0:
320,192,117179,1,0,0:0:0:70:LR_Drum Rpd.wav
192,192,117355,128,2,117708:0:0:0:0:
320,192,117708,128,10,118061:0:0:0:0:
448,192,118061,128,2,118414:0:0:0:0:
64,192,118414,1,10,0:0:0:0:
320,192,118767,128,2,119120:0:0:0:0:
192,192,119120,128,10,119473:0:0:0:0:
64,192,119473,128,2,119826:0:0:0:0:
448,192,119826,1,10,0:0:0:0:
320,192,120002,1,0,0:0:0:70:LR_Drum Rpd.wav
64,192,120179,1,2,0:0:0:0:
192,192,120179,1,4,0:0:0:0:
448,192,120532,1,8,0:0:0:0:
64,192,120885,1,0,0:0:0:0:
448,192,121238,1,8,0:0:0:0:
192,192,121590,1,0,0:0:0:0:
448,192,121943,1,8,0:0:0:0:
192,192,122296,1,0,0:0:0:0:
448,192,122649,1,8,0:0:0:0:
192,192,123002,1,2,0:0:0:0:
320,192,123179,1,2,0:0:0:0:
64,192,123355,1,10,0:0:0:0:
192,192,123532,1,2,0:0:0:0:
320,192,123708,1,2,0:0:0:0:
448,192,124061,1,10,0:0:0:0:
320,192,124238,1,2,0:0:0:0:
64,192,124414,1,4,0:0:0:0:
192,192,124414,1,2,0:0:0:0:
448,192,125120,128,0,125826:0:0:0:70:VEC3 Snares 024.wav
64,192,125826,1,2,0:0:0:0:
192,192,125826,1,4,0:0:0:0:
448,192,126179,1,10,0:0:0:0:
320,192,126532,1,2,0:0:0:0:
192,192,126708,1,0,0:0:0:0:
448,192,126885,1,10,0:0:0:0:
64,192,127238,1,2,0:0:0:0:
448,192,127590,1,10,0:0:0:0:
192,192,127767,1,0,0:0:0:0:
320,192,127943,1,2,0:0:0:0:
448,192,128296,1,10,0:0:0:0:
64,192,128826,1,0,0:0:0:70:LR_Drum Rpd.wav
192,192,129002,1,10,0:0:0:0:
320,192,129002,1,4,0:0:0:0:
448,192,129355,1,2,0:0:0:0:
64,192,129708,1,10,0:0:0:0:
320,192,130061,1,2,0:0:0:0:
192,192,130238,1,0,0:0:0:0:
448,192,130414,1,10,0:0:0:0:
192,192,130767,1,2,0:0:0:0:
320,192,130943,1,0,0:0:0:0:
64,192,131120,1,10,0:0:0:0:
320,192,131473,1,2,0:0:0:0:
448,192,131473,1,4,0:0:0:0:
64,192,131826,1,8,0:0:0:0:
192,192,132002,1,0,0:0:0:0:
320,192,132179,1,0,0:0:0:70:LR_Drum Rpd.wav
64,192,132532,1,8,0:0:0:0:
320,192,132708,1,2,0:0:0:0:
64,192,132885,1,2,0:0:0:0:
192,192,132885,1,4,0:0:0:0:
448,192,133238,1,8,0:0:0:0:
320,192,133414,1,0,0:0:0:0:
64,192,133590,1,6,0:0:0:0:
448,192,133855,1,6,0:0:0:0:
64,192,134120,1,6,0:0:0:0:
320,192,134296,1,6,0:0:0:0:
192,192,134561,1,6,0:0:0:0:
320,192,134826,1,6,0:0:0:0:
192,192,135090,1,6,0:0:0:0:
320,192,135355,1,12,0:0:0:0:
64,192,135708,128,2,137120:0:0:0:0:
192,192,135708,1,4,0:0:0:0:
