osu file format v14

[General]
AudioFilename: audio.mp3
AudioLeadIn: 0
PreviewTime: 80190
Countdown: 0
SampleSet: Soft
StackLeniency: 0.7
Mode: 2
LetterboxInBreaks: 0
WidescreenStoryboard: 0

[Editor]
Bookmarks: 5102,105337
DistanceSpacing: 1
BeatDivisor: 4
GridSize: 16
TimelineZoom: 2.4

[Metadata]
Title:Fallen
TitleUnicode:Fallen
Artist:Zekk
ArtistUnicode:Zekk
Creator:CLSW
Version:Salad
Source:EZ2AC : NIGHT TRAVELER
Tags:xetopia imai lisa minato yukina crystalseed featured artist fa electronic video rhythm game instrumental TRAVELLER J-core Jcore
BeatmapID:3662242
BeatmapSetID:1778741

[Difficulty]
HPDrainRate:4
CircleSize:3.2
OverallDifficulty:6.5
ApproachRate:6.5
SliderMultiplier:1.2
SliderTickRate:1

[Events]
//Background and Video events
0,0,"night-2117274_1920.jpg",0,0
//Break Periods
2,35655,44362
//Storyboard Layer 0 (Background)
//Storyboard Layer 1 (Fail)
//Storyboard Layer 2 (Pass)
//Storyboard Layer 3 (Foreground)
//Storyboard Layer 4 (Overlay)
//Storyboard Sound Samples

[TimingPoints]
1573,352.941176470588,4,2,1,70,1,0
1573,-83.3333333333333,4,2,1,70,0,0
12867,-83.3333333333333,4,2,1,80,0,0
24161,-83.3333333333333,4,2,1,80,0,0
46749,-83.3333333333333,4,2,1,70,0,0
69337,-83.3333333333333,4,2,1,75,0,0
74984,-83.3333333333333,4,2,1,80,0,0
77808,-83.3333333333333,4,2,1,85,0,0
80190,-83.3333333333333,4,2,1,60,0,0
80631,-83.3333333333333,4,2,1,90,0,1
91308,-83.3333333333333,4,2,1,70,0,0
91925,-83.3333333333333,4,2,1,90,0,1
103220,-83.3333333333333,4,2,1,90,0,0
113984,-83.3333333333333,4,2,1,60,0,0
114514,-83.3333333333333,4,2,1,90,0,1
120337,-83.3333333333333,4,2,1,70,0,1
122984,-83.3333333333333,4,2,1,60,0,0
123690,-83.3333333333333,4,2,1,70,0,0
124043,-83.3333333333333,4,2,1,80,0,0
124396,-83.3333333333333,4,2,1,90,0,0
125102,-83.3333333333333,4,2,1,80,0,0
125808,-83.3333333333333,4,2,1,90,0,0
128720,-83.3333333333333,4,2,1,60,0,0
128984,-83.3333333333333,4,2,1,90,0,0

[Colours]
Combo1 : 0,98,0
Combo2 : 252,131,237
Combo3 : 223,223,223
Combo4 : 247,198,117

[HitObjects]
254,109,1573,6,0,L|407:110,1,143.999995605469,4|8,1:0|0:0,0:0:0:0:
251,185,2278,2,0,L|98:186,1,143.999995605469,0|8,1:0|0:0,0:0:0:0:
181,143,2808,1,0,0:0:0:0:
254,100,2984,6,0,L|253:256,1,143.999995605469,0|8,1:0|0:0,0:0:0:0:
86,161,3690,2,0,L|85:317,1,143.999995605469,0|8,1:0|0:0,0:0:0:0:
163,296,4220,1,0,0:0:0:0:
239,209,4396,6,0,L|68:208,1,143.999995605469,0|8,1:0|0:0,0:0:0:0:
239,114,5102,2,0,L|396:114,1,143.999995605469,0|8,1:0|0:0,0:0:0:0:
313,140,5631,1,0,0:0:0:0:
241,146,5808,6,0,L|241:296,1,143.999995605469,0|8,1:0|0:0,0:0:0:0:
411,285,6514,1,0,1:0:0:0:
144,172,6867,2,0,L|54:172,2,71.9999978027345,8|8|0,0:0|0:0|1:0,0:0:0:0:
280,119,7572,5,8,0:0:0:0:
136,115,7925,2,0,L|135:194,2,71.9999978027345,0|0|8,1:0|0:0|0:0,0:0:0:0:
266,193,8631,5,0,1:0:0:0:
412,194,8984,1,8,0:0:0:0:
266,193,9337,2,0,L|265:272,2,71.9999978027345,0|0|8,1:0|0:0|0:0,0:0:0:0:
409,268,10043,6,0,L|247:264,1,143.999995605469,0|8,1:0|0:0,0:0:0:0:
409,268,10749,2,0,L|410:347,2,71.9999978027345,0|0|8,1:0|0:0|0:0,0:0:0:0:
123,325,11455,6,0,P|184:213|413:329,1,431.999986816407,0|0,1:0|0:0,0:0:0:0:
82,59,12867,6,0,L|79:213,1,143.999995605469,4|8,1:0|0:0,0:0:0:0:
220,242,13572,2,0,L|69:240,1,143.999995605469,0|8,1:0|0:0,0:0:0:0:
148,199,14102,1,0,0:0:0:0:
221,140,14278,6,0,L|373:143,1,143.999995605469,0|8,1:0|0:0,0:0:0:0:
221,93,14984,2,0,L|73:92,1,143.999995605469,0|8,1:0|0:0,0:0:0:0:
220,110,15690,6,0,L|219:271,1,143.999995605469,0|8,1:0|0:0,0:0:0:0:
365,278,16396,2,0,L|207:276,1,143.999995605469,0|8,1:0|0:0,0:0:0:0:
158,229,16925,1,0,0:0:0:0:
220,176,17102,6,0,L|391:177,1,143.999995605469,0|8,1:0|0:0,0:0:0:0:
221,110,17808,2,0,L|221:269,1,143.999995605469,0|8,1:0|0:0,0:0:0:0:
367,156,18514,6,0,L|214:154,1,143.999995605469,0|8,1:0|0:0,0:0:0:0:
293,115,19043,1,0,0:0:0:0:
367,82,19220,1,0,1:0:0:0:
225,72,19572,1,8,0:0:0:0:
368,125,19925,6,0,L|370:282,1,143.999995605469,0|8,1:0|0:0,0:0:0:0:
292,280,20455,1,0,0:0:0:0:
217,274,20631,1,0,1:0:0:0:
371,189,20984,1,8,0:0:0:0:
223,129,21337,6,0,L|69:127,1,143.999995605469,0|8,1:0|0:0,0:0:0:0:
223,70,22043,2,0,L|370:72,1,143.999995605469,0|8,1:0|0:0,0:0:0:0:
295,105,22572,1,0,0:0:0:0:
221,125,22749,5,0,1:0:0:0:
367,138,23102,1,8,0:0:0:0:
222,291,23455,2,0,P|134:258|189:165,1,215.999993408203,0|4,1:0|1:0,0:0:0:0:
351,166,24161,1,0,0:0:0:0:
441,164,24514,6,0,L|442:249,1,71.9999978027344,8|0,0:0|0:0,0:0:0:0:
350,236,24867,1,0,1:0:0:0:
154,160,25220,1,8,0:0:0:0:
294,163,25572,6,0,L|294:322,1,143.999995605469,0|10,1:0|0:0,0:0:0:0:
150,266,26278,1,0,1:0:0:0:
221,265,26454,1,0,0:0:0:0:
293,265,26630,1,8,0:0:0:0:
436,197,26984,6,0,L|263:194,1,143.999995605469,0|8,1:0|0:0,0:0:0:0:
221,191,27514,1,2,0:0:0:0:
293,143,27690,1,0,1:0:0:0:
434,109,28043,1,8,0:0:0:0:
295,85,28396,6,0,L|141:83,1,143.999995605469,0|10,1:0|0:0,0:0:0:0:
296,122,29102,1,0,1:0:0:0:
295,193,29278,1,0,0:0:0:0:
295,265,29454,1,8,0:0:0:0:
155,203,29808,5,0,1:0:0:0:
294,191,30161,2,0,L|381:191,2,71.9999978027344,8|0|0,0:0|0:0|1:0,0:0:0:0:
157,153,30867,1,8,0:0:0:0:
292,101,31220,6,0,L|438:102,1,143.999995605469,0|8,1:0|0:0,0:0:0:0:
293,151,31925,2,0,L|139:149,1,143.999995605469,0|8,1:0|0:0,0:0:0:0:
296,201,32631,6,0,L|294:355,1,143.999995605469,0|10,1:0|0:0,0:0:0:0:
218,350,33161,1,0,0:0:0:0:
142,348,33337,1,0,1:0:0:0:
294,211,33690,2,0,L|207:207,1,71.9999978027344,8|0,0:0|0:0,0:0:0:0:
42,108,34043,6,0,L|37:223,1,107.999996704102,4|0,1:0|0:0,0:0:0:0:
171,218,34572,2,0,L|176:334,1,107.999996704102
100,271,35102,5,0,0:0:0:0:
423,275,35455,1,4,1:0:0:0:
256,192,45337,12,0,46396,0:0:0:0:
328,87,46749,6,0,L|160:85,1,143.999995605469,4|2,1:0|0:0,0:0:0:0:
256,119,47278,1,0,0:0:0:0:
330,122,47455,1,0,0:0:0:0:
181,149,47808,1,0,0:0:0:0:
331,161,48161,6,0,L|335:317,1,143.999995605469,0|2,0:0|0:0,0:0:0:0:
260,310,48690,1,0,0:0:0:0:
183,309,48867,1,0,0:0:0:0:
328,202,49220,1,0,0:0:0:0:
185,150,49572,6,0,L|25:151,1,143.999995605469,0|2,0:0|0:0,0:0:0:0:
111,102,50102,1,0,0:0:0:0:
187,93,50278,2,0,L|347:94,1,143.999995605469,0|0,0:0|0:0,0:0:0:0:
261,45,50808,1,0,0:0:0:0:
187,93,50984,6,0,L|347:94,1,143.999995605469,0|2,0:0|0:0,0:0:0:0:
261,45,51514,1,0,0:0:0:0:
185,150,51690,2,0,L|25:151,1,143.999995605469,0|0,0:0|0:0,0:0:0:0:
111,102,52220,1,0,0:0:0:0:
186,56,52396,5,0,0:0:0:0:
43,49,52749,2,0,L|42:202,1,143.999995605469,2|0,0:0|0:0,0:0:0:0:
118,193,53278,1,0,0:0:0:0:
196,192,53455,1,0,0:0:0:0:
42,192,53808,5,0,0:0:0:0:
196,192,54161,2,0,L|339:193,1,143.999995605469,2|0,0:0|0:0,0:0:0:0:
270,154,54690,1,0,0:0:0:0:
198,126,54867,1,0,0:0:0:0:
341,94,55220,5,0,0:0:0:0:
199,81,55572,1,2,0:0:0:0:
341,94,55925,2,0,L|416:94,2,71.9999978027344,0|0|0,0:0|0:0|0:0,0:0:0:0:
198,141,56631,5,0,0:0:0:0:
340,128,56983,1,2,0:0:0:0:
198,141,57336,2,0,L|123:141,2,71.9999978027344,0|0|0,0:0|0:0|0:0,0:0:0:0:
477,139,58043,6,0,L|479:234,2,71.9999978027344,4|2|0,1:0|0:0|0:0,0:0:0:0:
333,138,58749,2,0,L|480:139,1,143.999995605469,0|0,0:0|0:0,0:0:0:0:
332,203,59455,6,0,L|239:203,2,71.9999978027344,0|2|0,0:0|0:0|0:0,0:0:0:0:
476,206,60161,2,0,L|476:356,1,143.999995605469,0|0,0:0|0:0,0:0:0:0:
330,281,60867,5,0,0:0:0:0:
403,269,61043,1,2,0:0:0:0:
475,252,61220,1,0,0:0:0:0:
331,183,61572,2,0,L|179:181,1,143.999995605469,0|0,0:0|0:0,0:0:0:0:
332,98,62278,5,0,0:0:0:0:
261,95,62455,1,2,0:0:0:0:
191,92,62631,1,0,0:0:0:0:
47,89,62984,2,0,L|198:92,1,143.999995605469,0|0,0:0|0:0,0:0:0:0:
478,97,63690,6,0,L|480:263,1,143.999995605469,4|0,1:0|0:0,0:0:0:0:
331,232,64396,1,0,0:0:0:0:
259,232,64572,1,2,0:0:0:0:
187,232,64748,1,0,0:0:0:0:
34,97,65102,6,0,L|32:263,1,143.999995605469,0|0,0:0|0:0,0:0:0:0:
181,232,65808,1,0,0:0:0:0:
253,232,65984,1,2,0:0:0:0:
325,232,66160,1,0,0:0:0:0:
187,97,66514,6,0,L|33:96,1,143.999995605469,0|0,0:0|0:0,0:0:0:0:
187,152,67220,2,0,L|355:153,1,143.999995605469,0|0,0:0|0:0,0:0:0:0:
187,152,67925,5,0,0:0:0:0:
258,152,68101,1,2,0:0:0:0:
330,152,68277,1,0,0:0:0:0:
474,209,68631,1,0,0:0:0:0:
402,210,68807,1,2,0:0:0:0:
331,210,68983,1,0,0:0:0:0:
35,83,69337,6,0,L|36:246,1,143.999995605469,4|8,1:0|0:0,0:0:0:0:
113,224,69867,1,0,0:0:0:0:
189,222,70043,2,0,L|188:59,1,143.999995605469,8|8,0:0|0:0,0:0:0:0:
111,81,70573,1,0,0:0:0:0:
35,83,70749,6,0,L|36:246,1,143.999995605469,8|8,0:0|0:0,0:0:0:0:
113,224,71279,1,0,0:0:0:0:
179,143,71455,2,0,L|27:144,1,143.999995605469,8|8,0:0|0:0,0:0:0:0:
334,70,72161,6,0,L|487:71,1,143.999995605469,8|8,0:0|0:0,0:0:0:0:
407,108,72690,1,0,0:0:0:0:
332,115,72867,2,0,L|179:116,1,143.999995605469,8|8,0:0|0:0,0:0:0:0:
259,153,73396,1,0,0:0:0:0:
334,70,73572,6,0,L|487:71,1,143.999995605469,8|8,0:0|0:0,0:0:0:0:
407,108,74101,1,0,0:0:0:0:
332,115,74278,2,0,L|179:116,1,143.999995605469,8|8,0:0|0:0,0:0:0:0:
471,150,74984,6,0,L|472:236,2,71.9999978027344,4|0|0,1:0|0:0|0:0,0:0:0:0:
328,211,75690,2,0,L|488:215,1,143.999995605469,0|0,0:0|0:0,0:0:0:0:
186,213,76396,6,0,L|185:299,2,71.9999978027344,4|0|0,1:0|0:0|0:0,0:0:0:0:
329,274,77102,2,0,L|169:278,1,143.999995605469,0|0,0:0|0:0,0:0:0:0:
474,209,77808,6,0,L|474:289,1,71.9999978027344,4|0,1:0|0:0,0:0:0:0:
402,284,78161,1,0,0:0:0:0:
255,273,78514,2,0,L|255:353,1,71.9999978027344,4|0,1:0|0:0,0:0:0:0:
327,348,78867,1,0,0:0:0:0:
46,338,79220,6,0,P|42:264|174:193,1,215.999993408203,4|0,1:0|0:0,0:0:0:0:
446,115,80631,5,4,1:0:0:0:
374,115,80807,1,2,0:0:0:0:
302,115,80983,1,8,0:0:0:0:
157,88,81337,2,0,L|287:89,2,107.999996704102,0|2|2,1:0|0:0|0:0,0:0:0:0:
231,141,82043,6,0,L|140:143,1,71.9999978027344,0|2,1:0|0:0,0:0:0:0:
89,144,82396,1,8,0:0:0:0:
247,241,82749,2,0,L|133:241,2,107.999996704102,0|2|2,1:0|0:0|0:0,0:0:0:0:
319,241,83455,5,0,1:0:0:0:
247,241,83631,1,2,0:0:0:0:
174,241,83808,1,8,0:0:0:0:
318,242,84161,2,0,L|443:241,2,107.999996704102,0|2|2,1:0|0:0|0:0,0:0:0:0:
245,242,84867,6,0,L|120:241,2,107.999996704102,0|2|2,1:0|0:0|0:0,0:0:0:0:
316,242,85572,1,0,1:0:0:0:
172,247,85925,2,0,L|171:331,1,71.9999978027344,10|2,0:0|0:0,0:0:0:0:
343,321,86278,6,0,L|437:322,2,71.9999978027344,0|2|8,1:0|0:0|0:0,0:0:0:0:
198,319,86984,2,0,L|317:320,2,107.999996704102,0|2|2,1:0|0:0|0:0,0:0:0:0:
125,319,87690,6,0,L|126:230,1,71.9999978027344,0|2,1:0|0:0,0:0:0:0:
198,247,88043,1,8,0:0:0:0:
342,244,88396,2,0,L|201:243,2,107.999996704102,0|2|2,1:0|0:0|0:0,0:0:0:0:
269,245,89102,5,0,1:0:0:0:
197,244,89278,1,2,0:0:0:0:
269,245,89455,1,8,0:0:0:0:
413,242,89808,2,0,L|414:374,1,107.999996704102,0|2,1:0|0:0,0:0:0:0:
305,353,90337,1,2,0:0:0:0:
232,352,90514,6,0,L|100:349,2,107.999996704102,0|2|2,1:0|0:0|0:0,0:0:0:0:
159,352,91220,2,0,L|159:196,1,143.999995605469,0|2,1:0|0:0,0:0:0:0:
220,207,91749,1,2,0:0:0:0:
51,198,91925,6,0,L|51:287,1,71.9999978027344,4|2,1:0|0:0,0:0:0:0:
123,271,92278,1,8,0:0:0:0:
267,271,92631,2,0,L|401:272,2,107.999996704102,0|2|2,1:0|0:0|0:0,0:0:0:0:
339,271,93337,6,0,L|339:182,1,71.9999978027344,0|2,1:0|0:0,0:0:0:0:
267,198,93690,1,8,0:0:0:0:
123,198,94043,2,0,L|-11:197,2,107.999996704102,0|2|2,1:0|0:0|0:0,0:0:0:0:
50,196,94749,6,0,L|51:120,1,71.9999978027344,0|2,1:0|0:0,0:0:0:0:
123,125,95102,1,8,0:0:0:0:
267,125,95455,2,0,L|267:251,1,107.999996704102,0|2,1:0|0:0,0:0:0:0:
158,229,95984,1,2,0:0:0:0:
230,232,96161,6,0,L|358:232,2,107.999996704102,0|2|2,1:0|0:0|0:0,0:0:0:0:
157,233,96867,2,0,L|323:231,1,143.999995605469,0|10,1:0|0:0,0:0:0:0:
362,231,97396,1,2,0:0:0:0:
207,177,97572,6,0,L|109:176,2,71.9999978027344,0|2|8,1:0|0:0|0:0,0:0:0:0:
351,177,98278,1,0,1:0:0:0:
242,174,98543,2,0,L|240:299,1,107.999996704102,2|2,0:0|0:0,0:0:0:0:
312,278,98984,6,0,L|408:279,2,71.9999978027344,0|2|8,1:0|0:0|0:0,0:0:0:0:
167,273,99690,1,0,1:0:0:0:
276,276,99955,2,0,L|278:151,1,107.999996704102,2|2,0:0|0:0,0:0:0:0:
205,165,100396,5,0,1:0:0:0:
276,168,100572,1,2,0:0:0:0:
348,171,100749,1,8,0:0:0:0:
204,166,101102,2,0,L|76:164,2,107.999996704102,0|2|2,1:0|0:0|0:0,0:0:0:0:
376,152,101808,6,0,P|401:195|392:262,1,107.999996704102,4|0,1:0|1:0,0:0:0:0:
288,251,102337,2,0,P|263:294|272:361,1,107.999996704102,0|0,1:0|1:0,0:0:0:0:
375,348,102867,6,0,L|274:347,1,71.9999978027344,8|8,0:0|0:0,0:0:0:0:
138,338,103220,6,0,L|49:340,2,71.9999978027344,4|0|8,1:0|0:0|0:0,0:0:0:0:
282,339,103925,2,0,L|135:338,1,143.999995605469,0|8,1:0|0:0,0:0:0:0:
282,338,104631,6,0,L|371:340,2,71.9999978027344,0|0|8,1:0|0:0|0:0,0:0:0:0:
138,339,105336,2,0,L|285:338,1,143.999995605469,0|8,1:0|0:0,0:0:0:0:
137,341,106043,6,0,L|138:258,1,71.9999978027344,0|0,1:0|0:0,0:0:0:0:
210,271,106396,1,8,0:0:0:0:
354,272,106749,2,0,L|195:270,1,143.999995605469,0|8,1:0|0:0,0:0:0:0:
354,270,107455,6,0,L|353:187,1,71.9999978027344,0|0,1:0|0:0,0:0:0:0:
281,200,107808,1,8,0:0:0:0:
137,201,108161,2,0,L|296:199,1,143.999995605469,0|8,1:0|0:0,0:0:0:0:
425,202,108867,5,0,1:0:0:0:
353,202,109043,1,0,0:0:0:0:
280,200,109220,1,8,0:0:0:0:
423,201,109572,2,0,L|256:199,1,143.999995605469,0|8,1:0|0:0,0:0:0:0:
135,202,110278,5,0,1:0:0:0:
207,202,110454,1,0,0:0:0:0:
280,200,110631,1,8,0:0:0:0:
137,201,110983,2,0,L|304:199,1,143.999995605469,0|8,1:0|0:0,0:0:0:0:
136,202,111690,5,0,1:0:0:0:
208,201,111867,2,0,L|207:118,1,71.9999978027344,0|8,0:0|0:0,0:0:0:0:
63,129,112396,2,0,L|225:129,1,143.999995605469,0|8,1:0|0:0,0:0:0:0:
351,130,113102,5,0,1:0:0:0:
279,129,113279,2,0,L|280:46,1,71.9999978027344,0|8,0:0|0:0,0:0:0:0:
423,57,113808,2,0,P|465:104|404:240,1,215.999993408203,0|0,1:0|0:0,0:0:0:0:
240,252,114514,6,0,L|146:251,2,71.9999978027344,4|2|8,1:0|0:0|0:0,0:0:0:0:
380,317,115220,2,0,L|487:318,2,107.999996704102,0|2|2,1:0|0:0|0:0,0:0:0:0:
308,317,115925,6,0,L|402:316,2,71.9999978027344,0|2|8,1:0|0:0|0:0,0:0:0:0:
168,259,116631,2,0,L|287:257,2,107.999996704102,0|2|2,1:0|0:0|0:0,0:0:0:0:
95,261,117337,6,0,L|8:261,2,71.9999978027344,0|2|8,1:0|0:0|0:0,0:0:0:0:
239,265,118043,2,0,L|375:265,2,107.999996704102,0|2|2,1:0|0:0|0:0,0:0:0:0:
167,269,118749,6,0,L|28:269,2,107.999996704102,0|2|2,1:0|0:0|0:0,0:0:0:0:
239,270,119455,2,0,L|239:367,1,71.9999978027344,0|0,1:0|0:0,0:0:0:0:
166,342,119808,2,0,L|167:265,1,71.9999978027344,8|2,0:0|0:0,0:0:0:0:
338,212,120161,6,0,L|419:212,1,71.9999978027344,4|0,1:0|0:0,0:0:0:0:
338,289,120514,2,0,L|169:291,2,143.999995605469
194,259,121572,6,0,L|113:259,1,71.9999978027344
197,200,121925,2,0,L|366:202,2,143.999995605469
256,192,122984,12,4,124396,1:0:0:0:
240,76,125102,6,0,P|130:96|99:121,1,143.999995605469
175,224,125631,1,0,0:0:0:0:
341,193,125808,6,0,L|496:193,1,143.999995605469,4|8,1:0|0:0,0:0:0:0:
412,193,126337,1,0,0:0:0:0:
339,195,126514,2,0,L|490:194,1,143.999995605469,0|8,1:0|0:0,0:0:0:0:
338,194,127220,6,0,L|183:194,1,143.999995605469,0|10,1:0|0:0,0:0:0:0:
267,194,127749,1,0,0:0:0:0:
340,196,127926,2,0,L|446:197,2,71.9999978027344,0|0|8,1:0|0:0|0:0,0:0:0:0:
196,200,128631,6,0,L|30:199,1,143.999995605469,0|4,0:0|1:0,0:0:0:0:
124,201,129161,1,2,0:0:0:0:
195,200,129337,1,0,0:0:0:0:
50,199,129690,1,10,0:0:0:0:
193,202,130043,6,0,L|191:359,1,143.999995605469,0|10,1:0|0:0,0:0:0:0:
118,346,130572,1,2,0:0:0:0:
190,344,130749,1,0,1:0:0:0:
261,344,130925,1,0,0:0:0:0:
333,345,131102,1,8,0:0:0:0:
40,337,131455,6,0,L|43:183,1,143.999995605469,4|8,1:0|0:0,0:0:0:0:
114,195,131984,1,0,0:0:0:0:
186,197,132161,2,0,L|189:42,1,143.999995605469,0|8,0:0|0:0,0:0:0:0:
472,337,132867,6,0,L|469:183,1,143.999995605469,4|8,1:0|0:0,0:0:0:0:
398,195,133396,1,0,0:0:0:0:
326,197,133573,2,0,L|323:42,1,143.999995605469,0|0,1:0|0:0,0:0:0:0:
38,70,134278,6,0,L|33:195,1,107.999996704102,4|4,1:0|1:0,0:0:0:0:
142,178,134808,2,0,L|22:178,1,107.999996704102,4|4,1:0|1:0,0:0:0:0:
142,180,135337,6,0,L|246:179,1,71.9999978027344,4|4,1:0|1:0,0:0:0:0:
387,177,135690,6,0,L|389:322,1,143.999995605469
244,320,136396,1,0,0:0:0:0:
314,320,136572,1,0,0:0:0:0:
320,284,136661,1,0,0:0:0:0:
248,284,136837,1,0,0:0:0:0:
241,248,136925,1,0,0:0:0:0:
