osu file format v14

[General]
AudioFilename: audio.mp3
AudioLeadIn: 0
PreviewTime: 79937
Countdown: 0
SampleSet: Soft
StackLeniency: 0.7
Mode: 3
LetterboxInBreaks: 0
SpecialStyle: 0
WidescreenStoryboard: 1

[Editor]
Bookmarks: 12879,24173,35467,46761,69349,80643,103232,125820
DistanceSpacing: 2.8
BeatDivisor: 4
GridSize: 16
TimelineZoom: 2.4

[Metadata]
Title:Fallen
TitleUnicode:Fallen
Artist:Zekk
ArtistUnicode:Zekk
Creator:-NoName-
Version:Cascade
Source:EZ2AC : NIGHT TRAVELER
Tags:mappers' guild mg featured artist fa nt j-core electronic instrumental osu! video game jcore
BeatmapID:3415635
BeatmapSetID:1672239

[Difficulty]
HPDrainRate:8.3
CircleSize:6
OverallDifficulty:8.3
ApproachRate:5
SliderMultiplier:1.4
SliderTickRate:1

[Events]
//Background and Video events
0,0,"bg.jpg",0,0
//Break Periods
//Storyboard Layer 0 (Background)
//Storyboard Layer 1 (Fail)
//Storyboard Layer 2 (Pass)
//Storyboard Layer 3 (Foreground)
//Storyboard Layer 4 (Overlay)
//Storyboard Sound Samples

[TimingPoints]
1585,352.941176470588,4,2,1,70,1,0
35643,-100,4,2,1,35,0,0
46761,-100,4,2,1,50,0,0
58055,-100,4,2,1,70,0,0
103232,-100,4,2,1,70,0,1
125820,-100,4,2,1,70,0,0

[HitObjects]
42,192,1585,5,0,0:0:0:0:
213,192,1585,1,0,0:0:0:0:
469,192,1585,1,0,0:0:0:0:
298,192,1585,1,0,0:0:0:0:
298,192,1761,1,0,0:0:0:0:
128,192,1849,1,0,0:0:0:0:
213,192,1937,1,0,0:0:0:0:
469,192,1937,1,0,0:0:0:0:
384,192,1937,1,0,0:0:0:0:
298,192,2114,1,0,0:0:0:0:
42,192,2202,1,0,0:0:0:0:
298,192,2290,1,0,0:0:0:0:
384,192,2290,1,0,0:0:0:0:
42,192,2379,1,0,0:0:0:0:
298,192,2467,1,0,0:0:0:0:
128,192,2555,1,0,0:0:0:0:
213,192,2643,1,0,0:0:0:0:
384,192,2643,1,0,0:0:0:0:
469,192,2643,1,0,0:0:0:0:
298,192,2820,1,0,0:0:0:0:
42,192,2908,1,0,0:0:0:0:
213,192,2996,1,0,0:0:0:0:
469,192,2996,1,0,0:0:0:0:
213,192,3173,1,0,0:0:0:0:
384,192,3261,1,0,0:0:0:0:
128,192,3349,1,0,0:0:0:0:
42,192,3349,1,0,0:0:0:0:
298,192,3349,1,0,0:0:0:0:
213,192,3526,1,0,0:0:0:0:
469,192,3614,1,0,0:0:0:0:
213,192,3702,1,0,0:0:0:0:
128,192,3702,1,0,0:0:0:0:
469,192,3790,1,0,0:0:0:0:
213,192,3879,1,0,0:0:0:0:
384,192,3967,1,0,0:0:0:0:
128,192,4055,1,0,0:0:0:0:
42,192,4055,1,0,0:0:0:0:
298,192,4055,1,0,0:0:0:0:
213,192,4232,1,0,0:0:0:0:
469,192,4320,1,0,0:0:0:0:
384,192,4408,1,0,0:0:0:0:
128,192,4408,1,0,0:0:0:0:
384,192,4584,1,0,0:0:0:0:
42,192,4673,1,0,0:0:0:0:
128,192,4761,1,0,0:0:0:0:
469,192,4761,1,0,0:0:0:0:
298,192,4761,1,0,0:0:0:0:
384,192,4937,1,0,0:0:0:0:
42,192,5026,1,0,0:0:0:0:
384,192,5114,1,0,0:0:0:0:
298,192,5114,1,0,0:0:0:0:
42,192,5202,1,0,0:0:0:0:
384,192,5290,1,0,0:0:0:0:
213,192,5379,1,0,0:0:0:0:
128,192,5467,1,0,0:0:0:0:
298,192,5467,1,0,0:0:0:0:
469,192,5467,1,0,0:0:0:0:
42,192,5643,1,0,0:0:0:0:
213,192,5732,1,0,0:0:0:0:
128,192,5820,1,0,0:0:0:0:
384,192,5820,1,0,0:0:0:0:
128,192,5996,1,0,0:0:0:0:
469,192,6084,1,0,0:0:0:0:
384,192,6173,1,0,0:0:0:0:
42,192,6173,1,0,0:0:0:0:
213,192,6173,1,0,0:0:0:0:
128,192,6349,1,0,0:0:0:0:
469,192,6437,1,0,0:0:0:0:
128,192,6526,1,0,0:0:0:0:
213,192,6526,1,0,0:0:0:0:
469,192,6614,1,0,0:0:0:0:
128,192,6702,1,0,0:0:0:0:
298,192,6790,1,0,0:0:0:0:
469,192,6879,1,0,0:0:0:0:
384,192,6879,1,0,0:0:0:0:
213,192,6879,1,0,0:0:0:0:
42,192,6967,1,0,0:0:0:0:
128,192,6967,1,0,0:0:0:0:
384,192,7055,1,0,0:0:0:0:
469,192,7055,1,0,0:0:0:0:
42,192,7143,1,0,0:0:0:0:
128,192,7143,1,0,0:0:0:0:
298,192,7232,1,0,0:0:0:0:
213,192,7232,1,0,0:0:0:0:
469,192,7232,1,0,0:0:0:0:
384,192,7320,1,0,0:0:0:0:
128,192,7408,1,0,0:0:0:0:
213,192,7496,1,0,0:0:0:0:
42,192,7584,1,0,0:0:0:0:
298,192,7584,1,0,0:0:0:0:
469,192,7584,1,0,0:0:0:0:
128,192,7673,1,0,0:0:0:0:
384,192,7761,1,0,0:0:0:0:
298,192,7849,1,0,0:0:0:0:
213,192,7937,1,0,0:0:0:0:
469,192,7937,1,0,0:0:0:0:
128,192,7937,1,0,0:0:0:0:
384,192,8026,1,0,0:0:0:0:
298,192,8114,1,0,0:0:0:0:
42,192,8114,1,0,0:0:0:0:
128,192,8202,1,0,0:0:0:0:
213,192,8290,1,0,0:0:0:0:
469,192,8290,1,0,0:0:0:0:
384,192,8290,1,0,0:0:0:0:
298,192,8379,1,0,0:0:0:0:
42,192,8467,1,0,0:0:0:0:
128,192,8555,1,0,0:0:0:0:
469,192,8643,1,0,0:0:0:0:
384,192,8643,1,0,0:0:0:0:
298,192,8643,1,0,0:0:0:0:
213,192,8732,1,0,0:0:0:0:
469,192,8820,1,0,0:0:0:0:
128,192,8820,1,0,0:0:0:0:
384,192,8908,1,0,0:0:0:0:
298,192,8996,1,0,0:0:0:0:
42,192,8996,1,0,0:0:0:0:
213,192,8996,1,0,0:0:0:0:
128,192,9084,1,0,0:0:0:0:
384,192,9173,1,0,0:0:0:0:
469,192,9173,1,0,0:0:0:0:
298,192,9261,1,0,0:0:0:0:
469,192,9349,1,0,0:0:0:0:
213,192,9349,1,0,0:0:0:0:
42,192,9349,1,0,0:0:0:0:
298,192,9437,1,0,0:0:0:0:
384,192,9526,1,0,0:0:0:0:
128,192,9526,1,0,0:0:0:0:
42,192,9614,1,0,0:0:0:0:
213,192,9702,1,0,0:0:0:0:
469,192,9702,1,0,0:0:0:0:
298,192,9702,1,0,0:0:0:0:
128,192,9790,1,0,0:0:0:0:
384,192,9879,1,0,0:0:0:0:
42,192,9879,1,0,0:0:0:0:
213,192,9967,1,0,0:0:0:0:
469,192,10055,1,0,0:0:0:0:
384,192,10055,1,0,0:0:0:0:
298,192,10143,1,0,0:0:0:0:
128,192,10143,1,0,0:0:0:0:
213,192,10232,1,0,0:0:0:0:
42,192,10232,1,0,0:0:0:0:
298,192,10320,1,0,0:0:0:0:
384,192,10320,1,0,0:0:0:0:
469,192,10408,1,0,0:0:0:0:
42,192,10408,1,0,0:0:0:0:
128,192,10408,1,0,0:0:0:0:
213,192,10496,1,0,0:0:0:0:
384,192,10496,1,0,0:0:0:0:
469,192,10584,1,0,0:0:0:0:
298,192,10584,1,0,0:0:0:0:
213,192,10673,1,0,0:0:0:0:
128,192,10673,1,0,0:0:0:0:
42,192,10761,1,0,0:0:0:0:
384,192,10761,1,0,0:0:0:0:
298,192,10761,1,0,0:0:0:0:
469,192,10849,1,0,0:0:0:0:
128,192,10849,1,0,0:0:0:0:
213,192,10937,1,0,0:0:0:0:
384,192,10937,1,0,0:0:0:0:
298,192,11026,1,0,0:0:0:0:
42,192,11026,1,0,0:0:0:0:
128,192,11114,1,0,0:0:0:0:
213,192,11114,1,0,0:0:0:0:
469,192,11114,1,0,0:0:0:0:
42,192,11202,1,0,0:0:0:0:
384,192,11202,1,0,0:0:0:0:
128,192,11290,1,0,0:0:0:0:
298,192,11290,1,0,0:0:0:0:
213,192,11379,1,0,0:0:0:0:
469,192,11379,1,0,0:0:0:0:
384,192,11467,1,0,0:0:0:0:
42,192,11467,1,0,0:0:0:0:
298,192,11643,1,0,0:0:0:0:
384,192,11908,1,0,0:0:0:0:
213,192,11996,1,0,0:0:0:0:
213,192,12084,1,0,0:0:0:0:
42,192,12173,1,0,0:0:0:0:
469,192,12173,1,0,0:0:0:0:
298,192,12349,1,0,0:0:0:0:
298,192,12437,1,0,0:0:0:0:
42,192,12526,1,0,0:0:0:0:
469,192,12526,1,0,0:0:0:0:
384,192,12702,1,0,0:0:0:0:
128,192,12702,1,0,0:0:0:0:
42,192,12879,1,0,0:0:0:0:
469,192,12879,1,0,0:0:0:0:
298,192,12879,1,0,0:0:0:0:
213,192,12879,1,0,0:0:0:0:
384,192,12967,1,0,0:0:0:0:
128,192,13055,128,0,13232:0:0:0:0:
213,192,13055,1,0,0:0:0:0:
298,192,13143,1,0,0:0:0:0:
469,192,13232,1,0,0:0:0:0:
42,192,13232,1,0,0:0:0:0:
384,192,13232,1,0,0:0:0:0:
213,192,13320,1,0,0:0:0:0:
128,192,13408,128,0,13584:0:0:0:0:
384,192,13408,1,0,0:0:0:0:
298,192,13496,1,0,0:0:0:0:
213,192,13584,1,0,0:0:0:0:
469,192,13584,1,0,0:0:0:0:
384,192,13673,1,0,0:0:0:0:
128,192,13761,128,0,13937:0:0:0:0:
213,192,13761,1,0,0:0:0:0:
298,192,13849,1,0,0:0:0:0:
42,192,13937,1,0,0:0:0:0:
384,192,13937,1,0,0:0:0:0:
469,192,13937,1,0,0:0:0:0:
213,192,14026,1,0,0:0:0:0:
128,192,14114,128,0,14290:0:0:0:0:
384,192,14114,1,0,0:0:0:0:
298,192,14202,1,0,0:0:0:0:
213,192,14290,1,0,0:0:0:0:
42,192,14290,1,0,0:0:0:0:
469,192,14379,1,0,0:0:0:0:
298,192,14467,128,0,14643:0:0:0:0:
384,192,14467,1,0,0:0:0:0:
213,192,14555,1,0,0:0:0:0:
42,192,14643,1,0,0:0:0:0:
128,192,14643,1,0,0:0:0:0:
469,192,14643,1,0,0:0:0:0:
384,192,14732,1,0,0:0:0:0:
298,192,14820,128,0,14996:0:0:0:0:
128,192,14820,1,0,0:0:0:0:
213,192,14908,1,0,0:0:0:0:
42,192,14996,1,0,0:0:0:0:
469,192,14996,1,0,0:0:0:0:
213,192,15084,1,0,0:0:0:0:
298,192,15173,128,0,15349:0:0:0:0:
128,192,15173,1,0,0:0:0:0:
384,192,15261,1,0,0:0:0:0:
213,192,15349,1,0,0:0:0:0:
42,192,15349,1,0,0:0:0:0:
469,192,15349,1,0,0:0:0:0:
384,192,15437,1,0,0:0:0:0:
298,192,15526,128,0,15702:0:0:0:0:
128,192,15526,1,0,0:0:0:0:
42,192,15614,1,0,0:0:0:0:
384,192,15702,1,0,0:0:0:0:
469,192,15702,1,0,0:0:0:0:
213,192,15790,1,0,0:0:0:0:
42,192,15879,128,0,16055:0:0:0:0:
384,192,15879,1,0,0:0:0:0:
298,192,15967,1,0,0:0:0:0:
213,192,16055,1,0,0:0:0:0:
128,192,16055,1,0,0:0:0:0:
469,192,16055,1,0,0:0:0:0:
384,192,16143,1,0,0:0:0:0:
42,192,16232,128,0,16408:0:0:0:0:
213,192,16232,1,0,0:0:0:0:
298,192,16320,1,0,0:0:0:0:
384,192,16408,1,0,0:0:0:0:
128,192,16408,1,0,0:0:0:0:
213,192,16496,1,0,0:0:0:0:
42,192,16584,128,0,16761:0:0:0:0:
384,192,16584,1,0,0:0:0:0:
298,192,16673,1,0,0:0:0:0:
213,192,16761,1,0,0:0:0:0:
128,192,16761,1,0,0:0:0:0:
469,192,16761,1,0,0:0:0:0:
384,192,16849,1,0,0:0:0:0:
42,192,16937,128,0,17114:0:0:0:0:
213,192,16937,1,0,0:0:0:0:
298,192,17026,1,0,0:0:0:0:
384,192,17114,1,0,0:0:0:0:
128,192,17114,1,0,0:0:0:0:
213,192,17202,1,0,0:0:0:0:
42,192,17290,128,0,17467:0:0:0:0:
384,192,17290,1,0,0:0:0:0:
298,192,17379,1,0,0:0:0:0:
213,192,17467,1,0,0:0:0:0:
128,192,17467,1,0,0:0:0:0:
469,192,17467,1,0,0:0:0:0:
384,192,17555,1,0,0:0:0:0:
42,192,17643,128,0,17820:0:0:0:0:
213,192,17643,1,0,0:0:0:0:
298,192,17732,1,0,0:0:0:0:
384,192,17820,1,0,0:0:0:0:
128,192,17820,1,0,0:0:0:0:
213,192,17908,1,0,0:0:0:0:
42,192,17996,128,0,18173:0:0:0:0:
384,192,17996,1,0,0:0:0:0:
298,192,18084,1,0,0:0:0:0:
213,192,18173,1,0,0:0:0:0:
128,192,18173,1,0,0:0:0:0:
469,192,18173,1,0,0:0:0:0:
384,192,18261,1,0,0:0:0:0:
42,192,18349,128,0,18526:0:0:0:0:
213,192,18349,1,0,0:0:0:0:
298,192,18437,1,0,0:0:0:0:
128,192,18526,1,0,0:0:0:0:
384,192,18526,1,0,0:0:0:0:
298,192,18614,1,0,0:0:0:0:
469,192,18702,128,0,18879:0:0:0:0:
128,192,18702,1,0,0:0:0:0:
213,192,18790,1,0,0:0:0:0:
298,192,18879,1,0,0:0:0:0:
42,192,18879,1,0,0:0:0:0:
384,192,18879,1,0,0:0:0:0:
128,192,18967,1,0,0:0:0:0:
469,192,19055,128,0,19232:0:0:0:0:
298,192,19055,1,0,0:0:0:0:
213,192,19143,1,0,0:0:0:0:
128,192,19232,1,0,0:0:0:0:
384,192,19232,1,0,0:0:0:0:
298,192,19320,1,0,0:0:0:0:
469,192,19408,128,0,19584:0:0:0:0:
128,192,19408,1,0,0:0:0:0:
213,192,19496,1,0,0:0:0:0:
298,192,19584,1,0,0:0:0:0:
42,192,19584,1,0,0:0:0:0:
384,192,19584,1,0,0:0:0:0:
128,192,19673,1,0,0:0:0:0:
469,192,19761,128,0,19937:0:0:0:0:
384,192,19761,1,0,0:0:0:0:
213,192,19849,1,0,0:0:0:0:
128,192,19937,1,0,0:0:0:0:
298,192,20026,1,0,0:0:0:0:
384,192,20114,128,0,20290:0:0:0:0:
128,192,20114,1,0,0:0:0:0:
213,192,20202,1,0,0:0:0:0:
298,192,20290,1,0,0:0:0:0:
42,192,20290,1,0,0:0:0:0:
469,192,20290,1,0,0:0:0:0:
128,192,20379,1,0,0:0:0:0:
384,192,20467,128,0,20643:0:0:0:0:
298,192,20467,1,0,0:0:0:0:
213,192,20555,1,0,0:0:0:0:
128,192,20643,1,0,0:0:0:0:
298,192,20732,1,0,0:0:0:0:
384,192,20820,128,0,20996:0:0:0:0:
128,192,20820,1,0,0:0:0:0:
213,192,20908,1,0,0:0:0:0:
298,192,20996,1,0,0:0:0:0:
42,192,20996,1,0,0:0:0:0:
469,192,20996,1,0,0:0:0:0:
128,192,21084,1,0,0:0:0:0:
384,192,21173,128,0,21349:0:0:0:0:
298,192,21173,1,0,0:0:0:0:
213,192,21261,1,0,0:0:0:0:
42,192,21349,1,0,0:0:0:0:
469,192,21349,1,0,0:0:0:0:
128,192,21437,1,0,0:0:0:0:
213,192,21526,128,0,21702:0:0:0:0:
469,192,21526,1,0,0:0:0:0:
384,192,21614,1,0,0:0:0:0:
42,192,21702,1,0,0:0:0:0:
298,192,21702,1,0,0:0:0:0:
128,192,21702,1,0,0:0:0:0:
469,192,21790,1,0,0:0:0:0:
213,192,21879,128,0,22055:0:0:0:0:
42,192,21879,1,0,0:0:0:0:
128,192,21967,1,0,0:0:0:0:
469,192,22055,1,0,0:0:0:0:
298,192,22055,1,0,0:0:0:0:
128,192,22143,1,0,0:0:0:0:
213,192,22232,128,0,22408:0:0:0:0:
469,192,22232,1,0,0:0:0:0:
384,192,22320,1,0,0:0:0:0:
42,192,22408,1,0,0:0:0:0:
128,192,22408,1,0,0:0:0:0:
298,192,22408,1,0,0:0:0:0:
469,192,22496,1,0,0:0:0:0:
213,192,22584,128,0,22761:0:0:0:0:
42,192,22584,1,0,0:0:0:0:
128,192,22673,1,0,0:0:0:0:
469,192,22761,1,0,0:0:0:0:
298,192,22761,1,0,0:0:0:0:
128,192,22849,1,0,0:0:0:0:
213,192,22937,128,0,23114:0:0:0:0:
469,192,22937,1,0,0:0:0:0:
384,192,23026,1,0,0:0:0:0:
42,192,23114,1,0,0:0:0:0:
298,192,23114,1,0,0:0:0:0:
128,192,23114,1,0,0:0:0:0:
469,192,23202,1,0,0:0:0:0:
42,192,23290,1,0,0:0:0:0:
128,192,23379,1,0,0:0:0:0:
298,192,23467,1,0,0:0:0:0:
469,192,23467,1,0,0:0:0:0:
128,192,23555,1,0,0:0:0:0:
213,192,23732,1,0,0:0:0:0:
469,192,23820,1,0,0:0:0:0:
384,192,23996,1,0,0:0:0:0:
213,192,24084,1,0,0:0:0:0:
42,192,24173,1,0,0:0:0:0:
298,192,24173,1,0,0:0:0:0:
128,192,24173,1,0,0:0:0:0:
469,192,24173,1,0,0:0:0:0:
213,192,24349,1,0,0:0:0:0:
469,192,24437,1,0,0:0:0:0:
213,192,24526,1,0,0:0:0:0:
298,192,24526,1,0,0:0:0:0:
42,192,24526,1,0,0:0:0:0:
384,192,24614,1,0,0:0:0:0:
128,192,24702,1,0,0:0:0:0:
384,192,24790,1,0,0:0:0:0:
469,192,24879,1,0,0:0:0:0:
213,192,24879,1,0,0:0:0:0:
213,192,25055,1,0,0:0:0:0:
42,192,25232,1,0,0:0:0:0:
384,192,25232,1,0,0:0:0:0:
298,192,25232,1,0,0:0:0:0:
128,192,25320,1,0,0:0:0:0:
469,192,25408,1,0,0:0:0:0:
128,192,25496,1,0,0:0:0:0:
213,192,25584,1,0,0:0:0:0:
384,192,25584,1,0,0:0:0:0:
128,192,25673,1,0,0:0:0:0:
298,192,25761,1,0,0:0:0:0:
42,192,25849,1,0,0:0:0:0:
384,192,25937,1,0,0:0:0:0:
213,192,25937,1,0,0:0:0:0:
298,192,25937,1,0,0:0:0:0:
384,192,26114,1,0,0:0:0:0:
384,192,26202,1,0,0:0:0:0:
128,192,26290,1,0,0:0:0:0:
42,192,26290,128,0,26379:0:0:0:0:
469,192,26467,1,0,0:0:0:0:
213,192,26467,128,0,26555:0:0:0:0:
384,192,26555,1,0,0:0:0:0:
128,192,26555,128,0,26643:0:0:0:0:
298,192,26643,1,0,0:0:0:0:
469,192,26643,1,0,0:0:0:0:
42,192,26643,1,0,0:0:0:0:
213,192,26820,128,0,26908:0:0:0:0:
298,192,26908,1,0,0:0:0:0:
384,192,26908,128,0,26996:0:0:0:0:
42,192,26996,1,0,0:0:0:0:
469,192,26996,1,0,0:0:0:0:
213,192,27084,1,0,0:0:0:0:
213,192,27173,1,0,0:0:0:0:
298,192,27349,1,0,0:0:0:0:
384,192,27349,1,0,0:0:0:0:
128,192,27349,1,0,0:0:0:0:
213,192,27526,1,0,0:0:0:0:
213,192,27614,1,0,0:0:0:0:
298,192,27702,1,0,0:0:0:0:
469,192,27702,1,0,0:0:0:0:
128,192,27790,1,0,0:0:0:0:
298,192,27879,1,0,0:0:0:0:
42,192,28055,1,0,0:0:0:0:
213,192,28055,1,0,0:0:0:0:
384,192,28055,1,0,0:0:0:0:
384,192,28232,1,0,0:0:0:0:
384,192,28320,1,0,0:0:0:0:
213,192,28408,1,0,0:0:0:0:
298,192,28408,1,0,0:0:0:0:
128,192,28496,1,0,0:0:0:0:
128,192,28584,1,0,0:0:0:0:
298,192,28761,1,0,0:0:0:0:
469,192,28761,1,0,0:0:0:0:
42,192,28761,1,0,0:0:0:0:
298,192,28937,1,0,0:0:0:0:
298,192,29026,1,0,0:0:0:0:
128,192,29114,1,0,0:0:0:0:
42,192,29114,128,0,29202:0:0:0:0:
384,192,29290,1,0,0:0:0:0:
213,192,29290,128,0,29379:0:0:0:0:
298,192,29379,1,0,0:0:0:0:
128,192,29379,128,0,29467:0:0:0:0:
469,192,29467,1,0,0:0:0:0:
42,192,29467,1,0,0:0:0:0:
384,192,29467,128,0,29555:0:0:0:0:
213,192,29643,1,0,0:0:0:0:
298,192,29643,1,0,0:0:0:0:
213,192,29732,1,0,0:0:0:0:
128,192,29820,1,0,0:0:0:0:
469,192,29820,1,0,0:0:0:0:
213,192,29996,1,0,0:0:0:0:
298,192,30084,1,0,0:0:0:0:
213,192,30173,1,0,0:0:0:0:
469,192,30173,1,0,0:0:0:0:
42,192,30173,1,0,0:0:0:0:
384,192,30261,1,0,0:0:0:0:
128,192,30349,1,0,0:0:0:0:
384,192,30437,1,0,0:0:0:0:
213,192,30526,1,0,0:0:0:0:
298,192,30526,1,0,0:0:0:0:
42,192,30702,1,0,0:0:0:0:
469,192,30879,1,0,0:0:0:0:
384,192,30879,1,0,0:0:0:0:
213,192,30879,1,0,0:0:0:0:
128,192,30967,1,0,0:0:0:0:
298,192,31055,1,0,0:0:0:0:
128,192,31143,1,0,0:0:0:0:
213,192,31232,1,0,0:0:0:0:
384,192,31232,1,0,0:0:0:0:
128,192,31320,1,0,0:0:0:0:
298,192,31408,1,0,0:0:0:0:
42,192,31496,1,0,0:0:0:0:
213,192,31584,1,0,0:0:0:0:
469,192,31584,1,0,0:0:0:0:
384,192,31584,1,0,0:0:0:0:
469,192,31761,1,0,0:0:0:0:
469,192,31849,1,0,0:0:0:0:
298,192,31937,1,0,0:0:0:0:
128,192,31937,128,0,32026:0:0:0:0:
213,192,32114,1,0,0:0:0:0:
42,192,32114,128,0,32202:0:0:0:0:
128,192,32202,1,0,0:0:0:0:
298,192,32202,128,0,32290:0:0:0:0:
469,192,32290,1,0,0:0:0:0:
384,192,32290,1,0,0:0:0:0:
213,192,32290,1,0,0:0:0:0:
298,192,32467,128,0,32555:0:0:0:0:
128,192,32555,1,0,0:0:0:0:
42,192,32555,128,0,32643:0:0:0:0:
213,192,32643,1,0,0:0:0:0:
384,192,32643,1,0,0:0:0:0:
469,192,32643,1,0,0:0:0:0:
298,192,32732,1,0,0:0:0:0:
42,192,32820,1,0,0:0:0:0:
469,192,32820,1,0,0:0:0:0:
213,192,32908,1,0,0:0:0:0:
128,192,32996,1,0,0:0:0:0:
384,192,32996,1,0,0:0:0:0:
298,192,32996,1,0,0:0:0:0:
469,192,33084,1,0,0:0:0:0:
128,192,33173,1,0,0:0:0:0:
298,192,33173,1,0,0:0:0:0:
128,192,33261,1,0,0:0:0:0:
42,192,33349,1,0,0:0:0:0:
213,192,33349,1,0,0:0:0:0:
469,192,33349,1,0,0:0:0:0:
298,192,33437,1,0,0:0:0:0:
384,192,33526,1,0,0:0:0:0:
128,192,33526,1,0,0:0:0:0:
213,192,33614,1,0,0:0:0:0:
42,192,33702,1,0,0:0:0:0:
469,192,33702,1,0,0:0:0:0:
298,192,33702,1,0,0:0:0:0:
128,192,33790,1,0,0:0:0:0:
469,192,33879,1,0,0:0:0:0:
213,192,33879,1,0,0:0:0:0:
469,192,33967,1,0,0:0:0:0:
42,192,34055,1,0,0:0:0:0:
128,192,34055,1,0,0:0:0:0:
213,192,34055,1,0,0:0:0:0:
298,192,34055,1,0,0:0:0:0:
384,192,34143,1,0,0:0:0:0:
469,192,34143,1,0,0:0:0:0:
42,192,34232,1,0,0:0:0:0:
128,192,34232,1,0,0:0:0:0:
213,192,34320,1,0,0:0:0:0:
298,192,34320,1,0,0:0:0:0:
384,192,34320,1,0,0:0:0:0:
42,192,34408,1,0,0:0:0:0:
128,192,34408,1,0,0:0:0:0:
469,192,34496,1,0,0:0:0:0:
384,192,34496,1,0,0:0:0:0:
128,192,34584,1,0,0:0:0:0:
213,192,34584,1,0,0:0:0:0:
298,192,34584,1,0,0:0:0:0:
384,192,34673,1,0,0:0:0:0:
469,192,34673,1,0,0:0:0:0:
42,192,34761,1,0,0:0:0:0:
128,192,34761,1,0,0:0:0:0:
213,192,34849,1,0,0:0:0:0:
298,192,34849,1,0,0:0:0:0:
384,192,34849,1,0,0:0:0:0:
128,192,34937,1,0,0:0:0:0:
42,192,34937,1,0,0:0:0:0:
384,192,35026,1,0,0:0:0:0:
469,192,35026,1,0,0:0:0:0:
298,192,35114,1,0,0:0:0:0:
213,192,35114,1,0,0:0:0:0:
128,192,35114,1,0,0:0:0:0:
384,192,35202,1,0,0:0:0:0:
469,192,35202,1,0,0:0:0:0:
42,192,35290,1,0,0:0:0:0:
128,192,35290,1,0,0:0:0:0:
384,192,35379,1,0,0:0:0:0:
298,192,35379,1,0,0:0:0:0:
128,192,35467,1,0,0:0:0:0:
469,192,35467,1,0,0:0:0:0:
213,192,35467,1,0,0:0:0:0:
42,192,35467,128,0,36879:0:0:0:0:
469,192,36879,128,0,38290:0:0:0:0:
384,192,37584,128,0,38290:0:0:0:0:
213,192,38290,128,0,42526:0:0:0:0:
42,192,41114,128,0,42526:0:0:0:0:
469,192,42526,128,0,43937:0:0:0:0:
128,192,43232,128,0,43937:0:0:0:0:
298,192,43937,128,0,46584:0:0:0:0:
384,192,45349,128,0,46584:0:0:0:0:
42,192,45879,128,0,46584:0:0:0:0:
128,192,46055,128,0,46584:0:0:0:0:
213,192,46232,128,0,46584:0:0:0:0:
469,192,46584,128,0,48173:0:0:0:0:
128,192,46761,1,0,0:0:0:0:
42,192,46761,1,0,0:0:0:0:
298,192,46761,1,0,0:0:0:0:
384,192,46761,1,0,0:0:0:0:
213,192,46937,1,0,0:0:0:0:
298,192,47114,1,0,0:0:0:0:
384,192,47290,1,0,0:0:0:0:
42,192,47467,1,0,0:0:0:0:
128,192,47643,1,0,0:0:0:0:
298,192,47820,1,0,0:0:0:0:
384,192,47996,1,0,0:0:0:0:
42,192,48173,1,0,0:0:0:0:
298,192,48349,1,0,0:0:0:0:
213,192,48526,1,0,0:0:0:0:
128,192,48702,128,0,49232:0:0:0:0:
42,192,48702,1,0,0:0:0:0:
298,192,48879,128,0,49232:0:0:0:0:
213,192,48879,1,0,0:0:0:0:
384,192,49055,128,0,49232:0:0:0:0:
469,192,49055,1,0,0:0:0:0:
42,192,49232,1,0,0:0:0:0:
469,192,49408,128,0,49761:0:0:0:0:
128,192,49408,1,0,0:0:0:0:
213,192,49584,1,0,0:0:0:0:
384,192,49761,128,0,50114:0:0:0:0:
42,192,49761,1,0,0:0:0:0:
128,192,49937,1,0,0:0:0:0:
298,192,50114,128,0,50467:0:0:0:0:
469,192,50114,1,0,0:0:0:0:
42,192,50290,1,0,0:0:0:0:
213,192,50467,128,0,50820:0:0:0:0:
128,192,50467,1,0,0:0:0:0:
469,192,50643,1,0,0:0:0:0:
384,192,50820,128,0,51173:0:0:0:0:
298,192,50820,1,0,0:0:0:0:
42,192,50996,1,0,0:0:0:0:
298,192,51173,128,0,51526:0:0:0:0:
469,192,51173,1,0,0:0:0:0:
128,192,51349,1,0,0:0:0:0:
213,192,51526,128,0,51879:0:0:0:0:
42,192,51526,1,0,0:0:0:0:
469,192,51702,1,0,0:0:0:0:
128,192,51879,128,0,52232:0:0:0:0:
298,192,51879,1,0,0:0:0:0:
384,192,52055,1,0,0:0:0:0:
42,192,52232,128,0,53820:0:0:0:0:
469,192,52232,1,0,0:0:0:0:
213,192,52408,1,0,0:0:0:0:
298,192,52584,1,0,0:0:0:0:
384,192,52761,1,0,0:0:0:0:
469,192,52937,1,0,0:0:0:0:
128,192,53114,1,0,0:0:0:0:
298,192,53290,1,0,0:0:0:0:
384,192,53467,1,0,0:0:0:0:
469,192,53643,1,0,0:0:0:0:
213,192,53820,1,0,0:0:0:0:
384,192,53996,1,0,0:0:0:0:
128,192,54173,1,0,0:0:0:0:
469,192,54349,1,0,0:0:0:0:
213,192,54526,128,0,55232:0:0:0:0:
298,192,54526,1,0,0:0:0:0:
384,192,54702,1,0,0:0:0:0:
42,192,54879,1,0,0:0:0:0:
469,192,55055,1,0,0:0:0:0:
298,192,55232,128,0,56643:0:0:0:0:
384,192,55232,1,0,0:0:0:0:
128,192,55408,1,0,0:0:0:0:
213,192,55584,1,0,0:0:0:0:
469,192,55761,1,0,0:0:0:0:
42,192,55937,1,0,0:0:0:0:
128,192,56114,1,0,0:0:0:0:
384,192,56290,1,0,0:0:0:0:
469,192,56467,1,0,0:0:0:0:
128,192,56643,1,0,0:0:0:0:
213,192,56820,1,0,0:0:0:0:
469,192,56996,1,0,0:0:0:0:
42,192,57173,128,0,57879:0:0:0:0:
213,192,57173,1,0,0:0:0:0:
128,192,57349,128,0,57879:0:0:0:0:
298,192,57349,1,0,0:0:0:0:
384,192,57526,128,0,57879:0:0:0:0:
469,192,57526,1,0,0:0:0:0:
213,192,57702,1,0,0:0:0:0:
469,192,57879,128,0,59467:0:0:0:0:
298,192,57879,1,0,0:0:0:0:
42,192,58055,1,0,0:0:0:0:
128,192,58055,1,0,0:0:0:0:
384,192,58055,1,0,0:0:0:0:
213,192,58055,1,0,0:0:0:0:
213,192,58232,1,0,0:0:0:0:
128,192,58320,1,0,0:0:0:0:
384,192,58408,1,0,0:0:0:0:
298,192,58408,1,0,0:0:0:0:
213,192,58584,1,0,0:0:0:0:
42,192,58673,1,0,0:0:0:0:
298,192,58761,1,0,0:0:0:0:
128,192,58849,1,0,0:0:0:0:
384,192,58937,1,0,0:0:0:0:
213,192,59026,1,0,0:0:0:0:
42,192,59114,1,0,0:0:0:0:
384,192,59114,1,0,0:0:0:0:
128,192,59290,1,0,0:0:0:0:
298,192,59379,1,0,0:0:0:0:
213,192,59467,1,0,0:0:0:0:
42,192,59467,1,0,0:0:0:0:
384,192,59643,1,0,0:0:0:0:
298,192,59732,1,0,0:0:0:0:
128,192,59820,1,0,0:0:0:0:
213,192,59820,1,0,0:0:0:0:
42,192,59996,128,0,60526:0:0:0:0:
469,192,59996,1,0,0:0:0:0:
384,192,60084,1,0,0:0:0:0:
128,192,60173,128,0,60526:0:0:0:0:
213,192,60173,1,0,0:0:0:0:
298,192,60261,1,0,0:0:0:0:
384,192,60349,128,0,60526:0:0:0:0:
469,192,60437,1,0,0:0:0:0:
298,192,60526,1,0,0:0:0:0:
213,192,60526,1,0,0:0:0:0:
469,192,60702,128,0,61055:0:0:0:0:
384,192,60702,1,0,0:0:0:0:
42,192,60790,1,0,0:0:0:0:
128,192,60879,1,0,0:0:0:0:
213,192,60879,1,0,0:0:0:0:
384,192,61055,128,0,61408:0:0:0:0:
298,192,61055,1,0,0:0:0:0:
213,192,61143,1,0,0:0:0:0:
128,192,61232,1,0,0:0:0:0:
42,192,61232,1,0,0:0:0:0:
298,192,61408,128,0,61761:0:0:0:0:
213,192,61408,1,0,0:0:0:0:
128,192,61496,1,0,0:0:0:0:
469,192,61584,1,0,0:0:0:0:
42,192,61673,1,0,0:0:0:0:
213,192,61761,128,0,62114:0:0:0:0:
128,192,61761,1,0,0:0:0:0:
384,192,61849,1,0,0:0:0:0:
42,192,61937,1,0,0:0:0:0:
469,192,61937,1,0,0:0:0:0:
384,192,62114,128,0,62467:0:0:0:0:
298,192,62114,1,0,0:0:0:0:
128,192,62202,1,0,0:0:0:0:
42,192,62290,1,0,0:0:0:0:
213,192,62290,1,0,0:0:0:0:
298,192,62467,128,0,62820:0:0:0:0:
128,192,62467,1,0,0:0:0:0:
213,192,62555,1,0,0:0:0:0:
384,192,62643,1,0,0:0:0:0:
469,192,62643,1,0,0:0:0:0:
42,192,62820,128,0,63173:0:0:0:0:
128,192,62820,1,0,0:0:0:0:
213,192,62908,1,0,0:0:0:0:
469,192,62996,1,0,0:0:0:0:
384,192,63084,1,0,0:0:0:0:
128,192,63173,1,0,0:0:0:0:
213,192,63261,1,0,0:0:0:0:
384,192,63349,1,0,0:0:0:0:
298,192,63349,1,0,0:0:0:0:
42,192,63437,1,0,0:0:0:0:
128,192,63437,1,0,0:0:0:0:
384,192,63526,1,0,0:0:0:0:
298,192,63526,1,0,0:0:0:0:
128,192,63614,1,0,0:0:0:0:
42,192,63614,1,0,0:0:0:0:
213,192,63702,1,0,0:0:0:0:
469,192,63702,1,0,0:0:0:0:
298,192,63702,1,0,0:0:0:0:
384,192,63702,1,0,0:0:0:0:
128,192,63879,1,0,0:0:0:0:
384,192,63967,1,0,0:0:0:0:
42,192,64055,1,0,0:0:0:0:
213,192,64055,1,0,0:0:0:0:
298,192,64232,1,0,0:0:0:0:
469,192,64320,1,0,0:0:0:0:
213,192,64408,1,0,0:0:0:0:
384,192,64496,1,0,0:0:0:0:
128,192,64584,1,0,0:0:0:0:
298,192,64673,1,0,0:0:0:0:
42,192,64761,1,0,0:0:0:0:
384,192,64761,1,0,0:0:0:0:
469,192,64937,1,0,0:0:0:0:
384,192,65026,1,0,0:0:0:0:
128,192,65114,1,0,0:0:0:0:
298,192,65114,1,0,0:0:0:0:
213,192,65290,1,0,0:0:0:0:
42,192,65379,1,0,0:0:0:0:
384,192,65467,1,0,0:0:0:0:
469,192,65467,1,0,0:0:0:0:
298,192,65643,1,0,0:0:0:0:
42,192,65732,1,0,0:0:0:0:
213,192,65820,128,0,66526:0:0:0:0:
384,192,65820,1,0,0:0:0:0:
128,192,65908,1,0,0:0:0:0:
469,192,65996,1,0,0:0:0:0:
298,192,66084,1,0,0:0:0:0:
42,192,66173,1,0,0:0:0:0:
384,192,66173,1,0,0:0:0:0:
469,192,66349,1,0,0:0:0:0:
384,192,66437,1,0,0:0:0:0:
298,192,66526,128,0,67937:0:0:0:0:
128,192,66526,1,0,0:0:0:0:
213,192,66702,1,0,0:0:0:0:
42,192,66790,1,0,0:0:0:0:
384,192,66879,1,0,0:0:0:0:
469,192,66879,1,0,0:0:0:0:
213,192,67055,1,0,0:0:0:0:
42,192,67143,1,0,0:0:0:0:
384,192,67232,1,0,0:0:0:0:
128,192,67320,1,0,0:0:0:0:
469,192,67408,1,0,0:0:0:0:
213,192,67496,1,0,0:0:0:0:
384,192,67584,1,0,0:0:0:0:
42,192,67584,1,0,0:0:0:0:
213,192,67761,1,0,0:0:0:0:
128,192,67849,1,0,0:0:0:0:
42,192,67937,1,0,0:0:0:0:
469,192,67937,1,0,0:0:0:0:
213,192,68114,1,0,0:0:0:0:
298,192,68202,1,0,0:0:0:0:
128,192,68290,1,0,0:0:0:0:
42,192,68290,1,0,0:0:0:0:
469,192,68467,1,0,0:0:0:0:
298,192,68555,1,0,0:0:0:0:
384,192,68643,1,0,0:0:0:0:
213,192,68732,1,0,0:0:0:0:
298,192,68820,1,0,0:0:0:0:
128,192,68908,1,0,0:0:0:0:
213,192,68996,1,0,0:0:0:0:
469,192,68996,1,0,0:0:0:0:
384,192,69173,1,0,0:0:0:0:
42,192,69173,1,0,0:0:0:0:
298,192,69261,1,0,0:0:0:0:
128,192,69349,1,0,0:0:0:0:
469,192,69349,1,0,0:0:0:0:
384,192,69349,1,0,0:0:0:0:
213,192,69349,1,0,0:0:0:0:
42,192,69526,128,0,69702:0:0:0:0:
213,192,69526,1,0,0:0:0:0:
469,192,69702,1,0,0:0:0:0:
384,192,69702,1,0,0:0:0:0:
128,192,69702,1,0,0:0:0:0:
42,192,69879,128,0,70055:0:0:0:0:
384,192,69879,1,0,0:0:0:0:
298,192,70055,1,0,0:0:0:0:
469,192,70055,1,0,0:0:0:0:
213,192,70055,1,0,0:0:0:0:
42,192,70232,128,0,70408:0:0:0:0:
298,192,70232,1,0,0:0:0:0:
128,192,70408,1,0,0:0:0:0:
213,192,70408,1,0,0:0:0:0:
384,192,70408,1,0,0:0:0:0:
42,192,70584,128,0,70761:0:0:0:0:
213,192,70584,1,0,0:0:0:0:
298,192,70761,1,0,0:0:0:0:
128,192,70761,1,0,0:0:0:0:
384,192,70761,1,0,0:0:0:0:
469,192,70937,128,0,71114:0:0:0:0:
128,192,70937,1,0,0:0:0:0:
213,192,71114,1,0,0:0:0:0:
298,192,71114,1,0,0:0:0:0:
42,192,71114,1,0,0:0:0:0:
469,192,71290,128,0,71467:0:0:0:0:
42,192,71290,1,0,0:0:0:0:
384,192,71467,1,0,0:0:0:0:
298,192,71467,1,0,0:0:0:0:
213,192,71467,1,0,0:0:0:0:
469,192,71643,128,0,71820:0:0:0:0:
213,192,71643,1,0,0:0:0:0:
128,192,71820,1,0,0:0:0:0:
42,192,71820,1,0,0:0:0:0:
298,192,71908,1,0,0:0:0:0:
384,192,71908,1,0,0:0:0:0:
213,192,71996,1,0,0:0:0:0:
128,192,71996,1,0,0:0:0:0:
384,192,72084,1,0,0:0:0:0:
469,192,72084,1,0,0:0:0:0:
42,192,72173,1,0,0:0:0:0:
298,192,72173,1,0,0:0:0:0:
213,192,72349,128,0,72526:0:0:0:0:
298,192,72349,1,0,0:0:0:0:
128,192,72526,1,0,0:0:0:0:
42,192,72526,1,0,0:0:0:0:
384,192,72526,1,0,0:0:0:0:
213,192,72702,128,0,72879:0:0:0:0:
384,192,72702,1,0,0:0:0:0:
298,192,72879,1,0,0:0:0:0:
469,192,72879,1,0,0:0:0:0:
128,192,72879,1,0,0:0:0:0:
213,192,73055,128,0,73232:0:0:0:0:
298,192,73055,1,0,0:0:0:0:
384,192,73232,1,0,0:0:0:0:
469,192,73232,1,0,0:0:0:0:
42,192,73232,1,0,0:0:0:0:
213,192,73408,128,0,73584:0:0:0:0:
384,192,73408,1,0,0:0:0:0:
469,192,73584,1,0,0:0:0:0:
42,192,73584,1,0,0:0:0:0:
128,192,73584,1,0,0:0:0:0:
298,192,73761,128,0,73937:0:0:0:0:
42,192,73761,1,0,0:0:0:0:
384,192,73937,1,0,0:0:0:0:
469,192,73937,1,0,0:0:0:0:
128,192,73937,1,0,0:0:0:0:
298,192,74114,128,0,74290:0:0:0:0:
128,192,74114,1,0,0:0:0:0:
213,192,74290,1,0,0:0:0:0:
384,192,74290,1,0,0:0:0:0:
469,192,74290,1,0,0:0:0:0:
298,192,74467,128,0,74643:0:0:0:0:
213,192,74467,1,0,0:0:0:0:
384,192,74643,1,0,0:0:0:0:
469,192,74643,1,0,0:0:0:0:
128,192,74732,1,0,0:0:0:0:
213,192,74732,1,0,0:0:0:0:
298,192,74820,1,0,0:0:0:0:
384,192,74820,1,0,0:0:0:0:
42,192,74908,1,0,0:0:0:0:
128,192,74908,1,0,0:0:0:0:
213,192,74996,1,0,0:0:0:0:
298,192,74996,1,0,0:0:0:0:
384,192,74996,1,0,0:0:0:0:
469,192,74996,1,0,0:0:0:0:
469,192,75173,1,0,0:0:0:0:
298,192,75173,1,0,0:0:0:0:
213,192,75261,1,0,0:0:0:0:
469,192,75349,1,0,0:0:0:0:
384,192,75349,1,0,0:0:0:0:
128,192,75437,1,0,0:0:0:0:
469,192,75526,1,0,0:0:0:0:
384,192,75526,1,0,0:0:0:0:
298,192,75614,1,0,0:0:0:0:
42,192,75702,1,0,0:0:0:0:
213,192,75702,1,0,0:0:0:0:
384,192,75790,1,0,0:0:0:0:
128,192,75879,1,0,0:0:0:0:
42,192,75879,1,0,0:0:0:0:
298,192,75967,1,0,0:0:0:0:
128,192,76055,1,0,0:0:0:0:
42,192,76055,1,0,0:0:0:0:
384,192,76143,1,0,0:0:0:0:
42,192,76232,1,0,0:0:0:0:
213,192,76232,1,0,0:0:0:0:
128,192,76408,1,0,0:0:0:0:
298,192,76408,1,0,0:0:0:0:
384,192,76408,1,0,0:0:0:0:
469,192,76408,1,0,0:0:0:0:
469,192,76584,1,0,0:0:0:0:
42,192,76584,1,0,0:0:0:0:
298,192,76673,1,0,0:0:0:0:
469,192,76761,1,0,0:0:0:0:
213,192,76761,1,0,0:0:0:0:
128,192,76849,1,0,0:0:0:0:
469,192,76937,1,0,0:0:0:0:
213,192,76937,1,0,0:0:0:0:
298,192,77026,1,0,0:0:0:0:
42,192,77114,1,0,0:0:0:0:
384,192,77114,1,0,0:0:0:0:
469,192,77202,1,0,0:0:0:0:
42,192,77290,1,0,0:0:0:0:
298,192,77290,1,0,0:0:0:0:
213,192,77379,1,0,0:0:0:0:
42,192,77467,1,0,0:0:0:0:
384,192,77467,1,0,0:0:0:0:
298,192,77555,1,0,0:0:0:0:
42,192,77643,1,0,0:0:0:0:
469,192,77643,1,0,0:0:0:0:
42,192,77820,1,0,0:0:0:0:
469,192,77820,1,0,0:0:0:0:
128,192,77820,1,0,0:0:0:0:
384,192,77820,1,0,0:0:0:0:
213,192,77908,1,0,0:0:0:0:
298,192,77908,1,0,0:0:0:0:
128,192,77996,1,0,0:0:0:0:
384,192,77996,1,0,0:0:0:0:
469,192,78084,1,0,0:0:0:0:
42,192,78084,1,0,0:0:0:0:
213,192,78173,1,0,0:0:0:0:
298,192,78173,1,0,0:0:0:0:
42,192,78261,1,0,0:0:0:0:
469,192,78261,1,0,0:0:0:0:
384,192,78349,1,0,0:0:0:0:
128,192,78349,1,0,0:0:0:0:
298,192,78437,1,0,0:0:0:0:
213,192,78437,1,0,0:0:0:0:
42,192,78526,1,0,0:0:0:0:
128,192,78526,1,0,0:0:0:0:
384,192,78526,1,0,0:0:0:0:
469,192,78526,1,0,0:0:0:0:
298,192,78614,1,0,0:0:0:0:
213,192,78614,1,0,0:0:0:0:
42,192,78702,1,0,0:0:0:0:
469,192,78702,1,0,0:0:0:0:
384,192,78790,1,0,0:0:0:0:
128,192,78790,1,0,0:0:0:0:
298,192,78879,1,0,0:0:0:0:
213,192,78879,1,0,0:0:0:0:
128,192,78967,1,0,0:0:0:0:
384,192,78967,1,0,0:0:0:0:
42,192,79055,1,0,0:0:0:0:
469,192,79055,1,0,0:0:0:0:
298,192,79143,1,0,0:0:0:0:
213,192,79143,1,0,0:0:0:0:
42,192,79232,1,0,0:0:0:0:
128,192,79232,1,0,0:0:0:0:
469,192,79232,1,0,0:0:0:0:
384,192,79276,1,0,0:0:0:0:
298,192,79320,1,0,0:0:0:0:
213,192,79364,1,0,0:0:0:0:
128,192,79408,1,0,0:0:0:0:
42,192,79452,1,0,0:0:0:0:
298,192,79496,1,0,0:0:0:0:
213,192,79540,1,0,0:0:0:0:
128,192,79584,1,0,0:0:0:0:
384,192,79629,1,0,0:0:0:0:
298,192,79673,1,0,0:0:0:0:
213,192,79717,1,0,0:0:0:0:
469,192,79761,1,0,0:0:0:0:
384,192,79805,1,0,0:0:0:0:
298,192,79849,1,0,0:0:0:0:
42,192,79893,1,0,0:0:0:0:
298,192,80114,1,0,0:0:0:0:
298,192,80202,1,0,0:0:0:0:
469,192,80290,1,0,0:0:0:0:
42,192,80290,1,0,0:0:0:0:
128,192,80467,1,0,0:0:0:0:
298,192,80467,1,0,0:0:0:0:
42,192,80643,1,0,0:0:0:0:
469,192,80643,1,0,0:0:0:0:
384,192,80643,1,0,0:0:0:0:
213,192,80643,1,0,0:0:0:0:
298,192,80732,1,0,0:0:0:0:
128,192,80820,1,0,0:0:0:0:
469,192,80820,1,0,0:0:0:0:
384,192,80908,1,0,0:0:0:0:
42,192,80996,1,0,0:0:0:0:
128,192,80996,1,0,0:0:0:0:
298,192,80996,1,0,0:0:0:0:
213,192,80996,1,0,0:0:0:0:
469,192,81084,1,0,0:0:0:0:
384,192,81084,1,0,0:0:0:0:
213,192,81173,1,0,0:0:0:0:
128,192,81261,1,0,0:0:0:0:
42,192,81349,1,0,0:0:0:0:
298,192,81349,1,0,0:0:0:0:
469,192,81349,1,0,0:0:0:0:
213,192,81437,1,0,0:0:0:0:
384,192,81526,1,0,0:0:0:0:
42,192,81614,1,0,0:0:0:0:
128,192,81614,1,0,0:0:0:0:
213,192,81702,1,0,0:0:0:0:
298,192,81702,1,0,0:0:0:0:
384,192,81702,1,0,0:0:0:0:
469,192,81702,1,0,0:0:0:0:
42,192,81790,1,0,0:0:0:0:
128,192,81879,1,0,0:0:0:0:
298,192,81879,1,0,0:0:0:0:
213,192,82055,1,0,0:0:0:0:
469,192,82055,1,0,0:0:0:0:
384,192,82055,1,0,0:0:0:0:
42,192,82143,1,0,0:0:0:0:
128,192,82232,1,0,0:0:0:0:
384,192,82232,1,0,0:0:0:0:
298,192,82320,1,0,0:0:0:0:
42,192,82408,1,0,0:0:0:0:
128,192,82408,1,0,0:0:0:0:
213,192,82408,1,0,0:0:0:0:
469,192,82408,1,0,0:0:0:0:
298,192,82496,1,0,0:0:0:0:
384,192,82496,1,0,0:0:0:0:
213,192,82584,1,0,0:0:0:0:
469,192,82673,1,0,0:0:0:0:
42,192,82761,1,0,0:0:0:0:
128,192,82761,1,0,0:0:0:0:
298,192,82761,1,0,0:0:0:0:
213,192,82849,1,0,0:0:0:0:
469,192,82937,1,0,0:0:0:0:
128,192,83026,1,0,0:0:0:0:
213,192,83026,1,0,0:0:0:0:
469,192,83114,1,0,0:0:0:0:
384,192,83114,1,0,0:0:0:0:
42,192,83114,1,0,0:0:0:0:
298,192,83114,1,0,0:0:0:0:
128,192,83202,1,0,0:0:0:0:
213,192,83290,1,0,0:0:0:0:
384,192,83290,1,0,0:0:0:0:
128,192,83467,1,0,0:0:0:0:
213,192,83467,1,0,0:0:0:0:
298,192,83467,1,0,0:0:0:0:
42,192,83555,1,0,0:0:0:0:
469,192,83643,1,0,0:0:0:0:
298,192,83643,1,0,0:0:0:0:
213,192,83732,1,0,0:0:0:0:
42,192,83820,1,0,0:0:0:0:
128,192,83820,1,0,0:0:0:0:
384,192,83820,1,0,0:0:0:0:
469,192,83820,1,0,0:0:0:0:
213,192,83908,1,0,0:0:0:0:
298,192,83908,1,0,0:0:0:0:
42,192,83996,1,0,0:0:0:0:
298,192,84084,1,0,0:0:0:0:
128,192,84173,1,0,0:0:0:0:
384,192,84173,1,0,0:0:0:0:
469,192,84173,1,0,0:0:0:0:
213,192,84261,1,0,0:0:0:0:
42,192,84349,1,0,0:0:0:0:
384,192,84437,1,0,0:0:0:0:
469,192,84437,1,0,0:0:0:0:
42,192,84526,1,0,0:0:0:0:
128,192,84526,1,0,0:0:0:0:
213,192,84526,1,0,0:0:0:0:
298,192,84526,1,0,0:0:0:0:
384,192,84614,1,0,0:0:0:0:
469,192,84614,1,0,0:0:0:0:
213,192,84702,1,0,0:0:0:0:
128,192,84702,1,0,0:0:0:0:
42,192,84790,1,0,0:0:0:0:
469,192,84879,1,0,0:0:0:0:
384,192,84879,1,0,0:0:0:0:
298,192,84879,1,0,0:0:0:0:
213,192,84967,1,0,0:0:0:0:
469,192,85055,1,0,0:0:0:0:
42,192,85143,1,0,0:0:0:0:
128,192,85143,1,0,0:0:0:0:
213,192,85232,1,0,0:0:0:0:
298,192,85232,1,0,0:0:0:0:
384,192,85232,1,0,0:0:0:0:
469,192,85232,1,0,0:0:0:0:
128,192,85320,1,0,0:0:0:0:
42,192,85320,1,0,0:0:0:0:
298,192,85408,1,0,0:0:0:0:
384,192,85408,1,0,0:0:0:0:
213,192,85496,1,0,0:0:0:0:
384,192,85584,1,0,0:0:0:0:
469,192,85584,1,0,0:0:0:0:
42,192,85584,1,0,0:0:0:0:
213,192,85673,1,0,0:0:0:0:
298,192,85673,1,0,0:0:0:0:
128,192,85761,1,0,0:0:0:0:
469,192,85849,1,0,0:0:0:0:
384,192,85849,1,0,0:0:0:0:
298,192,85937,1,0,0:0:0:0:
213,192,85937,1,0,0:0:0:0:
128,192,85937,1,0,0:0:0:0:
42,192,85937,1,0,0:0:0:0:
469,192,86026,1,0,0:0:0:0:
213,192,86114,1,0,0:0:0:0:
384,192,86114,1,0,0:0:0:0:
128,192,86202,1,0,0:0:0:0:
298,192,86202,1,0,0:0:0:0:
42,192,86290,1,0,0:0:0:0:
469,192,86290,1,0,0:0:0:0:
213,192,86290,1,0,0:0:0:0:
298,192,86379,1,0,0:0:0:0:
128,192,86467,1,0,0:0:0:0:
469,192,86467,1,0,0:0:0:0:
384,192,86555,1,0,0:0:0:0:
42,192,86643,1,0,0:0:0:0:
128,192,86643,1,0,0:0:0:0:
298,192,86643,1,0,0:0:0:0:
213,192,86643,1,0,0:0:0:0:
469,192,86732,1,0,0:0:0:0:
384,192,86732,1,0,0:0:0:0:
213,192,86820,1,0,0:0:0:0:
128,192,86908,1,0,0:0:0:0:
42,192,86996,1,0,0:0:0:0:
298,192,86996,1,0,0:0:0:0:
469,192,86996,1,0,0:0:0:0:
213,192,87084,1,0,0:0:0:0:
384,192,87173,1,0,0:0:0:0:
42,192,87261,1,0,0:0:0:0:
128,192,87261,1,0,0:0:0:0:
213,192,87349,1,0,0:0:0:0:
298,192,87349,1,0,0:0:0:0:
384,192,87349,1,0,0:0:0:0:
469,192,87349,1,0,0:0:0:0:
42,192,87437,1,0,0:0:0:0:
128,192,87526,1,0,0:0:0:0:
298,192,87526,1,0,0:0:0:0:
213,192,87702,1,0,0:0:0:0:
384,192,87702,1,0,0:0:0:0:
469,192,87702,1,0,0:0:0:0:
42,192,87790,1,0,0:0:0:0:
384,192,87879,1,0,0:0:0:0:
128,192,87879,1,0,0:0:0:0:
298,192,87967,1,0,0:0:0:0:
213,192,88055,1,0,0:0:0:0:
469,192,88055,1,0,0:0:0:0:
42,192,88055,1,0,0:0:0:0:
128,192,88055,1,0,0:0:0:0:
384,192,88143,1,0,0:0:0:0:
298,192,88143,1,0,0:0:0:0:
213,192,88232,1,0,0:0:0:0:
469,192,88320,1,0,0:0:0:0:
298,192,88408,1,0,0:0:0:0:
42,192,88408,1,0,0:0:0:0:
128,192,88408,1,0,0:0:0:0:
213,192,88496,1,0,0:0:0:0:
384,192,88584,1,0,0:0:0:0:
128,192,88673,1,0,0:0:0:0:
213,192,88673,1,0,0:0:0:0:
298,192,88761,1,0,0:0:0:0:
469,192,88761,1,0,0:0:0:0:
384,192,88761,1,0,0:0:0:0:
42,192,88761,1,0,0:0:0:0:
128,192,88849,1,0,0:0:0:0:
469,192,88937,1,0,0:0:0:0:
213,192,88937,1,0,0:0:0:0:
213,192,89114,1,0,0:0:0:0:
384,192,89114,1,0,0:0:0:0:
42,192,89114,1,0,0:0:0:0:
298,192,89202,1,0,0:0:0:0:
128,192,89290,1,0,0:0:0:0:
384,192,89290,1,0,0:0:0:0:
213,192,89379,1,0,0:0:0:0:
469,192,89467,1,0,0:0:0:0:
42,192,89467,1,0,0:0:0:0:
128,192,89467,1,0,0:0:0:0:
298,192,89467,1,0,0:0:0:0:
213,192,89555,1,0,0:0:0:0:
384,192,89555,1,0,0:0:0:0:
42,192,89643,1,0,0:0:0:0:
469,192,89732,1,0,0:0:0:0:
298,192,89820,1,0,0:0:0:0:
384,192,89820,1,0,0:0:0:0:
128,192,89820,1,0,0:0:0:0:
42,192,89908,1,0,0:0:0:0:
213,192,89996,1,0,0:0:0:0:
469,192,90084,1,0,0:0:0:0:
384,192,90084,1,0,0:0:0:0:
42,192,90173,1,0,0:0:0:0:
128,192,90173,1,0,0:0:0:0:
213,192,90173,1,0,0:0:0:0:
298,192,90173,1,0,0:0:0:0:
384,192,90261,1,0,0:0:0:0:
469,192,90261,1,0,0:0:0:0:
42,192,90349,1,0,0:0:0:0:
128,192,90349,1,0,0:0:0:0:
298,192,90437,1,0,0:0:0:0:
213,192,90526,1,0,0:0:0:0:
384,192,90526,1,0,0:0:0:0:
469,192,90526,1,0,0:0:0:0:
128,192,90614,1,0,0:0:0:0:
298,192,90702,1,0,0:0:0:0:
42,192,90790,1,0,0:0:0:0:
128,192,90790,1,0,0:0:0:0:
213,192,90879,1,0,0:0:0:0:
298,192,90879,1,0,0:0:0:0:
384,192,90879,1,0,0:0:0:0:
469,192,90879,1,0,0:0:0:0:
128,192,90967,1,0,0:0:0:0:
42,192,90967,1,0,0:0:0:0:
469,192,91055,1,0,0:0:0:0:
384,192,91055,1,0,0:0:0:0:
213,192,91143,1,0,0:0:0:0:
42,192,91232,1,0,0:0:0:0:
128,192,91232,1,0,0:0:0:0:
298,192,91232,1,0,0:0:0:0:
213,192,91320,1,0,0:0:0:0:
384,192,91320,1,0,0:0:0:0:
128,192,91496,1,0,0:0:0:0:
469,192,91584,1,0,0:0:0:0:
298,192,91761,1,0,0:0:0:0:
128,192,91849,1,0,0:0:0:0:
42,192,91937,1,0,0:0:0:0:
213,192,91937,1,0,0:0:0:0:
384,192,91937,1,0,0:0:0:0:
469,192,91937,1,0,0:0:0:0:
298,192,92026,1,0,0:0:0:0:
128,192,92114,1,0,0:0:0:0:
469,192,92114,1,0,0:0:0:0:
213,192,92202,1,0,0:0:0:0:
42,192,92290,1,0,0:0:0:0:
128,192,92290,1,0,0:0:0:0:
298,192,92290,1,0,0:0:0:0:
384,192,92290,1,0,0:0:0:0:
213,192,92379,1,0,0:0:0:0:
469,192,92379,1,0,0:0:0:0:
384,192,92467,1,0,0:0:0:0:
42,192,92555,1,0,0:0:0:0:
213,192,92643,1,0,0:0:0:0:
298,192,92643,1,0,0:0:0:0:
469,192,92643,1,0,0:0:0:0:
128,192,92732,1,0,0:0:0:0:
384,192,92820,1,0,0:0:0:0:
298,192,92908,1,0,0:0:0:0:
42,192,92908,1,0,0:0:0:0:
128,192,92996,1,0,0:0:0:0:
213,192,92996,1,0,0:0:0:0:
384,192,92996,1,0,0:0:0:0:
469,192,92996,1,0,0:0:0:0:
42,192,93084,1,0,0:0:0:0:
298,192,93173,1,0,0:0:0:0:
469,192,93173,1,0,0:0:0:0:
384,192,93349,1,0,0:0:0:0:
42,192,93349,1,0,0:0:0:0:
128,192,93349,1,0,0:0:0:0:
213,192,93437,1,0,0:0:0:0:
469,192,93526,1,0,0:0:0:0:
128,192,93526,1,0,0:0:0:0:
298,192,93614,1,0,0:0:0:0:
213,192,93702,1,0,0:0:0:0:
384,192,93702,1,0,0:0:0:0:
469,192,93702,1,0,0:0:0:0:
42,192,93702,1,0,0:0:0:0:
298,192,93790,1,0,0:0:0:0:
128,192,93790,1,0,0:0:0:0:
213,192,93879,1,0,0:0:0:0:
42,192,93967,1,0,0:0:0:0:
128,192,94055,1,0,0:0:0:0:
384,192,94055,1,0,0:0:0:0:
469,192,94055,1,0,0:0:0:0:
298,192,94143,1,0,0:0:0:0:
42,192,94232,1,0,0:0:0:0:
213,192,94320,1,0,0:0:0:0:
384,192,94320,1,0,0:0:0:0:
42,192,94408,1,0,0:0:0:0:
128,192,94408,1,0,0:0:0:0:
298,192,94408,1,0,0:0:0:0:
469,192,94408,1,0,0:0:0:0:
213,192,94496,1,0,0:0:0:0:
469,192,94584,1,0,0:0:0:0:
384,192,94584,1,0,0:0:0:0:
42,192,94761,1,0,0:0:0:0:
384,192,94761,1,0,0:0:0:0:
298,192,94761,1,0,0:0:0:0:
128,192,94849,1,0,0:0:0:0:
213,192,94937,1,0,0:0:0:0:
469,192,94937,1,0,0:0:0:0:
384,192,95026,1,0,0:0:0:0:
42,192,95114,1,0,0:0:0:0:
298,192,95114,1,0,0:0:0:0:
469,192,95114,1,0,0:0:0:0:
128,192,95114,1,0,0:0:0:0:
213,192,95202,1,0,0:0:0:0:
384,192,95202,1,0,0:0:0:0:
42,192,95290,1,0,0:0:0:0:
213,192,95379,1,0,0:0:0:0:
128,192,95467,1,0,0:0:0:0:
298,192,95467,1,0,0:0:0:0:
384,192,95467,1,0,0:0:0:0:
42,192,95555,1,0,0:0:0:0:
469,192,95643,1,0,0:0:0:0:
128,192,95732,1,0,0:0:0:0:
298,192,95732,1,0,0:0:0:0:
469,192,95820,1,0,0:0:0:0:
384,192,95820,1,0,0:0:0:0:
42,192,95820,1,0,0:0:0:0:
213,192,95820,1,0,0:0:0:0:
298,192,95908,1,0,0:0:0:0:
128,192,95908,1,0,0:0:0:0:
213,192,95996,1,0,0:0:0:0:
384,192,95996,1,0,0:0:0:0:
42,192,96084,1,0,0:0:0:0:
128,192,96173,1,0,0:0:0:0:
298,192,96173,1,0,0:0:0:0:
469,192,96173,1,0,0:0:0:0:
213,192,96261,1,0,0:0:0:0:
42,192,96349,1,0,0:0:0:0:
213,192,96437,1,0,0:0:0:0:
384,192,96437,1,0,0:0:0:0:
42,192,96526,1,0,0:0:0:0:
128,192,96526,1,0,0:0:0:0:
298,192,96526,1,0,0:0:0:0:
469,192,96526,1,0,0:0:0:0:
384,192,96614,1,0,0:0:0:0:
213,192,96614,1,0,0:0:0:0:
128,192,96702,1,0,0:0:0:0:
298,192,96702,1,0,0:0:0:0:
469,192,96790,1,0,0:0:0:0:
42,192,96879,1,0,0:0:0:0:
213,192,96879,1,0,0:0:0:0:
384,192,96879,1,0,0:0:0:0:
128,192,96967,1,0,0:0:0:0:
298,192,96967,1,0,0:0:0:0:
469,192,97055,1,0,0:0:0:0:
213,192,97143,1,0,0:0:0:0:
384,192,97143,1,0,0:0:0:0:
128,192,97232,1,0,0:0:0:0:
469,192,97232,1,0,0:0:0:0:
42,192,97232,1,0,0:0:0:0:
298,192,97232,1,0,0:0:0:0:
213,192,97320,1,0,0:0:0:0:
128,192,97408,1,0,0:0:0:0:
384,192,97408,1,0,0:0:0:0:
298,192,97496,1,0,0:0:0:0:
42,192,97496,1,0,0:0:0:0:
384,192,97584,1,0,0:0:0:0:
469,192,97584,1,0,0:0:0:0:
213,192,97584,1,0,0:0:0:0:
298,192,97673,1,0,0:0:0:0:
128,192,97761,1,0,0:0:0:0:
469,192,97761,1,0,0:0:0:0:
213,192,97849,1,0,0:0:0:0:
42,192,97937,1,0,0:0:0:0:
128,192,97937,1,0,0:0:0:0:
298,192,97937,1,0,0:0:0:0:
384,192,97937,1,0,0:0:0:0:
213,192,98026,1,0,0:0:0:0:
469,192,98026,1,0,0:0:0:0:
384,192,98114,1,0,0:0:0:0:
42,192,98202,1,0,0:0:0:0:
213,192,98290,1,0,0:0:0:0:
298,192,98290,1,0,0:0:0:0:
469,192,98290,1,0,0:0:0:0:
128,192,98379,1,0,0:0:0:0:
384,192,98467,1,0,0:0:0:0:
298,192,98555,1,0,0:0:0:0:
42,192,98555,1,0,0:0:0:0:
128,192,98643,1,0,0:0:0:0:
213,192,98643,1,0,0:0:0:0:
384,192,98643,1,0,0:0:0:0:
469,192,98643,1,0,0:0:0:0:
42,192,98732,1,0,0:0:0:0:
298,192,98820,1,0,0:0:0:0:
469,192,98820,1,0,0:0:0:0:
298,192,98996,1,0,0:0:0:0:
42,192,98996,1,0,0:0:0:0:
128,192,98996,1,0,0:0:0:0:
213,192,99084,1,0,0:0:0:0:
469,192,99173,1,0,0:0:0:0:
128,192,99173,1,0,0:0:0:0:
298,192,99261,1,0,0:0:0:0:
213,192,99349,1,0,0:0:0:0:
384,192,99349,1,0,0:0:0:0:
469,192,99349,1,0,0:0:0:0:
42,192,99349,1,0,0:0:0:0:
298,192,99437,1,0,0:0:0:0:
128,192,99437,1,0,0:0:0:0:
213,192,99526,1,0,0:0:0:0:
42,192,99614,1,0,0:0:0:0:
128,192,99702,1,0,0:0:0:0:
384,192,99702,1,0,0:0:0:0:
469,192,99702,1,0,0:0:0:0:
298,192,99790,1,0,0:0:0:0:
42,192,99879,1,0,0:0:0:0:
213,192,99967,1,0,0:0:0:0:
384,192,99967,1,0,0:0:0:0:
42,192,100055,1,0,0:0:0:0:
128,192,100055,1,0,0:0:0:0:
298,192,100055,1,0,0:0:0:0:
469,192,100055,1,0,0:0:0:0:
213,192,100143,1,0,0:0:0:0:
469,192,100232,1,0,0:0:0:0:
384,192,100232,1,0,0:0:0:0:
42,192,100408,1,0,0:0:0:0:
128,192,100408,1,0,0:0:0:0:
298,192,100408,1,0,0:0:0:0:
213,192,100496,1,0,0:0:0:0:
128,192,100584,1,0,0:0:0:0:
384,192,100584,1,0,0:0:0:0:
298,192,100673,1,0,0:0:0:0:
42,192,100761,1,0,0:0:0:0:
469,192,100761,1,0,0:0:0:0:
384,192,100761,1,0,0:0:0:0:
213,192,100761,1,0,0:0:0:0:
298,192,100849,1,0,0:0:0:0:
128,192,100849,1,0,0:0:0:0:
469,192,100937,1,0,0:0:0:0:
384,192,101026,1,0,0:0:0:0:
42,192,101114,1,0,0:0:0:0:
213,192,101114,1,0,0:0:0:0:
128,192,101114,1,0,0:0:0:0:
298,192,101202,1,0,0:0:0:0:
469,192,101290,1,0,0:0:0:0:
384,192,101379,1,0,0:0:0:0:
128,192,101379,1,0,0:0:0:0:
42,192,101467,1,0,0:0:0:0:
213,192,101467,1,0,0:0:0:0:
298,192,101467,1,0,0:0:0:0:
469,192,101467,1,0,0:0:0:0:
384,192,101555,1,0,0:0:0:0:
128,192,101555,1,0,0:0:0:0:
213,192,101643,1,0,0:0:0:0:
298,192,101643,1,0,0:0:0:0:
42,192,101732,1,0,0:0:0:0:
469,192,101820,5,0,0:0:0:0:
384,192,101820,1,0,0:0:0:0:
298,192,101820,1,0,0:0:0:0:
213,192,101820,1,0,0:0:0:0:
128,192,101908,1,0,0:0:0:0:
42,192,101908,1,0,0:0:0:0:
469,192,101996,1,0,0:0:0:0:
384,192,101996,1,0,0:0:0:0:
298,192,102084,1,0,0:0:0:0:
213,192,102084,1,0,0:0:0:0:
128,192,102084,1,0,0:0:0:0:
469,192,102173,1,0,0:0:0:0:
384,192,102173,1,0,0:0:0:0:
42,192,102261,1,0,0:0:0:0:
128,192,102261,1,0,0:0:0:0:
384,192,102349,1,0,0:0:0:0:
298,192,102349,1,0,0:0:0:0:
213,192,102349,1,0,0:0:0:0:
128,192,102437,1,0,0:0:0:0:
42,192,102437,1,0,0:0:0:0:
469,192,102526,1,0,0:0:0:0:
384,192,102526,1,0,0:0:0:0:
298,192,102614,1,0,0:0:0:0:
213,192,102614,1,0,0:0:0:0:
128,192,102614,1,0,0:0:0:0:
384,192,102702,1,0,0:0:0:0:
469,192,102702,1,0,0:0:0:0:
128,192,102790,1,0,0:0:0:0:
42,192,102790,1,0,0:0:0:0:
213,192,102879,1,0,0:0:0:0:
298,192,102879,1,0,0:0:0:0:
384,192,102879,1,0,0:0:0:0:
42,192,102967,1,0,0:0:0:0:
128,192,102967,1,0,0:0:0:0:
469,192,103055,1,0,0:0:0:0:
384,192,103055,1,0,0:0:0:0:
128,192,103143,1,0,0:0:0:0:
298,192,103143,1,0,0:0:0:0:
469,192,103232,1,0,0:0:0:0:
213,192,103232,128,0,104643:0:0:0:0:
42,192,103232,1,0,0:0:0:0:
384,192,103232,1,0,0:0:0:0:
128,192,103320,1,0,0:0:0:0:
298,192,103408,1,0,0:0:0:0:
128,192,103496,1,0,0:0:0:0:
469,192,103584,1,0,0:0:0:0:
384,192,103584,1,0,0:0:0:0:
42,192,103584,1,0,0:0:0:0:
298,192,103673,1,0,0:0:0:0:
128,192,103761,1,0,0:0:0:0:
298,192,103849,1,0,0:0:0:0:
42,192,103937,1,0,0:0:0:0:
384,192,103937,1,0,0:0:0:0:
128,192,104026,1,0,0:0:0:0:
298,192,104114,1,0,0:0:0:0:
128,192,104202,1,0,0:0:0:0:
384,192,104290,1,0,0:0:0:0:
469,192,104290,1,0,0:0:0:0:
42,192,104290,1,0,0:0:0:0:
298,192,104379,1,0,0:0:0:0:
128,192,104467,1,0,0:0:0:0:
298,192,104555,1,0,0:0:0:0:
384,192,104643,1,0,0:0:0:0:
42,192,104643,1,0,0:0:0:0:
128,192,104732,1,0,0:0:0:0:
298,192,104820,1,0,0:0:0:0:
213,192,104908,1,0,0:0:0:0:
469,192,104996,1,0,0:0:0:0:
42,192,104996,1,0,0:0:0:0:
298,192,104996,1,0,0:0:0:0:
384,192,105084,1,0,0:0:0:0:
42,192,105173,128,0,105349:0:0:0:0:
298,192,105261,1,0,0:0:0:0:
213,192,105349,128,0,105526:0:0:0:0:
128,192,105349,1,0,0:0:0:0:
469,192,105437,1,0,0:0:0:0:
384,192,105526,128,0,105702:0:0:0:0:
128,192,105614,1,0,0:0:0:0:
42,192,105702,1,0,0:0:0:0:
298,192,105702,1,0,0:0:0:0:
213,192,105702,1,0,0:0:0:0:
384,192,105790,1,0,0:0:0:0:
469,192,105879,128,0,106232:0:0:0:0:
128,192,105967,1,0,0:0:0:0:
213,192,106055,1,0,0:0:0:0:
384,192,106055,1,0,0:0:0:0:
42,192,106143,1,0,0:0:0:0:
298,192,106232,128,0,106584:0:0:0:0:
128,192,106320,1,0,0:0:0:0:
42,192,106408,1,0,0:0:0:0:
384,192,106408,1,0,0:0:0:0:
469,192,106408,1,0,0:0:0:0:
128,192,106496,1,0,0:0:0:0:
213,192,106584,128,0,106937:0:0:0:0:
384,192,106673,1,0,0:0:0:0:
128,192,106761,1,0,0:0:0:0:
469,192,106761,1,0,0:0:0:0:
384,192,106849,1,0,0:0:0:0:
42,192,106937,128,0,107290:0:0:0:0:
298,192,106937,1,0,0:0:0:0:
469,192,107026,1,0,0:0:0:0:
128,192,107114,1,0,0:0:0:0:
213,192,107114,1,0,0:0:0:0:
384,192,107114,1,0,0:0:0:0:
298,192,107202,1,0,0:0:0:0:
469,192,107290,128,0,107643:0:0:0:0:
384,192,107379,1,0,0:0:0:0:
42,192,107467,1,0,0:0:0:0:
128,192,107467,1,0,0:0:0:0:
213,192,107555,1,0,0:0:0:0:
298,192,107643,128,0,107996:0:0:0:0:
213,192,107732,1,0,0:0:0:0:
384,192,107820,1,0,0:0:0:0:
469,192,107820,1,0,0:0:0:0:
42,192,107820,1,0,0:0:0:0:
128,192,107908,1,0,0:0:0:0:
213,192,107996,128,0,108349:0:0:0:0:
469,192,108084,1,0,0:0:0:0:
298,192,108173,1,0,0:0:0:0:
128,192,108173,1,0,0:0:0:0:
384,192,108261,1,0,0:0:0:0:
42,192,108349,128,0,108702:0:0:0:0:
298,192,108437,1,0,0:0:0:0:
128,192,108526,1,0,0:0:0:0:
213,192,108526,1,0,0:0:0:0:
469,192,108526,1,0,0:0:0:0:
298,192,108614,1,0,0:0:0:0:
384,192,108702,128,0,110290:0:0:0:0:
128,192,108790,1,0,0:0:0:0:
42,192,108879,1,0,0:0:0:0:
469,192,108879,1,0,0:0:0:0:
213,192,108967,1,0,0:0:0:0:
298,192,109055,1,0,0:0:0:0:
213,192,109143,1,0,0:0:0:0:
42,192,109232,1,0,0:0:0:0:
469,192,109232,1,0,0:0:0:0:
128,192,109232,1,0,0:0:0:0:
298,192,109320,1,0,0:0:0:0:
213,192,109408,1,0,0:0:0:0:
298,192,109496,1,0,0:0:0:0:
469,192,109584,1,0,0:0:0:0:
42,192,109584,1,0,0:0:0:0:
213,192,109673,1,0,0:0:0:0:
298,192,109761,1,0,0:0:0:0:
213,192,109849,1,0,0:0:0:0:
469,192,109937,1,0,0:0:0:0:
128,192,109937,1,0,0:0:0:0:
42,192,109937,1,0,0:0:0:0:
298,192,110026,1,0,0:0:0:0:
213,192,110114,1,0,0:0:0:0:
298,192,110202,1,0,0:0:0:0:
42,192,110290,1,0,0:0:0:0:
469,192,110290,1,0,0:0:0:0:
128,192,110379,1,0,0:0:0:0:
213,192,110467,1,0,0:0:0:0:
128,192,110555,1,0,0:0:0:0:
469,192,110643,1,0,0:0:0:0:
42,192,110643,1,0,0:0:0:0:
298,192,110643,1,0,0:0:0:0:
384,192,110732,1,0,0:0:0:0:
298,192,110820,1,0,0:0:0:0:
384,192,110908,1,0,0:0:0:0:
42,192,110996,128,0,111702:0:0:0:0:
469,192,110996,1,0,0:0:0:0:
128,192,111084,1,0,0:0:0:0:
298,192,111173,1,0,0:0:0:0:
128,192,111261,1,0,0:0:0:0:
213,192,111349,1,0,0:0:0:0:
469,192,111349,1,0,0:0:0:0:
298,192,111349,1,0,0:0:0:0:
384,192,111437,1,0,0:0:0:0:
128,192,111526,1,0,0:0:0:0:
298,192,111614,1,0,0:0:0:0:
469,192,111702,128,0,113114:0:0:0:0:
213,192,111702,1,0,0:0:0:0:
384,192,111702,1,0,0:0:0:0:
128,192,111790,1,0,0:0:0:0:
298,192,111879,1,0,0:0:0:0:
128,192,111967,1,0,0:0:0:0:
42,192,112055,1,0,0:0:0:0:
298,192,112055,1,0,0:0:0:0:
213,192,112055,1,0,0:0:0:0:
384,192,112143,1,0,0:0:0:0:
213,192,112232,1,0,0:0:0:0:
298,192,112320,1,0,0:0:0:0:
42,192,112408,1,0,0:0:0:0:
384,192,112408,1,0,0:0:0:0:
128,192,112496,1,0,0:0:0:0:
298,192,112584,1,0,0:0:0:0:
128,192,112673,1,0,0:0:0:0:
42,192,112761,1,0,0:0:0:0:
213,192,112761,1,0,0:0:0:0:
298,192,112761,1,0,0:0:0:0:
384,192,112849,1,0,0:0:0:0:
213,192,112937,1,0,0:0:0:0:
298,192,113026,1,0,0:0:0:0:
384,192,113114,1,0,0:0:0:0:
128,192,113114,1,0,0:0:0:0:
298,192,113202,1,0,0:0:0:0:
213,192,113290,1,0,0:0:0:0:
469,192,113379,1,0,0:0:0:0:
42,192,113467,1,0,0:0:0:0:
384,192,113467,1,0,0:0:0:0:
298,192,113467,1,0,0:0:0:0:
128,192,113643,128,0,114349:0:0:0:0:
384,192,113732,1,0,0:0:0:0:
298,192,113820,1,0,0:0:0:0:
213,192,113820,128,0,114349:0:0:0:0:
469,192,113820,1,0,0:0:0:0:
384,192,113996,128,0,114349:0:0:0:0:
42,192,114349,128,0,115937:0:0:0:0:
298,192,114437,1,0,0:0:0:0:
128,192,114526,1,0,0:0:0:0:
213,192,114526,1,0,0:0:0:0:
384,192,114526,1,0,0:0:0:0:
469,192,114526,1,0,0:0:0:0:
298,192,114702,1,0,0:0:0:0:
469,192,114702,1,0,0:0:0:0:
213,192,114790,1,0,0:0:0:0:
128,192,114879,1,0,0:0:0:0:
298,192,114879,1,0,0:0:0:0:
384,192,114879,1,0,0:0:0:0:
469,192,114967,1,0,0:0:0:0:
213,192,115055,1,0,0:0:0:0:
128,192,115055,1,0,0:0:0:0:
469,192,115143,1,0,0:0:0:0:
384,192,115232,1,0,0:0:0:0:
298,192,115232,1,0,0:0:0:0:
213,192,115232,1,0,0:0:0:0:
128,192,115320,1,0,0:0:0:0:
469,192,115408,1,0,0:0:0:0:
298,192,115496,1,0,0:0:0:0:
213,192,115584,1,0,0:0:0:0:
128,192,115584,1,0,0:0:0:0:
384,192,115584,1,0,0:0:0:0:
298,192,115673,1,0,0:0:0:0:
469,192,115761,1,0,0:0:0:0:
213,192,115849,1,0,0:0:0:0:
298,192,115937,1,0,0:0:0:0:
469,192,115937,1,0,0:0:0:0:
128,192,115937,1,0,0:0:0:0:
42,192,116026,1,0,0:0:0:0:
213,192,116114,1,0,0:0:0:0:
384,192,116114,1,0,0:0:0:0:
298,192,116202,1,0,0:0:0:0:
213,192,116290,1,0,0:0:0:0:
42,192,116290,1,0,0:0:0:0:
469,192,116290,1,0,0:0:0:0:
128,192,116379,1,0,0:0:0:0:
298,192,116467,1,0,0:0:0:0:
42,192,116467,1,0,0:0:0:0:
384,192,116555,1,0,0:0:0:0:
128,192,116643,1,0,0:0:0:0:
469,192,116643,1,0,0:0:0:0:
213,192,116643,1,0,0:0:0:0:
384,192,116732,1,0,0:0:0:0:
298,192,116820,1,0,0:0:0:0:
213,192,116820,1,0,0:0:0:0:
42,192,116908,1,0,0:0:0:0:
128,192,116996,1,0,0:0:0:0:
384,192,116996,1,0,0:0:0:0:
469,192,116996,1,0,0:0:0:0:
213,192,117084,1,0,0:0:0:0:
298,192,117084,1,0,0:0:0:0:
128,192,117173,1,0,0:0:0:0:
384,192,117173,1,0,0:0:0:0:
298,192,117261,1,0,0:0:0:0:
213,192,117261,1,0,0:0:0:0:
128,192,117349,1,0,0:0:0:0:
384,192,117349,1,0,0:0:0:0:
42,192,117349,1,0,0:0:0:0:
298,192,117526,1,0,0:0:0:0:
469,192,117526,1,0,0:0:0:0:
384,192,117614,1,0,0:0:0:0:
298,192,117702,1,0,0:0:0:0:
42,192,117702,1,0,0:0:0:0:
128,192,117702,1,0,0:0:0:0:
213,192,117790,1,0,0:0:0:0:
384,192,117879,1,0,0:0:0:0:
469,192,117879,1,0,0:0:0:0:
298,192,117967,1,0,0:0:0:0:
384,192,118055,1,0,0:0:0:0:
42,192,118055,1,0,0:0:0:0:
213,192,118055,1,0,0:0:0:0:
128,192,118143,1,0,0:0:0:0:
469,192,118232,1,0,0:0:0:0:
298,192,118232,1,0,0:0:0:0:
384,192,118320,1,0,0:0:0:0:
128,192,118408,1,0,0:0:0:0:
469,192,118408,1,0,0:0:0:0:
213,192,118408,1,0,0:0:0:0:
298,192,118496,1,0,0:0:0:0:
42,192,118584,1,0,0:0:0:0:
384,192,118584,1,0,0:0:0:0:
128,192,118673,1,0,0:0:0:0:
213,192,118761,1,0,0:0:0:0:
384,192,118761,1,0,0:0:0:0:
42,192,118761,1,0,0:0:0:0:
298,192,118849,1,0,0:0:0:0:
128,192,118937,1,0,0:0:0:0:
469,192,118937,1,0,0:0:0:0:
298,192,119026,1,0,0:0:0:0:
213,192,119114,1,0,0:0:0:0:
42,192,119114,1,0,0:0:0:0:
384,192,119114,1,0,0:0:0:0:
128,192,119202,1,0,0:0:0:0:
469,192,119290,1,0,0:0:0:0:
213,192,119290,1,0,0:0:0:0:
384,192,119379,1,0,0:0:0:0:
128,192,119467,1,0,0:0:0:0:
298,192,119467,1,0,0:0:0:0:
469,192,119467,1,0,0:0:0:0:
42,192,119555,1,0,0:0:0:0:
298,192,119643,1,0,0:0:0:0:
384,192,119643,1,0,0:0:0:0:
213,192,119732,1,0,0:0:0:0:
42,192,119820,1,0,0:0:0:0:
469,192,119820,1,0,0:0:0:0:
128,192,119908,1,0,0:0:0:0:
384,192,119908,1,0,0:0:0:0:
42,192,119996,1,0,0:0:0:0:
469,192,119996,1,0,0:0:0:0:
128,192,120084,1,0,0:0:0:0:
384,192,120084,1,0,0:0:0:0:
298,192,120173,1,0,0:0:0:0:
213,192,120173,1,0,0:0:0:0:
42,192,120173,1,0,0:0:0:0:
469,192,120173,1,0,0:0:0:0:
213,192,120349,1,0,0:0:0:0:
384,192,120349,1,0,0:0:0:0:
128,192,120349,1,0,0:0:0:0:
42,192,120526,1,0,0:0:0:0:
298,192,120526,1,0,0:0:0:0:
469,192,120526,1,0,0:0:0:0:
298,192,120702,1,0,0:0:0:0:
213,192,120702,1,0,0:0:0:0:
384,192,120702,1,0,0:0:0:0:
128,192,120879,1,0,0:0:0:0:
42,192,120879,1,0,0:0:0:0:
469,192,120879,1,0,0:0:0:0:
128,192,121055,1,0,0:0:0:0:
298,192,121055,1,0,0:0:0:0:
213,192,121055,1,0,0:0:0:0:
384,192,121232,1,0,0:0:0:0:
42,192,121232,1,0,0:0:0:0:
469,192,121232,1,0,0:0:0:0:
384,192,121408,1,0,0:0:0:0:
213,192,121408,1,0,0:0:0:0:
128,192,121408,1,0,0:0:0:0:
42,192,121584,1,0,0:0:0:0:
298,192,121584,1,0,0:0:0:0:
469,192,121584,1,0,0:0:0:0:
42,192,121761,1,0,0:0:0:0:
213,192,121761,1,0,0:0:0:0:
384,192,121761,1,0,0:0:0:0:
469,192,121937,1,0,0:0:0:0:
298,192,121937,1,0,0:0:0:0:
128,192,121937,1,0,0:0:0:0:
469,192,122114,1,0,0:0:0:0:
213,192,122114,1,0,0:0:0:0:
42,192,122114,1,0,0:0:0:0:
128,192,122290,1,0,0:0:0:0:
384,192,122290,1,0,0:0:0:0:
298,192,122290,1,0,0:0:0:0:
128,192,122467,1,0,0:0:0:0:
42,192,122467,1,0,0:0:0:0:
469,192,122467,1,0,0:0:0:0:
384,192,122643,1,0,0:0:0:0:
298,192,122643,1,0,0:0:0:0:
213,192,122643,1,0,0:0:0:0:
128,192,122820,1,0,0:0:0:0:
42,192,122820,1,0,0:0:0:0:
298,192,122820,1,0,0:0:0:0:
384,192,122996,1,0,0:0:0:0:
213,192,122996,1,0,0:0:0:0:
128,192,123084,1,0,0:0:0:0:
298,192,123173,1,0,0:0:0:0:
469,192,123173,1,0,0:0:0:0:
213,192,123261,1,0,0:0:0:0:
384,192,123349,1,0,0:0:0:0:
42,192,123349,1,0,0:0:0:0:
128,192,123437,1,0,0:0:0:0:
298,192,123526,1,0,0:0:0:0:
213,192,123526,1,0,0:0:0:0:
42,192,123614,1,0,0:0:0:0:
469,192,123702,1,0,0:0:0:0:
384,192,123702,1,0,0:0:0:0:
42,192,123790,1,0,0:0:0:0:
128,192,123790,1,0,0:0:0:0:
384,192,123879,1,0,0:0:0:0:
298,192,123879,1,0,0:0:0:0:
128,192,123967,1,0,0:0:0:0:
213,192,123967,1,0,0:0:0:0:
469,192,124055,1,0,0:0:0:0:
384,192,124055,1,0,0:0:0:0:
42,192,124143,1,0,0:0:0:0:
128,192,124143,1,0,0:0:0:0:
384,192,124232,1,0,0:0:0:0:
298,192,124232,1,0,0:0:0:0:
213,192,124320,1,0,0:0:0:0:
128,192,124320,1,0,0:0:0:0:
42,192,124408,1,0,0:0:0:0:
298,192,124408,1,0,0:0:0:0:
384,192,124408,1,0,0:0:0:0:
469,192,124408,1,0,0:0:0:0:
298,192,124937,1,0,0:0:0:0:
298,192,125026,1,0,0:0:0:0:
42,192,125114,1,0,0:0:0:0:
128,192,125114,1,0,0:0:0:0:
213,192,125290,1,0,0:0:0:0:
213,192,125379,1,0,0:0:0:0:
384,192,125467,1,0,0:0:0:0:
469,192,125467,1,0,0:0:0:0:
42,192,125511,1,0,0:0:0:0:
128,192,125555,1,0,0:0:0:0:
213,192,125599,1,0,0:0:0:0:
469,192,125643,1,0,0:0:0:0:
384,192,125687,1,0,0:0:0:0:
298,192,125732,1,0,0:0:0:0:
213,192,125776,1,0,0:0:0:0:
42,192,125820,1,0,0:0:0:0:
384,192,125820,1,0,0:0:0:0:
128,192,125820,1,0,0:0:0:0:
469,192,125820,1,0,0:0:0:0:
213,192,125996,1,0,0:0:0:0:
469,192,126084,1,0,0:0:0:0:
213,192,126173,1,0,0:0:0:0:
298,192,126173,1,0,0:0:0:0:
42,192,126173,1,0,0:0:0:0:
384,192,126261,1,0,0:0:0:0:
128,192,126349,1,0,0:0:0:0:
384,192,126437,1,0,0:0:0:0:
469,192,126526,1,0,0:0:0:0:
213,192,126526,1,0,0:0:0:0:
128,192,126702,1,0,0:0:0:0:
42,192,126879,1,0,0:0:0:0:
384,192,126879,1,0,0:0:0:0:
298,192,126879,1,0,0:0:0:0:
128,192,126967,1,0,0:0:0:0:
469,192,127055,1,0,0:0:0:0:
128,192,127143,1,0,0:0:0:0:
213,192,127232,1,0,0:0:0:0:
384,192,127232,1,0,0:0:0:0:
128,192,127320,1,0,0:0:0:0:
298,192,127408,1,0,0:0:0:0:
42,192,127496,1,0,0:0:0:0:
384,192,127584,1,0,0:0:0:0:
213,192,127584,1,0,0:0:0:0:
298,192,127584,1,0,0:0:0:0:
384,192,127761,1,0,0:0:0:0:
384,192,127849,1,0,0:0:0:0:
128,192,127937,1,0,0:0:0:0:
42,192,127937,128,0,128026:0:0:0:0:
469,192,128114,1,0,0:0:0:0:
213,192,128114,128,0,128202:0:0:0:0:
384,192,128202,1,0,0:0:0:0:
128,192,128202,128,0,128290:0:0:0:0:
298,192,128290,1,0,0:0:0:0:
469,192,128290,1,0,0:0:0:0:
42,192,128290,1,0,0:0:0:0:
213,192,128467,1,0,0:0:0:0:
469,192,128555,1,0,0:0:0:0:
384,192,128555,1,0,0:0:0:0:
42,192,128643,1,0,0:0:0:0:
128,192,128643,1,0,0:0:0:0:
42,192,128732,1,0,0:0:0:0:
128,192,128732,1,0,0:0:0:0:
213,192,128820,1,0,0:0:0:0:
298,192,128820,1,0,0:0:0:0:
42,192,128996,1,0,0:0:0:0:
213,192,128996,1,0,0:0:0:0:
298,192,128996,1,0,0:0:0:0:
469,192,128996,1,0,0:0:0:0:
469,192,129173,1,0,0:0:0:0:
469,192,129261,1,0,0:0:0:0:
42,192,129349,1,0,0:0:0:0:
213,192,129349,1,0,0:0:0:0:
298,192,129437,1,0,0:0:0:0:
128,192,129526,1,0,0:0:0:0:
384,192,129702,1,0,0:0:0:0:
469,192,129702,1,0,0:0:0:0:
213,192,129702,1,0,0:0:0:0:
213,192,129879,1,0,0:0:0:0:
213,192,129967,1,0,0:0:0:0:
469,192,130055,1,0,0:0:0:0:
128,192,130055,1,0,0:0:0:0:
384,192,130143,1,0,0:0:0:0:
384,192,130232,1,0,0:0:0:0:
298,192,130408,1,0,0:0:0:0:
42,192,130408,1,0,0:0:0:0:
213,192,130408,1,0,0:0:0:0:
42,192,130584,1,0,0:0:0:0:
42,192,130673,1,0,0:0:0:0:
298,192,130761,1,0,0:0:0:0:
384,192,130761,128,0,130849:0:0:0:0:
128,192,130937,128,0,131026:0:0:0:0:
213,192,130937,1,0,0:0:0:0:
384,192,131026,128,0,131114:0:0:0:0:
298,192,131026,1,0,0:0:0:0:
42,192,131114,1,0,0:0:0:0:
469,192,131114,1,0,0:0:0:0:
213,192,131114,1,0,0:0:0:0:
128,192,131290,1,0,0:0:0:0:
298,192,131290,1,0,0:0:0:0:
128,192,131379,1,0,0:0:0:0:
42,192,131467,1,0,0:0:0:0:
469,192,131467,1,0,0:0:0:0:
384,192,131467,1,0,0:0:0:0:
298,192,131467,1,0,0:0:0:0:
469,192,131643,1,0,0:0:0:0:
213,192,131643,1,0,0:0:0:0:
128,192,131732,1,0,0:0:0:0:
469,192,131820,1,0,0:0:0:0:
298,192,131820,1,0,0:0:0:0:
213,192,131908,1,0,0:0:0:0:
469,192,131996,1,0,0:0:0:0:
384,192,131996,1,0,0:0:0:0:
298,192,132084,1,0,0:0:0:0:
42,192,132173,1,0,0:0:0:0:
128,192,132173,1,0,0:0:0:0:
42,192,132349,1,0,0:0:0:0:
298,192,132349,1,0,0:0:0:0:
384,192,132437,1,0,0:0:0:0:
42,192,132526,1,0,0:0:0:0:
213,192,132526,1,0,0:0:0:0:
298,192,132614,1,0,0:0:0:0:
42,192,132702,1,0,0:0:0:0:
384,192,132702,1,0,0:0:0:0:
128,192,132702,1,0,0:0:0:0:
213,192,132790,1,0,0:0:0:0:
298,192,132879,1,0,0:0:0:0:
384,192,132879,1,0,0:0:0:0:
469,192,132879,1,0,0:0:0:0:
128,192,132879,1,0,0:0:0:0:
42,192,133055,1,0,0:0:0:0:
298,192,133055,1,0,0:0:0:0:
128,192,133143,1,0,0:0:0:0:
213,192,133232,1,0,0:0:0:0:
469,192,133232,1,0,0:0:0:0:
384,192,133320,1,0,0:0:0:0:
298,192,133408,1,0,0:0:0:0:
128,192,133408,1,0,0:0:0:0:
213,192,133496,1,0,0:0:0:0:
469,192,133584,1,0,0:0:0:0:
42,192,133584,128,0,133673:0:0:0:0:
128,192,133584,128,0,133673:0:0:0:0:
384,192,133673,1,0,0:0:0:0:
298,192,133717,1,0,0:0:0:0:
213,192,133761,1,0,0:0:0:0:
42,192,133849,1,0,0:0:0:0:
469,192,133849,128,0,133937:0:0:0:0:
384,192,133849,128,0,133937:0:0:0:0:
128,192,133937,1,0,0:0:0:0:
213,192,133982,1,0,0:0:0:0:
298,192,134026,1,0,0:0:0:0:
469,192,134114,1,0,0:0:0:0:
42,192,134114,128,0,134202:0:0:0:0:
128,192,134114,128,0,134202:0:0:0:0:
384,192,134202,1,0,0:0:0:0:
298,192,134246,1,0,0:0:0:0:
42,192,134290,1,0,0:0:0:0:
128,192,134290,1,0,0:0:0:0:
213,192,134290,1,0,0:0:0:0:
469,192,134467,1,0,0:0:0:0:
384,192,134467,1,0,0:0:0:0:
298,192,134555,1,0,0:0:0:0:
213,192,134555,1,0,0:0:0:0:
128,192,134555,1,0,0:0:0:0:
42,192,134732,1,0,0:0:0:0:
128,192,134732,1,0,0:0:0:0:
384,192,134820,1,0,0:0:0:0:
298,192,134820,1,0,0:0:0:0:
213,192,134820,1,0,0:0:0:0:
128,192,134996,1,0,0:0:0:0:
213,192,134996,1,0,0:0:0:0:
298,192,135084,1,0,0:0:0:0:
384,192,135084,1,0,0:0:0:0:
469,192,135084,1,0,0:0:0:0:
213,192,135261,1,0,0:0:0:0:
298,192,135261,1,0,0:0:0:0:
42,192,135349,1,0,0:0:0:0:
128,192,135349,1,0,0:0:0:0:
384,192,135349,1,0,0:0:0:0:
298,192,135437,1,0,0:0:0:0:
213,192,135437,1,0,0:0:0:0:
384,192,135526,1,0,0:0:0:0:
128,192,135526,1,0,0:0:0:0:
469,192,135526,1,0,0:0:0:0:
298,192,135614,1,0,0:0:0:0:
213,192,135614,1,0,0:0:0:0:
42,192,135702,1,0,0:0:0:0:
128,192,135702,1,0,0:0:0:0:
469,192,135702,1,0,0:0:0:0:
213,192,135790,1,0,0:0:0:0:
384,192,135879,1,0,0:0:0:0:
128,192,136055,1,0,0:0:0:0:
469,192,136232,1,0,0:0:0:0:
469,192,136320,1,0,0:0:0:0:
42,192,136408,1,0,0:0:0:0:
128,192,136452,1,0,0:0:0:0:
213,192,136496,1,0,0:0:0:0:
384,192,136540,1,0,0:0:0:0:
298,192,136584,1,0,0:0:0:0:
213,192,136629,1,0,0:0:0:0:
469,192,136673,1,0,0:0:0:0:
384,192,136717,1,0,0:0:0:0:
298,192,136761,1,0,0:0:0:0:
128,192,136805,1,0,0:0:0:0:
213,192,136849,1,0,0:0:0:0:
298,192,136893,1,0,0:0:0:0:
42,192,136937,1,0,0:0:0:0:
128,192,136982,1,0,0:0:0:0:
213,192,137026,1,0,0:0:0:0:
384,192,137070,1,0,0:0:0:0:
