osu file format v14

[General]
AudioFilename: audio.mp3
AudioLeadIn: 0
PreviewTime: 97096
Countdown: 0
SampleSet: Soft
StackLeniency: 0.5
Mode: 0
LetterboxInBreaks: 0
WidescreenStoryboard: 0

[Editor]
Bookmarks: 21576,31378,40586,40735,40883,41032,41180,41329,41477,41626,41774,41923,42071,42220,42368,42517,42666,42814,42963,43111,43260,43408,43557,43705,43854,44002,44151,44299,44448,44596,44745,44893,45042,45190,45339,45487,45636,45784,45933,46081,46230,46378,46527,46675,46824,46972,47121,47269,47418,47567,47715,47864,48012,48161,48309,48458,48606,48755,48903,49052,59596,69101,78606,78755,78903,79052,79200,79349,79497,79646,79794,79943,80091,80240,80388,80537,80685,80834,80982,81131,81279,81428,81576,81725,81873,82022,82170,82319,82467,82616,82765,82913,83062,83210,83359,83507,83656,83804,83953,84101,84250,84398,84547,84695,84844,84992,85141,85289,85438,85586,108012,117814,127319,135636,136824
DistanceSpacing: 0.9
BeatDivisor: 8
GridSize: 16
TimelineZoom: 4.599998

[Metadata]
Title:Duplication
TitleUnicode:Duplication
Artist:Zekk
ArtistUnicode:Zekk
Creator:keevy
Version:Metamorphosis
Source:
Tags:dailycare morinaga zekk sunazuka akira quantum rosta decay limerence down 0ppinosu sweet tea lei she luv lando sheluvlando_3 collab electronic instrumental drumstep fa featured artist
BeatmapID:3404789
BeatmapSetID:1667482

[Difficulty]
HPDrainRate:5
CircleSize:4
OverallDifficulty:9
ApproachRate:9.7
SliderMultiplier:1.92
SliderTickRate:1

[Events]
//Background and Video events
0,0,"bg.jpg",0,0
//Break Periods
2,40793,48415
2,81189,85247
//Storyboard Layer 0 (Background)
//Storyboard Layer 1 (Fail)
//Storyboard Layer 2 (Pass)
//Storyboard Layer 3 (Foreground)
//Storyboard Layer 4 (Overlay)
//Storyboard Sound Samples

[TimingPoints]
2574,297.029702970297,4,2,1,60,1,0
2574,-100,4,2,1,60,0,0
2871,-100,4,2,1,30,0,0
4950,-100,4,2,1,40,0,0
6435,-83.3333333333333,4,2,1,40,0,0
7326,-83.3333333333333,4,2,1,45,0,0
7623,-66.6666666666667,4,2,1,50,0,0
8514,-76.9230769230769,4,2,1,50,0,0
9108,-58.8235294117647,4,2,1,50,0,0
9702,-58.8235294117647,4,2,1,55,0,0
10890,-100,4,2,1,55,0,0
11484,-66.6666666666667,4,2,1,55,0,0
11781,-133.333333333333,4,2,1,55,0,0
11855,-133.333333333333,4,2,1,5,0,0
11930,-133.333333333333,4,2,1,55,0,0
12004,-133.333333333333,4,2,1,5,0,0
12078,-45.4545454545455,4,2,1,75,0,0
12300,-50,4,2,1,5,0,0
12375,-50,4,2,1,75,0,0
12970,-66.6666666666667,4,2,1,75,0,0
13044,-66.6666666666667,4,2,1,5,0,0
13118,-66.6666666666667,4,2,1,75,0,0
13192,-66.6666666666667,4,2,1,5,0,0
13267,-43.4782608695652,4,2,1,75,0,0
13415,-66.6666666666667,4,2,1,75,0,0
13712,-50,4,2,1,75,0,0
13861,-33.3333333333333,4,2,1,75,0,0
14455,-50,4,2,1,75,0,0
14603,-100,4,2,1,75,0,0
14900,-66.6666666666667,4,2,1,75,0,0
15346,-50,4,2,1,75,0,0
15643,-58.8235294117647,4,2,1,75,0,0
16385,-76.9230769230769,4,2,1,75,0,0
16534,-66.6666666666667,4,2,1,75,0,0
17128,-83.3333333333333,4,2,1,55,0,0
19281,-50,4,2,1,55,0,0
19950,-50,4,2,1,55,0,0
20247,-50,4,2,1,55,0,0
20395,-39.8406374501992,4,2,1,65,0,0
21138,-100,4,2,1,65,0,0
21212,-100,4,2,1,5,0,0
21286,-100,4,2,1,65,0,0
21583,-33.3333333333333,4,2,1,75,0,0
21880,-100,4,2,1,65,0,0
22177,-40,4,2,1,75,0,0
22772,-58.8235294117647,4,2,1,75,0,0
23366,-66.6666666666667,4,2,1,75,0,0
23514,-71.4285714285714,4,2,1,75,0,0
24108,-250,4,2,1,75,0,0
24554,-33.3333333333333,4,2,1,75,0,0
24851,-40,4,2,1,75,0,0
25148,-31.25,4,2,1,75,0,0
25445,-66.6666666666667,4,2,1,75,0,0
25593,-55.5555555555556,4,2,1,75,0,0
25742,-37.037037037037,4,2,1,75,0,0
26039,-55.5555555555556,4,2,1,75,0,0
26336,-38.4615384615385,4,2,1,75,0,0
26930,-55.5555555555556,4,2,1,75,0,0
27078,-33.3333333333333,4,2,1,75,0,0
27673,-83.3333333333333,4,2,1,75,0,0
28118,-38.4615384615385,4,2,1,75,0,0
28415,-45.4545454545455,4,2,1,75,0,0
28861,-66.6666666666667,4,2,1,75,0,0
29306,-43.4782608695652,4,2,1,75,0,0
29603,-125,4,2,1,75,0,0
29900,-58.8235294117647,4,2,1,75,0,0
30197,-43.4782608695652,4,2,1,75,0,0
30494,-37.037037037037,4,2,1,75,0,0
30791,-43.4782608695652,4,2,1,75,0,0
30940,-55.5555555555556,4,2,1,75,0,0
31088,-250,4,2,1,75,0,0
31385,-29.4117647058824,4,2,1,75,0,0
31682,-40,4,2,1,75,0,0
32128,-100,4,2,1,75,0,0
32276,-55.5555555555556,4,2,1,75,0,0
32722,-50,4,2,1,75,0,0
32871,-66.6666666666667,4,2,1,75,0,0
33613,-200,4,2,1,75,0,0
34059,-35.7142857142857,4,2,1,75,0,0
34356,-66.6666666666667,4,2,1,75,0,0
34504,-50,4,2,1,75,0,0
34653,-30.3030303030303,4,2,1,75,0,0
34950,-66.6666666666667,4,2,1,75,0,0
35247,-31.25,4,2,1,75,0,0
35544,-41.6666666666667,4,2,1,75,0,0
35692,-38.4615384615385,4,2,1,75,0,0
35841,-45.4545454545455,4,2,1,75,0,0
36435,-100,4,2,1,75,0,0
37029,-28.5714285714286,4,2,1,75,0,0
37326,-333.333333333333,4,2,1,75,0,0
37920,-33.3333333333333,4,2,1,75,0,0
38217,-33.3333333333333,4,2,1,75,0,0
38811,-133.333333333333,4,2,1,75,0,0
38960,-40,4,2,1,75,0,0
39405,-64.5161290322581,4,2,1,75,0,0
50395,-400,4,2,1,60,0,0
55296,-222.222222222221,4,2,1,60,0,0
56633,-117.647058823529,4,2,1,60,0,0
56930,-222.222222222222,4,2,1,60,0,0
57375,-153.846153846154,4,2,1,60,0,0
58415,-55.5555555555556,4,2,1,75,0,0
59306,-153.846153846154,4,2,1,75,0,0
59603,-30.3030303030303,4,2,1,75,0,0
59900,-45.4545454545455,4,2,1,75,0,0
60197,-43.4782608695652,4,2,1,75,0,0
60346,-58.8235294117647,4,2,1,75,0,0
61682,-33.3333333333333,4,2,1,75,0,0
61979,-200,4,2,1,75,0,0
62276,-33.3333333333333,4,2,1,75,0,0
62722,-133.333333333333,4,2,1,75,0,0
62871,-100,4,2,1,75,0,0
63316,-20,4,2,1,75,0,0
63465,-16.6666666666667,4,2,1,75,0,0
63613,-50,4,2,1,75,0,0
63762,-50,4,2,1,75,0,0
64207,-71.4285714285714,4,2,1,75,0,0
64356,-35.7142857142857,4,2,1,75,0,0
64653,-33.3333333333333,4,2,1,75,0,0
64950,-50,4,2,1,75,0,0
65098,-38.4615384615385,4,2,1,75,0,0
65395,-50,4,2,1,75,0,0
65544,-37.037037037037,4,2,1,75,0,0
65841,-50,4,2,1,75,0,0
65989,-27.7777777777778,4,2,1,75,0,0
66286,-50,4,2,1,75,0,0
66435,-55.5555555555556,4,2,1,75,0,0
66732,-33.3333333333333,4,2,1,75,0,0
67029,-66.6666666666667,4,2,1,75,0,0
67326,-45.4545454545455,4,2,1,75,0,0
67920,-58.8235294117647,4,2,1,75,0,0
68514,-50,4,2,1,75,0,0
69108,-166.666666666667,4,2,1,75,0,0
69405,-35.7142857142857,4,2,1,75,0,0
69702,-45.4545454545455,4,2,1,75,0,0
71187,-29.4117647058824,4,2,1,75,0,0
71484,-125,4,2,1,75,0,0
71633,-45.4545454545455,4,2,1,75,0,0
71781,-29.4117647058824,4,2,1,75,0,0
72004,-33.3333333333333,4,2,1,75,0,0
72227,-37.037037037037,4,2,1,75,0,0
72375,-45.4545454545455,4,2,1,75,0,0
72673,-166.666666666667,4,2,1,75,0,0
72970,-33.3333333333333,4,2,1,75,0,0
73564,-50,4,2,1,75,0,0
73861,-25.6410256410256,4,2,1,75,0,0
74158,-66.6666666666667,4,2,1,75,0,0
74603,-76.9230769230769,4,2,1,75,0,0
75049,-100,4,2,1,75,0,0
75494,-125,4,2,1,75,0,0
75940,-83.3333333333333,4,2,1,75,0,0
76088,-125,4,2,1,75,0,0
76237,-500,4,2,1,75,0,0
78613,-1000,4,2,1,75,0,0
80989,-1000,4,2,1,50,0,0
85742,-133.333333333333,4,2,1,55,0,0
86633,-45.4545454545455,4,2,1,55,0,0
87227,-100,4,2,1,55,0,0
87821,-100,4,2,1,55,0,0
87895,-100,4,2,1,5,0,0
87970,-100,4,2,1,55,0,0
88044,-100,4,2,1,5,0,0
88118,-35.7142857142857,4,2,1,75,0,0
88415,-58.8235294117647,4,2,1,75,0,0
89009,-50,4,2,1,75,0,0
89306,-33.3333333333333,4,2,1,75,0,0
89752,-66.6666666666667,4,2,1,75,0,0
89900,-50,4,2,1,75,0,0
89974,-50,4,2,1,5,0,0
90049,-50,4,2,1,75,0,0
90123,-50,4,2,1,5,0,0
90197,-37.037037037037,4,2,1,75,0,0
90494,-35.7142857142857,4,2,1,75,0,0
90940,-66.6666666666667,4,2,1,75,0,0
91385,-100,4,2,1,75,0,0
91682,-50,4,2,1,75,0,0
92425,-83.3333333333333,4,2,1,75,0,0
92574,-50,4,2,1,75,0,0
93168,-83.3333333333333,4,2,1,55,0,0
95247,-50,4,2,1,55,0,0
95989,-100,4,2,1,55,0,0
96287,-100,4,2,1,55,0,0
96435,-13.3333333333333,4,2,1,65,0,0
97029,-39.8406374501992,4,2,1,75,0,0
97177,-100,4,2,1,65,0,0
97623,-50,4,2,1,75,0,0
98217,-45.4545454545455,4,2,1,75,0,0
99108,-37.037037037037,4,2,1,75,0,0
99405,-50,4,2,1,75,0,0
99702,-35.7142857142857,4,2,1,75,0,0
99999,-33.3333333333333,4,2,1,75,0,0
100296,-50,4,2,1,75,0,0
100593,-45.4545454545455,4,2,1,75,0,0
101187,-50,4,2,1,75,0,0
101484,-50,4,2,1,75,0,0
101856,-34.4827586206897,4,2,1,75,0,0
102375,-33.3333333333333,4,2,1,75,0,0
102673,-50,4,2,1,75,0,0
102970,-43.4782608695652,4,2,1,75,0,0
103267,-50,4,2,1,75,0,0
103564,-45.4545454545455,4,2,1,75,0,0
103861,-66.6666666666667,4,2,1,75,0,0
104158,-45.4545454545455,4,2,1,75,0,0
104455,-33.3333333333333,4,2,1,75,0,0
104752,-40,4,2,1,75,0,0
105197,-25,4,2,1,75,0,0
105791,-66.6666666666667,4,2,1,75,0,0
105940,-100,4,2,1,75,0,0
106534,-66.6666666666667,4,2,1,75,0,0
107128,-35.7142857142857,4,2,1,75,0,0
107425,-41.6666666666667,4,2,1,75,0,0
108019,-66.6666666666667,4,2,1,75,0,0
108093,-66.6666666666667,4,2,1,5,0,0
108316,-35.7142857142857,4,2,1,75,0,0
108613,-83.3333333333333,4,2,1,75,0,0
108762,-50,4,2,1,75,0,0
108910,-35.7142857142857,4,2,1,75,0,0
109207,-83.3333333333333,4,2,1,75,0,0
109504,-33.3333333333333,4,2,1,75,0,0
109801,-83.3333333333333,4,2,1,75,0,0
109950,-37.037037037037,4,2,1,75,0,0
110247,-83.3333333333333,4,2,1,75,0,0
110395,-33.3333333333333,4,2,1,75,0,0
110507,-33.3333333333333,4,2,1,5,0,0
110544,-166.666666666667,4,2,1,75,0,0
110841,-33.3333333333333,4,2,1,75,0,0
111138,-25,4,2,1,75,0,0
111880,-500.000000000003,4,2,1,75,0,0
112177,-33.3333333333333,4,2,1,75,0,0
112623,-83.3333333333333,4,2,1,75,0,0
112772,-66.6666666666667,4,2,1,75,0,0
112919,-28.5714285714286,4,2,1,75,0,0
113217,-83.3333333333333,4,2,1,75,0,0
113366,-33.3333333333333,4,2,1,75,0,0
113663,-83.3333333333333,4,2,1,75,0,0
113960,-62.5,4,2,1,75,0,0
114331,-28.5714285714286,4,2,1,75,0,0
114776,-25,4,2,1,75,0,0
115148,-125,4,2,1,75,0,0
115445,-33.3333333333333,4,2,1,75,0,0
116039,-62.5,4,2,1,75,0,0
116633,-83.3333333333333,4,2,1,75,0,0
117524,-55.5555555555556,4,2,1,75,0,0
117747,-125,4,2,1,5,0,0
117821,-29.4117647058824,4,2,1,75,0,0
118118,-43.4782608695652,4,2,1,75,0,0
119009,-50,4,2,1,75,0,0
119306,-45.4545454545455,4,2,1,75,0,0
119603,-50,4,2,1,75,0,0
119900,-55.5555555555556,4,2,1,75,0,0
120197,-20,4,2,1,75,0,0
120346,-166.666666666667,4,2,1,75,0,0
120791,-25,4,2,1,75,0,0
121088,-50,4,2,1,75,0,0
121385,-27.027027027027,4,2,1,75,0,0
121682,-66.6666666666667,4,2,1,75,0,0
121979,-32.258064516129,4,2,1,75,0,0
122574,-27.7777777777778,4,2,1,75,0,0
122871,-35.7142857142857,4,2,1,75,0,0
123168,-66.6666666666667,4,2,1,75,0,0
123762,-37.037037037037,4,2,1,75,0,0
124059,-28.5714285714286,4,2,1,75,0,0
124356,-26.3157894736842,4,2,1,75,0,0
124653,-200,4,2,1,75,0,0
124950,-66.6666666666667,4,2,1,75,0,0
125098,-40,4,2,1,75,0,0
125247,-28.5714285714286,4,2,1,75,0,0
125841,-26.3157894736842,4,2,1,75,0,0
126138,-33.3333333333333,4,2,1,75,0,0
126361,-50,4,2,1,75,0,0
126732,-50,4,2,1,75,0,0
127029,-33.3333333333333,4,2,1,75,0,0
127326,-133.333333333333,4,2,1,75,0,0
127623,-27.7777777777778,4,2,1,75,0,0
127920,-50,4,2,1,75,0,0
128217,-33.3333333333333,4,2,1,75,0,0
128663,-71.4285714285714,4,2,1,75,0,0
129702,-37.037037037037,4,2,1,75,0,0
129999,-71.4285714285714,4,2,1,75,0,0
130148,-55.5555555555556,4,2,1,75,0,0
130445,-62.5,4,2,1,75,0,0
130890,-40,4,2,1,75,0,0
131187,-62.5,4,2,1,75,0,0
131559,-33.3333333333333,4,2,1,75,0,0
132078,-31.25,4,2,1,75,0,0
132375,-50,4,2,1,75,0,0
132673,-37.037037037037,4,2,1,75,0,0
132821,-71.4285714285714,4,2,1,75,0,0
133267,-35.7142857142857,4,2,1,75,0,0
133935,-45.4545454545455,4,2,1,75,0,0
134158,-500,4,2,1,75,0,0
134529,-35.7142857142857,4,2,1,75,0,0
134752,-33.3333333333333,4,2,1,75,0,0
134974,-29.4117647058824,4,2,1,75,0,0
135197,-33.3333333333333,4,2,1,75,0,0
135643,-40,4,2,1,75,0,0
136237,-66.6666666666667,4,2,1,75,0,0
136534,-28.5714285714286,4,2,1,75,0,0
136831,-153.846153846154,4,2,1,55,0,0
140989,333.333333333333,4,2,1,55,1,0
141239,-500,4,2,1,55,0,0
141489,389.61038961039,4,2,1,55,1,0
141878,-500,4,2,1,55,0,0

[Colours]
Combo1 : 255,60,60
Combo2 : 255,145,145

[HitObjects]
132,296,2574,6,0,P|188:296|232:254,1,96,6|0,1:2|2:0,0:0:0:0:
286,318,2871,1,2,2:0:0:0:
248,115,3019,1,2,2:0:0:0:
209,195,3168,1,2,2:0:0:0:
209,195,3465,5,2,2:0:0:0:
281,27,3613,1,0,2:0:0:0:
413,124,3762,2,0,P|371:93|312:106,1,96,2|0,2:0|2:0,0:0:0:0:
192,44,4059,2,0,P|148:89|158:134,1,96,2|2,2:0|2:0,0:0:0:0:
72,150,4356,5,2,2:0:0:0:
120,218,4653,1,2,2:0:0:0:
262,221,4801,5,0,2:0:0:0:
156,354,4950,2,0,P|156:307|191:276,1,96,2|0,2:0|2:0,0:0:0:0:
228,384,5247,2,0,P|268:332|240:280,1,96,2|2,2:0|2:0,0:0:0:0:
262,221,5470,5,0,2:0:0:0:
257,230,5544,1,2,2:0:0:0:
310,125,5841,1,2,2:0:0:0:
136,139,5989,1,0,2:0:0:0:
193,53,6138,5,2,2:0:0:0:
224,129,6286,1,0,2:0:0:0:
310,125,6435,2,0,P|341:82|439:95,1,115.199996484375,2|2,2:0|2:0,0:0:0:0:
477,130,6732,5,2,2:0:0:0:
371,212,6880,1,2,2:0:0:0:
506,294,7029,2,0,P|504:236|432:220,1,115.199996484375,2|2,2:0|2:0,0:0:0:0:
316,328,7326,6,0,P|376:323|418:274,1,115.199996484375,2|0,2:0|2:0,0:0:0:0:
310,125,7623,1,2,2:0:0:0:
197,306,7772,5,2,2:0:0:0:
189,306,7846,1,2,2:0:0:0:
182,302,7920,2,0,B|147:276|134:235|160:199|180:182|183:184|187:185|214:178|229:141|221:96|193:68|152:58,1,288,2|2,2:0|2:0,0:0:0:0:
89,10,8366,5,2,0:0:0:0:
89,10,8440,1,2,0:0:0:0:
89,10,8514,2,0,P|45:40|70:102,1,124.79999428711,2|0,2:0|2:0,0:0:0:0:
135,129,8811,1,2,2:0:0:0:
240,342,8960,5,2,2:0:0:0:
244,349,9034,1,2,2:0:0:0:
251,352,9108,2,0,B|278:360|310:345|319:310|309:278|291:253|264:238|228:238|200:266|170:289|171:298|174:307|163:330|119:350|84:340|49:307|33:270|54:212|120:191|151:198|181:258|154:282,1,489.600009338379,2|0,2:0|2:0,0:0:0:0:
237,135,9702,5,2,2:0:0:0:
210,62,9999,5,2,2:0:0:0:
160,124,10148,1,0,2:0:0:0:
127,51,10296,1,2,2:0:0:0:
188,196,10593,5,2,2:0:0:0:
347,178,10890,6,0,P|370:221|353:273,1,96,2|0,2:0|2:0,0:0:0:0:
282,342,11187,6,0,P|284:352|283:338,1,96,2|0,2:0|2:0,0:0:0:0:
96,351,11484,6,0,L|84:274,1,72,2|0,2:0|2:0,0:0:0:0:
79,271,11633,2,0,L|67:194,1,72,0|0,2:0|2:0,0:0:0:0:
181,89,11781,6,0,P|187:72|187:55,1,36.0000000000001,0|0,1:0|2:0,0:0:0:0:
193,56,11930,2,0,P|193:73|187:90,1,36.0000000000001,0|0,1:0|2:0,0:0:0:0:
107,77,12078,6,0,B|141:5|281:-3|323:43|323:43|274:52|253:108,1,316.800009667969,4|0,1:2|2:0,0:0:0:0:
340,117,12375,2,0,P|350:144|338:117,1,96,8|0,2:0|2:0,0:0:0:0:
121,297,12524,6,0,B|120:333|143:353|176:378|212:368|236:339|239:318|241:291|230:273|209:258|209:258|183:244|174:230|166:206|174:175|191:157|223:146|256:158|277:187|282:219,1,384,4|0,1:2|3:2,0:0:0:0:
393,309,12895,5,0,3:2:0:0:
389,306,12970,2,0,P|366:272|381:231,1,72,4|0,3:2|2:0,0:0:0:0:
448,222,13118,2,0,P|472:253|462:295,1,72,2|0,2:0|2:0,0:0:0:0:
482,0,13267,6,0,P|437:65|359:31,1,110.4,4|0,1:2|2:0,0:0:0:0:
406,64,13415,2,0,P|445:56|470:33,1,72,0|0,2:0|2:0,0:0:0:0:
212,95,13564,6,0,L|127:75,1,72.0000027465821,2|0,0:0|0:0,0:0:0:0:
245,25,13712,2,0,L|151:3,1,96,6|0,1:2|0:0,0:0:0:0:
125,300,13861,6,0,B|122:283|122:283|176:148,1,144,0|0,2:0|2:0,0:0:0:0:
244,168,14009,2,0,B|250:176|250:176|195:318,1,144,2|0,2:0|2:0,0:0:0:0:
45,193,14158,6,0,B|56:191|56:191|291:300|291:300|308:293,1,288.000010986329,8|0,2:0|1:0,0:0:0:0:
429,372,14380,5,0,2:0:0:0:
437,367,14455,2,0,P|465:323|434:258,1,96,4|0,1:2|2:0,0:0:0:0:
388,231,14603,2,0,P|381:254|400:302,2,48,0|0|8,2:0|2:0|2:0,0:0:0:0:
510,218,14900,6,0,P|408:255|273:307,1,216.000008239746,0|0,1:2|0:0,0:0:0:0:
336,71,15198,5,0,0:0:0:0:
338,68,15273,1,0,0:0:0:0:
341,67,15346,2,0,P|384:39|433:52,1,96,2|4,2:0|2:3,0:0:0:0:
443,121,15494,2,0,P|400:150|351:138,1,96,0|0,3:2|2:0,0:0:0:0:
92,309,15643,6,0,B|108:345|151:362|194:351|223:315|225:265|205:223|164:204|135:211|133:215|133:221|100:225|65:188|41:137|50:98|69:57|105:29|144:10|216:22|241:48|260:93|273:142|231:187,1,652.8,4|0,1:2|2:0,0:0:0:0:
244,172,16385,6,0,P|268:198|321:180,1,62.3999971435548,0|0,2:0|2:0,0:0:0:0:
413,96,16534,2,0,P|352:154|355:290,1,216,0|0,2:0|2:0,0:0:0:0:
321,348,16831,1,4,2:0:0:0:
423,232,16979,5,0,2:0:0:0:
504,314,17128,2,0,P|469:313|447:301,2,57.6,2|0|0,2:0|2:0|2:0,0:0:0:0:
423,232,17425,5,2,2:0:0:0:
370,172,17499,1,0,2:0:0:0:
297,176,17574,1,0,2:0:0:0:
270,192,17648,1,0,2:0:0:0:
244,193,17722,2,0,P|224:158|235:132,1,57.6,2|0,2:0|2:0,0:0:0:0:
309,37,17871,2,0,P|289:72|300:98,1,57.6,2|0,2:0|2:0,0:0:0:0:
446,79,18019,6,0,P|414:127|343:122,1,115.2,2|2,2:0|2:0,0:0:0:0:
207,66,18316,5,0,2:0:0:0:
202,63,18390,1,0,2:0:0:0:
197,61,18465,1,2,2:0:0:0:
244,193,18613,5,0,2:0:0:0:
292,252,18687,1,0,2:0:0:0:
355,253,18762,1,0,2:0:0:0:
387,232,18836,1,0,2:0:0:0:
397,218,18910,2,0,P|417:253|406:279,1,57.6,0|0,1:0|2:0,0:0:0:0:
329,343,19059,2,0,P|309:308|320:282,1,57.6,0|0,2:0|2:0,0:0:0:0:
149,255,19207,5,0,1:0:0:0:
154,258,19281,2,0,P|205:261|253:206,1,96,8|0,2:0|2:0,0:0:0:0:
221,160,19430,1,0,2:0:0:0:
217,155,19504,2,0,P|166:152|118:207,1,96,8|0,2:0|2:0,0:0:0:0:
51,269,19653,5,0,2:0:0:0:
44,272,19727,2,0,P|13:259|45:265,1,96,8|0,2:0|2:0,0:0:0:0:
78,40,19950,6,0,L|186:57,1,96,8|0,2:0|2:0,0:0:0:0:
186,51,20098,2,0,L|294:68,1,96,8|0,2:0|2:0,0:0:0:0:
470,290,20247,5,8,2:0:0:0:
467,295,20321,1,0,2:0:0:0:
462,300,20395,2,0,B|461:303|459:306|459:306|461:309|461:309|458:309|458:309|457:311|455:313|455:313|452:312|452:312|453:315|453:315|451:317|449:318|449:318|450:322|450:322|447:320|447:320|445:322|443:323|443:323|440:321|440:321|440:324|440:324|438:326|436:326|436:326|435:330|435:330|433:328|433:328|431:328|428:329|428:329|426:326|426:326|425:329|425:329|423:330|420:330|420:330|419:333|419:333|417:330|417:330|415:330|412:330|412:330|411:327|411:327|409:330|409:330|407:330|404:329|404:329|402:332|402:332|401:328|401:328|399:328|397:327|397:327|396:323|396:323|394:326|394:326|392:325|389:323|389:323|387:325|387:325|387:322|387:322|385:320|383:319|383:319|384:316|384:316|381:317|381:317|379:315|377:313|377:313|374:314|374:314|375:311|375:311|374:309|372:307|372:307|374:304|374:304|371:304|371:304|369:302|368:300|368:300|365:300|365:300|367:297|367:297|366:295|365:293|365:293|368:290|368:290|365:290|365:290|364:287|364:285|364:285|361:284|361:284|363:282|363:282|363:279|363:277|363:277|366:275|366:275|363:274|363:274|363:271|364:269|364:269|361:267|361:267|364:266|364:266|364:263|365:261|365:261|368:260|368:260|366:258|366:258|367:256|368:253|368:253|365:251|365:251|369:251|369:251|370:248|371:246|371:246|374:246|374:246|372:243|372:243|374:241|375:239|375:239|374:236|374:236|377:237|377:237|379:235|380:233|380:233|383:234|383:234|382:231|382:231|384:229|386:227|386:227|385:224|385:224|388:225|388:225|390:224|392:222|392:222|395:224|395:224|394:220|394:220|396:219|398:218|398:218|398:214|398:214|401:216|401:216|403:215|405:213|405:213|408:215|408:215|408:212|408:212|410:211|412:210|412:210|412:206|412:206|415:208|415:208|417:207|419:206|419:206|422:208|422:208|422:204|422:204|424:203|426:202|426:202|426:198|426:198|429:200|429:200|431:199|433:197|433:197|436:199|436:199|435:196|435:196|437:194|439:193|439:193|439:189|439:189|442:191|442:191|443:189|445:187|445:187|448:188|448:188|447:185|447:185|449:183|451:181|451:181|449:178|449:178|453:179|453:179|454:177|456:175|456:175|459:175|459:175|457:172|457:172|459:170|460:168|460:168|458:165|458:165|461:165|461:165|462:163|463:161|463:161|467:161|467:161|464:158|464:158|465:156|466:154|466:154|464:151|464:151|467:151|467:151|468:148|468:146|468:146|472:145|472:145|469:143|469:143|470:140|470:138|470:138|467:136|467:136|470:135|470:135|471:132|471:130|471:130|474:129|474:129|471:127|471:127|471:124|471:122|471:122|468:121|468:121|470:119|470:119|470:116|470:114|470:114|473:112|473:112|469:111|469:111|469:109|468:106|468:106|465:105|465:105|468:103|468:103|467:101|466:99|466:99|469:96|469:96|465:96|465:96|464:93|463:91|463:91|460:91|460:91|462:88|462:88|461:86|460:84|460:84|461:81|461:81|458:81|458:81|457:79|455:77|455:77|452:78|452:78|453:75|453:75|452:73|450:71|450:71|451:68|451:68|448:69|448:69|446:67|445:65|445:65|441:67|441:67|442:63|442:63|440:62|438:60|438:60|439:57|439:57|436:59|436:59|434:57|432:56|432:56|429:58|429:58|429:54|429:54|427:53|425:52|425:52|425:49|425:49|422:51|422:51|420:50|417:49|417:49|415:51|415:51|414:48|414:48|412:47|410:47|410:47|409:43|409:43|407:46|407:46|404:45|402:45|402:45|400:48|400:48|399:45|399:45|396:44|394:44|394:44|392:41|392:41|391:44|391:44|388:44|386:44|386:44|385:47|385:47|383:44|383:44|380:44|378:45|378:45|376:42|376:42|375:45|375:45|372:46|370:46|370:46|369:49|369:49|367:47|367:47|365:47|362:48|362:48|360:46|360:46|359:49|359:49|357:50|355:51|355:51|355:54|355:54|352:52|352:52|350:53|348:55|348:55|345:53|345:53|345:56|345:56|343:57|341:59|341:59|341:62|341:62|338:61|338:61|336:62|335:64|335:64|331:62|331:62|332:66|332:66|330:67|329:69|329:69|330:72|330:72|327:71|327:71|325:73|323:75|323:75|320:75|320:75|322:78|322:78|320:80|319:82|319:82|320:85|320:85|317:84|317:84|316:86|315:89|315:89|311:89|311:89|313:91|313:91|312:94|311:96|311:96|314:98|314:98|310:99|310:99|309:101|309:103|309:103|305:104|305:104|308:106|308:106|307:109|307:111|307:111|309:113|309:113|306:114|306:114|306:117|305:119|305:119|302:120|302:120|305:122|305:122|305:125|305:127|305:127|308:128|308:128|305:130|305:130|305:133|305:135|305:135|302:137|302:137|306:138|306:138|306:141|306:143|306:143|310:144|310:144|307:146|307:146|308:148|308:151|308:151|306:153|306:153|309:153|309:153|310:156|311:158|311:158|314:158|314:158|312:161|312:161|313:163|315:165|315:165|313:168|313:168|316:168|316:168|317:170|319:172|319:172|322:172|322:172|321:175|321:175|322:176|323:177,1,963.84,4|0,1:2|2:0,0:0:0:0:
329,179,21138,2,0,P|326:138|298:110,1,48,0|0,2:0|2:0,0:0:0:0:
118,148,21286,5,2,2:0:0:0:
145,81,21361,1,0,2:0:0:0:
119,32,21435,1,0,2:0:0:0:
82,20,21509,1,0,2:0:0:0:
0,30,21583,6,2,B|12:119|120:147|184:60|147:39|224:-6|299:55|299:55|252:73|226:144,1,432.000016479493,4|0,1:2|0:0,0:1:0:0:
323,132,21880,2,0,B|352:140|352:177|352:177|329:172|325:150,1,96,2|0,0:0|0:0,0:0:0:0:
82,20,22177,6,0,P|149:127|178:293,1,240,8|0,0:0|0:0,0:0:0:0:
172,247,22400,1,0,0:0:0:0:
158,242,22474,5,0,0:0:0:0:
181,201,22549,1,0,0:0:0:0:
243,187,22623,1,0,1:2:0:0:
304,227,22697,1,0,1:2:0:0:
326,318,22772,5,2,1:2:0:0:
326,318,22846,1,2,0:0:0:0:
326,318,22920,2,0,L|294:231,1,81.6000015563965,2|0,0:0|0:0,0:0:0:0:
407,291,23069,5,2,1:2:0:0:
407,291,23143,1,2,0:0:0:0:
407,291,23217,2,0,L|375:204,1,81.6000015563965,2|0,0:0|0:0,0:0:0:0:
71,352,23366,6,0,P|77:308|103:285,1,72.0000027465821,10|0,0:0|0:0,0:0:0:0:
167,322,23514,2,0,P|161:363|136:385,1,67.1999979492188,2|0,0:0|0:0,0:0:0:0:
18,253,23663,6,0,P|-4:212|1:189,1,67.1999979492188,2|0,0:0|0:0,0:0:0:0:
251,63,23811,2,0,P|226:102|204:109,1,67.1999979492188,2|0,0:0|0:0,0:0:0:0:
43,40,23960,5,4,1:2:0:0:
232,253,24108,6,2,L|240:229,1,19.2,2|2,0:0|0:0,0:1:0:0:
160,225,24257,6,2,L|168:201,1,19.2,2|2,0:0|0:0,0:1:0:0:
89,196,24405,6,2,L|97:172,1,19.2,2|2,0:0|0:0,0:1:0:0:
381,200,24554,6,0,P|273:251|160:422,1,288.000010986329,8|0,0:0|0:0,0:0:0:0:
33,273,24776,1,0,1:2:0:0:
21,271,24851,2,0,B|7:259|-3:238|-3:238|-2:291|44:312,1,120,0|0,1:2|0:0,0:0:0:0:
27,384,24999,6,0,P|69:329|137:331,1,120,0|0,1:2|0:0,0:0:0:0:
383,376,25148,2,2,B|436:423|529:349|482:266|392:250|378:288|376:294|374:298|321:334|240:279|246:172|364:123|404:209,1,460.8,4|0,1:2|0:0,0:1:0:0:
381,200,25445,2,0,P|338:185|333:149,1,72.0000027465821,0|0,1:2|0:0,0:0:0:0:
357,84,25593,6,0,P|343:60|360:83,1,86.3999973632813
284,376,25742,6,0,P|344:237|518:70,1,388.800001483154,8|0,0:0|0:0,0:0:0:0:
357,0,26039,6,0,P|361:73|339:106,1,86.3999973632813
488,275,26187,6,0,P|432:277|394:304,1,86.3999973632813
89,249,26336,6,2,B|50:246|23:276|23:276|64:173|148:172|132:188|230:252|285:189|283:35|193:-17|193:-17|211:51|172:100|158:61|109:110|130:162,1,748.799965722658,4|0,1:2|0:0,0:1:0:0:
89,324,26856,1,0,0:0:0:0:
84,325,26930,6,0,P|93:352|87:324,1,86.3999973632813,8|0,0:0|0:0,0:0:0:0:
232,196,27078,6,0,P|111:263|-14:378,2,288.000010986329,2|2|2,0:0|0:0|1:2,0:0:0:0:
245,200,27450,1,0,1:2:0:0:
301,266,27524,5,2,1:1:0:0:
301,266,27673,2,0,P|321:244|325:204,1,57.5999982421876,2|0,0:0|0:0,0:0:0:0:
243,377,27821,5,2,1:1:0:0:
243,377,27970,2,0,P|214:361|199:331,1,57.5999982421876,2|0,0:0|0:0,0:0:0:0:
392,104,28118,6,0,B|464:133|454:264|373:242|367:241|361:241|281:230|277:383|378:389,1,374.399982861329,8|0,0:0|0:0,0:0:0:0:
200,183,28415,6,0,B|147:237|246:321|284:264|287:260|290:256|322:193|410:261|388:322,1,316.800009667969
439,384,28712,5,4,1:2:0:0:
265,45,28861,2,0,P|256:25|263:47,1,72.0000027465821,2|0,0:0|0:0,0:0:0:0:
294,122,29009,5,2,0:0:0:0:
0,50,29158,1,2,0:0:0:0:
0,50,29232,1,2,0:0:0:0:
0,50,29306,2,0,B|62:-12|233:15|186:209|53:172|69:93,1,331.200006317139,10|0,0:0|0:0,0:0:0:0:
75,98,29603,6,0,L|91:140,1,38.4,0|0,1:2|0:0,0:0:0:0:
116,206,29752,2,0,L|132:250,1,38.4,0|0,1:2|0:0,0:0:0:0:
225,380,29900,6,0,B|230:334|197:303|129:314|130:334|97:351|45:329|30:272,1,244.80000466919,0|0,1:2|0:0,0:0:0:0:
225,380,30197,6,0,B|156:345|179:258|226:252|231:252|235:251|285:237|317:157|243:101,1,331.200006317139,0|0,1:2|0:0,0:0:0:0:
75,98,30494,6,0,P|222:212|368:400,1,388.800001483154,8|0,0:0|0:0,0:0:0:0:
341,376,30791,6,0,P|312:328|359:283,1,110.400002105713,0|0,1:2|0:0,0:0:0:0:
325,211,30940,2,0,P|376:182|415:212,1,86.3999973632813,2|0,0:0|0:0,0:0:0:0:
440,127,31088,2,0,P|462:138|475:169,1,57.6
465,354,31385,6,2,B|514:299|510:221|443:137|349:134|298:143|246:190|246:190|290:178|333:204|349:248,1,489.600009338379,4|0,1:2|0:0,0:1:0:0:
265,265,31682,2,0,B|268:310|227:320|227:320|226:287|255:273,1,120,8|0,0:0|0:0,0:0:0:0:
160,160,31831,5,2,0:0:0:0:
206,169,31905,1,2,0:0:0:0:
254,137,31979,1,2,0:0:0:0:
263,69,32054,1,2,0:0:0:0:
212,10,32128,2,0,L|151:22,1,48,2|0,1:2|1:2,0:0:0:0:
2,68,32276,5,2,1:2:0:0:
9,75,32351,1,2,0:0:0:0:
15,81,32425,2,0,L|133:52,1,86.3999973632813,2|0,0:0|0:0,0:0:0:0:
0,156,32574,5,2,1:2:0:0:
14,165,32649,1,2,0:0:0:0:
28,175,32723,2,0,L|171:141,1,96,2|0,0:0|0:0,0:0:0:0:
192,266,32871,6,0,P|188:310|155:336,1,72.0000027465821,10|0,0:0|0:0,0:0:0:0:
97,302,33019,2,0,P|100:257|133:231,1,72.0000027465821,2|0,0:0|0:0,0:0:0:0:
307,335,33168,6,0,P|279:369|231:368,1,72.0000027465821,2|0,0:0|0:0,0:0:0:0:
191,116,33316,2,0,P|227:96|269:109,1,72.0000027465821,2|0,0:0|0:0,0:0:0:0:
508,210,33465,5,0,1:2:0:0:
496,5,33613,6,2,L|504:27,1,24,2|0,0:0|0:0,0:1:0:0:
421,32,33762,6,2,L|422:55,1,24,2|0,0:0|0:0,0:1:0:0:
343,47,33910,6,2,L|338:70,1,24,2|0,0:0|0:0,0:1:0:0:
173,18,34059,6,0,P|258:45|414:204,1,268.799991796875,8|2,0:0|0:0,0:0:0:0:
511,214,34281,5,0,1:2:0:0:
511,214,34356,2,0,P|489:252|457:260,1,72.0000027465821,0|0,1:2|0:0,0:0:0:0:
276,347,34504,5,0,1:2:0:0:
272,349,34578,1,0,1:2:0:0:
268,349,34653,2,2,B|215:346|190:313|182:261|204:222|239:189|293:199|331:227|339:251|333:254|330:258|338:290|379:305|436:291|463:247|463:198|432:161|391:150|357:165,1,475.20000453186,4|0,1:2|0:0,0:1:0:0:
384,164,34950,2,0,P|345:147|345:108,1,72.0000027465821,0|0,1:2|0:0,0:0:0:0:
355,23,35098,6,0,P|375:33|351:26,1,72.0000027465821
452,70,35247,6,0,P|320:254|104:319,1,460.8,8|0,0:0|0:0,0:0:0:0:
9,157,35544,6,0,P|82:150|119:101,1,115.199996484375,2|0,1:2|0:0,0:0:0:0:
117,126,35692,2,0,P|71:164|3:163,1,124.79999428711,2|0,0:0|0:0,0:0:0:0:
437,250,35841,6,0,B|523:255|526:374|449:418|359:400|299:339|278:250|345:201|342:202|338:199|394:145|349:92|299:54|260:51|194:114|198:166|298:204,1,633.600019335938,2|0,1:2|3:0,0:0:0:0:
258,178,36361,1,0,3:0:0:0:
261,173,36435,6,0,P|255:143|208:129,1,48,8|0,0:0|0:0,0:0:0:0:
40,81,36658,6,0,P|34:51|-13:37,1,48,8|0,0:0|0:0,0:0:0:0:
455,291,36880,6,0,P|452:267|436:249,1,48,8|0,0:0|0:0,0:0:0:0:
410,142,37029,6,2,B|373:17|234:42|183:116|199:182|228:233|228:233|265:311|214:370|121:376|95:301,1,588.000005607605,6|0,1:2|0:0,0:1:0:0:
37,298,37326,6,2,P|45:275|60:266,1,43.1999986816407,0|0,1:2|0:0,0:1:0:0:
92,164,37623,2,2,P|107:182|108:199,1,43.1999986816407,10|0,0:0|0:0,0:1:0:0:
85,237,37920,6,2,P|191:177|511:172,1,432.000016479493,0|0,0:0|0:0,0:1:0:0:
454,45,38217,5,0,1:2:0:0:
462,48,38291,2,0,P|506:89|487:173,1,144.000005493164,8|0,0:0|0:0,0:0:0:0:
358,66,38440,5,0,1:2:0:0:
352,72,38514,2,0,P|336:139|383:190,1,144.000005493164,8|0,0:0|0:0,0:0:0:0:
466,296,38663,5,0,1:0:0:0:
466,296,38737,1,8,0:0:0:0:
466,296,38811,2,0,L|451:252,1,36.0000013732911,8|0,0:0|0:0,0:0:0:0:
192,192,38960,6,0,P|214:228|300:232,1,120,8|0,0:0|0:0,0:0:0:0:
65,196,39108,2,0,P|44:233|104:298,1,120,8|0,0:0|0:0,0:0:0:0:
0,28,39257,5,8,0:0:0:0:
0,28,39331,1,8,0:0:0:0:
0,28,39405,2,0,B|25:2|56:-2|87:22|92:50|92:50|97:79|120:91|147:97|167:82|167:82|198:64|232:79|240:111|240:111|246:140|264:154|291:160|315:145|315:145|338:130|366:136|399:150|400:196|376:225,1,520.800003973389,0|0,1:2|0:0,0:0:0:0:
388,207,39999,5,2,0:0:0:0:
379,202,40074,1,2,0:0:0:0:
368,181,40148,1,2,0:0:0:0:
369,156,40222,1,2,0:0:0:0:
384,133,40296,1,2,0:0:0:0:
416,115,40371,1,2,0:0:0:0:
444,77,40445,1,2,0:0:0:0:
443,26,40519,1,2,0:0:0:0:
395,0,40593,1,6,1:2:0:0:
256,192,48910,12,4,50098,1:2:0:0:
129,112,50395,6,0,L|123:89,1,24,2|0,0:0|0:0,0:0:0:0:
97,17,50692,1,2,0:0:0:0:
156,186,50989,5,2,0:0:0:0:
45,125,51286,5,2,0:0:0:0:
210,73,51435,1,2,0:0:0:0:
156,186,51583,6,0,L|149:211,1,24,2|0,0:0|0:0,0:0:0:0:
30,294,51880,5,2,0:0:0:0:
101,270,52029,1,2,0:0:0:0:
177,284,52177,1,2,0:0:0:0:
221,343,52326,1,2,0:0:0:0:
114,372,52474,5,2,0:0:0:0:
39,210,52772,5,2,0:0:0:0:
288,280,53069,5,2,0:0:0:0:
221,343,53366,5,2,0:0:0:0:
221,343,53663,5,2,0:0:0:0:
305,372,53960,5,2,0:0:0:0:
373,317,54108,2,0,L|370:305,1,12,2|2,0:0|0:0,0:0:0:0:
504,246,54257,6,0,L|497:274,1,24,2|0,0:0|0:0,0:0:0:0:
432,224,54554,2,0,L|425:252,1,24,2|0,0:0|0:0,0:0:0:0:
411,18,54851,5,2,3:2:0:0:
393,27,54999,1,0,3:2:0:0:
378,37,55148,1,0,3:2:0:0:
337,109,55296,6,0,L|331:130,2,21.5999993408203,2|2|2,3:2|3:2|3:2,0:0:0:0:
295,33,55593,5,0,3:2:0:0:
265,19,55742,1,2,3:2:0:0:
230,26,55890,1,0,3:2:0:0:
57,11,56039,5,0,3:2:0:0:
104,6,56187,1,2,3:2:0:0:
148,33,56336,1,0,3:2:0:0:
163,78,56484,1,0,3:2:0:0:
214,252,56633,1,0,3:2:0:0:
214,252,56781,6,0,L|230:211,1,40.8000007781983,2|0,3:2|3:2,0:0:0:0:
78,92,56930,2,0,L|94:140,1,43.1999986816407,2|0,3:2|3:2,0:0:0:0:
0,266,57227,5,0,3:2:0:0:
3,255,57301,1,0,3:2:0:0:
15,247,57375,2,0,P|28:267|31:279,1,31.1999985717774,0|0,3:0|3:0,0:0:0:0:
48,253,57524,2,0,P|49:276|45:288,1,31.1999985717774,0|0,3:2|3:0,0:0:0:0:
78,277,57673,2,0,P|67:298|58:306,1,31.1999985717774,0|0,3:2|3:0,0:0:0:0:
24,383,57821,5,0,3:2:0:0:
53,348,57895,1,0,3:2:0:0:
100,331,57970,1,0,3:2:0:0:
144,338,58044,1,0,3:2:0:0:
178,355,58118,2,0,L|191:391,1,31.1999985717774
260,290,58267,2,0,L|250:322,1,31.1999985717774
355,46,58415,6,0,B|310:11|248:27|231:107|291:146|342:124|342:124|390:103|444:105|513:186|456:277|372:290|323:241|323:241|260:180|172:210|115:301|202:420|293:389|326:331,1,950.399970996095,6|0,1:2|0:0,0:0:0:0:
105,315,59306,6,0,L|96:344,1,31.1999985717774,2|2,0:2|0:0,0:0:0:0:
105,315,59603,6,2,B|60:314|35:292|18:256|26:219|51:196|82:188|106:185|129:198|147:221|147:221|157:236|175:253|202:266|232:255|253:239|265:205|253:164|229:145|178:155,1,475.20000453186,2|0,1:2|2:0,0:1:0:0:
125,48,59900,6,0,P|168:198|193:380,1,316.800009667969,6|0,1:2|0:0,0:0:0:0:
199,367,60197,2,0,P|233:355|198:363,1,110.400002105713,8|0,0:0|0:0,0:0:0:0:
379,215,60346,5,2,1:2:0:0:
459,223,60420,1,2,0:0:0:0:
509,272,60494,1,2,0:0:0:0:
512,331,60569,1,2,0:0:0:0:
487,366,60643,2,0,P|423:370|405:328,1,81.6000015563965,10|2,0:0|0:0,0:0:0:0:
395,39,60791,5,2,1:2:0:0:
377,116,60866,1,2,0:0:0:0:
318,150,60940,1,2,0:0:0:0:
263,146,61014,1,2,0:0:0:0:
242,124,61088,2,0,P|237:86|294:51,1,81.6000015563965,10|2,0:0|0:0,0:0:0:0:
303,270,61237,5,2,1:2:0:0:
238,316,61311,1,2,0:0:0:0:
174,308,61385,1,2,0:0:0:0:
137,283,61460,1,2,0:0:0:0:
129,266,61534,2,0,P|127:247|132:268,1,81.6000015563965,10|2,0:0|0:0,0:0:0:0:
47,199,61682,6,2,B|18:232|4:261|3:293|3:293|73:206|176:157|327:178,1,432.000016479493,0|0,1:2|0:0,0:1:0:0:
362,202,61979,6,0,P|361:219|381:235,1,24,0|0,1:2|0:0,0:0:0:0:
440,183,62128,2,0,P|441:165|426:148,1,24
441,61,62276,6,0,L|388:368,1,288.000010986329,8|0,0:0|0:0,0:0:0:0:
363,42,62499,2,0,L|314:325,1,288.000010986329,8|0,0:0|0:0,0:0:0:0:
301,330,62722,6,0,L|311:276,1,36.0000013732911,0|0,1:2|0:0,0:0:0:0:
170,69,62871,6,0,L|157:127,1,48,10|0,0:0|0:0,0:0:0:0:
158,139,63019,2,0,L|145:197,1,48,2|0,0:0|0:0,0:0:0:0:
144,207,63168,1,0,1:2:0:0:
263,85,63316,6,0,B|251:109|251:109|166:122|166:122|160:116|160:116|69:126|69:126|57:149,1,240
13,376,63465,6,0,P|23:270|87:379,1,288.000010986329,8|0,0:0|0:0,0:0:0:0:
85,288,63613,2,0,P|23:282|3:309,1,96
280,378,63762,5,0,0:0:0:0:
283,380,63836,1,8,0:0:0:0:
286,378,63910,2,0,P|316:331|301:285,1,96,0|0,1:2|0:0,0:0:0:0:
232,273,64059,2,0,P|200:318|213:365,1,96,8|0,0:0|0:0,0:0:0:0:
397,216,64207,6,0,P|382:233|394:214,1,67.1999979492188,2|0,0:0|0:0,0:0:0:0:
308,294,64356,6,2,B|276:298|248:284|239:261|233:230|247:200|277:178|330:194|330:194|353:204|379:213|420:207|438:170|444:132|422:87|367:83|329:106,1,403.199987695313,0|0,1:2|0:0,0:1:0:0:
463,332,64653,2,2,P|376:214|75:104,1,432.000016479493,4|0,1:2|0:0,0:1:0:0:
24,238,64950,6,0,P|89:225|102:176,1,96,8|0,0:0|0:0,0:0:0:0:
217,22,65098,2,2,P|141:153|136:373,1,374.399982861329,4|0,1:2|0:0,0:1:0:0:
262,384,65395,2,0,P|250:336|199:311,1,96,8|0,0:0|0:0,0:0:0:0:
362,348,65544,6,2,B|300:298|328:219|372:196|429:218|428:223|429:231|514:228|553:140|470:68,1,388.800001483154,4|0,1:2|0:0,0:1:0:0:
436,4,65841,2,0,P|385:24|387:93,1,96,8|0,0:0|0:0,0:0:0:0:
217,22,65989,6,2,B|160:72|178:155|225:199|290:180|291:173|291:167|396:134|457:246|449:335|332:370,1,518.399984179688,4|0,1:2|0:0,0:1:0:0:
262,384,66286,2,0,P|221:356|217:300,1,96,8|0,0:0|0:0,0:0:0:0:
135,208,66435,6,0,P|141:252|89:285,1,86.3999973632813,0|0,1:2|0:0,0:0:0:0:
63,188,66583,2,0,P|35:219|42:261,1,86.3999973632813,0|0,0:2|0:0,0:0:0:0:
9,355,66732,6,0,B|-8:329|-18:295|-5:256|22:240|65:221|119:256|119:256|170:283|204:269|242:238|253:182|208:142,1,432.000016479493,2|0,1:2|2:0,0:0:0:0:
95,61,67029,5,0,0:0:0:0:
92,64,67103,1,0,0:0:0:0:
90,67,67177,2,0,P|93:102|135:128,1,72.0000027465821
191,68,67326,5,8,0:0:0:0:
345,187,67474,1,0,0:0:0:0:
420,27,67623,6,0,P|432:76|400:118,1,105.600003222656,4|0,1:2|0:0,0:0:0:0:
343,10,67772,2,0,P|312:51|325:100,1,105.600003222656,0|0,1:2|0:0,0:0:0:0:
434,379,67920,6,0,L|453:286,1,81.6000015563965,4|0,1:2|0:0,0:0:0:0:
455,289,68069,2,0,L|474:196,1,81.6000015563965,0|0,1:2|0:0,0:0:0:0:
478,200,68217,1,4,1:2:0:0:
287,363,68440,5,0,1:2:0:0:
290,360,68514,2,0,P|302:316|274:279,1,96,8|0,0:0|0:0,0:0:0:0:
199,291,68663,2,0,P|185:335|212:373,1,96,0|0,1:2|0:0,0:0:0:0:
210,144,68811,5,2,1:2:0:0:
153,98,68885,1,2,2:0:0:0:
92,115,68960,1,2,2:0:0:0:
65,147,69034,1,2,2:0:0:0:
63,173,69108,2,2,P|86:194|75:162,1,86.3999973632813,6|0,1:2|0:0,0:1:0:0:
6,29,69405,6,2,P|118:178|215:383,1,403.199987695313,6|0,1:2|0:0,0:0:0:0:
79,354,69702,2,0,P|80:299|138:269,1,105.600003222656,8|0,0:0|0:0,0:0:0:0:
287,154,69851,5,2,1:2:0:0:
359,187,69925,1,2,0:0:0:0:
412,178,69999,1,2,0:0:0:0:
436,146,70074,1,2,0:0:0:0:
437,111,70148,2,0,P|441:78|431:112,1,105.600003222656,10|2,0:0|0:0,0:0:0:0:
9,13,70296,5,2,1:2:0:0:
83,32,70371,1,2,0:0:0:0:
125,72,70445,1,2,0:0:0:0:
143,109,70519,1,2,0:0:0:0:
144,143,70593,2,0,P|187:198|246:183,1,105.600003222656,10|2,0:0|0:0,0:0:0:0:
37,379,70742,5,2,1:2:0:0:
83,313,70816,1,2,0:0:0:0:
141,285,70890,1,2,0:0:0:0:
191,293,70965,1,2,0:0:0:0:
216,317,71039,2,0,P|238:345|219:315,1,105.600003222656,10|2,0:0|0:0,0:0:0:0:
36,192,71187,6,2,B|-8:214|-28:259|-28:259|62:195|185:196|237:228|237:228|170:233|130:302,1,489.600009338379,0|0,1:2|0:0,0:1:0:0:
217,198,71484,6,0,L|205:156,1,38.4,0|0,1:2|0:0,0:0:0:0:
39,324,71633,2,0,B|35:337|16:350|16:350|63:333|64:290,1,105.600003222656
0,94,71781,6,0,P|98:252|146:406,1,326.400006225586,8|0,0:0|0:0,0:0:0:0:
251,22,72004,6,0,P|182:137|136:325,1,288.000010986329,8|0,0:0|0:0,0:0:0:0:
88,73,72227,2,0,B|80:51|56:41|56:41|101:42|119:97,1,129.600000494385,0|0,1:2|0:0,0:0:0:0:
352,153,72375,6,0,P|410:138|429:98,1,105.600003222656,10|0,0:0|0:0,0:0:0:0:
388,35,72524,2,0,P|329:49|310:89,1,105.600003222656,2|0,0:0|0:0,0:0:0:0:
218,240,72673,6,0,L|205:207,1,28.7999991210938,0|0,1:2|0:0,0:0:0:0:
289,215,72821,2,0,L|276:182,1,28.7999991210938
116,89,72970,6,0,B|126:141|191:169|229:133|230:128|231:123|282:72|343:115|356:155,2,288.000010986329,8|0|0,0:0|0:0|0:0,0:0:0:0:
387,35,73341,6,0,P|319:176|283:340,1,288.000010986329,8|0,0:0|0:0,0:0:0:0:
485,338,73564,6,0,P|472:284|435:265,1,96,8|0,0:0|0:0,0:0:0:0:
419,384,73712,2,0,P|380:357|373:311,1,96,2|0,0:0|0:0,0:0:0:0:
186,65,73861,6,2,B|192:25|148:0|148:0|259:-34|329:86|243:181|152:146|152:146|37:111|-3:207|23:304|122:287,1,655.20000249939,0|0,1:2|0:0,0:1:0:0:
125,341,74158,6,2,P|88:212|17:56,1,288.000010986329,4|0,1:2|0:0,0:1:0:0:
97,150,74603,2,2,P|46:263|13:384,1,249.599988574219,4|0,1:2|0:0,0:1:0:0:
268,172,75049,6,2,P|331:178|336:73,1,192,4|0,1:2|0:0,0:1:0:0:
496,294,75494,2,2,P|449:295|428:205,1,153.6,4|2,1:2|0:0,0:1:0:0:
433,213,75866,1,2,0:0:0:0:
433,223,75940,2,2,P|414:263|385:267,1,57.5999982421876,0|0,1:2|0:0,0:1:0:0:
448,126,76088,6,2,L|462:83,1,38.4,2|0,0:0|0:0,0:1:0:0:
355,384,76237,6,0,P|349:350|182:201,1,268.8,6|0,1:2|0:0,0:0:0:0:
173,191,78613,6,0,B|142:163|151:128|151:128|189:149|184:201,1,153.6,6|2,1:2|0:0,0:0:0:0:
53,81,85742,5,0,3:2:0:0:
53,81,86039,1,0,0:0:0:0:
147,41,86187,1,0,3:2:0:0:
224,125,86336,2,0,P|226:82|266:50,1,72.0000027465821,0|0,3:2|0:0,0:0:0:0:
439,88,86633,6,0,P|367:59|417:117,1,211.200006445313,0|0,3:2|0:0,0:0:0:0:
224,125,86930,5,0,3:2:0:0:
360,263,87078,1,0,0:0:0:0:
221,248,87227,2,0,P|255:218|315:216,1,96,0|0,3:2|0:0,0:0:0:0:
509,111,87524,5,0,3:2:0:0:
506,117,87598,1,0,3:2:0:0:
503,123,87673,1,0,3:2:0:0:
500,129,87747,1,0,3:2:0:0:
438,189,87821,6,0,P|424:187|441:184,1,48,0|0,1:0|2:0,0:0:0:0:
360,263,87970,2,0,P|376:256|358:256,1,48,0|0,1:0|2:0,0:0:0:0:
428,334,88118,6,0,P|381:182|289:37,1,268.799991796875,4|0,1:2|0:0,0:0:0:0:
302,16,88341,1,0,2:0:0:0:
302,16,88415,2,0,P|254:40|250:103,1,81.6000015563965,8|0,2:0|2:0,0:0:0:0:
119,167,88564,5,4,1:2:0:0:
119,167,88861,2,0,P|107:142|123:161,1,81.6000015563965,0|0,3:2|3:2,0:0:0:0:
198,162,89009,6,0,P|111:199|6:153,1,192,4|2,3:2|2:0,0:0:0:0:
43,70,89232,5,0,2:0:0:0:
50,74,89306,2,0,P|119:197|107:339,2,288.000010986329,4|0|0,1:2|2:0|2:0,0:0:0:0:
219,14,89752,6,0,P|196:37|186:85,1,72.0000027465821,4|0,1:2|2:0,0:0:0:0:
401,75,89900,6,0,P|353:76|311:126,1,96,0|0,2:0|2:0,0:0:0:0:
346,178,90049,2,0,P|394:177|436:127,1,96,2|0,2:0|2:0,0:0:0:0:
473,19,90197,6,0,P|409:152|418:338,1,259.20000098877,8|0,2:0|1:0,0:0:0:0:
456,357,90420,5,0,2:0:0:0:
456,357,90494,2,0,B|478:315|447:268|401:276|401:276|319:284|293:156|414:149,2,268.799991796875,4|0|8,1:2|2:0|2:0,0:0:0:0:
510,220,90940,6,0,P|353:307|245:413,1,288.000010986329,4|2,1:2|2:0,0:0:0:0:
187,384,91311,5,4,2:3:0:0:
181,382,91385,2,0,P|157:355|168:322,1,48,0|0,3:2|2:0,0:0:0:0:
187,271,91534,1,2,3:2:0:0:
281,323,91682,6,0,B|304:366|365:364|399:321|387:242|334:220|243:215|214:267|187:298|187:298|155:334|111:353|46:351|-2:319|-27:273|-30:187|17:142|112:131|154:210|83:283,1,768,4|2,1:2|2:0,0:0:0:0:
109,238,92351,1,2,0:0:0:0:
104,237,92425,2,0,P|115:208|144:206,1,57.5999982421876,2|0,2:0|2:0,0:0:0:0:
208,78,92574,6,0,P|236:170|269:364,1,288,2|0,2:0|2:0,0:0:0:0:
264,371,92871,5,4,2:0:0:0:
349,384,93019,5,0,2:0:0:0:
180,346,93168,2,0,P|153:357|133:377,2,57.5999982421876,2|0|0,2:0|2:0|2:0,0:0:0:0:
181,262,93465,5,2,2:0:0:0:
115,226,93539,1,0,2:0:0:0:
66,251,93613,1,0,2:0:0:0:
45,274,93687,1,0,2:0:0:0:
26,280,93762,2,0,P|2:248|11:208,1,57.5999982421876,2|0,2:0|2:0,0:0:0:0:
119,159,93910,2,0,P|102:192|64:203,1,57.5999982421876,2|0,2:0|2:0,0:0:0:0:
20,42,94059,6,0,P|1:113|46:171,1,115.199996484375,2|2,2:0|2:0,0:0:0:0:
138,62,94356,5,0,2:0:0:0:
133,61,94430,1,0,2:0:0:0:
128,60,94504,1,2,2:0:0:0:
119,159,94653,5,0,2:0:0:0:
192,187,94727,1,0,2:0:0:0:
256,168,94801,1,0,2:0:0:0:
288,126,94875,1,0,2:0:0:0:
304,109,94950,2,0,P|357:145|344:221,1,115.199996484375,0|0,1:0|2:0,0:0:0:0:
194,347,95247,5,0,1:0:0:0:
189,350,95321,2,0,P|138:353|90:298,1,96,8|0,2:0|2:0,0:0:0:0:
122,252,95470,1,0,2:0:0:0:
126,247,95544,2,0,P|177:244|225:299,1,96,8|0,2:0|2:0,0:0:0:0:
295,344,95693,5,0,2:0:0:0:
302,349,95767,2,0,P|334:336|302:338,1,96,8|0,2:0|2:0,0:0:0:0:
277,195,95989,6,0,P|256:183|239:167,1,48,8|0,2:0|2:0,0:0:0:0:
236,173,96138,2,0,P|253:190|274:202,1,48,8|0,2:0|2:0,0:0:0:0:
495,287,96286,5,8,2:0:0:0:
494,291,96361,1,0,2:0:0:0:
493,294,96435,2,0,B|495:295|496:296|496:296|498:295|498:295|496:296|496:296|496:293|496:293|498:295|498:295|499:297|499:297|500:299|500:299|499:298|499:297|499:297|497:299|497:299|500:299|500:299|500:301|500:301|502:301|502:301|503:301|504:302|504:302|502:301|502:301|504:299|504:299|504:302|504:302|506:302|506:302|506:304|506:304|506:302|506:302|503:303|503:303|506:304|506:304|507:305|507:306|507:306|507:308|507:308|509:308|509:308|507:308|507:308|508:305|508:305|509:308|509:308|510:309|510:310|510:310|513:310|513:310|510:310|510:310|511:314|511:314|513:310|513:310|512:312|512:312|512:313|513:314|513:314|512:312|512:312|515:312|515:312|513:314|513:314|512:316|512:316|514:317|514:317|514:318|515:319|515:319|514:317|514:317|512:319|512:319|515:319|515:319|517:319|517:319|515:319|515:319|516:317|516:317|517:319|517:319|516:321|516:321|516:323|516:323|514:325|514:325|516:323|516:323|512:321|512:321|514:325|514:325|517:326|517:326|515:325|515:325|517:323|517:323|517:326|517:326|517:328|517:328|519:330|519:330|518:329|518:329|517:331|517:331|519:330|519:330|517:331|517:331|517:333|517:333|515:335|515:335|517:333|517:333|519:337|519:337|515:335|515:335|517:336|517:336|517:338|517:338|517:336|517:336|514:337|514:337|517:338|517:338|519:340|519:340|517:341|517:341|519:340|519:340|519:343|519:343|517:341|517:341|516:342|516:343|516:343|514:344|514:344|516:343|516:343|514:341|514:341|514:344|514:344|515:346|515:346|515:348|515:348|515:346|515:346|518:347|518:347|515:348|515:348|516:350|516:350|514:351|514:351|513:352|513:353|513:353|514:351|514:351|511:351|511:351|513:353|513:353|510:353|510:353|513:353|512:353|512:353|511:356|511:356|510:353|510:353|511:355|511:355|511:356|510:357|510:357|511:359|511:359|510:357|510:357|508:359|508:359|511:359|511:359|508:359|508:359|508:360|507:361|507:361|508:359|508:359|510:361|510:361|507:361|507:361|505:361|505:361|505:363|505:363|505:361|505:361|502:362|502:362|505:363|505:363|504:364|504:364|504:367|504:367|504:365|504:365|507:366|507:366|504:367|504:367|501:366|501:366|500:367|500:368|500:368|501:366|501:366|498:366|498:366|500:368|500:368|497:367|497:367|497:369|497:369|497:367|497:367|500:368|500:368|497:369|497:369|496:370|496:370|495:373|495:373|496:371|496:371|493:371|493:371|495:373|495:373|493:372|493:372|491:372|491:372|493:372|493:372|492:374|492:374|491:372|491:372|489:371|489:371|488:373|488:373|487:374|486:374|486:374|488:373|488:373|486:371|486:371|486:374|486:374|485:376|485:376|483:375|483:375|485:376|485:376|483:378|483:378|483:375|483:375|481:375|481:375|480:373|480:373|481:375|481:375|483:373|483:373|480:373|480:373|479:376|479:376|476:376|476:376|479:376|479:376|477:380|477:380|476:376|476:376|475:378|475:378|473:376|473:376|475:378|475:378|477:374|477:374|473:376|473:376|471:376|471:376|470:374|470:374|469:376|469:376|470:374|470:374|472:376|472:376|469:376|469:376|469:372|469:372|466:375|466:375|465:377|465:377|464:375|464:375|462:377|462:377|462:374|462:374|461:372|461:372|462:374|462:374|464:372|464:372|461:372|461:372|459:374|459:374|457:373|457:373|459:374|459:374|457:376|457:376|457:373|457:373|455:374|455:374|454:372|454:372|455:374|455:374|457:372|457:372|454:372|454:372|453:371|452:371|452:371|452:369|452:369|452:373|452:373|449:370|449:370|448:369|448:369|445:370|445:370|448:369|448:369|445:365|445:365|445:370|445:370|445:367|445:367|445:369|445:369|442:368|442:368|445:367|445:367|444:367|443:366|443:366|443:364|443:364|441:364|441:364|443:364|443:364|442:361|442:361|441:364|441:364|440:364|439:363|439:363|437:364|437:364|434:363|434:363|437:361|437:361|436:360|436:360|437:361|437:361|438:359|438:359|436:360|436:360|436:357|436:357|434:358|434:358|436:357|436:357|436:360|436:360|434:358|434:358|432:356|432:356|430:357|430:357|433:356|433:356|430:355|430:355|430:354|430:354|429:353|429:353|430:354|430:354|428:355|428:355|429:353|429:353|430:350|430:350|427:350|427:350|430:350|430:350|429:346|429:346|427:350|427:350|426:349|426:348|426:348|424:348|424:348|424:346|424:346|424:348|424:348|421:347|421:347|424:346|424:346|424:345|423:344|423:344|424:342|424:342|423:344|423:344|426:344|426:344|424:342|424:342|422:342|422:342|421:341|421:340|421:340|422:342|422:342|419:342|419:342|421:340|421:340|418:339|418:339|420:337|420:337|418:339|418:339|422:341|422:341|420:337|420:337|419:336|419:335|419:335|420:333|420:333|419:335|419:335|417:333|417:333|420:333|420:333|418:332|418:332|417:331|417:331|415:330|415:330|417:331|417:331|417:328|417:328|415:330|415:330|416:328|416:328|416:326|416:326|416:328|416:328|413:327|413:327|416:326|416:326|417:324|417:324|415:323|415:323|417:324|417:324|417:321|417:321|415:323|415:323|414:322|414:321|414:321|412:320|412:320|411:317|411:317|414:318|414:318|413:317|413:316|413:316|414:318|414:318|416:316|416:316|413:316|413:316|415:314|415:314|413:313|413:313|415:314|415:314|413:316|413:316|413:313|413:313|413:312|412:311|412:311|410:310|410:310|413:311|413:311|412:308|412:308|412:306|412:306|412:308|412:308|409:307|409:307|412:306|412:306|414:305|414:305|412:303|412:303|414:305|414:305|415:302|415:302|412:303|412:303|412:301|412:301|410:300|410:300|409:297|409:297|412:298|412:298|412:296|412:296|414:295|414:295|412:296|412:296|414:298|414:298|414:295|414:295|412:293|412:293|412:291|412:291|412:293|412:293|409:292|409:292|412:291|412:291|410:290|410:290|412:288|412:288|410:290|410:290|414:292|414:292|412:288|412:288|412:286|412:286|415:285|415:285|412:286|412:286|412:281|412:281|415:285|415:285|413:283|413:283|413:281|413:281|413:283|413:283|416:282|416:282|413:281|413:281|411:279|411:279|411:275|411:275|414:278|414:278|414:276|414:276|416:275|416:275|414:276|414:276|416:278|416:278|416:275|416:275|415:273|415:273|415:272|415:272|414:270|414:270|415:272|415:272|412:272|412:272|414:270|414:270|416:269|416:269|416:268|417:267|417:267|416:269|416:269|419:269|419:269|417:267|417:267|419:266|419:266|417:264|417:264|419:266|419:266|415:268|415:268|417:264|417:264|418:263|418:262|418:262|417:260|417:260|418:262|418:262|420:260|420:260|417:260|417:260|419:259|419:259|420:258|420:257|420:257|419:259|419:259|417:257|417:257|420:257|420:257|422:257|422:257|421:255|421:255|422:257|422:257|424:255|424:255|421:255|421:255|422:254|422:253|422:253|421:251|421:251|423:250|423:250|421:251|421:251|421:248|421:248|423:250|423:250|424:249|424:248|424:248|427:248|427:248|424:248|424:248|425:252|425:252|427:248|427:248|426:246|426:246|426:245|427:244|427:244|426:246|426:246|424:244|424:244|427:244|427:244|426:242|426:242|428:241|428:241|426:242|426:242|428:244|428:244|428:241|428:241|429:240|429:240|432:240|432:240|429:240|429:240|431:237|431:237|432:240|432:240|431:237|431:237|432:236|432:236|435:234|435:234|431:233|431:233|432:230|432:230|433:233|433:233|434:233|434:233|435:232|435:232|438:232|438:232|435:232|435:232|437:235|437:235|438:232|438:232|437:229|437:229|438:228|438:228|435:227|435:227|438:225|438:225|440:225|440:225|438:225|438:225|439:228|439:228|440:225|440:225|441:225|442:224|442:224|444:224|444:224|444:222|444:222|444:224|444:224|441:223|441:223|444:222|444:222|444:221|445:220|445:220|445:218|445:218|445:220|445:220|448:219|448:219|445:218|445:218|447:218|447:218|448:217|449:217|449:217|447:218|447:218|447:215|447:215|449:217|449:217|451:217|451:217|451:215|451:215|451:214|452:213|452:213|451:215|451:215|454:215|454:215|452:213|452:213|452:211|452:211|454:211|454:211|455:211|456:210|456:210|454:211|454:211|454:208|454:208|456:210|456:210|458:211|458:211|456:210|456:210|456:213|456:213|458:211|458:211|458:208|458:208|459:208|460:207|460:207|458:208|458:208|458:205|458:205|460:207|460:207|460:204|460:204|462:205|462:205|463:204|464:204|464:204|462:205|462:205|464:207|464:207|464:204|464:204|466:204|466:204|465:204|465:204|465:202|465:202|466:204|466:204|466:202|466:202|468:200|468:200|467:201|467:201|469:202|469:202|468:200|468:200|468:197|468:197|470:198|470:198|468:197|468:197|470:195|470:195|470:198|470:198|471:197|471:197|474:198|474:198|477:196|477:196|473:195|473:195|475:194|475:194|473:195|473:195|473:192|473:192|475:194|475:194|474:191|474:191|477:191|477:191|474:191|474:191|475:195|475:195|477:191|477:191|478:190|478:190|481:190|481:190|479:190|479:190|480:187|480:187|481:190|481:190|480:188|480:188|481:186|481:186|480:188|480:188|483:188|483:188|481:186|481:186|481:184|481:184|483:184|483:184|484:183|484:182|484:182|483:184|483:184|481:182|481:182|484:182|484:182|487:182|487:182|486:180|486:180|487:182|487:182|489:180|489:180|486:180|486:180|487:179|487:178|487:178|486:176|486:176|487:178|487:178|484:178|484:178|486:176|486:176|489:176|489:176|489:175|490:174|490:174|489:176|489:176|492:176|492:176|490:174|490:174|492:174|492:174|491:171|491:171|492:174|492:174|487:174|487:174|491:171|491:171|492:170|492:169|492:169|491:167|491:167|492:169|492:169|494:167|494:167|491:167|491:167|494:167|494:167|494:166|495:165|495:165|494:167|494:167|492:165|492:165|495:165|495:165|497:164|497:164|496:162|496:162|497:164|497:164|499:162|499:162|496:162|496:162|496:161|497:160|497:160|495:158|495:158|497:160|497:160|493:162|493:162|495:158|495:158|498:158|498:158|498:156|498:156|498:158|498:158|501:157|501:157|498:156|498:156|501:155|501:155|499:153|499:153|501:155|501:155|497:157|497:157|499:153|499:153|500:152|500:151|500:151|499:149|499:149|500:151|500:151|502:149|502:149|499:149|499:149|501:148|501:148|501:147|502:146|502:146|501:148|501:148|499:146|499:146|502:146|502:146|504:145|504:145|502:143|502:143|504:145|504:145|506:141|506:141|502:143|502:143|503:142|503:141|503:141|501:140|501:140|500:137|500:137|503:138|503:138|504:137|504:136|504:136|503:138|503:138|506:138|506:138|504:136|504:136|506:135|506:135|504:134|504:134|506:135|506:135|504:137|504:137|504:134|504:134|504:132|504:132|503:130|503:130|505:129|505:129|503:130|503:130|505:132|505:132|505:129|505:129|505:127|505:127|507:125|507:125|505:127|505:127|503:123|503:123|507:125|507:125|505:124|505:124|505:122|505:122|506:119|506:119|503:120|503:120|505:119|505:119|503:120|503:120|503:117|503:117|505:119|505:119|505:117|505:117|507:115|507:115|505:117|505:117|509:119|509:119|507:115|507:115|505:114|505:114|505:112|505:112|505:114|505:114|502:113|502:113|505:112|505:112|503:110|503:110|505:109|505:109|503:110|503:110|505:112|505:112|505:109|505:109|505:107|505:107|507:105|507:105|506:106|506:106|505:104|505:104|507:105|507:105|505:104|505:104|504:103|504:102|504:102|502:101|502:101|504:102|504:102|504:99|504:99|502:101|502:101|504:99|504:99|504:98|503:97|503:97|504:99|504:99|501:99|501:99|503:97|503:97|505:95|505:95|503:94|503:94|505:95|505:95|505:92|505:92|503:94|503:94|503:93|502:92|502:92|500:91|500:91|502:92|502:92|500:94|500:94|500:91|500:91|502:89|502:89|501:88|501:87|501:87|502:89|502:89|504:87|504:87|501:87|501:87|503:85|503:85|501:88|501:88|500:84|500:84|500:82|500:82|500:78|500:78|497:81|497:81|499:79|499:79|497:81|497:81|496:78|496:78|499:79|499:79|498:78|498:78|499:75|499:75|498:77|498:77|501:77|501:77|499:75|499:75|497:75|497:75|496:74|496:73|496:73|494:76|494:76|493:72|493:72|495:70|495:70|493:72|493:72|496:73|496:73|495:70|495:70|494:69|494:68|494:68|495:66|495:66|494:68|494:68|492:66|492:66|495:66|495:66|492:66|492:66|492:65|491:64|491:64|492:66|492:66|494:64|494:64|491:64|491:64|489:64|489:64|490:62|490:62|489:61|489:60|489:60|490:62|490:62|487:62|487:62|489:60|489:60|489:57|489:57|487:57|487:57|489:57|489:57|488:54|488:54|487:57|487:57|486:57|486:56|486:56|483:56|483:56|486:56|486:56|485:60|485:60|483:56|483:56|484:53|484:53|483:53|483:52|483:52|484:53|484:53|485:51|485:51|483:52|483:52|483:49|483:49|481:50|481:50|483:49|483:49|483:52|483:52|481:50|481:50|479:48|479:48|477:48|477:48|479:48|479:48|478:45|478:45|477:48|477:48|477:46|477:46|477:45|476:45|476:45|477:46|477:46|475:47|475:47|476:45|476:45|476:42|476:42|474:42|474:42|473:42|472:41|472:41|474:42|474:42|474:39|474:39|472:41|472:41|470:42|470:42|470:39|470:39|470:42|470:42|466:41|466:41|470:39|470:39|469:39|468:38|468:38|471:37|471:37|468:35|468:35|466:36|466:36|468:35|468:35|468:38|468:38|466:36|466:36|465:36|464:35|464:35|462:36|462:36|465:35|465:35|462:33|462:33|461:33|460:32|460:32|460:30|460:30|460:32|460:32|457:31|457:31|460:30|460:30|457:31|457:31|459:30|459:30|457:28|457:28|457:31|457:31|457:30|456:30|456:30|453:31|453:31|453:29|453:29|453:31|453:31|450:30|450:30|453:29|453:29|452:28|451:28|451:28|451:25|451:25|451:28|451:28|455:27|455:27|451:25|451:25|448:26|448:26|450:25|450:25|450:28|450:28|448:26|448:26|447:26|447:26|445:27|445:27|444:25|444:25|445:27|445:27|447:25|447:25|444:25|444:25|443:24|442:24|442:24|441:22|441:22|442:24|442:24|439:24|439:24|441:22|441:22|439:23|439:23|437:23|437:23|435:24|435:24|437:23|437:23|435:21|435:21|435:24|435:24|434:22|434:22|432:22|432:22|434:22|434:22|433:25|433:25|432:22|432:22|431:19|431:19|429:21|429:21|431:19|431:19|427:17|427:17|429:21|429:21|427:21|427:21|426:22|426:22|424:20|424:20|426:22|426:22|422:24|422:24|424:20|424:20|422:20|422:20|424:20|424:20|423:18|423:18|422:20|422:20|421:18|421:18|419:20|419:20|420:19|420:19|421:21|421:21|419:20|419:20|417:20|417:20|416:22|416:22|414:20|414:20|416:22|416:22|418:18|418:18|414:20|414:20|412:20|412:20|411:18|411:18|412:20|412:20|409:20|409:20|411:18|411:18|409:20|409:20|407:20|407:20|409:20|409:20|408:17|408:17|407:20|407:20|406:22|406:22|404:21|404:21|402:21|402:21|404:21|404:21|403:24|403:24|402:21|402:21|401:19|401:19|402:21|402:21|404:19|404:19|401:19|401:19|399:21|399:21|399:22|398:22|398:22|397:24|397:24|398:22|398:22|400:24|400:24|397:24|397:24|395:23|395:23|393:23|393:23|395:23|395:23|394:20|394:20|393:23|393:23|391:22|391:22|390:24|390:24|391:22|391:22|393:24|393:24|390:24|390:24|389:24|388:25|388:25|387:27|387:27|388:25|388:25|385:25|385:25|387:27|387:27|385:26|385:26|384:26|383:27|383:27|381:26|381:26|383:27|383:27|381:29|381:29|381:26|381:26|381:28|381:28|380:29|379:29|379:29|381:28|381:28|379:26|379:26|379:29|379:29|379:31|379:31|376:30|376:30|379:31|379:31|376:35|376:35|376:30|376:30|375:31|375:32|375:32|372:31|372:31|375:32|375:32|375:27|375:27|372:31|372:31|372:33|372:33|371:34|370:34|370:34|372:33|372:33|372:36|372:36|370:34|370:34|371:37|371:37|368:36|368:36|371:37|371:37|371:33|371:33|368:36|368:36|367:37|367:38|367:38|365:41|365:41|364:37|364:37|364:40|364:40|364:37|364:37|361:39|361:39|364:40|364:40|363:41|363:41|363:44|363:44|363:42|363:42|366:43|366:43|363:44|363:44|361:43|361:43|360:44|360:45|360:45|359:42|359:42|357:45|357:45|358:47|358:47|357:48|357:49|357:49|358:47|358:47|360:49|360:49|357:49|357:49|358:51|358:51|355:51|355:51|358:51|358:51|357:47|357:47|355:51|355:51|354:53|354:53|355:51|355:51|356:53|356:53|354:53|354:53|352:53|352:53|353:56|353:56|352:57|352:57|353:56|353:56|351:55|351:55|352:57|352:57|353:60|353:60|351:60|351:60|353:60|353:60|352:63|352:63|351:60|351:60|350:61|350:62|350:62|348:63|348:63|350:62|350:62|348:60|348:60|348:63|348:63|349:65|349:65|349:67|349:67|349:65|349:65|352:66|352:66|349:67|349:67|350:69|350:69|348:70|348:70|348:72|348:72|348:70|348:70|345:71|345:71|348:72|348:72|346:73|346:73|348:75|348:75|346:73|346:73|350:71|350:71|348:75|348:75|347:76|347:77|347:77|349:78|349:78|347:77|347:77|347:80|347:80|349:78|349:78|348:80|348:80|348:82|348:82|346:84|346:84|348:82|348:82|350:86|350:86|346:84|346:84|348:85|348:85|346:84|346:84|346:87|346:87|348:85|348:85|348:87|348:87|351:88|351:88|348:87|348:87|351:84|351:84|351:88|351:88|349:90|349:90|350:91|350:92|350:92|349:90|349:90|347:92|347:92|350:92|350:92|348:94|348:94|351:94|351:94|348:94|348:94|349:90|349:90|351:94|351:94|351:95|352:96|352:96|354:97|354:97|352:96|352:96|352:99|352:99|354:97|354:97|353:99|353:99|354:100|354:101|354:101|353:99|353:99|356:99|356:99|354:101|354:101|354:103|354:103|356:103|356:103|357:104|357:104|356:103|356:103|355:105|355:105|357:104|357:104|360:104|360:104|359:107|359:107|360:104|360:104|363:107|363:107|359:107|359:107|360:107|361:108|361:108|361:110|361:110|361:108|361:108|358:109|358:109|361:110|361:110|363:110|363:110|364:111|365:111|365:111|363:110|363:110|365:108|365:108|365:111|365:111|367:110|367:110|367:113|367:113|367:110|367:110|363:111|363:111|367:113|367:113|368:113|369:114|369:114|370:116|370:116|372:115|372:115|370:116|370:116|370:113|370:113|372:115|372:115|374:116|374:116|372:115|372:115|372:118|372:118|374:116|374:116|376:114|376:114|377:117|377:117|376:114|376:114|381:114|381:114|377:117|377:117|378:117|378:117|380:119|380:119|379:118|379:118|378:120|378:120|380:119|380:119|381:118|381:118|383:118|383:118|385:116|385:116|383:118|383:118|381:114|381:114|385:116|385:116|386:118|386:118|387:118|388:119|388:119|386:118|386:118|386:121|386:121|388:119|388:119|390:121|390:121|391:119|391:119|393:119|393:119|391:119|391:119|392:116|392:116|393:119|393:119|397:119|397:119|395:116|395:116|396:118|396:118|398:118|398:118|401:117|401:117|400:120|400:120|401:118|401:118|400:120|400:120|403:120|403:120|401:118|401:118|402:118|403:117|403:117|404:115|404:115|403:117|403:117|401:115|401:115|404:115|404:115|406:117|406:117|407:116|408:116|406:117|406:117|413:115|408:116,1,2880,4|0,1:2|2:0,0:0:0:0:
413,118,97177,6,0,P|434:94|422:46,1,48,2|0,2:0|2:0,0:0:0:0:
301,164,97326,2,0,P|311:194|358:207,1,48,2|2,2:0|2:0,0:0:0:0:
182,78,97474,5,2,2:0:0:0:
150,65,97549,1,2,2:0:0:0:
124,71,97623,2,0,B|74:90|66:141|83:175|111:201|162:195|162:195|220:186|249:213|263:248|263:286|232:323|181:330,1,384,2|12,1:2|2:0,0:0:0:0:
159,345,97994,1,0,2:0:0:0:
232,315,98069,6,0,P|257:257|244:215,1,96,2|0,2:0|2:0,0:0:0:0:
502,176,98217,2,0,P|417:157|385:286,1,211.2,0|0,1:0|2:0,0:0:0:0:
417,313,98440,1,0,2:0:0:0:
363,257,98514,6,0,P|361:206|395:163,1,105.6,10|0,2:0|2:0,0:0:0:0:
414,21,98663,1,0,2:0:0:0:
420,27,98737,1,0,2:0:0:0:
423,34,98811,2,0,P|388:68|331:52,1,105.6,0|0,1:0|2:0,0:0:0:0:
51,162,98960,1,2,2:0:0:0:
2,106,99034,1,0,2:0:0:0:
28,35,99108,2,0,P|146:13|191:182,1,259.20000098877,8|0,0:0|0:0,0:0:0:0:
213,123,99331,1,0,0:0:0:0:
207,122,99405,6,0,P|218:76|247:38,1,96,2|0,1:2|2:0,0:0:0:0:
314,202,99554,2,0,P|359:190|394:158,1,96,2|0,0:2|2:0,0:0:0:0:
145,214,99702,6,0,P|108:160|111:94,1,134.399995898438,10|0,0:2|2:0,0:0:0:0:
249,284,99851,2,0,P|311:308|375:292,1,134.399995898438,2|0,0:2|2:0,0:0:0:0:
112,94,99999,6,0,P|174:279|172:425,1,288,2|0,1:2|2:0,0:0:0:0:
157,384,100222,1,0,2:0:0:0:
137,384,100296,6,0,P|95:364|90:300,1,96,8|0,2:0|2:0,0:0:0:0:
19,266,100445,2,0,P|29:217|90:198,1,96,2|0,2:0|2:0,0:0:0:0:
392,311,100593,2,0,P|349:224|252:249,1,211.200006445313,0|0,1:0|2:0,0:0:0:0:
367,383,100816,5,0,2:0:0:0:
397,317,100890,2,0,P|397:266|363:222,1,105.600003222656,10|0,2:0|2:0,0:0:0:0:
8,101,101039,1,0,0:0:0:0:
35,171,101113,1,0,0:0:0:0:
106,195,101187,2,0,P|165:186|170:48,1,192,0|2,1:2|0:0,0:0:0:0:
135,20,101410,1,0,0:0:0:0:
200,66,101484,6,0,P|214:124|198:167,1,96,8|0,0:0|0:0,0:0:0:0:
155,285,101633,1,2,0:0:0:0:
458,369,101781,5,2,1:2:0:0:
465,360,101856,2,0,L|429:167,1,139.200004248047,8|2,0:0|0:0,0:0:0:0:
411,60,102004,5,0,1:2:0:0:
404,70,102078,2,0,L|440:263,1,139.200004248047,10|0,0:0|0:0,0:0:0:0:
0,38,102227,5,10,0:0:0:0:
8,31,102301,1,8,0:0:0:0:
15,30,102375,2,0,P|179:104|236:362,1,432.000016479493,6|0,1:2|0:0,0:0:0:0:
404,70,102673,2,0,P|345:88|327:144,1,96,8|0,0:0|0:0,0:0:0:0:
512,154,102821,5,2,0:0:0:0:
487,82,102895,1,2,0:0:0:0:
411,60,102970,2,0,P|348:71|350:206,1,220.800004211426,0|0,1:2|0:0,0:0:0:0:
449,384,103192,1,0,0:0:0:0:
449,384,103267,2,0,P|474:350|463:291,1,96,10|0,0:0|0:0,0:0:0:0:
372,360,103415,2,0,P|366:312|395:276,1,96
121,332,103564,6,0,P|216:350|283:221,1,211.200006445313,0|2,1:2|0:0,0:0:0:0:
284,264,103786,1,0,0:0:0:0:
278,260,103861,2,0,P|236:253|209:280,1,72.0000027465821,8|0,0:0|0:0,0:0:0:0:
91,142,104009,2,0,P|107:181|146:189,1,72.0000027465821
295,133,104158,2,0,P|328:89|277:22,1,105.600003222656,2|0,1:2|0:0,0:0:0:0:
239,28,104306,2,0,P|205:71|256:138,1,105.600003222656,2|0,0:2|0:0,0:0:0:0:
405,123,104455,2,0,P|192:155|82:237,1,288.000010986329,10|2,0:0|0:0,0:0:0:0:
201,376,104752,6,0,P|232:318|197:255,1,120,4|0,1:2|0:0,0:0:0:0:
473,208,104974,2,0,P|460:158|403:123,1,120,4|0,1:2|0:0,0:0:0:0:
94,54,105197,6,0,B|61:124|73:180|114:235|154:250|198:262|240:238|239:230|239:220|271:196|322:192|374:203|408:234|431:297|443:333|412:391,2,576,6|12|12,1:2|0:2|0:2,0:0:0:0:
231,0,105791,6,0,P|207:44|164:45,1,72.0000027465821,8|8,0:0|0:0,0:0:0:0:
94,54,105940,2,2,P|127:220|75:334,1,288,4|0,1:2|0:0,0:1:0:0:
0,261,106534,2,0,P|21:227|56:216,1,72.0000027465821,8|0,0:0|0:0,0:0:0:0:
233,28,106831,6,0,L|300:86,1,72.0000027465821,8|0,0:0|0:0,0:0:0:0:
336,259,106979,5,8,0:0:0:0:
344,253,107054,1,8,0:0:0:0:
353,245,107128,2,0,B|371:214|371:214|199:271|199:271|277:300,1,268.799991796875,0|0,1:2|1:2,0:0:0:0:
324,366,107351,5,0,1:2:0:0:
321,360,107425,2,0,B|246:164|246:164|168:189|168:189|208:19|208:19|346:131|346:131|260:160,1,691.199978906251,4|0,1:2|0:0,0:0:0:0:
297,140,108019,6,0,L|313:74,2,36.0000013732911,10|0|0,0:0|0:0|0:0,0:0:0:0:
477,27,108316,6,0,B|420:4|370:65|388:131|392:133|395:132|427:159|391:260|270:246|236:140|306:103,1,403.199987695313,6|0,1:2|0:0,0:0:0:0:
277,6,108613,2,0,P|316:18|330:43,1,57.5999982421876,8|0,0:0|0:0,0:0:0:0:
479,173,108762,6,0,P|476:204|483:173,1,96,2|0,0:0|0:0,0:0:0:0:
190,184,108910,6,0,P|320:216|445:290,1,268.799991796875,2|2,1:2|0:0,0:0:0:0:
475,349,109133,1,0,0:0:0:0:
426,286,109207,6,0,P|403:245|412:219,1,57.5999982421876,10|0,0:0|0:0,0:0:0:0:
311,379,109356,2,0,P|263:378|245:357,1,57.5999982421876,2|0,0:0|0:0,0:0:0:0:
39,267,109504,6,0,B|-11:291|-4:364|98:406|173:327|130:250|127:248|123:246|70:219|37:141|139:89|234:132|175:225,1,432.000016479493,2|0,1:2|0:0,0:0:0:0:
232,304,109801,2,0,P|202:278|199:252,1,57.5999982421876,8|0,0:0|0:0,0:0:0:0:
77,151,109950,6,0,P|162:307|190:423,1,259.20000098877,2|0,0:0|1:2,0:0:0:0:
198,261,110173,1,0,0:0:0:0:
261,216,110247,2,0,P|273:181|267:158,1,57.5999982421876
55,11,110395,6,0,P|2:50|58:13,1,216.000008239746,10|0,0:0|0:0,0:0:0:0:
46,31,110544,6,0,P|24:48|42:29,1,86.3999973632813,2|0,0:0|0:0,0:0:0:0:
164,95,110841,6,0,B|174:147|267:157|271:100|273:91|273:86|305:32|371:31|399:87,2,288.000010986329,2|8|2,1:2|0:0|1:2,0:0:0:0:
512,1,111286,1,2,1:2:0:0:
500,4,111361,6,0,P|419:80|318:336,1,384,10|0,0:0|1:2,0:0:0:0:
382,384,111583,2,0,B|430:313|393:253|335:254|330:254|326:254|256:289|199:264|175:167|250:143,1,384,10|10,0:0|0:0,0:0:0:0:
259,145,111806,1,8,0:0:0:0:
308,215,111880,6,0,L|318:245,1,28.8,2|0,1:2|0:0,0:0:0:0:
340,15,112177,6,0,B|316:98|213:65|244:43|156:14|51:116|127:225|233:233|260:138,1,432.000016479493,12|0,0:0|0:0,0:0:0:0:
247,42,112474,1,0,1:2:0:0:
245,27,112549,1,0,0:0:0:0:
229,19,112623,2,0,P|207:0|162:-3,1,57.5999982421876
408,80,112772,6,0,P|423:99|413:79,1,72.0000027465821,10|0,0:0|0:0,0:0:0:0:
97,22,112920,6,0,P|273:110|363:236,1,336.000003204346,2|0,0:0|1:2,0:0:0:0:
365,299,113143,1,0,0:2:0:0:
344,217,113217,6,0,P|342:176|363:155,1,57.5999982421876,2|0,0:0|0:0,0:0:0:0:
291,384,113366,6,0,P|338:267|541:283,1,288.000010986329,10|0,0:0|0:0,0:0:0:0:
480,251,113588,1,0,0:0:0:0:
473,253,113663,6,0,P|438:226|434:206,1,57.5999982421876,2|0,1:2|0:0,0:0:0:0:
344,217,113811,2,0,P|342:176|363:155,1,57.5999982421876,2|0,0:0|0:0,0:0:0:0:
43,211,113960,6,0,P|11:170|16:139,1,76.8,2|0,0:0|0:0,0:0:0:0:
87,116,114108,2,0,P|119:157|114:188,1,76.8,2|0,0:0|0:0,0:0:0:0:
215,59,114257,5,2,1:2:0:0:
199,72,114331,2,0,P|151:156|81:400,1,336.000003204346,8|2,0:0|0:2,0:0:0:0:
43,211,114554,6,0,B|-6:221|-18:269|-18:269|23:228|113:189|226:201,1,336.000003204346,8|2,0:0|0:0,0:0:0:0:
419,74,114776,6,0,B|438:129|369:174|339:138|337:135|332:131|285:76|198:120|196:209|267:282|333:217,1,384,8|0,0:0|0:0,0:0:0:0:
300,12,114999,6,0,P|372:105|409:197,1,192,10|0,0:0|0:0,0:0:0:0:
323,323,115148,6,0,P|340:343|326:321,1,76.8,10|8,1:2|0:0,0:0:0:0:
465,287,115371,1,8,0:0:0:0:
465,287,115445,6,2,B|470:356|340:449|278:213|458:249|458:249|580:261|573:81|396:125|300:232|300:232|234:308|160:327|100:258|133:167|211:199,1,1008.00003845215,4|2,1:2|3:0,0:1:0:0:
141,21,116039,5,2,3:0:0:0:
216,7,116113,1,2,3:0:0:0:
277,33,116187,1,2,3:0:0:0:
294,61,116262,1,2,3:0:0:0:
301,81,116336,6,0,P|275:113|275:156,1,76.8,2|0,1:2|0:0,0:0:0:0:
377,116,116484,2,0,P|373:153|348:182,1,76.8,10|0,0:0|0:0,0:0:0:0:
509,23,116633,6,0,P|401:58|4:390,1,633.599980664063,2|0,1:2|0:0,0:0:0:0:
47,152,117524,2,0,P|70:197|58:246,1,86.3999973632813,10|0,0:0|0:0,0:0:0:0:
66,232,117821,6,2,B|50:171|98:109|147:75|202:129|205:133|209:138|231:197|419:185|379:35|286:-25|236:67,1,489.600009338379,4|0,1:2|0:0,0:1:0:0:
171,1,118118,6,2,P|219:117|199:362,1,331.200006317139,8|0,0:0|0:0,0:1:0:0:
205,324,118415,5,2,1:2:0:0:
226,343,118489,1,2,0:0:0:0:
266,335,118564,1,2,0:0:0:0:
302,303,118638,1,2,0:0:0:0:
306,249,118712,1,10,0:0:0:0:
270,195,118786,1,2,0:0:0:0:
197,165,118861,1,2,0:0:0:0:
126,199,118935,1,2,0:0:0:0:
63,256,119009,5,2,1:2:0:0:
54,247,119083,1,2,0:0:0:0:
49,240,119158,2,0,L|25:142,1,96,2|0,0:0|0:0,0:0:0:0:
0,13,119306,5,10,0:0:0:0:
23,31,119380,1,2,0:0:0:0:
42,47,119455,2,0,L|139:4,1,105.600003222656,2|0,0:0|0:0,0:0:0:0:
489,117,119603,6,0,L|402:79,1,96,2|0,1:2|0:0,0:0:0:0:
239,48,119752,2,0,L|327:87,1,96,2|0,0:0|0:0,0:0:0:0:
462,234,119900,6,0,L|377:221,1,86.3999973632813,10|0,0:0|0:0,0:0:0:0:
221,235,120049,2,0,L|307:249,1,86.3999973632813,2|0,0:0|0:0,0:0:0:0:
476,344,120197,5,0,1:2:0:0:
476,344,120346,2,2,L|456:310,1,28.7999991210938,2|0,0:0|0:0,0:1:0:0:
376,337,120494,2,2,L|341:317,1,28.7999991210938,10|0,0:0|0:0,0:1:0:0:
276,358,120643,2,2,L|236:358,1,28.7999991210938,2|0,0:0|0:0,0:1:0:0:
124,351,120791,6,0,L|354:16,1,384,2|0,1:2|0:0,0:0:0:0:
421,7,121014,1,0,0:0:0:0:
333,26,121088,2,0,L|241:158,1,96,10|0,0:0|0:0,0:0:0:0:
189,105,121237,2,0,L|280:-28,1,96
307,249,121385,6,2,B|351:114|171:-7|33:123|33:123|78:109|124:120|145:196,1,532.799997967529,6|0,1:2|0:0,0:1:0:0:
75,257,121682,6,2,P|52:213|81:188,1,72.0000027465821,10|0,0:0|0:0,0:1:0:0:
142,39,121831,2,2,P|185:15|210:44,1,72.0000027465821,2|0,0:0|0:0,0:1:0:0:
417,7,121979,5,0,1:2:0:0:
427,10,122054,2,0,P|475:65|455:143,1,148.800001135254,8|0,0:0|0:0,0:0:0:0:
333,26,122202,5,0,1:2:0:0:
327,33,122276,2,0,P|314:103|361:157,1,148.800001135254,10|0,0:0|0:0,0:0:0:0:
330,311,122425,5,10,0:0:0:0:
337,315,122499,1,8,0:0:0:0:
344,318,122574,2,2,B|448:346|545:260|497:121|365:131|344:233|417:257,1,345.599989453125,4|0,1:2|0:0,0:1:0:0:
512,380,122796,5,0,0:0:0:0:
509,374,122871,2,2,P|346:281|110:341,1,403.199987695313,8|0,0:0|0:0,0:1:0:0:
68,291,123168,6,0,P|89:318|91:367,1,72.0000027465821,2|0,1:2|0:0,0:0:0:0:
25,382,123316,2,0,P|4:355|2:306,1,72.0000027465821,2|0,0:0|0:0,0:0:0:0:
131,215,123465,6,0,P|148:209|124:208,1,72.0000027465821,10|0,0:0|0:0,0:0:0:0:
89,96,123613,1,2,0:0:0:0:
268,365,123762,6,0,B|205:316|231:236|275:212|332:233|331:238|332:246|417:242|455:153|371:83,1,388.800001483154,2|0,1:2|0:0,0:0:0:0:
158,28,124059,6,0,B|96:71|105:156|147:204|214:192|215:185|216:179|324:158|373:275|356:363|235:386,1,504.000004806519,10|0,0:2|0:0,0:0:0:0:
144,296,124356,5,2,1:2:0:0:
147,290,124430,2,0,P|253:229|491:271,1,364.799990258789,8|0,0:0|0:0,0:0:0:0:
512,348,124653,6,0,P|491:343|510:344,1,72,2|0,1:2|0:0,0:0:0:0:
512,188,124950,6,0,P|493:159|505:109,1,72.0000027465821,4|0,1:2|0:0,0:0:0:0:
335,105,125098,2,0,P|396:108|442:36,1,120,4|0,1:2|0:0,0:0:0:0:
511,7,125247,6,0,P|425:182|348:346,1,336.000003204346,8|0,0:0|0:0,0:0:0:0:
37,367,125544,5,0,1:2:0:0:
18,292,125618,1,0,1:2:0:0:
0,214,125692,1,0,1:2:0:0:
164,373,125841,6,0,B|179:388|206:396|239:387|266:361|284:324|252:274|252:274|226:229|240:198|268:164|317:154|358:208,1,364.799990258789,10|2,0:2|2:0,0:0:0:0:
401,296,126064,1,2,0:0:0:0:
393,297,126138,2,0,L|69:230,1,288.000010986329,2|0,1:2|0:0,0:0:0:0:
106,235,126361,1,0,0:0:0:0:
101,230,126435,2,0,L|74:127,1,96,8|0,0:0|0:0,0:0:0:0:
46,28,126583,2,0,L|73:131,1,96
358,15,126732,6,0,P|368:64|336:98,1,96,2|0,1:2|0:0,0:0:0:0:
281,0,126880,2,0,P|252:36|264:81,1,96,2|0,0:0|0:0,0:0:0:0:
157,86,127029,6,0,P|333:124|486:274,1,288.000010986329,12|0,0:0|0:0,0:0:0:0:
507,283,127252,5,0,0:0:0:0:
511,292,127326,2,0,P|516:309|507:289,1,108.000004119873,0|0,1:2|0:2,0:2:0:0:
419,185,127623,6,2,B|413:141|366:130|366:130|464:125|497:217|452:323|452:323|432:285|394:265|386:280|338:273|341:192,1,518.399984179688,14|0,0:0|0:0,0:1:0:0:
390,297,127920,6,0,P|374:345|329:358,1,96,0|0,1:2|0:0,0:0:0:0:
214,195,128069,1,2,0:0:0:0:
221,202,128143,1,2,0:0:0:0:
236,206,128217,2,0,P|320:180|509:83,1,288.000010986329,10|2,0:0|0:0,0:0:0:0:
180,37,128514,5,2,1:2:0:0:
170,51,128588,1,2,0:0:0:0:
161,65,128663,2,0,P|149:99|141:140,1,67.1999979492188,2|2,0:0|0:0,0:0:0:0:
27,0,128811,5,10,0:0:0:0:
29,16,128885,1,2,0:0:0:0:
32,32,128960,2,0,P|46:72|62:100,1,67.1999979492188,2|2,0:0|0:0,0:0:0:0:
260,265,129108,6,0,P|253:227|232:202,1,67.1999979492188,2|2,1:2|0:0,0:0:0:0:
187,295,129257,2,0,P|167:267|162:235,1,67.1999979492188,2|2,0:0|0:0,0:0:0:0:
324,317,129405,6,0,P|347:274|344:244,1,67.1999979492188,10|2,0:0|0:0,0:0:0:0:
182,375,129554,2,0,P|133:357|117:328,1,67.1999979492188,2|2,0:0|0:0,0:0:0:0:
506,105,129702,6,0,P|369:185|263:420,1,388.800001483154,2|0,1:2|0:0,0:0:0:0:
187,295,129999,2,2,P|167:267|162:235,1,67.1999979492188,10|0,0:0|0:0,0:1:0:0:
377,131,130148,6,0,L|392:81,2,43.1999986816407,2|2|2,0:0|0:0|0:0,0:0:0:0:
337,25,130296,5,2,1:2:0:0:
413,291,130445,2,0,P|422:316|416:290,1,76.8,2|0,0:0|0:0,0:0:0:0:
352,12,130593,5,8,0:0:0:0:
295,202,130742,2,0,P|291:210|298:201,1,38.4,2|2,0:0|0:0,0:0:0:0:
289,209,130816,2,0,P|285:217|292:208,1,38.4,2|2,0:0|0:0,0:0:0:0:
391,213,130890,6,2,B|384:96|223:85|251:147|125:170|101:94,1,360,2|0,1:2|0:0,0:1:0:0:
187,33,131187,6,0,P|200:78|179:123,1,76.8,10|0,0:0|0:0,0:0:0:0:
120,295,131336,1,2,0:0:0:0:
360,15,131484,5,0,1:2:0:0:
360,15,131559,2,0,P|259:88|169:295,1,288.000010986329,8|0,0:0|0:0,0:0:0:0:
54,356,131781,6,0,P|-4:296|116:316,1,288.000010986329,8|0,0:0|1:0,0:0:0:0:
247,374,132004,1,0,1:0:0:0:
257,384,132078,6,2,B|192:401|160:339|167:270|268:244|292:301|294:305|297:307|360:368|451:272|420:175|320:150|278:216,1,460.8,6|0,1:2|0:0,0:1:0:0:
180,228,132375,2,2,P|319:268|419:409,1,288,8|0,0:0|0:0,0:1:0:0:
382,132,132673,6,0,B|304:124|291:201|291:201|317:174|360:171,1,194.400000741577,2|0,1:2|0:0,0:0:0:0:
428,199,132821,2,0,P|444:217|432:196,1,67.1999979492188,2|0,0:0|0:0,0:0:0:0:
407,374,132970,5,10,0:0:0:0:
406,373,133267,2,0,P|279:141|41:26,2,537.59998359375,2|10|2,1:2|0:0|1:2,0:0:0:0:
265,291,133935,6,0,B|273:229|351:228|352:261|407:265|435:206,1,211.200006445313,8|0,0:0|0:0,0:0:0:0:
480,145,134158,6,0,L|470:119,1,28.8,0|0,1:2|0:0,0:0:0:0:
434,207,134455,5,0,1:2:0:0:
512,213,134529,2,0,P|408:165|208:108,1,268.799991796875,12|0,0:0|0:0,0:0:0:0:
259,217,134752,6,0,P|352:279|315:172,1,288.000010986329,8|0,0:0|0:0,0:0:0:0:
475,39,134974,6,0,B|522:74|504:133|444:162|396:122|394:116|392:111|349:66|293:63|242:142,1,326.400006225586,8|0,0:0|0:0,0:0:0:0:
177,182,135197,6,0,P|158:136|183:178,1,144.000005493164,8|0,0:0|0:0,0:0:0:0:
322,172,135346,6,0,P|319:276|248:297,1,144.000005493164,8|0,0:0|0:0,0:0:0:0:
102,384,135494,1,8,0:0:0:0:
102,384,135569,1,8,0:0:0:0:
102,384,135643,2,2,B|-17:332|166:121|210:305|215:308|219:314|347:378|388:284|462:118|322:-42|173:120|174:127|174:132|164:370|-49:183|-13:74|102:44|151:105,1,840,4|0,1:2|0:0,0:1:0:0:
142,4,136237,6,0,P|168:22|215:1,1,72.0000027465821,2|0,3:2|0:0,0:0:0:0:
268,59,136385,2,0,P|296:45|306:-1,1,72.0000027465821,2|0,3:2|0:0,0:0:0:0:
479,66,136534,6,0,B|496:113|451:138|437:132|426:122|392:162|412:203,1,168.000001602173,0|0,3:2|0:0,0:0:0:0:
377,100,136682,2,0,B|391:148|442:141|450:128|452:114|504:125|515:174,1,168.000001602173,0|0,3:2|0:0,0:0:0:0:
512,384,136831,5,6,1:2:0:0:
