osu file format v14

[General]
AudioFilename: audio.mp3
AudioLeadIn: 0
PreviewTime: 97096
Countdown: 0
SampleSet: Soft
StackLeniency: 0.5
Mode: 0
LetterboxInBreaks: 0
WidescreenStoryboard: 1

[Editor]
Bookmarks: 12071,21576,31378,40586,40735,40883,41032,41180,41329,41477,41626,41774,41923,42071,42220,42368,42517,42666,42814,42963,43111,43260,43408,43557,43705,43854,44002,44151,44299,44448,44596,44745,44893,45042,45190,45339,45487,45636,45784,45933,46081,46230,46378,46527,46675,46824,46972,47121,47269,47418,47567,47715,47864,48012,48161,48309,48458,48606,48755,48903,49052,59596,69101,78606,78755,78903,79052,79200,79349,79497,79646,79794,79943,80091,80240,80388,80537,80685,80834,80982,81131,81279,81428,81576,81725,81873,82022,82170,82319,82467,82616,82765,82913,83062,83210,83359,83507,83656,83804,83953,84101,84250,84398,84547,84695,84844,84992,85141,85289,85438,85586,117814,136824
DistanceSpacing: 0.9
BeatDivisor: 8
GridSize: 32
TimelineZoom: 1.900001

[Metadata]
Title:Duplication
TitleUnicode:Duplication
Artist:Zekk
ArtistUnicode:Zekk
Creator:keevy
Version:Easy
Source:
Tags:dailycare morinaga zekk sunazuka akira quantum rosta decay limerence down 0ppinosu sweet tea lei she luv lando sheluvlando_3 collab electronic instrumental drumstep fa featured artist
BeatmapID:3409624
BeatmapSetID:1667482

[Difficulty]
HPDrainRate:2.5
CircleSize:3
OverallDifficulty:3
ApproachRate:4
SliderMultiplier:0.9
SliderTickRate:1

[Events]
//Background and Video events
0,0,"bg.jpg",0,0
//Break Periods
2,40793,48778
2,78813,86798
//Storyboard Layer 0 (Background)
//Storyboard Layer 1 (Fail)
//Storyboard Layer 2 (Pass)
//Storyboard Layer 3 (Foreground)
//Storyboard Layer 4 (Overlay)
//Storyboard Sound Samples

[TimingPoints]
2574,297.029702970297,4,2,1,60,1,0
2871,-100,4,2,1,30,0,0
4950,-100,4,2,1,40,0,0
7326,-100,4,2,1,45,0,0
7623,-100,4,2,1,50,0,0
9702,-100,4,2,1,55,0,0
11781,-100,4,2,1,55,0,0
11855,-100,4,2,1,5,0,0
11930,-100,4,2,1,55,0,0
12004,-100,4,2,1,5,0,0
12078,-100,4,2,1,75,0,0
12300,-100,4,2,1,5,0,0
12375,-100,4,2,1,75,0,0
13044,-100,4,2,1,5,0,0
13118,-100,4,2,1,75,0,0
13192,-100,4,2,1,5,0,0
13267,-100,4,2,1,75,0,0
17128,-100,4,2,1,55,0,0
20247,-100,4,2,1,55,0,0
20321,-100,4,2,1,5,0,0
20395,-100,4,2,1,65,0,0
21212,-100,4,2,1,5,0,0
21286,-100,4,2,1,65,0,0
21583,-100,4,2,1,75,0,0
21880,-100,4,2,1,65,0,0
22177,-100,4,2,1,75,0,0
26558,-100,4,2,1,75,0,0
26633,-100,4,2,1,75,0,0
50098,-100,4,2,1,75,0,0
59306,-100,4,2,1,75,0,0
87821,-100,4,2,1,55,0,0
87895,-100,4,2,1,5,0,0
87970,-100,4,2,1,55,0,0
88044,-100,4,2,1,5,0,0
88118,-100,4,2,1,75,0,0
89974,-100,4,2,1,5,0,0
90049,-100,4,2,1,75,0,0
90123,-100,4,2,1,5,0,0
90197,-100,4,2,1,75,0,0
93168,-100,4,2,1,55,0,0
95841,-100,4,2,1,55,0,0
96287,-100,4,2,1,55,0,0
96361,-100,4,2,1,5,0,0
96435,-100,4,2,1,65,0,0
97029,-100,4,2,1,75,0,0
97177,-100,4,2,1,65,0,0
97623,-100,4,2,1,75,0,0
104900,-100,4,2,1,75,0,0
104974,-100,4,2,1,75,0,0
105345,-100,4,2,1,75,0,0
105420,-100,4,2,1,75,0,0
105568,-100,4,2,1,75,0,0
105642,-100,4,2,1,75,0,0
108093,-100,4,2,1,5,0,0
108316,-100,4,2,1,75,0,0
110507,-100,4,2,1,5,0,0
110544,-100,4,2,1,75,0,0
110915,-100,4,2,1,75,0,0
110989,-100,4,2,1,75,0,0
117561,-100,4,2,1,75,0,0
117672,-100,4,2,1,75,0,0
117747,-100,4,2,1,5,0,0
117821,-100,4,2,1,75,0,0
127103,-100,4,2,1,75,0,0
127177,-100,4,2,1,75,0,0
132300,-100,4,2,1,75,0,0
132375,-100,4,2,1,75,0,0
133786,-100,4,2,1,75,0,0
133861,-100,4,2,1,75,0,0
136831,-100,4,2,1,55,0,0
140989,333.333333333333,4,2,1,55,1,0
141489,389.61038961039,4,2,1,55,1,0

[Colours]
Combo1 : 255,60,60
Combo2 : 255,145,145

[HitObjects]
0,129,12078,6,0,L|153:88,1,135,4|4,1:2|1:2,0:0:0:0:
245,134,12970,1,4,3:2:0:0:
275,209,13267,2,0,L|268:325,2,90,4|2|0,1:2|0:0|2:0,0:0:0:0:
340,161,14158,1,8,2:0:0:0:
417,183,14455,2,0,B|450:154|450:154|461:27,1,135,4|0,1:2|1:2,0:0:0:0:
347,11,15346,2,0,L|250:43,1,90,2|4,2:0|1:2,0:0:0:0:
205,192,16237,2,0,P|233:228|212:303,1,90,0|0,2:0|2:0,0:0:0:0:
203,346,16831,5,4,2:0:0:0:
41,339,17425,2,0,L|20:226,1,90,2|2,2:0|2:0,0:0:0:0:
47,172,18019,1,2,2:0:0:0:
138,38,18613,2,0,P|180:63|248:56,1,90,0|0,2:0|1:0,0:0:0:0:
291,26,19207,6,0,B|391:11|391:11|466:45,1,180,0|0,1:0|2:0,0:0:0:0:
490,119,20098,1,8,2:0:0:0:
438,181,20395,2,0,L|262:137,1,180,4|0,1:2|2:0,0:0:0:0:
188,280,21583,6,2,P|207:311|342:332,1,180,4|8,1:2|0:0,0:1:0:0:
418,326,22474,1,0,0:0:0:0:
474,267,22772,2,0,L|460:175,1,90,2|2,1:2|1:2,0:0:0:0:
486,101,23366,1,10,0:0:0:0:
343,24,23960,6,0,L|155:54,1,180,4|8,1:2|0:0,0:0:0:0:
84,62,24851,1,0,1:2:0:0:
47,134,25148,2,2,P|97:186|121:302,1,180,4|8,1:2|0:0,0:1:0:0:
275,342,26336,6,2,P|311:304|312:153,1,180,4|8,1:2|0:0,0:1:0:0:
265,127,27227,1,2,0:0:0:0:
281,47,27524,2,0,P|318:27|368:33,1,90,2|2,1:1|1:1,0:0:0:0:
445,35,28118,2,0,P|488:61|505:105,1,90,8|0,0:0|0:0,0:0:0:0:
499,176,28712,5,4,1:2:0:0:
431,325,29306,1,10,0:0:0:0:
281,263,29900,2,0,P|277:208|234:153,2,90,0|0|8,1:2|1:2|0:0,0:0:0:0:
241,333,30791,1,0,1:2:0:0:
79,349,31385,5,4,1:2:0:0:
22,290,31682,2,0,L|1:176,1,90,8|2,0:0|0:0,0:0:0:0:
25,123,32276,1,2,1:2:0:0:
101,95,32574,1,2,1:2:0:0:
168,139,32871,2,0,P|209:149|273:120,1,90,10|2,0:0|0:0,0:0:0:0:
317,86,33465,6,0,L|295:285,1,180,0|8,1:2|0:0,0:0:0:0:
279,343,34356,1,0,1:2:0:0:
354,372,34653,2,2,P|412:357|461:338,1,90,4|0,1:2|1:2,0:1:0:0:
503,296,35247,1,8,0:0:0:0:
450,142,35841,5,0,1:2:0:0:
321,43,36435,1,8,0:0:0:0:
251,84,36732,1,0,0:0:0:0:
178,47,37029,2,0,P|115:42|88:72,1,90,6|0,1:1|1:2,0:0:0:0:
24,91,37623,2,0,P|-1:132|13:186,1,90,8|2,0:0|0:2,0:0:0:0:
58,232,38217,5,0,1:2:0:0:
217,201,38811,1,0,0:0:0:0:
284,245,39108,1,8,0:0:0:0:
353,202,39405,2,0,L|399:-17,1,180,0|2,1:2|0:0,0:0:0:0:
309,27,40296,2,0,L|203:47,1,90,2|6,0:0|1:2,0:0:0:0:
246,203,50098,6,0,L|96:241,2,135,4|0|2,1:2|0:0|0:0,0:0:0:0:
365,182,51435,1,2,0:0:0:0:
467,246,51880,2,0,L|493:129,1,90,2|2,0:0|0:0,0:0:0:0:
501,78,52474,6,0,P|453:35|366:59,1,135,2|0,0:0|0:0,0:0:0:0:
293,120,53366,1,2,0:0:0:0:
202,38,53811,2,0,P|154:33|76:88,1,135,0|2,0:0|0:0,0:0:0:0:
48,150,54554,1,2,0:0:0:0:
99,212,54851,6,0,L|239:187,2,135,2|2|2,3:2|3:2|3:2,0:0:0:0:
49,276,56039,1,0,3:2:0:0:
183,365,56633,1,2,3:2:0:0:
343,344,57227,2,0,P|389:243|240:179,1,270,0|0,3:2|0:0,0:0:0:0:
198,186,58415,2,0,L|85:168,2,90,6|0|0,1:2|0:0|0:0,0:0:0:0:
276,164,59306,1,2,0:2:0:0:
328,102,59603,6,2,P|374:86|420:86,1,90,2|6,1:2|1:2,0:1:0:0:
475,139,60197,2,0,L|470:203,1,45,8|2,0:0|1:2,0:0:0:0:
496,261,60643,2,0,L|477:314,1,45,10|2,0:0|1:2,0:0:0:0:
423,360,61088,2,0,L|370:362,1,45,10|2,0:0|1:2,0:0:0:0:
296,361,61534,2,0,L|260:325,1,45,10|0,0:0|1:2,0:0:0:0:
264,248,61979,1,0,1:2:0:0:
324,193,62276,6,0,L|342:93,1,90,8|0,0:0|0:0,0:0:0:0:
299,33,62871,1,10,0:0:0:0:
221,56,63168,2,0,P|154:68|121:53,1,90,0|8,1:2|0:0,0:0:0:0:
75,6,63762,1,0,0:0:0:0:
9,154,64356,6,2,P|48:186|54:247,1,90,0|4,1:2|1:2,0:1:0:0:
52,303,64950,2,0,P|64:332|94:351,1,45,8|4,0:0|1:2,0:0:0:0:
150,366,65395,2,0,P|188:371|200:363,1,45,8|4,0:0|1:2,0:0:0:0:
272,354,65841,2,0,P|299:328|300:303,1,45,8|4,0:0|1:2,0:0:0:0:
329,246,66286,2,0,P|325:208|312:192,1,45,8|0,0:0|1:2,0:0:0:0:
264,144,66732,5,2,1:2:0:0:
375,26,67326,1,8,0:0:0:0:
470,156,67920,2,0,P|491:200|489:260,2,90,4|4|8,1:2|1:2|0:0,0:0:0:0:
391,135,68811,2,0,P|345:131|281:160,1,90,2|6,1:2|1:2,0:0:0:0:
249,204,69405,5,6,1:2:0:0:
255,285,69702,2,0,L|216:314,1,45,8|2,0:0|1:2,0:0:0:0:
162,369,70148,2,0,L|102:367,1,45,10|2,0:0|1:2,0:0:0:0:
43,333,70593,2,0,L|6:278,1,45,10|2,0:0|1:2,0:0:0:0:
5,215,71039,2,0,L|26:163,1,45,10|0,0:0|1:2,0:0:0:0:
97,144,71484,1,0,1:2:0:0:
163,190,71781,6,0,P|216:213|264:199,1,90,8|0,0:0|0:0,0:0:0:0:
315,165,72375,1,10,0:0:0:0:
365,228,72673,2,0,L|381:325,1,90,0|8,1:2|0:0,0:0:0:0:
451,354,73267,1,0,0:0:0:0:
503,200,73861,6,2,P|495:151|466:110,1,90,0|4,1:2|1:2,0:1:0:0:
379,41,74603,1,4,1:2:0:0:
279,110,75049,1,4,1:2:0:0:
170,56,75494,1,4,1:2:0:0:
76,134,75940,2,2,P|69:181|106:231,1,90,0|6,1:2|1:2,0:1:0:0:
256,192,76385,12,6,78613,1:2:0:0:
370,13,88118,6,0,L|407:154,1,135,4|4,1:2|1:2,0:0:0:0:
445,258,89009,1,4,3:2:0:0:
404,327,89306,2,0,L|352:338,1,45,4|0,1:2|2:0,0:0:0:0:
280,351,89752,1,4,1:2:0:0:
86,303,90494,6,0,P|61:217|86:157,1,135,4|4,1:2|1:2,0:0:0:0:
98,57,91385,2,0,P|132:30|206:39,1,90,0|4,3:2|1:2,0:0:0:0:
325,87,92276,2,0,L|320:199,1,90,0|0,2:0|2:0,0:0:0:0:
317,258,92871,5,4,2:0:0:0:
474,220,93465,2,0,L|481:101,1,90,2|2,2:0|2:0,0:0:0:0:
482,49,94059,1,2,2:0:0:0:
325,87,94653,2,0,P|260:90|221:68,1,90,0|0,2:0|1:0,0:0:0:0:
177,27,95247,6,0,P|102:9|32:91,1,180,0|0,1:0|2:0,0:0:0:0:
42,156,96138,1,8,2:0:0:0:
29,236,96435,1,4,1:2:0:0:
153,339,97029,2,0,P|200:324|256:328,1,90,0|2,2:0|2:0,0:0:0:0:
313,359,97623,6,0,P|378:366|407:351,1,90,2|12,1:2|2:0,0:0:0:0:
472,323,98217,1,0,1:0:0:0:
481,242,98514,2,0,P|471:172|401:129,1,135,10|2,2:0|2:0,0:0:0:0:
307,170,99405,1,2,1:2:0:0:
241,122,99702,1,10,2:0:0:0:
167,156,99999,6,0,P|141:121|137:67,1,90,2|8,1:2|2:0,0:0:0:0:
89,8,100593,1,0,1:0:0:0:
15,43,100890,2,0,P|-9:119|29:189,1,135,10|2,2:0|0:0,0:0:0:0:
94,254,101781,1,2,1:2:0:0:
170,281,102078,1,10,0:0:0:0:
240,241,102375,6,0,P|255:191|238:148,1,90,6|8,1:2|0:0,0:0:0:0:
205,84,102970,1,0,1:2:0:0:
248,15,103267,2,0,P|327:5|386:62,1,135,10|2,0:0|0:0,0:0:0:0:
463,112,104158,2,0,P|468:171|447:197,1,90,2|10,1:2|0:0,0:0:0:0:
405,260,104752,6,0,L|259:234,1,135,4|6,1:2|1:2,0:0:0:0:
163,291,105643,1,12,0:2:0:0:
82,282,105940,2,2,L|35:87,1,180,4|8,1:2|0:0,0:1:0:0:
39,26,106831,1,8,0:0:0:0:
117,44,107128,2,0,P|174:48|238:25,1,90,0|4,1:2|1:2,0:0:0:0:
365,11,108019,6,0,P|442:34|462:109,1,135,10|0,0:0|0:0,0:0:0:0:
497,196,108910,1,2,1:2:0:0:
467,271,109207,1,10,0:0:0:0:
386,266,109504,2,0,P|338:250|289:262,1,90,2|8,1:2|0:0,0:0:0:0:
231,299,110098,1,0,1:2:0:0:
175,240,110395,2,0,L|182:87,1,135,10|2,0:0|1:2,0:0:0:0:
96,17,111286,2,0,P|44:33|15:73,1,90,2|10,1:2|0:0,0:0:0:0:
0,137,111880,6,0,L|16:238,1,90,2|12,1:2|0:0,0:0:0:0:
46,300,112474,1,0,1:2:0:0:
126,312,112772,2,0,P|189:285|263:314,1,135,10|2,0:0|0:0,0:0:0:0:
347,376,113663,1,2,1:2:0:0:
499,321,114257,6,0,L|481:226,1,90,2|8,1:2|0:0,0:0:0:0:
432,168,114851,1,0,1:2:0:0:
478,101,115148,1,10,1:2:0:0:
444,27,115445,2,2,P|383:11|264:65,1,180,4|2,1:2|3:0,0:1:0:0:
198,30,116336,1,2,1:2:0:0:
126,68,116633,2,0,L|189:345,1,270,2|14,1:2|0:0,0:0:0:0:
121,379,117821,6,2,P|73:378|33:339,1,90,4|8,1:2|0:0,0:1:0:0:
5,280,118415,1,2,1:2:0:0:
25,119,119009,2,0,L|128:90,1,90,2|10,1:2|0:0,0:0:0:0:
181,53,119603,1,2,1:2:0:0:
252,92,119900,1,10,0:0:0:0:
319,47,120197,6,0,P|374:27|474:113,1,180,0|2,1:2|1:2,0:0:0:0:
425,245,121385,2,2,P|379:231|319:237,1,90,6|10,1:2|0:0,0:1:0:0:
270,278,121979,1,0,1:2:0:0:
194,249,122276,1,10,0:0:0:0:
187,167,122574,2,2,P|196:97|101:28,1,180,4|2,1:2|1:2,0:1:0:0:
12,150,123762,6,0,L|27:261,1,90,2|10,1:2|0:2,0:0:0:0:
28,320,124356,1,2,1:2:0:0:
184,361,124950,2,0,L|299:345,1,90,4|8,1:2|0:0,0:0:0:0:
350,325,125544,1,0,1:2:0:0:
366,245,125841,1,10,0:2:0:0:
311,184,126138,2,0,L|119:137,1,180,2|2,1:2|1:2,0:0:0:0:
72,91,127029,1,12,0:0:0:0:
214,14,127623,6,2,P|261:13|304:56,1,90,14|0,0:0|1:2,0:1:0:0:
374,27,128217,1,10,0:0:0:0:
444,67,128514,2,0,L|436:177,1,90,2|10,1:2|0:0,0:0:0:0:
477,227,129108,1,2,1:2:0:0:
451,305,129405,1,10,0:0:0:0:
374,330,129702,2,0,L|171:294,1,180,2|2,1:2|1:2,0:0:0:0:
46,358,130890,6,2,P|8:302|30:272,1,90,2|10,1:2|0:0,0:1:0:0:
66,228,131484,1,0,1:2:0:0:
33,153,131781,1,8,0:0:0:0:
78,86,132078,2,2,L|269:50,1,180,6|2,1:2|1:2,0:1:0:0:
360,176,133267,1,2,1:2:0:0:
317,244,133564,1,10,0:0:0:0:
358,313,133861,2,0,P|411:335|451:312,1,90,2|0,1:2|1:2,0:0:0:0:
491,262,134455,6,0,L|513:67,1,180,0|0,1:2|0:0,0:0:0:0:
457,22,135346,1,8,0:0:0:0:
382,54,135643,2,2,P|308:88|204:48,1,180,4|2,1:2|3:2,0:1:0:0:
149,17,136534,2,0,P|109:50|114:90,1,90,0|6,3:2|1:2,0:0:0:0:
