osu file format v14

[General]
AudioFilename: audio.mp3
AudioLeadIn: 0
PreviewTime: 96796
Countdown: 0
SampleSet: Soft
StackLeniency: 0.7
Mode: 2
LetterboxInBreaks: 0
WidescreenStoryboard: 1

[Editor]
DistanceSpacing: 1.2
BeatDivisor: 4
GridSize: 32
TimelineZoom: 2.4

[Metadata]
Title:Duplication
TitleUnicode:Duplication
Artist:Zekk
ArtistUnicode:Zekk
Creator:Jemzuu
Version:Rain
Source:osu!
Tags:ajamez spectator gigachad dako realazy featured artist mappers guild dubcore hardcore j-core jcore dubstep drumstep electronic instrumental tech
BeatmapID:2947846
BeatmapSetID:1432240

[Difficulty]
HPDrainRate:5
CircleSize:3.8
OverallDifficulty:9.2
ApproachRate:9.2
SliderMultiplier:1.8
SliderTickRate:1

[Events]
//Background and Video events
0,0,"Space-monitors-line-Staley-room-technology-sci-fi-science-computer-futuristic-wallpaper.jpg",0,0
//Break Periods
2,78654,82637
//Storyboard Layer 0 (Background)
//Storyboard Layer 1 (Fail)
//Storyboard Layer 2 (Pass)
//Storyboard Layer 3 (Foreground)
//Storyboard Layer 4 (Overlay)
//Storyboard Sound Samples

[TimingPoints]
2415,297.029702970297,4,2,0,40,1,0
2415,-100,4,2,0,40,0,0
9543,-100,4,2,0,45,0,0
10137,-100,4,2,0,50,0,0
10731,-100,4,2,0,55,0,0
11622,-100,4,2,1,60,0,0
11919,-100,4,2,1,85,0,0
12179,-100,4,2,1,5,0,0
12216,-100,4,2,1,70,0,0
12365,-100,4,2,1,85,0,0
12625,-100,4,2,1,5,0,0
12662,-100,4,2,1,70,0,0
12959,-100,4,2,1,70,0,0
13108,-100,4,2,1,85,0,0
13405,-100,4,2,1,85,0,0
13516,-100,4,2,1,5,0,0
13553,-100,4,2,1,85,0,0
13850,-100,4,2,1,70,0,0
14296,-100,4,2,1,85,0,0
14556,-100,4,2,1,5,0,0
14593,-100,4,2,1,70,0,0
14741,-100,4,2,1,85,0,0
15038,-100,4,2,1,70,0,0
15187,-100,4,2,1,70,0,0
15484,-100,4,2,1,85,0,0
16078,-100,4,2,1,50,0,0
16672,-100,4,2,1,70,0,0
16820,-100,4,2,1,60,0,0
16969,-100,4,2,1,60,0,0
17266,-100,4,2,1,60,0,0
18009,-100,4,2,1,60,0,0
18306,-100,4,2,1,60,0,0
18454,-100,4,2,1,60,0,0
19048,-100,4,2,1,80,0,0
19271,-100,4,2,1,5,0,0
19345,-100,4,2,1,80,0,0
19568,-100,4,2,1,80,0,0
19791,-100,4,2,1,90,0,0
20236,-100,4,2,1,50,0,0
21424,-100,4,2,1,90,0,0
21721,-100,4,2,1,90,0,0
21870,-100,4,2,1,80,0,0
23207,-100,4,2,1,80,0,0
23801,-100,4,2,1,80,0,0
23912,-100,4,2,1,5,0,0
23949,-100,4,2,1,80,0,0
24098,-100,4,2,1,80,0,0
24395,-100,4,2,1,80,0,0
24692,-100,4,2,1,80,0,0
24989,-100,4,2,1,80,0,0
25100,-100,4,2,1,5,0,0
25137,-100,4,2,1,80,0,0
25286,-100,4,2,1,80,0,0
25583,-100,4,2,1,90,0,0
25880,-100,4,2,1,70,0,0
26177,-100,4,2,1,90,0,0
26474,-100,4,2,1,80,0,0
26771,-100,4,2,1,80,0,0
27365,-100,4,2,1,80,0,0
27588,-100,4,2,1,5,0,0
27662,-100,4,2,1,77,0,0
27885,-100,4,2,1,5,0,0
27959,-100,4,2,1,74,0,0
28182,-100,4,2,1,5,0,0
28256,-100,4,2,1,70,0,0
28479,-100,4,2,1,5,0,0
28553,-100,4,2,1,80,0,0
28665,-100,4,2,1,5,0,0
28701,-100,4,2,1,80,0,0
29147,-100,4,2,1,80,0,0
29444,-100,4,2,1,80,0,0
29741,-100,4,2,1,70,0,0
30335,-100,4,2,1,70,0,0
30632,-100,4,2,1,70,0,0
30929,-100,4,2,0,60,0,0
31152,-100,4,2,0,5,0,0
31226,-100,4,2,1,90,0,0
31449,-100,4,2,1,5,0,0
31523,-100,4,2,1,80,0,0
32415,-100,4,2,1,80,0,0
32712,-100,4,2,1,80,0,0
33306,-100,4,2,1,80,0,0
33417,-100,4,2,1,5,0,0
33454,-100,4,2,1,80,0,0
33751,-100,4,2,1,80,0,0
33900,-100,4,2,1,80,0,0
34048,-100,4,2,1,80,0,0
34197,-100,4,2,1,80,0,0
34494,-100,4,2,1,80,0,0
34605,-100,4,2,1,5,0,0
34642,-100,4,2,1,80,0,0
34791,-100,4,2,1,80,0,0
35088,-100,4,2,1,90,0,0
35385,-100,4,2,1,70,0,0
35830,-100,4,2,1,70,0,0
36127,-100,4,2,1,70,0,0
36276,-100,4,2,1,90,0,0
36424,-100,4,2,1,5,0,0
36499,-100,4,2,1,90,0,0
36647,-100,4,2,1,5,0,0
36721,-100,4,2,1,90,0,0
36796,-100,4,2,1,5,0,0
36870,-100,4,2,1,90,0,0
37167,-100,4,2,1,80,0,0
38058,-100,4,2,1,90,0,0
38355,-100,4,2,1,90,0,0
38578,-100,4,2,1,90,0,0
38801,-100,4,2,1,90,0,0
39840,-100,4,2,1,70,0,0
40434,-100,4,2,1,70,0,0
40880,-100,4,2,0,40,0,0
45187,-100,4,2,0,40,0,0
49939,-100,4,2,1,50,0,0
54692,-100,4,2,1,50,0,0
58850,-100,4,2,1,70,0,0
59147,-100,4,2,1,70,0,0
59221,-100,4,2,1,70,0,0
59370,-100,4,2,1,5,0,0
59444,-100,4,2,1,90,0,0
61820,-100,4,2,1,70,0,0
62117,-100,4,2,1,80,0,0
62266,-100,4,2,1,5,0,0
62340,-100,4,2,1,80,0,0
62489,-100,4,2,1,5,0,0
62563,-100,4,2,1,80,0,0
63009,-100,4,2,1,80,0,0
63120,-100,4,2,1,5,0,0
63157,-100,4,2,1,80,0,0
63306,-100,4,2,1,80,0,0
63417,-100,4,2,1,5,0,0
63454,-100,4,2,1,80,0,0
63900,-100,4,2,1,80,0,0
64494,-100,4,2,1,100,0,0
64716,-100,4,2,1,5,0,0
64791,-100,4,2,1,90,0,0
64939,-100,4,2,1,100,0,0
65162,-100,4,2,1,5,0,0
65236,-100,4,2,1,90,0,0
65385,-100,4,2,1,100,0,0
65608,-100,4,2,1,5,0,0
65682,-100,4,2,1,90,0,0
65830,-100,4,2,1,100,0,0
66053,-100,4,2,1,5,0,0
66127,-100,4,2,1,90,0,0
66276,-100,4,2,1,80,0,0
66721,-100,4,2,1,70,0,0
67167,-100,4,2,1,70,0,0
67464,-100,4,2,1,70,0,0
67761,-100,4,2,1,80,0,0
68355,-100,4,2,1,90,0,0
68652,-100,4,2,1,70,0,0
68949,-100,4,2,1,90,0,0
71325,-100,4,2,1,70,0,0
71622,-100,4,2,1,80,0,0
71771,-100,4,2,1,5,0,0
71845,-100,4,2,1,80,0,0
71994,-100,4,2,1,5,0,0
72068,-100,4,2,1,80,0,0
72514,-100,4,2,1,80,0,0
72625,-100,4,2,1,5,0,0
72662,-100,4,2,1,80,0,0
72811,-100,4,2,1,80,0,0
72922,-100,4,2,1,5,0,0
72959,-100,4,2,1,80,0,0
73405,-100,4,2,1,80,0,0
73702,-100,4,2,1,80,0,0
73999,-100,4,2,1,90,0,0
74370,-100,4,2,1,5,0,0
74444,-100,4,2,1,90,0,0
74815,-100,4,2,1,5,0,0
74890,-100,4,2,1,90,0,0
75261,-100,4,2,1,5,0,0
75335,-100,4,2,1,90,0,0
75707,-100,4,2,1,5,0,0
75781,-100,4,2,1,80,0,0
76078,-100,4,2,1,60,0,0
76226,-100,4,2,0,60,0,0
77712,-100,4,2,0,55,0,0
77860,-100,4,2,0,50,0,0
78009,-100,4,2,0,45,0,0
78157,-100,4,2,0,40,0,0
78454,-100,4,2,1,70,0,0
83207,-100,4,2,1,25,0,0
85434,-100,4,2,1,5,0,0
85583,-100,4,2,1,50,0,0
87662,-100,4,2,1,60,0,0
87959,-100,4,2,1,85,0,0
88219,-100,4,2,1,5,0,0
88256,-100,4,2,1,70,0,0
88405,-100,4,2,1,85,0,0
88665,-100,4,2,1,5,0,0
88702,-100,4,2,1,70,0,0
88999,-100,4,2,1,70,0,0
89147,-100,4,2,1,85,0,0
89444,-100,4,2,1,70,0,0
89556,-100,4,2,1,5,0,0
89593,-100,4,2,1,85,0,0
89890,-100,4,2,1,70,0,0
90335,-100,4,2,1,85,0,0
90595,-100,4,2,1,5,0,0
90632,-100,4,2,1,70,0,0
90781,-100,4,2,1,85,0,0
91226,-100,4,2,1,70,0,0
91523,-100,4,2,1,85,0,0
92117,-100,4,2,1,50,0,0
92711,-100,4,2,1,70,0,0
92860,-100,4,2,1,60,0,0
93008,-100,4,2,1,60,0,0
93305,-100,4,2,1,60,0,0
94048,-100,4,2,1,60,0,0
94345,-100,4,2,1,60,0,0
94493,-100,4,2,1,60,0,0
95087,-100,4,2,1,80,0,0
95311,-100,4,2,1,5,0,0
95385,-100,4,2,1,80,0,0
95608,-100,4,2,1,80,0,0
95756,-100,4,2,1,5,0,0
95830,-100,4,2,1,70,0,0
96275,-90.9090909090909,4,2,1,70,0,0
96721,-100,4,2,1,5,0,0
96870,-100,4,2,1,70,0,0
97093,-100,4,2,1,70,0,0
97761,-100,4,2,1,80,0,1
97910,-100,4,2,1,80,0,1
99246,-100,4,2,1,80,0,1
99840,-100,4,2,1,80,0,1
100731,-100,4,2,1,80,0,1
102216,-100,4,2,1,80,0,1
103405,-100,4,2,1,80,0,1
104593,-100,4,2,1,90,0,1
104741,-100,4,2,1,5,0,1
104815,-100,4,2,1,90,0,1
104964,-100,4,2,1,5,0,1
105038,-100,4,2,1,90,0,1
105187,-100,4,2,1,5,0,1
105261,-100,4,2,1,90,0,1
105484,-100,4,2,1,90,0,1
105707,-100,4,2,1,90,0,1
105781,-100,4,2,1,70,0,1
106226,-100,4,2,1,70,0,1
106375,-100,4,2,1,90,0,1
106672,-100,4,2,1,90,0,1
106969,-100,4,2,1,90,0,0
107117,-100,4,2,1,70,0,0
107860,-100,4,2,1,80,0,1
107934,-100,4,2,1,70,0,0
108157,-100,4,2,1,80,0,1
108751,-100,4,2,1,80,0,1
109345,-100,4,2,1,80,0,1
110236,-100,4,2,1,60,0,0
110533,-100,4,2,1,70,0,0
110570,-100,4,2,1,75,0,0
110608,-100,4,2,1,80,0,0
110682,-100,4,2,1,90,0,1
110979,-100,4,2,1,90,0,1
111424,-100,4,2,1,90,0,1
111721,-100,4,2,1,70,0,1
112018,-100,4,2,1,80,0,1
113058,-100,4,2,1,70,0,1
113355,-100,4,2,1,70,0,0
114098,-100,4,2,1,90,0,1
114320,-100,4,2,1,5,0,1
114395,-100,4,2,1,90,0,1
114543,-100,4,2,1,5,0,1
114617,-100,4,2,1,90,0,1
114840,-100,4,2,1,70,0,1
115286,-100,4,2,1,70,0,0
115583,-100,4,2,1,70,0,0
116474,-100,4,2,1,70,0,0
117068,-100,4,2,1,70,0,0
117588,-100,4,2,1,5,0,0
117662,-100,4,2,1,95,0,1
117885,-100,4,2,1,5,0,1
117959,-100,4,2,1,95,0,1
118182,-100,4,2,1,5,0,1
118256,-100,4,2,1,85,0,1
120038,-100,4,2,1,85,0,1
120150,-100,4,2,1,5,0,1
120187,-100,4,2,1,85,0,1
120335,-100,4,2,1,85,0,1
120632,-100,4,2,1,85,0,1
120929,-100,4,2,1,85,0,1
121226,-100,4,2,1,85,0,1
121338,-100,4,2,1,5,0,1
121375,-100,4,2,1,85,0,1
121523,-100,4,2,1,85,0,1
121820,-100,4,2,1,95,0,1
122080,-100,4,2,1,5,0,1
122117,-100,4,2,1,85,0,1
122415,-100,4,2,1,95,0,1
122637,-100,4,2,1,5,0,1
122712,-100,4,2,1,95,0,1
122934,-100,4,2,1,5,0,1
123009,-100,4,2,1,85,0,1
123046,-100,4,2,1,5,0,1
123157,-100,4,2,1,85,0,1
123194,-100,4,2,1,5,0,1
123306,-100,4,2,1,85,0,1
123343,-100,4,2,1,5,0,1
123454,-100,4,2,1,85,0,1
123491,-100,4,2,1,5,0,1
123603,-100,4,2,1,82,0,1
123825,-100,4,2,1,5,0,1
123900,-100,4,2,1,79,0,1
124122,-100,4,2,1,5,0,1
124197,-100,4,2,1,75,0,1
124419,-100,4,2,1,5,0,1
124494,-100,4,2,1,70,0,0
124791,-100,4,2,1,90,0,1
125385,-100,4,2,1,90,0,1
125682,-100,4,2,1,95,0,1
125979,-100,4,2,1,100,0,1
126202,-100,4,2,1,5,0,1
126276,-100,4,2,1,90,0,1
126573,-100,4,2,1,90,0,1
127167,-100,4,2,1,90,0,0
127464,-100,4,2,1,95,0,1
127761,-100,4,2,1,85,0,1
129543,-100,4,2,1,85,0,1
129655,-100,4,2,1,5,0,1
129692,-100,4,2,1,85,0,1
129840,-100,4,2,1,85,0,1
130137,-100,4,2,1,85,0,1
130731,-100,4,2,1,85,0,1
130843,-100,4,2,1,5,0,1
130880,-100,4,2,1,85,0,1
131028,-100,4,2,1,85,0,1
131325,-100,4,2,1,85,0,1
131585,-100,4,2,1,5,0,1
131622,-100,4,2,1,85,0,1
131919,-100,4,2,1,95,0,1
132142,-100,4,2,1,5,0,1
132216,-100,4,2,1,85,0,1
132439,-100,4,2,1,5,0,1
132514,-100,4,2,1,80,0,1
132736,-100,4,2,1,5,0,1
132811,-100,4,2,1,75,0,1
133033,-100,4,2,1,5,0,1
133108,-100,4,2,1,85,0,1
133330,-100,4,2,1,5,0,1
133405,-100,4,2,1,82,0,1
133627,-100,4,2,1,5,0,1
133702,-100,4,2,1,79,0,1
133924,-100,4,2,1,5,0,1
133999,-100,4,2,1,70,0,0
134221,-100,4,2,1,5,0,0
134296,-100,4,2,1,95,0,1
134370,-100,4,2,1,95,0,1
134518,-100,4,2,1,5,0,1
134593,-100,4,2,1,95,0,1
134741,-100,4,2,1,5,0,1
134815,-100,4,2,1,95,0,1
134964,-100,4,2,1,5,0,1
135038,-100,4,2,1,95,0,1
135484,-100,4,2,1,100,0,1
135781,-100,4,2,1,100,0,1
136004,-100,4,2,1,5,0,1
136078,-100,4,2,1,80,0,1
136672,-100,4,2,1,70,0,0
136820,-100,4,2,1,50,0,0
137860,-100,4,2,1,40,0,0
139048,-100,4,2,1,30,0,0
140236,-100,4,2,1,15,0,0
140979,-100,4,2,1,10,0,0
141721,-100,4,2,1,5,0,0

[Colours]
Combo1 : 91,91,91
Combo2 : 128,255,255
Combo3 : 192,192,192

[HitObjects]
351,317,2415,6,0,P|365:250|273:182,1,180,4|0,1:0|0:0,0:0:0:0:
88,72,3009,1,2,0:0:0:0:
170,101,3157,1,0,0:0:0:0:
204,181,3306,1,0,0:0:0:0:
169,261,3454,1,0,0:0:0:0:
86,289,3603,1,0,0:0:0:0:
299,349,3900,6,0,L|306:163,1,180,2|0,0:0|0:0,0:0:0:0:
191,166,4345,1,2,0:0:0:0:
143,74,4494,1,0,0:0:0:0:
191,166,4642,1,0,0:0:0:0:
306,172,4791,6,0,P|383:192|394:295,1,180,2|2,0:0|0:0,0:0:0:0:
294,309,5236,2,0,L|269:266,2,45,0|0|0,0:0|0:0|0:0,0:0:0:0:
401,283,5533,1,2,0:0:0:0:
447,208,5682,1,2,0:0:0:0:
401,283,5830,1,0,0:0:0:0:
288,305,5979,6,0,L|286:193,1,90,2|0,0:0|0:0,0:0:0:0:
73,173,6424,1,2,0:0:0:0:
187,201,6573,2,0,L|190:100,1,90,2|0,0:0|0:0,0:0:0:0:
312,60,6870,2,0,L|204:64,1,90,0|0,0:0|0:0,0:0:0:0:
97,84,7167,6,0,P|69:143|136:223,1,180,2|0,0:0|0:0,0:0:0:0:
340,313,7761,2,0,L|347:199,1,90,0|0,0:0|0:0,0:0:0:0:
225,242,8058,2,0,L|216:142,1,90,2|0,0:0|0:0,0:0:0:0:
268,139,8281,1,0,0:0:0:0:
321,132,8355,6,0,P|374:145|367:275,1,180,2|0,0:0|0:0,0:0:0:0:
277,283,8801,2,0,L|254:235,2,45,2|2|2,0:0|0:0|0:0,0:0:0:0:
386,311,9098,1,2,0:0:0:0:
435,227,9246,1,2,0:0:0:0:
386,311,9395,1,0,0:0:0:0:
260,321,9543,6,0,L|73:280,1,180,0|0,3:0|3:0,0:0:0:0:
263,218,10063,1,0,0:0:0:0:
309,240,10137,2,0,L|317:139,1,90,0|0,3:0|0:0,0:0:0:0:
192,169,10434,2,0,L|188:69,1,90,0|0,3:0|0:0,0:0:0:0:
63,78,10731,6,0,L|165:62,1,90,0|0,3:0|1:0,0:0:0:0:
282,78,11028,2,0,L|286:180,1,90,0|2,1:0|0:0,0:0:0:0:
228,188,11251,1,2,0:0:0:0:
168,208,11325,2,0,L|158:261,3,45,2|0|2|2,0:0|0:0|3:0|3:0,0:0:0:0:
330,278,11622,6,0,L|463:274,1,90
194,347,11919,6,0,L|86:336,2,90,4|0|0,1:2|0:0|1:0,0:0:0:0:
419,195,12365,2,0,L|226:164,1,180,4|2,1:2|3:2,0:0:0:0:
362,148,12811,1,2,0:0:0:0:
380,108,12885,1,0,0:0:0:0:
360,69,12959,1,2,0:0:0:0:
318,60,13033,1,0,0:0:0:0:
145,113,13108,6,0,L|147:225,1,90,4|2,1:2|0:0,0:0:0:0:
262,216,13405,1,2,0:0:0:0:
47,300,13553,2,0,P|29:240|112:178,1,180,4|0,1:2|0:0,0:0:0:0:
232,170,13999,1,0,1:0:0:0:
112,178,14147,1,0,1:0:0:0:
351,89,14296,5,4,1:2:0:0:
234,113,14444,2,0,L|231:242,1,90,0|0,0:0|1:0,0:0:0:0:
453,177,14741,2,0,P|473:228|379:299,1,180,4|2,1:2|3:0,0:0:0:0:
282,289,15187,2,0,L|269:215,1,45,2|0,3:0|0:0,0:0:0:0:
343,240,15335,2,0,L|350:177,1,45,0|0,3:0|0:0,0:0:0:0:
170,137,15484,6,0,L|22:247,2,180,4|0|2,1:2|3:0|3:2,0:0:0:0:
401,56,16375,2,0,L|410:158,1,90,2|0,3:0|3:0,0:0:0:0:
171,181,16672,6,0,L|64:186,1,90,4|2,1:0|0:0,0:0:0:0:
214,117,16969,2,0,L|225:237,1,90,2|0,3:2|0:0,0:0:0:0:
90,240,17266,6,0,L|83:335,1,90,2|0,3:2|0:0,0:0:0:0:
221,348,17563,2,0,L|315:336,2,90,0|0|2,3:0|0:0|3:2,0:0:0:0:
87,147,18009,6,0,L|257:89,1,180,2|2,0:0|0:0,0:0:0:0:
385,68,18454,2,0,L|388:171,1,90,0|0,3:0|0:0,0:0:0:0:
250,119,18751,1,0,1:0:0:0:
229,157,18825,1,0,1:0:0:0:
244,198,18899,1,0,1:0:0:0:
285,213,18973,1,0,0:0:0:0:
451,290,19048,5,0,1:0:0:0:
451,290,19122,2,0,L|355:301,1,90,10|0,0:0|0:0,0:0:0:0:
206,356,19345,2,0,L|199:254,1,90,10|0,0:0|0:0,0:0:0:0:
272,238,19568,2,0,L|379:218,1,90,10|0,0:0|0:0,0:0:0:0:
432,163,19791,2,0,L|379:157,1,45,10|0,0:0|0:0,0:0:0:0:
319,148,19939,2,0,L|314:98,1,45,10|0,0:0|0:0,0:0:0:0:
385,99,20088,2,0,L|390:48,1,45,10|0,0:0|0:0,0:0:0:0:
201,36,20236,6,0,B|117:77|103:218|205:299|296:265|296:265|134:340|134:340|223:337|223:337|222:264,1,675,4|0,1:0|0:0,0:0:0:0:
46,304,21424,6,0,P|29:249|116:177,1,180,6|0,1:0|0:0,0:0:0:0:
326,163,22018,2,0,L|393:151,1,45,10|2,1:2|0:0,0:0:0:0:
309,131,22167,2,0,L|238:122,1,45,2|2,0:0|0:0,0:0:0:0:
209,86,22315,2,0,L|279:73,1,45,2|2,0:0|0:0,0:0:0:0:
315,74,22464,2,0,L|320:136,1,45,2|2,1:2|1:2,0:0:0:0:
152,177,22613,5,2,1:2:0:0:
128,213,22687,1,2,0:3:0:0:
145,252,22761,1,2,0:3:0:0:
188,260,22835,1,2,0:3:0:0:
123,255,22910,1,2,1:2:0:0:
99,291,22984,1,2,0:3:0:0:
116,330,23058,1,2,0:3:0:0:
159,338,23132,1,2,0:3:0:0:
306,220,23207,5,10,1:2:0:0:
330,256,23281,1,2,0:0:0:0:
313,295,23355,1,2,0:0:0:0:
270,303,23429,1,2,0:0:0:0:
216,306,23504,2,0,L|207:237,1,45,2|2,0:0|0:0,0:0:0:0:
271,261,23652,2,0,L|279:193,1,45,2|2,0:0|0:0,0:0:0:0:
117,175,23801,6,0,L|10:166,1,90,4|2,1:0|0:1,0:0:0:0:
158,97,24098,2,0,L|37:91,1,90,2|2,0:0|0:0,0:0:0:0:
286,93,24395,2,0,L|384:78,1,90,10|0,1:2|1:0,0:0:0:0:
319,63,24617,1,0,1:0:0:0:
258,62,24692,2,0,L|252:174,1,90,2|2,1:2|1:2,0:0:0:0:
462,173,24989,6,0,L|472:289,1,90,0|2,1:0|0:1,0:0:0:0:
341,318,25286,2,0,L|450:330,1,90,2|2,1:2|0:0,0:0:0:0:
210,358,25583,2,0,L|203:240,1,90,10|2,1:2|0:0,0:0:0:0:
341,246,25880,2,0,L|345:132,1,90,2|2,0:0|0:0,0:0:0:0:
97,99,26177,6,0,L|296:68,1,180,6|2,1:0|0:0,0:0:0:0:
282,177,26622,1,2,0:0:0:0:
71,265,26771,2,0,L|178:277,1,90,10|2,1:0|0:1,0:0:0:0:
273,280,27068,1,2,0:1:0:0:
160,275,27216,2,0,L|99:284,1,45,0|0,1:0|1:0,0:0:0:0:
274,355,27365,6,0,L|382:341,1,90,2|0,1:2|0:0,0:0:0:0:
232,282,27662,2,0,L|229:169,1,90,2|0,1:2|0:0,0:0:0:0:
458,113,27959,2,0,L|353:113,1,90,10|0,1:2|0:0,0:0:0:0:
242,111,28256,2,0,L|238:3,1,90,2|0,0:0|0:0,0:0:0:0:
463,21,28553,6,0,L|487:62,2,45,4|0|2,1:0|0:0|0:1,0:0:0:0:
417,22,28776,1,0,0:0:0:0:
367,33,28850,1,2,0:1:0:0:
478,149,28999,2,0,L|481:223,1,45,2|2,0:0|0:0,0:0:0:0:
321,265,29147,2,0,L|193:280,1,90,10|0,1:2|0:0,0:0:0:0:
367,350,29444,2,0,L|377:222,1,90,2|2,1:2|1:2,0:0:0:0:
139,237,29741,6,0,L|130:137,1,90,0|2,1:0|0:0,0:0:0:0:
184,139,29964,1,0,0:0:0:0:
244,136,30038,2,0,L|248:34,1,90,2|0,1:2|0:0,0:0:0:0:
105,38,30335,2,0,L|214:48,1,90,10|0,1:2|1:0,0:0:0:0:
248,57,30558,1,0,1:0:0:0:
303,66,30632,2,0,L|306:173,1,90,2|2,1:2|1:2,0:0:0:0:
75,186,30929,6,0,L|71:335,1,135,2|0,1:2|0:0,0:0:0:0:
248,214,31226,6,0,P|301:233|230:299,1,180,6|10,1:0|1:2,0:0:0:0:
203,311,31598,1,2,0:0:0:0:
256,284,31672,2,0,L|318:277,1,45,2|2,0:0|0:0,0:0:0:0:
240,255,31820,2,0,L|180:255,1,45,2|2,0:0|0:0,0:0:0:0:
257,224,31969,2,0,L|315:222,1,45,2|2,1:2|1:2,0:0:0:0:
464,224,32117,5,2,1:3:0:0:
481,184,32191,1,2,0:3:0:0:
463,144,32265,1,2,0:3:0:0:
421,132,32339,1,0,0:0:0:0:
358,137,32415,2,0,L|350:57,1,45,2|0,1:3|0:0,0:0:0:0:
418,92,32563,2,0,L|424:34,1,45,2|0,0:3|0:0,0:0:0:0:
255,40,32712,5,10,1:2:0:0:
212,47,32786,1,2,0:0:0:0:
192,86,32860,1,2,0:0:0:0:
211,125,32934,1,2,0:0:0:0:
254,132,33009,2,0,L|315:130,1,45,2|2,0:0|0:0,0:0:0:0:
253,152,33157,2,0,L|190:155,1,45,2|2,0:0|0:0,0:0:0:0:
51,223,33306,6,0,L|43:127,1,90,4|2,1:0|0:1,0:0:0:0:
165,82,33603,2,0,L|47:73,1,90,2|2,0:1|0:0,0:0:0:0:
311,43,33900,2,0,L|323:150,1,90,8|2,1:2|0:0,0:0:0:0:
188,169,34197,2,0,L|181:277,1,90,2|2,1:2|1:2,0:0:0:0:
230,269,34419,1,2,1:2:0:0:
397,305,34494,6,0,L|496:299,1,90,4|2,1:0|0:1,0:0:0:0:
356,228,34791,2,0,L|351:135,1,90,2|2,1:2|0:0,0:0:0:0:
111,126,35088,2,0,L|173:89,1,45,10|2,1:2|0:0,0:0:0:0:
201,97,35236,1,2,0:0:0:0:
325,108,35385,2,0,L|328:213,1,90,2|2,1:2|0:0,0:0:0:0:
109,230,35682,2,0,L|105:344,1,90,0|0,1:0|0:0,0:0:0:0:
231,343,35979,2,0,L|292:338,1,45,2|2,0:3|0:3,0:0:0:0:
225,320,36127,2,0,L|164:320,1,45,2|0,1:3|0:0,0:0:0:0:
343,263,36276,6,0,L|449:250,1,90,8|0,1:2|0:0,0:0:0:0:
279,187,36499,2,0,L|159:179,1,90,8|0,1:2|0:0,0:0:0:0:
332,104,36721,2,0,L|392:99,1,45,8|0,1:2|0:0,0:0:0:0:
205,177,36870,6,0,P|179:111|272:70,1,180,6|2,1:0|1:2,0:0:0:0:
366,77,37315,1,2,0:0:0:0:
134,99,37464,2,0,L|131:214,1,90,10|2,1:2|0:0,0:0:0:0:
255,220,37761,2,0,L|348:226,1,90,2|2,0:0|0:0,0:0:0:0:
113,331,38058,6,0,L|57:333,2,45,4|8|0,1:2|1:2|0:0,0:0:0:0:
239,279,38355,2,0,L|130:277,1,90,8|2,1:2|0:0,0:0:0:0:
305,165,38578,2,0,L|354:154,2,45,8|0|0,1:2|0:0|0:0,0:0:0:0:
241,116,38801,2,0,L|297:107,1,45,8|0,1:2|0:0,0:0:0:0:
437,168,38949,2,0,L|440:61,1,90,8|8,1:2|1:2,0:0:0:0:
391,70,39172,1,8,1:2:0:0:
216,82,39246,6,0,L|207:287,1,180,0|0,1:0|0:0,0:0:0:0:
422,188,39840,1,2,0:0:0:0:
464,198,39914,1,0,0:0:0:0:
483,238,39988,1,0,0:0:0:0:
464,277,40062,1,0,0:0:0:0:
423,289,40137,2,0,L|325:285,1,90,0|0,0:0|0:0,0:0:0:0:
82,358,40434,6,0,P|60:298|154:241,1,180,4|0,1:0|0:0,0:0:0:0:
252,257,40880,2,0,L|264:67,1,180,2|0,0:0|0:0,0:0:0:0:
386,51,41325,2,0,P|352:85|223:118,1,180,2|0,0:0|0:0,0:0:0:0:
111,125,41771,2,0,P|77:185|163:254,1,180,2|0,0:0|0:0,0:0:0:0:
250,266,42216,5,2,0:0:0:0:
300,191,42365,1,0,0:0:0:0:
250,266,42514,1,2,0:0:0:0:
143,258,42662,1,2,0:0:0:0:
263,283,42811,6,0,L|473:95,3,270,2|2|2|2,0:0|0:0|0:0|0:0,0:0:0:0:
257,135,44444,2,0,L|234:90,2,45,2|0|2,0:0|0:0|0:0,0:0:0:0:
371,157,44741,1,0,0:0:0:0:
420,237,44890,1,2,0:0:0:0:
371,157,45038,1,0,0:0:0:0:
257,135,45187,6,0,L|22:304,2,270,2|2|2,0:0|0:0|0:0,0:0:0:0:
160,95,46226,1,2,0:0:0:0:
43,112,46375,2,0,L|36:319,1,180,0|0,0:0|0:0,0:0:0:0:
259,150,46969,1,0,0:0:0:0:
174,170,47117,1,0,0:0:0:0:
138,249,47266,1,0,0:0:0:0:
179,326,47414,1,0,0:0:0:0:
279,322,47563,6,0,L|465:271,1,180,2|0,0:0|0:0,0:0:0:0:
339,252,48009,2,0,P|306:195|397:118,1,180,2|0,0:0|0:0,0:0:0:0:
488,68,48454,2,0,L|380:59,1,90,2|0,0:0|0:0,0:0:0:0:
273,93,48751,6,0,L|265:286,1,180,2|0,0:0|0:0,0:0:0:0:
51,331,49345,1,0,3:0:0:0:
31,291,49419,1,0,3:0:0:0:
43,248,49493,1,0,3:0:0:0:
80,225,49567,1,0,3:0:0:0:
131,217,49642,2,0,L|240:215,1,90,2|2,3:2|3:2,0:0:0:0:
461,312,49939,6,0,P|479:238|387:185,1,180,4|0,1:0|0:0,0:0:0:0:
296,276,50385,2,0,L|285:85,1,180,2|0,0:0|0:0,0:0:0:0:
170,101,50830,2,0,L|372:49,1,180,2|0,0:0|0:0,0:0:0:0:
236,72,51276,2,0,L|30:138,1,180,2|0,0:0|0:0,0:0:0:0:
178,164,51721,1,2,0:0:0:0:
224,244,51870,1,0,0:0:0:0:
178,164,52018,1,2,0:0:0:0:
64,127,52167,1,2,0:0:0:0:
184,122,52315,6,0,L|390:309,3,270,2|2|2|2,0:0|0:0|0:0|0:0,0:0:0:0:
168,352,53949,2,0,L|139:309,2,45,2|0|2,0:0|0:0|0:0,0:0:0:0:
277,360,54246,1,2,0:0:0:0:
328,282,54395,1,2,0:0:0:0:
277,360,54543,1,2,0:0:0:0:
167,350,54692,6,0,L|65:347,2,90,2|0|0,1:2|0:0|1:0,0:0:0:0:
291,278,55137,2,0,L|340:181,2,90,2|0|0,1:2|1:0|1:0,0:0:0:0:
171,217,55583,2,0,L|54:216,1,90,2|2,1:2|1:2,0:0:0:0:
193,126,55880,5,2,1:2:0:0:
240,200,56028,1,0,1:0:0:0:
193,126,56177,1,2,1:2:0:0:
81,216,56325,1,0,1:0:0:0:
202,360,56474,2,0,L|207:255,1,90,2|0,1:2|1:0,0:0:0:0:
85,305,56771,2,0,L|80:213,1,90,2|0,1:2|1:0,0:0:0:0:
209,111,57068,5,2,1:2:0:0:
250,124,57142,1,0,1:0:0:0:
268,163,57216,1,2,1:2:0:0:
251,203,57290,1,0,1:0:0:0:
210,218,57365,2,0,L|88:204,1,90,2|2,1:2|1:2,0:0:0:0:
248,147,57662,2,0,L|353:129,1,90,2|2,1:2|1:2,0:0:0:0:
209,63,57959,2,0,L|206:179,1,90,2|2,1:2|1:2,0:0:0:0:
435,218,58256,5,2,1:2:0:0:
470,266,58355,1,2,0:0:0:0:
435,218,58454,1,2,0:0:0:0:
328,211,58603,2,0,L|231:211,1,90,2|0,0:0|0:0,0:0:0:0:
315,247,58850,2,0,L|461:290,1,135,2|0,0:0|0:0,0:0:0:0:
268,350,59147,6,0,P|212:338|217:268,1,135,10|0,1:2|0:0,0:0:0:0:
387,158,59444,6,0,L|487:149,1,90,6|2,1:0|0:0,0:0:0:0:
243,186,59741,5,2,1:2:0:0:
224,146,59815,1,2,0:0:0:0:
243,107,59889,1,2,0:0:0:0:
285,96,59963,1,0,0:0:0:0:
342,66,60038,2,0,L|278:69,1,45,8|0,1:2|0:0,0:0:0:0:
150,262,60187,5,2,1:2:0:0:
131,222,60261,1,2,0:0:0:0:
150,183,60335,1,2,0:0:0:0:
192,172,60409,1,2,0:0:0:0:
249,142,60484,2,0,L|185:145,1,45,8|0,1:2|0:0,0:0:0:0:
54,235,60632,5,2,1:2:0:0:
30,198,60706,1,2,0:0:0:0:
46,157,60780,1,2,0:0:0:0:
88,146,60854,1,0,0:0:0:0:
141,140,60929,2,0,L|228:134,1,45,8|0,1:2|0:0,0:0:0:0:
335,181,61078,5,2,1:2:0:0:
358,144,61152,1,2,0:0:0:0:
342,103,61226,1,2,0:0:0:0:
300,92,61300,1,2,0:0:0:0:
248,86,61375,2,0,L|161:80,1,45,8|0,1:0|0:0,0:0:0:0:
356,224,61523,6,0,L|481:237,1,90,2|0,1:2|0:0,0:0:0:0:
317,315,61820,2,0,L|194:320,1,90,2|2,1:2|0:0,0:0:0:0:
455,367,62117,6,0,L|463:204,1,135,8|8,1:2|1:2,0:0:0:0:
314,184,62563,1,0,1:0:0:0:
89,92,62712,2,0,L|210:73,1,90,8|0,1:2|0:0,0:0:0:0:
298,99,63009,2,0,L|306:194,1,90,0|2,1:0|0:1,0:0:0:0:
76,217,63306,6,0,L|69:328,1,90,8|2,1:2|0:1,0:0:0:0:
205,349,63603,2,0,L|142:320,1,45,0|8,1:0|0:0,0:0:0:0:
103,328,63751,1,0,1:0:0:0:
322,292,63900,2,0,L|427:291,1,90,10|2,1:2|0:0,0:0:0:0:
194,257,64197,2,0,L|186:141,1,90,2|0,1:0|0:0,0:0:0:0:
413,193,64494,6,0,P|382:149|266:126,1,135,6|0,1:0|0:0,0:0:0:0:
248,122,64791,1,8,1:2:0:0:
466,37,64939,6,0,P|486:106|406:126,1,135,2|0,1:0|0:0,0:0:0:0:
379,148,65236,1,8,1:2:0:0:
155,314,65385,6,0,P|190:265|282:245,1,135,2|0,1:0|0:0,0:0:0:0:
319,249,65682,1,8,1:2:0:0:
100,237,65830,6,0,P|77:168|145:137,1,135,2|0,1:0|0:0,0:0:0:0:
177,128,66127,1,8,1:2:0:0:
303,157,66276,1,2,1:0:0:0:
318,116,66350,1,2,0:0:0:0:
297,78,66424,1,2,0:0:0:0:
255,70,66498,1,2,0:0:0:0:
92,67,66573,6,0,L|88:185,1,90,2|2,1:2|0:0,0:0:0:0:
147,178,66796,1,2,0:0:0:0:
205,191,66870,2,0,L|311:187,1,90,2|2,0:0|0:0,0:0:0:0:
69,343,67167,2,0,L|58:225,1,90,10|2,1:2|0:0,0:0:0:0:
182,226,67464,1,2,1:2:0:0:
61,252,67613,1,2,1:2:0:0:
301,131,67761,6,0,L|417:126,1,90,0|0,1:0|1:0,0:0:0:0:
259,215,68058,2,0,P|239:164|281:87,1,135,0|0,1:0|1:0,0:0:0:0:
427,52,68355,6,0,L|435:148,1,90,8|0,1:2|1:0,0:0:0:0:
310,189,68652,1,2,1:2:0:0:
268,201,68726,1,2,0:0:0:0:
252,242,68800,1,2,0:0:0:0:
274,279,68874,1,0,0:0:0:0:
434,337,68949,6,0,L|436:223,1,90,6|2,1:0|0:0,0:0:0:0:
189,340,69246,5,2,1:2:0:0:
168,301,69320,1,2,0:0:0:0:
185,262,69394,1,2,0:0:0:0:
227,251,69468,1,0,0:0:0:0:
288,253,69543,2,0,L|290:189,1,45,8|0,1:2|0:0,0:0:0:0:
139,242,69692,5,2,1:2:0:0:
118,203,69766,1,2,0:0:0:0:
135,164,69840,1,2,0:0:0:0:
177,153,69914,1,0,0:0:0:0:
238,155,69989,2,0,L|240:91,1,45,8|0,1:2|0:0,0:0:0:0:
90,197,70137,5,2,1:2:0:0:
69,158,70211,1,2,0:0:0:0:
86,119,70285,1,2,0:0:0:0:
128,108,70359,1,0,0:0:0:0:
189,110,70434,2,0,L|191:46,1,45,8|0,1:2|0:0,0:0:0:0:
39,45,70583,5,2,1:2:0:0:
20,83,70657,1,2,0:0:0:0:
46,118,70731,1,2,0:0:0:0:
88,113,70805,1,2,0:0:0:0:
141,130,70880,2,0,L|196:134,1,45,8|0,1:2|0:0,0:0:0:0:
41,218,71028,2,0,L|39:322,1,90,2|0,1:0|0:0,0:0:0:0:
167,346,71325,2,0,L|61:343,1,90,2|2,1:2|0:0,0:0:0:0:
312,345,71622,6,0,L|315:182,1,135,8|8,1:2|1:2,0:0:0:0:
148,173,72068,1,0,1:0:0:0:
367,108,72216,2,0,L|470:106,1,90,10|2,1:2|0:0,0:0:0:0:
235,295,72514,2,0,L|229:188,1,90,0|2,1:0|0:1,0:0:0:0:
368,210,72811,2,0,L|378:109,1,90,8|2,1:2|0:1,0:0:0:0:
135,31,73108,5,0,1:0:0:0:
90,28,73182,1,8,0:0:0:0:
45,25,73256,1,0,1:0:0:0:
183,121,73405,2,0,L|83:122,1,90,10|2,1:2|0:0,0:0:0:0:
333,204,73702,6,0,L|341:309,1,90,6|2,1:0|0:0,0:0:0:0:
99,347,73999,6,0,P|126:304|213:280,1,135,2|0,1:0|0:0,0:0:0:0:
263,274,74296,1,0,0:0:0:0:
45,268,74444,6,0,P|33:208|108:169,1,135,2|0,1:0|0:0,0:0:0:0:
148,160,74741,1,0,0:0:0:0:
381,142,74890,6,0,P|338:102|243:89,1,135,2|0,1:0|0:0,0:0:0:0:
204,90,75187,1,0,0:0:0:0:
436,42,75335,6,0,P|460:96|399:138,1,135,2|0,1:0|0:0,0:0:0:0:
347,147,75632,1,0,0:0:0:0:
211,178,75781,1,2,1:2:0:0:
188,215,75855,1,0,0:0:0:0:
205,255,75929,1,2,1:2:0:0:
247,266,76003,1,0,1:0:0:0:
441,307,76078,5,4,1:0:0:0:
157,362,76820,2,0,L|156:266,1,90,2|2,0:0|0:0,0:0:0:0:
261,226,77099,2,0,L|243:226,1,11.25,2|0,0:0|0:0,0:0:0:0:
82,192,77415,1,2,0:0:0:0:
39,180,77489,1,2,0:0:0:0:
21,141,77563,1,2,0:0:0:0:
39,101,77637,1,0,0:0:0:0:
81,89,77712,6,0,L|181:74,1,90,2|2,0:0|0:0,0:0:0:0:
297,68,78009,1,2,0:0:0:0:
168,154,78157,2,0,L|115:160,1,45,10|0,0:0|0:0,0:0:0:0:
280,256,78306,2,0,L|334:257,1,45,0|0,0:0|0:0,0:0:0:0:
161,338,78454,5,4,1:0:0:0:
256,192,83207,12,2,87365,0:0:0:0:
254,225,87662,6,0,L|252:72,1,135,0|0,1:0|0:0,0:0:0:0:
425,174,87959,6,0,L|430:78,1,90,6|0,1:2|0:0,0:0:0:0:
321,65,88256,1,0,1:0:0:0:
93,195,88405,2,0,L|286:164,1,180,6|2,1:2|3:2,0:0:0:0:
147,59,88851,1,2,0:0:0:0:
105,68,88925,1,0,0:0:0:0:
85,107,88999,1,2,0:0:0:0:
103,147,89073,1,0,0:0:0:0:
256,215,89148,6,0,L|368:217,2,90,6|2|0,1:2|0:0|0:0,0:0:0:0:
474,283,89593,2,0,P|492:223|409:161,1,180,6|2,1:2|0:0,0:0:0:0:
288,153,90039,1,2,1:2:0:0:
408,161,90187,1,2,1:2:0:0:
176,127,90336,5,6,1:2:0:0:
288,153,90484,2,0,L|291:282,1,90,0|0,0:0|1:0,0:0:0:0:
69,213,90781,2,0,P|49:264|143:335,1,180,6|0,1:2|3:0,0:0:0:0:
246,254,91226,2,0,L|302:249,1,45,2|0,3:0|0:0,0:0:0:0:
241,237,91375,2,0,L|177:230,1,45,0|0,3:0|0:0,0:0:0:0:
362,147,91523,6,0,L|506:287,2,180,6|2|0,1:2|1:2|1:2,0:0:0:0:
135,88,92415,2,0,L|126:190,1,90,2|2,3:0|3:2,0:0:0:0:
362,147,92712,6,0,L|469:152,1,90,4|2,1:0|0:0,0:0:0:0:
327,118,93009,2,0,L|322:220,1,90,2|0,3:2|0:0,0:0:0:0:
197,276,93306,6,0,L|315:273,1,90,2|0,3:2|0:0,0:0:0:0:
411,310,93603,1,2,3:2:0:0:
458,230,93751,1,2,3:2:0:0:
411,310,93900,1,2,3:2:0:0:
286,273,94048,6,0,L|278:88,1,180,2|2,0:0|0:0,0:0:0:0:
143,102,94494,2,0,L|140:205,1,90,2|0,3:2|0:0,0:0:0:0:
266,147,94791,1,0,1:0:0:0:
287,185,94865,1,0,1:0:0:0:
272,226,94939,1,0,1:0:0:0:
231,241,95013,1,0,0:0:0:0:
70,331,95088,5,0,1:0:0:0:
26,305,95162,2,0,L|122:316,1,90,10|0,1:2|0:0,0:0:0:0:
272,321,95385,2,0,L|279:219,1,90,10|0,1:2|0:0,0:0:0:0:
212,209,95608,2,0,L|105:189,1,90,10|0,1:2|0:0,0:0:0:0:
59,145,95831,2,0,L|112:139,1,45,10|0,1:2|0:0,0:0:0:0:
168,122,95979,2,0,L|170:71,1,45,10|0,1:2|0:0,0:0:0:0:
101,64,96127,2,0,L|100:13,1,45,10|0,1:2|0:0,0:0:0:0:
267,48,96276,6,0,B|354:97|354:97|265:101|223:211|277:304|392:288,1,396.000012084961,4|2,1:0|0:0,0:0:0:0:
403,277,96944,1,2,0:0:0:0:
420,237,97018,1,0,0:0:0:0:
400,199,97092,1,2,0:0:0:0:
357,191,97167,2,0,L|237:174,1,90,2|2,0:0|0:0,0:0:0:0:
33,266,97464,6,0,P|28:205|108:160,1,135,0|0,1:0|0:0,0:0:0:0:
263,158,97761,5,10,1:2:0:0:
374,167,97910,2,0,L|380:48,1,90,2|0,0:1|1:0,0:0:0:0:
266,82,98207,2,0,L|259:16,1,45,2|2,0:0|0:0,0:0:0:0:
423,26,98355,6,0,P|443:80|337:137,1,180,10|0,1:0|1:0,0:0:0:0:
137,275,98801,2,0,L|253:275,1,90,2|8,0:1|1:2,0:0:0:0:
358,222,99098,2,0,L|302:189,1,45,2|0,0:0|0:0,0:0:0:0:
265,190,99246,2,0,L|168:188,1,90,2|2,1:0|0:0,0:0:0:0:
392,177,99543,2,0,L|395:81,1,90,10|2,1:0|0:0,0:0:0:0:
169,188,99840,6,0,P|152:134|269:93,1,180,2|8,1:0|1:2,0:0:0:0:
20,69,100286,2,0,L|136:53,1,90,2|0,0:1|1:0,0:0:0:0:
230,78,100583,2,0,L|234:141,1,45,0|0,0:0|0:0,0:0:0:0:
78,194,100731,6,0,L|72:294,1,90,10|0,1:0|0:0,0:0:0:0:
183,322,101028,1,0,1:0:0:0:
405,265,101177,2,0,L|300:254,1,90,2|8,0:1|1:2,0:0:0:0:
201,186,101474,2,0,L|248:180,1,45,2|2,0:0|0:0,0:0:0:0:
412,169,101622,5,2,1:0:0:0:
459,174,101697,2,0,L|462:77,1,90,10|2,1:2|0:1,0:0:0:0:
297,100,101919,2,0,L|184:93,1,90,8|10,1:2|1:0,0:0:0:0:
256,70,102142,1,2,1:2:0:0:
425,121,102216,6,0,P|450:178|348:240,1,180,2|8,1:0|1:2,0:0:0:0:
148,340,102662,2,0,L|268:318,1,90,2|0,0:1|1:0,0:0:0:0:
352,241,102959,2,0,L|297:242,1,45,2|2,0:0|0:0,0:0:0:0:
149,263,103108,2,0,P|135:199|237:155,1,180,10|2,1:0|1:2,0:0:0:0:
97,165,103553,2,0,L|83:48,1,90,2|8,0:1|1:2,0:0:0:0:
200,38,103850,2,0,L|258:35,1,45,2|0,0:0|0:0,0:0:0:0:
86,129,103999,2,0,L|77:246,1,90,2|2,1:0|0:0,0:0:0:0:
214,272,104296,2,0,L|115:286,1,90,10|2,1:0|0:0,0:0:0:0:
380,354,104593,6,0,L|390:200,1,135,2|8,1:0|1:2,0:0:0:0:
332,203,104890,1,0,0:0:0:0:
110,149,105038,2,0,P|141:107|225:91,1,135,2|8,1:0|1:2,0:0:0:0:
279,88,105335,1,0,0:0:0:0:
49,52,105484,2,0,L|55:153,1,90,10|0,1:0|1:0,0:0:0:0:
115,158,105707,1,0,1:0:0:0:
304,327,105781,5,4,1:0:0:0:
412,353,105929,2,0,P|426:285|325:213,1,180,2|2,0:1|0:0,0:0:0:0:
123,156,106375,2,0,L|277:136,1,135,8|0,1:2|0:0,0:0:0:0:
323,92,106672,2,0,L|268:86,1,45,8|0,1:2|0:0,0:0:0:0:
117,43,106820,2,0,L|68:40,1,45,8|8,1:2|1:2,0:0:0:0:
242,251,106969,6,0,L|371:265,1,90,0|0,1:0|1:0,0:0:0:0:
283,294,107192,1,0,1:0:0:0:
115,335,107266,6,0,P|63:304|122:224,1,180,4|0,1:0|3:0,0:0:0:0:
162,218,107637,1,0,3:0:0:0:
116,223,107712,2,0,L|33:211,1,45,0|0,3:0|3:0,0:0:0:0:
248,112,107860,6,0,L|418:105,1,135,10|0,1:0|0:0,0:0:0:0:
197,32,108157,5,6,1:2:0:0:
88,72,108306,2,0,L|83:192,1,90,2|8,0:1|1:2,0:0:0:0:
200,197,108603,2,0,L|257:200,1,45,2|0,0:0|0:0,0:0:0:0:
412,213,108751,6,0,L|421:324,1,90,2|2,1:0|0:0,0:0:0:0:
293,331,109048,2,0,L|179:336,1,90,10|2,1:0|0:0,0:0:0:0:
434,351,109345,6,0,P|458:300|349:236,1,180,2|8,1:0|1:2,0:0:0:0:
141,140,109791,2,0,L|253:137,1,90,2|0,0:1|1:0,0:0:0:0:
343,59,110088,2,0,L|290:57,1,45,0|0,0:0|0:0,0:0:0:0:
144,55,110236,2,0,P|124:106|225:169,1,180,10|2,1:2|0:0,0:0:0:0:
258,177,110608,1,2,0:0:0:0:
89,269,110682,6,0,L|81:163,1,90,2|8,0:1|1:0,0:0:0:0:
195,149,110979,1,2,1:0:0:0:
425,96,111127,2,0,L|378:73,1,45,0|10,1:0|1:0,0:0:0:0:
329,74,111276,1,0,0:0:0:0:
100,55,111424,2,0,L|217:36,1,90,10|2,1:0|1:0,0:0:0:0:
235,38,111647,1,0,1:0:0:0:
75,154,111721,6,0,P|49:220|126:249,1,135,0|0,1:0|0:0,0:0:0:0:
153,266,112018,1,8,1:0:0:0:
384,335,112167,2,0,L|262:335,1,90,6|0,0:1|1:0,0:0:0:0:
181,335,112464,2,0,L|174:268,1,45,0|0,0:0|0:0,0:0:0:0:
342,243,112613,5,10,1:0:0:0:
452,248,112761,2,0,L|458:149,1,90,2|0,0:1|1:0,0:0:0:0:
323,120,113058,2,0,L|192:120,1,90,2|8,0:0|1:0,0:0:0:0:
356,47,113355,2,0,L|426:41,1,45,2|2,0:0|0:0,0:0:0:0:
242,34,113504,6,0,P|184:44|201:155,1,180,2|2,1:2|0:0,0:0:0:0:
233,166,113875,1,0,0:0:0:0:
287,171,113949,1,2,0:0:0:0:
48,253,114098,5,6,1:0:0:0:
48,253,114172,2,0,L|166:257,1,90,8|0,1:0|0:0,0:0:0:0:
307,338,114395,2,0,L|313:233,1,90,10|0,1:0|0:0,0:0:0:0:
235,245,114617,2,0,L|230:178,1,45,10|2,1:0|1:2,0:0:0:0:
365,169,114840,1,8,1:2:0:0:
132,166,114989,2,0,L|129:63,1,90,8|8,1:2|1:2,0:0:0:0:
180,66,115212,1,8,1:2:0:0:
370,33,115286,6,0,P|418:56|356:137,1,180,2|2,1:2|0:0,0:0:0:0:
320,145,115657,1,2,0:0:0:0:
298,184,115731,1,2,0:0:0:0:
319,222,115805,1,2,0:0:0:0:
365,230,115880,2,0,L|466:231,1,90,2|2,3:2|3:2,0:0:0:0:
223,334,116177,2,0,L|108:337,1,90,2|2,1:2|0:0,0:0:0:0:
385,360,116474,6,0,P|400:292|350:265,1,120,2|2,1:2|0:0,0:0:0:0:
296,247,116771,2,0,L|156:224,1,135,2|0,0:0|0:0,0:0:0:0:
223,182,117068,2,0,L|380:165,1,135,2|0,1:2|0:0,0:0:0:0:
180,89,117365,6,0,L|177:235,1,135,10|0,0:1|0:0,0:0:0:0:
366,325,117662,6,0,P|383:270|296:198,1,180,6|8,1:0|1:2,0:0:0:0:
70,211,118256,2,0,L|66:154,1,45,2|2,1:2|0:0,0:0:0:0:
131,148,118405,2,0,L|192:140,1,45,2|2,0:0|0:0,0:0:0:0:
118,115,118553,2,0,L|66:98,1,45,10|2,1:2|0:0,0:0:0:0:
133,80,118702,2,0,L|200:62,1,45,2|2,0:0|0:0,0:0:0:0:
345,150,118851,5,2,1:3:0:0:
369,186,118925,1,2,0:3:0:0:
352,225,118999,1,2,0:3:0:0:
309,233,119073,1,0,0:0:0:0:
374,228,119148,5,8,1:2:0:0:
398,264,119222,1,2,0:3:0:0:
381,303,119296,1,2,0:3:0:0:
338,311,119370,1,0,0:0:0:0:
180,244,119445,5,2,1:2:0:0:
156,280,119519,1,2,0:0:0:0:
173,319,119593,1,2,0:0:0:0:
216,327,119667,1,0,0:0:0:0:
270,330,119742,2,0,L|279:261,1,45,10|2,1:2|0:0,0:0:0:0:
215,285,119890,2,0,L|207:217,1,45,2|2,0:0|0:0,0:0:0:0:
382,181,120039,6,0,L|489:172,1,90,0|2,1:0|0:1,0:0:0:0:
341,103,120336,2,0,L|462:97,1,90,10|2,1:2|0:0,0:0:0:0:
211,84,120633,2,0,L|113:69,1,90,2|0,1:2|0:0,0:0:0:0:
257,47,120929,2,0,L|263:151,1,90,10|2,1:2|0:0,0:0:0:0:
210,155,121152,1,2,0:0:0:0:
39,192,121227,6,0,L|33:310,1,90,2|2,1:2|0:1,0:0:0:0:
166,324,121524,2,0,L|57:336,1,90,10|2,1:2|0:0,0:0:0:0:
305,353,121820,2,0,L|329:308,2,45,0|10|0,1:0|1:0|0:0,0:0:0:0:
176,254,122118,2,0,L|278:246,1,90,8|0,1:2|1:0,0:0:0:0:
313,242,122340,1,0,1:0:0:0:
480,287,122415,6,0,L|488:101,1,180,6|8,1:0|1:2,0:0:0:0:
378,84,122860,1,0,0:0:0:0:
154,75,123009,2,0,L|271:87,1,90,2|2,1:0|0:1,0:0:0:0:
122,169,123306,2,0,L|13:174,1,90,10|2,1:0|0:1,0:0:0:0:
277,366,123603,6,0,L|290:267,1,90,2|0,1:2|0:0,0:0:0:0:
146,317,123900,2,0,L|137:204,1,90,10|0,1:2|0:0,0:0:0:0:
367,183,124197,2,0,L|317:158,1,45,0|8,1:0|0:0,0:0:0:0:
269,161,124345,1,0,0:0:0:0:
391,140,124494,2,0,L|395:32,1,90,0|2,1:0|0:2,0:0:0:0:
140,92,124791,6,0,L|250:84,1,90,6|0,1:0|1:0,0:0:0:0:
101,164,125088,2,0,L|95:273,1,90,10|2,1:2|0:0,0:0:0:0:
339,314,125385,2,0,L|363:273,2,45,0|0|0,1:0|1:0|1:0,0:0:0:0:
208,335,125682,2,0,L|198:233,1,90,10|0,1:0|0:0,0:0:0:0:
248,231,125905,1,2,0:1:0:0:
430,86,125979,6,0,P|479:108|403:187,1,180,10|0,1:0|1:0,0:0:0:0:
309,166,126424,2,0,L|251:160,1,45,0|0,0:0|0:0,0:0:0:0:
314,143,126573,2,0,L|422:133,1,90,2|2,1:2|1:2,0:0:0:0:
355,113,126796,1,0,1:2:0:0:
195,88,126870,2,0,L|87:78,1,90,10|0,3:2|1:0,0:0:0:0:
154,58,127093,1,0,1:0:0:0:
310,79,127167,6,0,L|314:228,1,135,0|2,1:0|0:0,0:0:0:0:
135,207,127464,6,0,P|82:226|153:292,1,180,10|2,1:0|1:2,0:0:0:0:
180,304,127836,1,2,0:0:0:0:
127,277,127910,2,0,L|65:270,1,45,2|2,0:0|0:0,0:0:0:0:
143,248,128058,2,0,L|203:248,1,45,10|2,1:2|0:0,0:0:0:0:
126,217,128207,2,0,L|68:215,1,45,2|2,0:0|0:0,0:0:0:0:
250,74,128355,5,2,1:3:0:0:
291,87,128429,1,2,0:3:0:0:
309,127,128504,1,2,0:3:0:0:
291,167,128577,1,2,0:3:0:0:
249,180,128652,2,0,L|189:186,1,45,8|2,1:2|0:3,0:0:0:0:
258,206,128801,2,0,L|325:208,1,45,2|0,0:3|0:0,0:0:0:0:
148,152,128950,5,2,1:2:0:0:
105,159,129024,1,2,0:0:0:0:
85,198,129098,1,2,0:0:0:0:
104,237,129172,1,0,0:0:0:0:
147,244,129247,2,0,L|208:242,1,45,10|2,1:2|0:0,0:0:0:0:
146,264,129395,2,0,L|83:267,1,45,2|0,0:0|0:0,0:0:0:0:
274,335,129544,6,0,L|363:342,1,90,0|2,1:0|0:1,0:0:0:0:
234,324,129841,2,0,L|228:218,1,90,10|2,1:2|0:0,0:0:0:0:
359,190,130138,2,0,L|252:175,1,90,2|2,1:2|0:0,0:0:0:0:
482,104,130435,2,0,L|489:212,1,90,10|2,1:2|0:0,0:0:0:0:
440,204,130657,1,2,0:0:0:0:
274,319,130732,6,0,L|175:313,1,90,0|2,1:0|0:1,0:0:0:0:
313,234,131028,2,0,L|428:229,1,90,10|2,1:2|0:0,0:0:0:0:
174,162,131325,2,0,L|145:112,2,45,0|10|0,1:0|1:0|0:0,0:0:0:0:
310,146,131622,2,0,L|311:48,1,90,10|8,1:2|1:2,0:0:0:0:
261,41,131845,1,8,1:2:0:0:
85,57,131919,6,0,P|40:76|112:154,1,180,6|8,1:0|1:0,0:0:0:0:
325,285,132514,2,0,L|131:300,1,180,2|8,1:2|1:2,0:0:0:0:
399,358,133108,6,0,L|410:235,1,90,2|0,1:2|0:0,0:0:0:0:
269,233,133405,2,0,L|262:114,1,90,10|0,1:2|0:0,0:0:0:0:
485,85,133702,2,0,L|434:63,1,45,0|8,1:0|1:2,0:0:0:0:
390,66,133850,1,0,0:0:0:0:
258,68,133999,2,0,L|253:162,1,90,0|0,1:0|0:0,0:0:0:0:
26,259,134296,5,6,1:2:0:0:
69,246,134370,2,0,L|192:225,1,90,10|0,1:2|0:0,0:0:0:0:
325,253,134593,2,0,L|328:155,1,90,8|0,1:2|0:0,0:0:0:0:
258,142,134815,2,0,L|199:146,2,45,8|8|0,1:2|0:0|0:0,0:0:0:0:
425,88,135038,2,0,L|476:88,1,45,8|0,1:2|0:0,0:0:0:0:
303,61,135187,2,0,L|199:55,1,90,8|8,1:2|1:2,0:0:0:0:
261,36,135410,1,8,1:2:0:0:
437,37,135484,6,0,P|482:91|330:278,1,360,14|8,1:0|3:2,0:0:0:0:
448,324,136226,2,0,L|450:249,1,45,0|0,1:0|1:0,0:0:0:0:
275,220,136375,2,0,L|204:217,1,45,8|0,1:0|1:0,0:0:0:0:
281,197,136523,2,0,L|345:182,1,45,0|0,1:0|1:0,0:0:0:0:
141,132,136672,5,4,1:1:0:0:
256,192,136820,12,0,141721,0:0:0:0:
