osu file format v14

[General]
AudioFilename: audio.mp3
AudioLeadIn: 0
PreviewTime: 96796
Countdown: 0
SampleSet: Soft
StackLeniency: 0.7
Mode: 2
LetterboxInBreaks: 0
WidescreenStoryboard: 0

[Editor]
DistanceSpacing: 1.2
BeatDivisor: 4
GridSize: 32
TimelineZoom: 2.4

[Metadata]
Title:Duplication
TitleUnicode:Duplication
Artist:Zekk
ArtistUnicode:Zekk
Creator:Jemzuu
Version:Duplication
Source:osu!
Tags:ajamez spectator gigachad dako realazy featured artist mappers guild dubcore hardcore j-core jcore dubstep drumstep electronic instrumental tech
BeatmapID:2947842
BeatmapSetID:1432240

[Difficulty]
HPDrainRate:6
CircleSize:4.2
OverallDifficulty:9.8
ApproachRate:9.8
SliderMultiplier:2.1
SliderTickRate:2

[Events]
//Background and Video events
0,0,"Space-monitors-line-Staley-room-technology-sci-fi-science-computer-futuristic-wallpaper.jpg",0,0
//Break Periods
2,78654,82712
//Storyboard Layer 0 (Background)
//Storyboard Layer 1 (Fail)
//Storyboard Layer 2 (Pass)
//Storyboard Layer 3 (Foreground)
//Storyboard Layer 4 (Overlay)
//Storyboard Sound Samples

[TimingPoints]
2415,297.029702970297,4,2,0,40,1,0
2415,-100,4,2,0,40,0,0
9543,-100,4,2,0,45,0,0
10137,-100,4,2,0,50,0,0
10731,-100,4,2,0,55,0,0
11622,-100,4,2,1,60,0,0
11919,-100,4,2,1,85,0,0
12179,-100,4,2,1,5,0,0
12216,-100,4,2,1,70,0,0
12365,-100,4,2,1,85,0,0
12625,-100,4,2,1,5,0,0
12662,-100,4,2,1,70,0,0
12959,-100,4,2,1,70,0,0
13108,-100,4,2,1,85,0,0
13405,-100,4,2,1,85,0,0
13516,-100,4,2,1,5,0,0
13553,-100,4,2,1,85,0,0
13850,-100,4,2,1,70,0,0
14296,-100,4,2,1,85,0,0
14556,-100,4,2,1,5,0,0
14593,-100,4,2,1,70,0,0
14741,-100,4,2,1,85,0,0
15038,-100,4,2,1,70,0,0
15187,-100,4,2,1,70,0,0
15484,-100,4,2,1,85,0,0
16078,-100,4,2,1,50,0,0
16672,-100,4,2,1,70,0,0
16820,-100,4,2,1,60,0,0
16969,-100,4,2,1,60,0,0
17266,-100,4,2,1,60,0,0
18009,-100,4,2,1,60,0,0
18306,-100,4,2,1,60,0,0
18454,-100,4,2,1,60,0,0
19048,-100,4,2,1,80,0,0
19271,-100,4,2,1,5,0,0
19345,-100,4,2,1,80,0,0
19568,-100,4,2,1,80,0,0
19791,-100,4,2,1,90,0,0
20236,-90.9090909090909,4,2,1,50,0,0
21424,-41.6666666666667,4,2,1,90,0,0
21721,-100,4,2,1,90,0,0
21870,-100,4,2,1,80,0,0
23207,-100,4,2,1,80,0,0
23801,-100,4,2,1,80,0,0
23912,-100,4,2,1,5,0,0
23949,-100,4,2,1,80,0,0
24098,-100,4,2,1,80,0,0
24395,-100,4,2,1,80,0,0
24692,-100,4,2,1,80,0,0
24989,-100,4,2,1,80,0,0
25100,-100,4,2,1,5,0,0
25137,-100,4,2,1,80,0,0
25286,-100,4,2,1,80,0,0
25583,-100,4,2,1,90,0,0
25880,-100,4,2,1,70,0,0
26177,-40,4,2,1,90,0,0
26474,-100,4,2,1,80,0,0
26771,-100,4,2,1,80,0,0
27365,-100,4,2,1,80,0,0
27588,-100,4,2,1,5,0,0
27662,-100,4,2,1,77,0,0
27885,-100,4,2,1,5,0,0
27959,-100,4,2,1,74,0,0
28182,-100,4,2,1,5,0,0
28256,-100,4,2,1,70,0,0
28479,-100,4,2,1,5,0,0
28553,-100,4,2,1,80,0,0
28665,-100,4,2,1,5,0,0
28701,-100,4,2,1,80,0,0
29147,-100,4,2,1,80,0,0
29444,-100,4,2,1,80,0,0
29741,-100,4,2,1,70,0,0
30335,-100,4,2,1,70,0,0
30632,-100,4,2,1,70,0,0
30929,-100,4,2,0,60,0,0
31152,-100,4,2,0,5,0,0
31226,-40,4,2,1,90,0,0
31449,-100,4,2,1,5,0,0
31523,-100,4,2,1,80,0,0
32415,-100,4,2,1,80,0,0
32712,-100,4,2,1,80,0,0
33306,-100,4,2,1,80,0,0
33417,-100,4,2,1,5,0,0
33454,-100,4,2,1,80,0,0
33751,-100,4,2,1,80,0,0
33900,-100,4,2,1,80,0,0
34048,-100,4,2,1,80,0,0
34197,-100,4,2,1,80,0,0
34494,-100,4,2,1,80,0,0
34605,-100,4,2,1,5,0,0
34642,-100,4,2,1,80,0,0
34791,-100,4,2,1,80,0,0
35088,-100,4,2,1,90,0,0
35385,-100,4,2,1,70,0,0
35830,-100,4,2,1,70,0,0
36127,-100,4,2,1,70,0,0
36276,-100,4,2,1,90,0,0
36424,-100,4,2,1,5,0,0
36499,-100,4,2,1,90,0,0
36647,-100,4,2,1,5,0,0
36721,-100,4,2,1,90,0,0
36796,-100,4,2,1,5,0,0
36870,-40,4,2,1,90,0,0
37167,-100,4,2,1,80,0,0
38058,-100,4,2,1,90,0,0
38355,-100,4,2,1,90,0,0
38578,-100,4,2,1,90,0,0
38801,-100,4,2,1,90,0,0
39840,-100,4,2,1,70,0,0
40434,-100,4,2,1,70,0,0
40880,-100,4,2,0,40,0,0
45187,-100,4,2,0,40,0,0
49939,-100,4,2,1,50,0,0
54692,-100,4,2,1,50,0,0
58850,-37.7358490566038,4,2,1,70,0,0
59147,-100,4,2,99,70,0,0
59221,-100,4,2,1,70,0,0
59370,-100,4,2,1,5,0,0
59444,-100,4,2,1,90,0,0
61820,-100,4,2,1,70,0,0
62117,-100,4,2,1,80,0,0
62266,-100,4,2,1,5,0,0
62340,-100,4,2,1,80,0,0
62489,-100,4,2,1,5,0,0
62563,-100,4,2,1,80,0,0
63009,-100,4,2,1,80,0,0
63120,-100,4,2,1,5,0,0
63157,-100,4,2,1,80,0,0
63306,-100,4,2,1,80,0,0
63417,-100,4,2,1,5,0,0
63454,-100,4,2,1,80,0,0
63900,-100,4,2,1,80,0,0
64494,-40,4,2,1,100,0,0
64716,-100,4,2,1,5,0,0
64791,-100,4,2,99,90,0,0
64939,-100,4,2,1,100,0,0
65162,-100,4,2,1,5,0,0
65236,-100,4,2,99,90,0,0
65385,-100,4,2,1,100,0,0
65608,-100,4,2,1,5,0,0
65682,-100,4,2,99,90,0,0
65830,-100,4,2,1,100,0,0
66053,-100,4,2,1,5,0,0
66127,-100,4,2,99,90,0,0
66276,-100,4,2,1,80,0,0
66721,-100,4,2,1,70,0,0
67167,-100,4,2,1,70,0,0
67464,-100,4,2,1,70,0,0
67761,-100,4,2,1,80,0,0
68355,-100,4,2,1,90,0,0
68652,-100,4,2,1,70,0,0
68949,-100,4,2,1,90,0,0
71325,-100,4,2,1,70,0,0
71622,-100,4,2,1,80,0,0
71771,-100,4,2,1,5,0,0
71845,-100,4,2,1,80,0,0
71994,-100,4,2,1,5,0,0
72068,-100,4,2,1,80,0,0
72514,-100,4,2,1,80,0,0
72625,-100,4,2,1,5,0,0
72662,-100,4,2,1,80,0,0
72811,-100,4,2,1,80,0,0
72922,-100,4,2,1,5,0,0
72959,-100,4,2,1,80,0,0
73405,-100,4,2,1,80,0,0
73702,-100,4,2,1,80,0,0
73999,-40,4,2,1,90,0,0
74370,-100,4,2,1,5,0,0
74444,-100,4,2,1,90,0,0
74815,-100,4,2,1,5,0,0
74890,-100,4,2,1,90,0,0
75261,-100,4,2,1,5,0,0
75335,-100,4,2,1,90,0,0
75707,-100,4,2,1,5,0,0
75781,-100,4,2,1,80,0,0
76078,-100,4,2,1,60,0,0
76226,-100,4,2,0,60,0,0
77712,-100,4,2,0,55,0,0
77860,-100,4,2,0,50,0,0
78009,-100,4,2,0,45,0,0
78157,-100,4,2,0,40,0,0
78454,-100,4,2,1,70,0,0
83207,-100,4,2,1,25,0,0
85434,-100,4,2,1,5,0,0
85583,-100,4,2,1,50,0,0
87662,-100,4,2,1,60,0,0
87959,-100,4,2,1,85,0,0
88219,-100,4,2,1,5,0,0
88256,-100,4,2,1,70,0,0
88405,-100,4,2,1,85,0,0
88665,-100,4,2,1,5,0,0
88702,-100,4,2,1,70,0,0
88999,-100,4,2,1,70,0,0
89147,-100,4,2,1,85,0,0
89444,-100,4,2,1,70,0,0
89556,-100,4,2,1,5,0,0
89593,-100,4,2,1,85,0,0
89890,-100,4,2,1,70,0,0
90335,-100,4,2,1,85,0,0
90595,-100,4,2,1,5,0,0
90632,-100,4,2,1,70,0,0
90781,-100,4,2,1,85,0,0
91226,-100,4,2,1,70,0,0
91523,-100,4,2,1,85,0,0
92117,-100,4,2,1,50,0,0
92711,-100,4,2,1,70,0,0
92860,-100,4,2,1,60,0,0
93008,-100,4,2,1,60,0,0
93305,-100,4,2,1,60,0,0
94048,-100,4,2,1,60,0,0
94345,-100,4,2,1,60,0,0
94493,-100,4,2,1,60,0,0
95087,-100,4,2,1,80,0,0
95311,-100,4,2,1,5,0,0
95385,-100,4,2,1,80,0,0
95608,-100,4,2,1,80,0,0
95756,-100,4,2,1,5,0,0
95830,-100,4,2,1,70,0,0
96275,-90.9090909090909,4,2,1,70,0,0
96721,-100,4,2,1,5,0,0
96870,-100,4,2,1,70,0,0
97093,-100,4,2,1,70,0,0
97761,-89.2857142857143,4,2,1,80,0,1
97910,-89.2857142857143,4,2,1,80,0,1
99246,-89.2857142857143,4,2,1,80,0,1
99840,-89.2857142857143,4,2,1,80,0,1
100731,-89.2857142857143,4,2,1,80,0,1
102216,-89.2857142857143,4,2,1,80,0,1
103405,-89.2857142857143,4,2,1,80,0,1
104593,-89.2857142857143,4,2,1,90,0,1
104741,-89.2857142857143,4,2,1,5,0,1
104815,-89.2857142857143,4,2,1,90,0,1
104964,-89.2857142857143,4,2,1,5,0,1
105038,-89.2857142857143,4,2,1,90,0,1
105187,-89.2857142857143,4,2,1,5,0,1
105261,-89.2857142857143,4,2,1,90,0,1
105484,-89.2857142857143,4,2,1,90,0,1
105707,-89.2857142857143,4,2,1,90,0,1
105781,-39.5256916996047,4,2,1,70,0,1
106226,-89.2857142857143,4,2,1,70,0,1
106375,-89.2857142857143,4,2,1,90,0,1
106672,-89.2857142857143,4,2,1,90,0,1
106969,-100,4,2,1,90,0,0
107117,-100,4,2,1,70,0,0
107860,-89.2857142857143,4,2,1,80,0,1
107934,-100,4,2,1,70,0,0
108157,-89.2857142857143,4,2,1,80,0,1
108751,-89.2857142857143,4,2,1,80,0,1
109345,-89.2857142857143,4,2,1,80,0,1
110236,-83.3333333333333,4,2,1,60,0,0
110533,-100,4,2,1,70,0,0
110570,-100,4,2,1,75,0,0
110608,-100,4,2,1,80,0,0
110682,-89.2857142857143,4,2,1,90,0,1
110979,-89.2857142857143,4,2,1,90,0,1
111350,-89.2857142857143,4,2,1,5,0,1
111424,-89.2857142857143,4,2,1,90,0,1
111721,-89.2857142857143,4,2,1,70,0,1
112018,-89.2857142857143,4,2,1,80,0,1
113058,-89.2857142857143,4,2,1,70,0,1
113355,-89.2857142857143,4,2,1,70,0,0
114098,-89.2857142857143,4,2,1,90,0,1
114320,-89.2857142857143,4,2,1,5,0,1
114395,-89.2857142857143,4,2,1,90,0,1
114543,-89.2857142857143,4,2,1,5,0,1
114617,-89.2857142857143,4,2,1,90,0,1
114840,-89.2857142857143,4,2,1,70,0,1
115286,-100,4,2,1,70,0,0
115583,-100,4,2,1,70,0,0
116474,-100,4,2,1,70,0,0
117068,-100,4,2,1,70,0,0
117588,-100,4,2,1,5,0,0
117662,-40,4,2,1,95,0,1
117885,-89.2857142857143,4,2,1,5,0,1
117959,-89.2857142857143,4,2,1,95,0,1
118182,-89.2857142857143,4,2,1,5,0,1
118256,-89.2857142857143,4,2,1,85,0,1
120038,-89.2857142857143,4,2,1,85,0,1
120150,-89.2857142857143,4,2,1,5,0,1
120187,-89.2857142857143,4,2,1,85,0,1
120335,-89.2857142857143,4,2,1,85,0,1
120632,-89.2857142857143,4,2,1,85,0,1
120929,-89.2857142857143,4,2,1,85,0,1
121226,-89.2857142857143,4,2,1,85,0,1
121338,-89.2857142857143,4,2,1,5,0,1
121375,-89.2857142857143,4,2,1,85,0,1
121523,-89.2857142857143,4,2,1,85,0,1
121820,-89.2857142857143,4,2,1,95,0,1
122080,-89.2857142857143,4,2,1,5,0,1
122117,-89.2857142857143,4,2,1,85,0,1
122415,-40,4,2,1,95,0,1
122637,-89.2857142857143,4,2,1,5,0,1
122712,-89.2857142857143,4,2,1,95,0,1
122934,-89.2857142857143,4,2,1,5,0,1
123009,-89.2857142857143,4,2,1,85,0,1
123046,-89.2857142857143,4,2,1,5,0,1
123157,-89.2857142857143,4,2,1,85,0,1
123194,-89.2857142857143,4,2,1,5,0,1
123306,-89.2857142857143,4,2,1,85,0,1
123343,-89.2857142857143,4,2,1,5,0,1
123454,-89.2857142857143,4,2,1,85,0,1
123491,-89.2857142857143,4,2,1,5,0,1
123603,-89.2857142857143,4,2,1,82,0,1
123825,-89.2857142857143,4,2,1,5,0,1
123900,-89.2857142857143,4,2,1,79,0,1
124122,-89.2857142857143,4,2,1,5,0,1
124197,-89.2857142857143,4,2,1,75,0,1
124419,-89.2857142857143,4,2,1,5,0,1
124494,-100,4,2,1,70,0,0
124791,-89.2857142857143,4,2,1,90,0,1
125385,-89.2857142857143,4,2,1,90,0,1
125682,-89.2857142857143,4,2,1,95,0,1
125979,-38.4615384615385,4,2,1,100,0,1
126202,-89.2857142857143,4,2,1,5,0,1
126276,-89.2857142857143,4,2,1,90,0,1
126573,-89.2857142857143,4,2,1,90,0,1
127167,-100,4,2,1,90,0,0
127464,-40,4,2,1,95,0,1
127761,-89.2857142857143,4,2,1,85,0,1
129543,-89.2857142857143,4,2,1,85,0,1
129655,-89.2857142857143,4,2,1,5,0,1
129692,-89.2857142857143,4,2,1,85,0,1
129840,-89.2857142857143,4,2,1,85,0,1
130137,-89.2857142857143,4,2,1,85,0,1
130731,-89.2857142857143,4,2,1,85,0,1
130843,-89.2857142857143,4,2,1,5,0,1
130880,-89.2857142857143,4,2,1,85,0,1
131028,-89.2857142857143,4,2,1,85,0,1
131325,-89.2857142857143,4,2,1,85,0,1
131585,-89.2857142857143,4,2,1,5,0,1
131622,-89.2857142857143,4,2,1,85,0,1
131919,-40,4,2,1,95,0,1
132142,-89.2857142857143,4,2,1,5,0,1
132216,-89.2857142857143,4,2,1,85,0,1
132439,-89.2857142857143,4,2,1,5,0,1
132514,-89.2857142857143,4,2,1,80,0,1
132736,-89.2857142857143,4,2,1,5,0,1
132811,-89.2857142857143,4,2,1,75,0,1
133033,-89.2857142857143,4,2,1,5,0,1
133108,-89.2857142857143,4,2,1,85,0,1
133330,-89.2857142857143,4,2,1,5,0,1
133405,-89.2857142857143,4,2,1,82,0,1
133627,-89.2857142857143,4,2,1,5,0,1
133702,-89.2857142857143,4,2,1,79,0,1
133924,-89.2857142857143,4,2,1,5,0,1
133999,-100,4,2,1,70,0,0
134221,-100,4,2,1,5,0,0
134296,-89.2857142857143,4,2,1,95,0,1
134370,-37.7358490566038,4,2,1,95,0,1
134518,-89.2857142857143,4,2,1,5,0,1
134593,-89.2857142857143,4,2,1,95,0,1
134741,-89.2857142857143,4,2,1,5,0,1
134815,-89.2857142857143,4,2,1,95,0,1
134964,-89.2857142857143,4,2,1,5,0,1
135038,-89.2857142857143,4,2,1,95,0,1
135484,-40,4,2,1,100,0,1
135781,-89.2857142857143,4,2,1,100,0,1
136004,-89.2857142857143,4,2,1,5,0,1
136078,-89.2857142857143,4,2,1,80,0,1
136672,-100,4,2,1,70,0,0
136820,-76.9230769230769,4,2,1,50,0,0
137860,-76.9230769230769,4,2,1,40,0,0
139048,-76.9230769230769,4,2,1,30,0,0
140236,-76.9230769230769,4,2,1,15,0,0
140979,-76.9230769230769,4,2,1,10,0,0
141721,-76.9230769230769,4,2,1,5,0,0

[Colours]
Combo1 : 91,91,91
Combo2 : 128,255,255
Combo3 : 192,192,192

[HitObjects]
385,337,2415,6,0,P|401:269|298:195,1,210,4|0,1:0|0:0,0:0:0:0:
92,205,3009,1,2,0:0:0:0:
39,106,3157,1,0,0:0:0:0:
92,205,3306,1,0,0:0:0:0:
227,278,3454,1,0,0:0:0:0:
92,205,3603,6,0,L|87:91,1,105,0|0,0:0|0:0,0:0:0:0:
225,143,3900,2,0,L|226:36,1,105,2|0,0:0|0:0,0:0:0:0:
363,22,4197,1,0,0:0:0:0:
225,38,4345,2,0,L|107:34,2,105,2|0|0,0:0|0:0|0:0,0:0:0:0:
363,22,4791,6,0,P|385:91|265:159,1,210,2|2,0:0|0:0,0:0:0:0:
412,222,5236,2,0,L|434:173,2,52.5,0|0|0,0:0|0:0|0:0,0:0:0:0:
287,186,5533,1,2,0:0:0:0:
160,245,5682,2,0,L|277:259,1,105,2|0,0:0|0:0,0:0:0:0:
40,320,5979,6,0,L|33:206,1,105,2|0,0:0|0:0,0:0:0:0:
264,99,6424,1,2,0:0:0:0:
143,111,6573,2,0,L|134:0,1,105,2|0,0:0|0:0,0:0:0:0:
275,22,6870,2,0,L|286:139,1,105,0|0,0:0|0:0,0:0:0:0:
66,331,7167,6,0,P|57:260|172:204,1,210,2|0,0:0|0:0,0:0:0:0:
291,218,7613,2,0,L|314:167,2,52.5,0|0|0,0:0|0:0|0:0,0:0:0:0:
165,219,7910,1,0,0:0:0:0:
294,235,8058,2,0,L|403:235,1,105,2|0,0:0|0:0,0:0:0:0:
344,270,8281,1,0,0:0:0:0:
283,282,8355,6,0,L|148:277,1,105,2|0,0:0|0:0,0:0:0:0:
319,365,8652,2,0,L|328:253,1,105,0|2,0:0|0:0,0:0:0:0:
298,259,8838,1,2,0:0:0:0:
269,257,8875,1,2,0:0:0:0:
240,256,8912,1,2,0:0:0:0:
211,255,8949,6,0,L|196:149,1,105,2|2,0:0|0:0,0:0:0:0:
55,134,9246,2,0,L|73:21,1,105,2|0,0:0|0:0,0:0:0:0:
294,44,9543,5,0,3:0:0:0:
339,134,9691,1,0,0:0:0:0:
295,226,9840,1,0,3:0:0:0:
179,267,9989,2,0,L|94:281,1,52.5,0|0,0:0|0:0,0:0:0:0:
302,340,10137,6,0,L|420:315,1,105,0|0,3:0|0:0,0:0:0:0:
265,130,10434,2,0,L|125:121,1,105,0|0,3:0|0:0,0:0:0:0:
390,51,10731,6,0,L|497:92,2,105,0|0|0,3:0|1:0|1:0,0:0:0:0:
262,47,11177,2,2,L|260:18,2,26.25,2|2|2,0:0|0:0|0:0,0:0:0:0:
454,225,11325,6,0,L|455:184,2,26.25,2|0|0,0:0|0:0|0:0,0:0:0:0:
379,258,11474,2,0,L|378:216,2,26.25,2|0|2,3:0|0:0|3:0,0:0:0:0:
167,346,11622,6,0,L|365:328,1,157.5,0|0,0:0|0:0,0:0:0:0:
91,251,11919,5,4,1:2:0:0:
313,196,12068,1,0,0:0:0:0:
314,143,12142,1,0,0:0:0:0:
316,91,12216,1,0,1:0:0:0:
70,42,12365,6,0,L|237:51,1,157.5,4|0,1:2|0:0,0:0:0:0:
286,46,12662,1,2,3:2:0:0:
64,150,12811,2,0,L|59:221,1,52.5,2|0,0:0|0:0,0:0:0:0:
136,218,12959,2,0,L|144:291,1,52.5,2|0,0:0|0:0,0:0:0:0:
366,333,13108,5,4,1:2:0:0:
248,353,13256,1,2,0:0:0:0:
197,355,13330,2,0,P|139:322|157:270,1,105,2|0,0:0|0:0,0:0:0:0:
365,176,13553,6,0,L|238:173,1,105,4|2,1:2|0:0,0:0:0:0:
241,141,13739,1,0,0:0:0:0:
260,173,13776,1,0,0:0:0:0:
328,243,13850,1,0,0:0:0:0:
94,113,13999,1,0,1:0:0:0:
327,62,14147,1,0,1:0:0:0:
75,26,14296,5,4,1:2:0:0:
207,65,14444,1,0,0:0:0:0:
209,117,14518,1,0,0:0:0:0:
211,169,14592,1,0,1:0:0:0:
445,266,14741,6,0,L|242:360,1,210,4|2,1:2|3:0,0:0:0:0:
308,365,15113,1,2,3:0:0:0:
132,223,15187,2,0,L|56:236,1,52.5,2|0,3:0|0:0,0:0:0:0:
272,58,15335,2,0,L|343:62,1,52.5,0|0,3:0|0:0,0:0:0:0:
101,346,15484,6,0,L|94:121,1,210,4|0,1:2|3:0,0:0:0:0:
304,158,16004,1,0,3:0:0:0:
251,145,16078,2,0,L|61:134,1,157.5,2|0,3:2|0:0,0:0:0:0:
290,69,16375,2,0,L|303:43,2,26.25,2|0|0,3:0|0:0|0:0,0:0:0:0:
218,63,16523,2,0,L|205:37,2,26.25,0|0|0,3:0|0:0|0:0,0:0:0:0:
437,129,16672,6,0,L|446:246,1,105,4|2,1:0|0:0,0:0:0:0:
385,256,16895,1,2,0:0:0:0:
324,286,16969,2,0,L|386:314,1,52.5,2|0,3:2|0:0,0:0:0:0:
437,315,17117,1,0,0:0:0:0:
212,198,17266,6,0,L|338:178,1,105,2|0,3:2|0:0,0:0:0:0:
259,158,17489,1,0,0:0:0:0:
196,126,17563,2,0,L|254:118,1,52.5,0|0,3:0|0:0,0:0:0:0:
313,64,17712,2,0,L|249:60,1,52.5,0|0,0:0|0:0,0:0:0:0:
64,75,17860,5,2,3:2:0:0:
182,112,18009,2,0,L|193:237,1,105,2|0,0:0|0:0,0:0:0:0:
244,234,18231,1,0,0:0:0:0:
85,305,18306,2,0,L|22:316,1,52.5,2|0,0:0|0:0,0:0:0:0:
220,342,18454,6,0,L|298:322,1,52.5,0|0,3:0|0:0,0:0:0:0:
209,309,18603,2,0,L|113:308,1,52.5,0|0,0:0|0:0,0:0:0:0:
346,233,18751,2,0,L|416:226,1,52.5,0|0,1:0|1:0,0:0:0:0:
215,120,18900,2,0,L|153:117,1,52.5,0|0,1:0|1:0,0:0:0:0:
321,64,19048,5,0,1:0:0:0:
162,117,19122,2,0,L|105:118,2,52.5,10|0|0,0:0|0:0|0:0,0:0:0:0:
344,139,19345,2,0,L|344:200,1,52.5,10|0,0:0|0:0,0:0:0:0:
283,216,19494,1,0,0:0:0:0:
458,242,19568,2,0,L|458:303,1,52.5,10|0,0:0|0:0,0:0:0:0:
397,322,19717,1,0,0:0:0:0:
229,359,19791,2,0,L|290:355,1,52.5,10|0,0:0|0:0,0:0:0:0:
110,291,19939,2,0,L|41:289,1,52.5,10|0,0:0|0:0,0:0:0:0:
239,247,20088,2,0,L|240:174,1,52.5,10|0,0:0|0:0,0:0:0:0:
440,182,20236,6,0,B|467:126|467:126|483:195|483:195|473:252|473:252|437:291|437:291|388:271|388:271|363:313|363:313|345:258|345:258|321:311|321:311|430:275|430:275|320:311|320:311|439:358,1,808.500024673463,4|0,1:0|0:0,0:0:0:0:
369,360,21350,1,0,0:0:0:0:
145,358,21424,6,0,B|395:326|395:326|395:55,1,503.999984619141,6|0,1:0|0:0,0:0:0:0:
283,54,21870,1,2,0:0:0:0:
46,104,22018,6,0,L|38:172,1,52.5,10|2,1:2|0:0,0:0:0:0:
116,166,22167,2,0,L|118:236,1,52.5,2|2,0:0|0:0,0:0:0:0:
196,236,22315,2,0,L|206:305,1,52.5,2|2,0:0|0:0,0:0:0:0:
367,350,22464,2,0,L|307:353,1,52.5,2|2,1:2|1:2,0:0:0:0:
116,345,22613,6,0,L|108:286,1,52.5,2|2,1:2|0:3,0:0:0:0:
178,274,22761,2,0,L|114:270,1,52.5,2|2,0:3|0:3,0:0:0:0:
196,236,22910,2,0,L|248:229,1,52.5,2|2,1:2|0:3,0:0:0:0:
178,182,23058,2,0,L|251:182,1,52.5,2|2,0:3|0:3,0:0:0:0:
402,96,23207,6,0,L|482:89,1,52.5,10|2,1:2|0:0,0:0:0:0:
382,57,23355,2,0,L|377:142,1,52.5,2|2,0:0|0:0,0:0:0:0:
306,117,23504,2,0,L|301:202,1,52.5,2|2,0:0|0:0,0:0:0:0:
229,187,23652,2,0,L|224:272,1,52.5,2|2,0:0|0:0,0:0:0:0:
423,333,23801,6,0,L|307:342,1,105,4|2,1:0|0:1,0:0:0:0:
292,345,23986,1,0,0:0:0:0:
57,179,24098,2,0,L|90:177,1,26.25,2|0,0:0|0:0,0:0:0:0:
282,18,24246,2,0,L|248:18,1,26.25,2|0,0:0|0:0,0:0:0:0:
34,72,24395,6,0,L|159:58,1,105,10|0,1:2|1:0,0:0:0:0:
85,47,24617,1,0,1:0:0:0:
248,118,24692,2,0,L|314:109,1,52.5,2|0,1:2|0:0,0:0:0:0:
135,307,24840,2,0,L|126:384,1,52.5,2|2,1:2|0:0,0:0:0:0:
327,244,24989,6,0,L|184:233,1,105,0|2,1:0|0:1,0:0:0:0:
249,217,25174,1,0,0:0:0:0:
458,169,25286,2,0,L|350:170,1,105,2|2,1:2|0:0,0:0:0:0:
132,147,25583,2,0,L|198:124,1,52.5,10|2,1:2|0:0,0:0:0:0:
353,169,25731,1,2,0:0:0:0:
228,40,25880,2,0,L|81:43,1,105,2|2,0:0|0:0,0:0:0:0:
403,312,26177,6,0,B|141:287|141:287|410:312,1,525,6|2,1:0|0:0,0:0:0:0:
406,285,26511,1,0,0:0:0:0:
303,245,26622,2,0,L|306:214,1,26.25,2|0,0:0|0:0,0:0:0:0:
92,184,26771,6,0,L|84:145,1,26.25,10|0,1:0|0:0,0:0:0:0:
192,136,26919,2,0,L|184:97,1,26.25,2|0,0:1|0:0,0:0:0:0:
393,86,27068,2,0,L|401:47,1,26.25,2|0,0:1|0:0,0:0:0:0:
292,19,27216,2,0,L|344:16,1,52.5,0|0,1:0|1:0,0:0:0:0:
150,342,27365,6,0,L|335:326,1,157.5,2|0,1:2|0:0,0:0:0:0:
98,264,27662,2,0,L|87:106,1,157.5,2|0,1:2|0:0,0:0:0:0:
295,39,27959,6,0,L|93:15,1,157.5,10|0,1:2|0:0,0:0:0:0:
353,101,28256,2,0,L|369:290,1,157.5,2|0,0:0|0:0,0:0:0:0:
163,351,28553,6,0,L|215:339,1,52.5,4|0,1:0|0:0,0:0:0:0:
282,285,28702,2,0,L|200:283,1,52.5,2|0,0:1|0:0,0:0:0:0:
48,203,28850,1,2,0:1:0:0:
163,136,28999,2,0,L|91:132,1,52.5,2|2,0:0|0:0,0:0:0:0:
298,75,29147,6,0,L|414:66,1,105,10|0,1:2|0:0,0:0:0:0:
167,46,29444,1,2,1:2:0:0:
403,66,29593,1,2,1:2:0:0:
150,146,29741,6,0,L|145:257,1,105,0|2,1:0|0:0,0:0:0:0:
173,265,29927,1,0,0:0:0:0:
201,271,29964,1,0,0:0:0:0:
386,338,30038,2,0,L|266:347,1,105,2|0,1:2|0:0,0:0:0:0:
228,346,30261,1,0,0:0:0:0:
47,218,30335,5,10,1:2:0:0:
166,105,30484,2,0,L|96:105,1,52.5,0|0,1:0|1:0,1:0:0:0:
308,48,30632,1,2,1:2:0:0:
193,28,30781,1,2,1:2:0:0:
450,60,30929,5,2,1:2:0:0:
481,67,30966,2,0,L|485:221,1,131.25,0|0,0:0|0:0,0:0:0:0:
223,224,31226,6,0,B|485:199|485:199|216:224,1,525,6|10,1:0|1:2,0:0:0:0:
281,295,31598,1,2,0:0:0:0:
223,224,31672,2,0,L|157:240,1,52.5,2|2,0:0|0:0,0:0:0:0:
229,292,31820,2,0,L|284:296,1,52.5,2|2,0:0|0:0,0:0:0:0:
99,363,31969,2,0,L|4:359,1,52.5,2|2,1:2|1:2,0:0:0:0:
237,185,32117,6,0,L|312:181,1,52.5,2|2,1:3|0:3,0:0:0:0:
220,169,32266,2,0,L|279:162,1,52.5,2|2,0:3|0:3,0:0:0:0:
198,129,32415,2,0,L|104:120,1,52.5,2|0,1:3|0:0,0:0:0:0:
219,101,32563,2,0,L|152:96,1,52.5,2|0,0:3|0:0,0:0:0:0:
341,41,32712,6,0,L|402:47,1,52.5,10|2,1:2|0:0,0:0:0:0:
319,103,32860,2,0,L|316:160,1,52.5,2|2,0:0|0:0,0:0:0:0:
242,175,33009,2,0,L|235:237,1,52.5,2|2,0:0|0:0,0:0:0:0:
162,258,33157,2,0,L|153:314,1,52.5,2|2,0:0|0:0,0:0:0:0:
341,354,33306,6,0,L|229:348,1,105,4|2,1:0|0:1,0:0:0:0:
230,326,33491,1,0,0:0:0:0:
449,257,33603,2,0,L|416:254,1,26.25,2|0,0:1|0:0,0:0:0:0:
192,101,33751,2,0,L|226:100,1,26.25,2|0,0:0|0:0,0:0:0:0:
432,43,33900,5,8,1:2:0:0:
317,112,34048,2,0,L|379:116,1,52.5,2|0,0:0|0:0,0:0:0:0:
168,216,34197,2,0,L|306:217,1,105,2|2,1:2|1:2,0:0:0:0:
328,223,34419,1,2,1:2:0:0:
129,332,34494,6,0,L|12:312,1,105,4|2,1:0|0:1,0:0:0:0:
54,298,34679,1,0,0:0:0:0:
266,126,34791,2,0,L|275:83,1,26.25,2|0,1:2|0:0,0:0:0:0:
63,80,34939,2,0,L|54:37,1,26.25,2|0,0:0|0:0,0:0:0:0:
292,45,35088,6,0,L|220:53,1,52.5,10|2,1:2|0:0,0:0:0:0:
173,98,35236,2,0,L|235:104,1,52.5,2|2,0:0|0:0,0:0:0:0:
429,140,35385,2,0,L|432:263,1,105,2|2,1:2|0:0,0:0:0:0:
400,267,35570,1,0,0:0:0:0:
365,275,35608,1,0,0:0:0:0:
155,345,35682,6,0,L|150:178,1,157.5,0|0,1:0|0:0,0:0:0:0:
328,124,35979,2,0,L|252:116,1,52.5,2|2,0:3|0:3,0:0:0:0:
452,45,36127,2,0,L|459:135,1,52.5,2|0,1:3|0:0,0:0:0:0:
262,206,36276,6,0,L|389:207,1,105,8|0,1:2|0:0,0:0:0:0:
173,287,36499,2,0,L|307:286,1,105,8|0,1:2|0:0,0:0:0:0:
87,364,36721,2,0,L|146:364,1,52.5,8|0,1:0|0:0,0:0:0:0:
347,317,36870,6,0,B|85:292|85:292|354:317,1,525,6|2,1:0|1:2,0:0:0:0:
350,290,37204,1,0,0:0:0:0:
247,250,37315,2,0,L|250:219,1,26.25,2|0,0:0|0:0,0:0:0:0:
40,192,37464,6,0,L|32:153,1,26.25,10|0,1:2|0:0,0:0:0:0:
136,141,37612,2,0,L|128:102,1,26.25,2|0,0:0|0:0,0:0:0:0:
330,96,37762,2,0,L|338:57,1,26.25,2|0,0:0|0:0,0:0:0:0:
236,24,37910,2,0,L|288:21,1,52.5,2|0,0:0|0:0,0:0:0:0:
122,163,38058,5,4,1:2:0:0:
288,20,38132,2,0,L|361:20,2,52.5,8|0|0,1:2|0:0|0:0,0:0:0:0:
457,101,38355,2,0,L|461:215,1,105,8|2,1:2|0:0,0:0:0:0:
283,266,38578,2,0,L|339:291,1,52.5,8|0,1:2|0:0,0:0:0:0:
393,292,38726,1,0,0:0:0:0:
204,355,38801,2,0,L|140:360,1,52.5,8|0,1:2|0:0,0:0:0:0:
345,351,38949,6,0,L|438:350,1,52.5,8|0,1:2|0:0,0:0:0:0:
239,246,39098,1,8,1:2:0:0:
82,235,39172,1,8,1:2:0:0:
310,119,39246,6,0,L|339:71,2,52.5,0|0|0,1:0|0:0|0:0,0:0:0:0:
188,131,39543,2,0,P|135:148|148:247,1,157.5,0|0,0:0|0:0,0:0:0:0:
330,329,39840,5,2,0:0:0:0:
356,285,39914,1,0,0:0:0:0:
335,239,39988,1,0,0:0:0:0:
286,231,40062,1,0,0:0:0:0:
89,64,40137,2,0,L|148:68,1,52.5,0|0,0:0|0:0,0:0:0:0:
331,17,40286,2,0,L|243:15,1,52.5,0|0,0:0|0:0,0:0:0:0:
51,189,40434,6,0,P|26:257|146:333,1,210,4|0,1:0|0:0,0:0:0:0:
252,350,40880,2,0,L|261:116,1,210,2|0,0:0|0:0,0:0:0:0:
395,91,41325,2,0,L|182:46,1,210,2|0,0:0|0:0,0:0:0:0:
325,26,41771,2,0,P|379:32|370:167,1,210,2|0,0:0|0:0,0:0:0:0:
249,185,42216,1,2,0:0:0:0:
193,285,42365,1,0,0:0:0:0:
249,185,42514,1,2,0:0:0:0:
385,161,42662,1,2,0:0:0:0:
141,371,42811,6,0,L|119:128,1,210,2|0,0:0|0:0,0:0:0:0:
260,254,43256,2,0,L|264:43,1,210,2|0,0:0|0:0,0:0:0:0:
400,88,43702,2,0,L|201:191,1,210,2|0,0:0|0:0,0:0:0:0:
77,265,44147,2,0,L|286:330,1,210,2|2,0:0|0:0,0:0:0:0:
250,329,44481,1,0,0:0:0:0:
224,332,44518,1,0,0:0:0:0:
197,335,44555,1,0,0:0:0:0:
170,337,44592,5,2,0:0:0:0:
304,248,44741,1,0,0:0:0:0:
359,165,44890,1,2,0:0:0:0:
304,248,45038,1,0,0:0:0:0:
159,238,45187,6,0,P|137:178|258:107,1,210,2|0,0:0|0:0,0:0:0:0:
102,164,45632,2,0,P|80:104|201:33,1,210,2|0,0:0|0:0,0:0:0:0:
44,36,46078,2,0,L|37:154,1,105,2|2,0:0|0:0,0:0:0:0:
182,106,46375,5,0,0:0:0:0:
86,141,46523,1,0,0:0:0:0:
48,236,46672,1,0,0:0:0:0:
92,328,46820,1,0,0:0:0:0:
189,358,46969,2,0,L|306:344,1,105,0|0,0:0|0:0,0:0:0:0:
158,273,47266,2,0,L|274:263,1,105,0|0,0:0|0:0,0:0:0:0:
490,175,47563,6,0,L|286:91,1,210,2|0,0:0|0:0,0:0:0:0:
432,57,48009,2,0,P|467:110|368:204,1,210,2|0,0:0|0:0,0:0:0:0:
251,180,48454,1,2,0:0:0:0:
384,206,48603,1,0,0:0:0:0:
143,316,48751,6,0,L|133:76,1,210,2|0,0:0|0:0,0:0:0:0:
383,44,49345,1,0,3:0:0:0:
432,57,49419,1,0,3:0:0:0:
454,102,49493,1,0,3:0:0:0:
433,149,49567,1,0,3:0:0:0:
384,163,49642,2,0,L|276:142,1,105,2|2,3:2|3:2,0:0:0:0:
37,364,49939,6,0,L|241:295,1,210,4|0,1:0|0:0,0:0:0:0:
104,311,50385,2,0,L|91:87,1,210,2|0,0:0|0:0,0:0:0:0:
228,99,50830,2,0,L|18:155,1,210,2|0,0:0|0:0,0:0:0:0:
160,205,51276,2,0,L|378:145,1,210,2|0,0:0|0:0,0:0:0:0:
230,130,51721,1,2,0:0:0:0:
164,202,51870,1,0,0:0:0:0:
230,130,52018,1,2,0:0:0:0:
362,149,52167,1,2,0:0:0:0:
128,321,52315,6,0,L|117:100,1,210,2|0,0:0|0:0,0:0:0:0:
255,262,52761,2,0,L|263:26,1,210,2|0,0:0|0:0,0:0:0:0:
400,86,53207,2,0,L|197:166,1,210,2|0,0:0|0:0,0:0:0:0:
340,191,53652,2,0,P|406:209|377:337,1,210,2|2,0:0|0:0,0:0:0:0:
368,329,53986,1,0,0:0:0:0:
341,331,54023,1,0,0:0:0:0:
315,332,54060,1,0,0:0:0:0:
288,333,54097,5,2,0:0:0:0:
419,266,54246,1,2,0:0:0:0:
479,186,54395,1,2,0:0:0:0:
419,266,54543,1,2,0:0:0:0:
282,210,54692,6,0,L|168:200,2,105,2|0|0,1:2|0:0|1:0,0:0:0:0:
149,289,55137,2,0,L|34:231,2,105,2|0|0,1:2|1:0|1:0,0:0:0:0:
26,322,55583,2,0,L|17:213,1,105,2|2,1:2|1:2,0:0:0:0:
254,58,55880,5,2,1:2:0:0:
156,85,56028,1,0,1:0:0:0:
116,179,56177,1,2,1:2:0:0:
163,269,56325,1,0,1:0:0:0:
262,289,56474,2,0,L|380:284,1,105,2|0,1:2|1:0,0:0:0:0:
234,362,56771,2,0,L|103:371,1,105,2|0,1:2|1:0,0:0:0:0:
367,107,57068,5,2,1:2:0:0:
415,121,57142,1,0,1:0:0:0:
436,167,57216,1,2,1:2:0:0:
415,214,57290,1,0,1:0:0:0:
367,229,57365,2,0,L|305:237,1,52.5,2|0,1:2|0:0,0:0:0:0:
373,251,57514,2,0,L|455:244,1,52.5,2|0,1:2|0:0,0:0:0:0:
258,154,57662,6,0,L|180:146,1,52.5,2|0,1:2|1:0,0:0:0:0:
266,122,57811,2,0,L|335:115,1,52.5,2|0,1:2|0:0,0:0:0:0:
250,84,57959,2,0,L|122:77,1,105,2|2,1:2|1:2,0:0:0:0:
389,31,58256,5,2,1:2:0:0:
468,38,58355,1,2,0:0:0:0:
389,31,58454,1,2,0:0:0:0:
251,186,58603,2,0,L|115:191,1,105,2|0,0:0|0:0,0:0:0:0:
222,226,58850,6,0,B|291:105|291:105|354:227|354:227|74:244|74:244|25:198|25:198|21:50|21:50|79:258,1,973.875040865423,2|0,0:0|0:0,0:0:0:0:
270,318,59444,6,0,L|401:315,1,105,6|2,1:0|0:0,0:0:0:0:
116,369,59741,6,0,L|105:293,1,52.5,2|2,1:2|0:0,0:0:0:0:
188,306,59890,2,0,L|187:234,1,52.5,2|0,0:0|0:0,0:0:0:0:
357,213,60038,2,0,L|377:155,1,52.5,8|0,1:2|0:0,0:0:0:0:
170,248,60187,6,0,L|159:172,1,52.5,2|2,1:2|0:0,0:0:0:0:
243,186,60336,2,0,L|242:114,1,52.5,2|2,0:0|0:0,0:0:0:0:
425,97,60484,2,0,L|445:39,1,52.5,8|0,1:2|0:0,0:0:0:0:
235,144,60632,6,0,L|224:68,1,52.5,2|2,1:2|0:0,0:0:0:0:
308,82,60781,2,0,L|307:10,1,52.5,2|0,0:0|0:0,0:0:0:0:
116,89,60929,2,0,L|96:31,1,52.5,8|0,1:2|0:0,0:0:0:0:
300,305,61078,6,0,L|311:229,1,52.5,2|2,1:2|0:0,0:0:0:0:
227,243,61227,2,0,L|228:171,1,52.5,2|2,0:0|0:0,0:0:0:0:
423,187,61375,2,0,L|443:129,1,52.5,8|0,1:0|0:0,0:0:0:0:
230,153,61523,6,0,L|211:123,2,26.25,2|0|0,1:2|0:0|0:0,0:0:0:0:
297,114,61672,2,0,L|222:109,1,52.5
68,301,61820,2,0,L|128:299,1,52.5,2|0,1:2|0:0,0:0:0:0:
183,306,61969,2,0,L|184:277,2,26.25,2|0|0,0:0|0:0|0:0,0:0:0:0:
373,235,62117,6,0,L|231:228,1,105,8|0,1:2|0:0,0:0:0:0:
69,64,62340,2,0,L|211:57,1,105,8|0,1:2|0:0,0:0:0:0:
364,147,62563,2,0,L|368:86,1,52.5,0|0,1:0|0:0,0:0:0:0:
189,171,62712,2,0,L|116:164,1,52.5,8|0,1:2|0:0,0:0:0:0:
201,151,62860,2,0,L|213:118,2,26.25
24,282,63009,6,0,L|82:288,1,52.5,0|0,1:0|0:0,0:0:0:0:
248,345,63157,2,0,L|249:301,2,26.25,2|0|0,0:1|0:0|0:0,0:0:0:0:
423,275,63306,6,0,L|296:263,1,105,8|2,1:2|0:1,0:0:0:0:
292,264,63491,1,0,0:0:0:0:
386,209,63603,1,0,1:0:0:0:
202,58,63677,2,0,L|131:60,2,52.5,8|0|0,0:0|1:0|0:0,0:0:0:0:
408,45,63900,2,0,L|415:156,1,105,10|2,1:2|0:0,0:0:0:0:
165,233,64197,2,0,L|292:242,1,105,2|2,1:0|0:0,0:0:0:0:
14,20,64494,6,0,B|253:128|253:128|253:391|253:391|506:315,4,787.5,6|2|2|2|2,1:0|1:0|1:0|1:0|1:0,0:0:0:0:
67,17,66350,5,2,0:0:0:0:
255,48,66424,2,0,L|318:50,1,52.5,2|2,0:0|0:0,0:0:0:0:
122,148,66573,6,0,L|120:209,1,52.5,2|0,1:2|0:0,0:0:0:0:
195,210,66721,2,0,L|201:275,1,52.5,2|2,0:0|0:0,0:0:0:0:
28,347,66870,2,0,L|97:342,1,52.5,2|0,0:0|0:0,0:0:0:0:
143,287,67018,2,0,L|72:280,1,52.5,2|0,0:0|0:0,0:0:0:0:
267,145,67167,2,0,L|120:137,1,105,10|2,1:2|0:0,0:0:0:0:
191,113,67353,1,0,0:0:0:0:
222,105,67390,1,0,0:0:0:0:
423,73,67464,5,2,1:2:0:0:
191,33,67613,1,2,1:2:0:0:
432,100,67761,2,0,L|437:172,1,52.5,0|0,1:0|0:0,0:0:0:0:
259,178,67910,2,0,L|250:267,1,52.5,0|0,1:0|0:0,0:0:0:0:
443,341,68058,2,0,L|314:344,1,105,0|0,1:0|0:0,0:0:0:0:
153,318,68281,1,0,1:0:0:0:
338,343,68355,6,0,L|450:343,1,105,8|0,1:2|1:0,0:0:0:0:
386,322,68578,1,0,1:0:0:0:
188,285,68652,2,0,L|236:237,1,52.5,2|2,1:2|0:0,0:0:0:0:
292,227,68801,2,0,L|346:226,1,52.5,2|2,0:0|0:0,0:0:0:0:
129,140,68949,6,0,L|-12:140,1,105,6|2,1:0|0:0,0:0:0:0:
286,367,69246,6,0,L|295:304,1,52.5,2|2,1:2|0:0,0:0:0:0:
219,304,69395,2,0,L|214:242,1,52.5,2|0,0:0|0:0,0:0:0:0:
40,146,69543,2,0,L|110:133,1,52.5,8|0,1:2|0:0,0:0:0:0:
285,292,69692,6,0,L|294:229,1,52.5,2|2,1:2|0:0,0:0:0:0:
214,225,69841,2,0,L|207:158,1,52.5,2|0,0:0|0:0,0:0:0:0:
37,86,69989,2,0,L|107:73,1,52.5,8|0,1:2|0:0,0:0:0:0:
284,250,70137,6,0,L|293:187,1,52.5,2|2,1:2|0:0,0:0:0:0:
212,184,70286,2,0,L|205:116,1,52.5,2|0,0:0|0:0,0:0:0:0:
33,28,70434,2,0,L|103:15,1,52.5,8|0,1:2|0:0,0:0:0:0:
291,176,70583,6,0,L|300:113,1,52.5,2|2,1:2|0:0,0:0:0:0:
219,110,70732,2,0,L|212:44,1,52.5,2|2,0:0|0:0,0:0:0:0:
385,30,70880,2,0,L|304:23,1,52.5,8|0,1:2|0:0,0:0:0:0:
172,268,71028,6,0,L|153:238,2,26.25,2|0|0,1:0|0:0|0:0,0:0:0:0:
239,290,71177,2,0,L|314:285,1,52.5,0|0,0:0|0:0,0:0:0:0:
106,361,71325,2,0,L|46:359,1,52.5,2|0,1:2|0:0,0:0:0:0:
128,341,71474,2,0,L|129:310,2,26.25,2|0|0,0:0|0:0|0:0,0:0:0:0:
297,207,71622,6,0,L|166:176,1,105,8|0,1:2|0:0,0:0:0:0:
376,134,71845,2,0,L|263:111,1,105,8|0,1:2|0:0,0:0:0:0:
451,88,72068,2,0,L|455:25,1,52.5,0|0,1:0|0:0,0:0:0:0:
273,113,72217,2,0,L|343:109,1,52.5,10|0,1:2|0:0,0:0:0:0:
273,113,72365,2,0,L|261:80,2,26.25,2|0|0,0:0|0:0|0:0,0:0:0:0:
450,291,72514,6,0,L|392:297,1,52.5,0|0,1:0|0:0,0:0:0:0:
234,339,72662,2,0,L|233:295,2,26.25,2|0|0,0:1|0:0|0:0,0:0:0:0:
66,278,72811,6,0,L|193:266,1,105,8|2,1:2|0:1,0:0:0:0:
197,267,72996,1,0,0:0:0:0:
110,195,73108,1,0,1:0:0:0:
296,63,73182,2,0,L|367:65,2,52.5,8|0|0,0:0|1:0|0:0,0:0:0:0:
96,40,73405,2,0,L|89:151,1,105,10|2,1:2|0:0,0:0:0:0:
331,234,73702,2,0,L|204:243,1,105,6|2,1:0|0:0,0:0:0:0:
498,20,73999,6,0,B|259:128|259:128|259:391|259:391|6:315,4,787.5,2|2|2|2|2,1:0|1:0|1:0|1:0|1:2,0:0:0:0:
444,22,75855,1,0,0:0:0:0:
259,126,75929,1,2,1:2:0:0:
71,169,76004,1,0,1:0:0:0:
259,126,76078,6,0,P|316:152|235:342,1,315,4|0,1:0|0:0,0:0:0:0:
137,337,76672,1,0,0:0:0:0:
77,243,76820,1,2,0:0:0:0:
137,337,76969,1,2,0:0:0:0:
373,341,77099,6,0,L|394:342,1,13.125,2|0,0:0|0:0,0:0:0:0:
272,243,77266,2,0,L|207:238,1,52.5,0|0,0:0|0:0,0:0:0:0:
289,218,77415,2,0,L|210:217,1,52.5,2|2,0:0|0:0,0:0:0:0:
50,38,77563,5,2,0:0:0:0:
102,49,77637,1,0,0:0:0:0:
124,95,77711,1,2,0:0:0:0:
100,140,77785,1,0,0:0:0:0:
45,151,77860,2,0,L|122:155,1,52.5,2|0,0:0|0:0,0:0:0:0:
289,218,78009,2,0,L|374:214,1,52.5,2|0,0:0|0:0,0:0:0:0:
147,341,78157,2,0,L|212:339,1,52.5,10|0,0:0|0:0,0:0:0:0:
438,273,78306,2,0,L|510:273,1,52.5,0|0,0:0|0:0,0:0:0:0:
254,137,78454,5,4,1:0:0:0:
256,192,83207,12,0,85434,0:0:0:0:
241,329,85583,6,0,L|231:103,1,210,2|0,0:2|3:0,0:0:0:0:
366,137,86028,2,0,L|393:79,1,52.5,2|0,0:0|0:0,0:0:0:0:
366,137,86177,2,0,L|241:160,1,105,2|0,0:0|0:0,0:0:0:0:
38,275,86474,2,0,L|153:252,1,105,2|2,3:2|0:0,0:0:0:0:
196,260,86697,1,0,0:0:0:0:
255,276,86771,6,0,L|267:164,1,105,2|0,3:2|3:0,0:0:0:0:
127,158,87068,2,0,L|119:37,1,105,2|2,3:2|0:0,0:0:0:0:
150,44,87254,1,0,0:0:0:0:
183,40,87291,1,0,0:0:0:0:
369,121,87365,5,2,3:2:0:0:
398,111,87402,1,0,0:0:0:0:
431,107,87439,1,0,0:0:0:0:
242,348,87514,1,2,0:0:0:0:
213,338,87551,1,0,0:0:0:0:
180,334,87588,1,0,0:0:0:0:
407,130,87662,6,0,L|413:306,1,157.5,0|0,1:0|0:0,0:0:0:0:
168,188,87959,5,6,1:2:0:0:
390,133,88108,1,0,0:0:0:0:
391,80,88182,1,0,0:0:0:0:
393,28,88256,1,0,1:0:0:0:
139,99,88405,6,0,L|306:108,1,157.5,6|0,1:2|0:0,0:0:0:0:
107,241,88702,2,0,L|24:247,1,52.5,2|0,3:2|0:0,0:0:0:0:
255,198,88851,2,0,L|260:269,1,52.5,2|0,0:0|0:0,0:0:0:0:
183,266,88999,2,0,L|175:339,1,52.5,2|0,0:0|0:0,0:0:0:0:
381,336,89148,5,6,1:2:0:0:
263,356,89296,1,2,0:0:0:0:
212,358,89370,2,0,P|154:325|172:273,1,105,2|0,0:0|0:0,0:0:0:0:
365,176,89593,6,0,L|238:173,1,105,6|2,1:2|0:0,0:0:0:0:
288,154,89779,1,0,0:0:0:0:
319,145,89816,1,0,0:0:0:0:
386,100,89890,2,0,L|306:93,1,52.5,2|2,0:0|0:0,0:0:0:0:
117,103,90039,1,2,1:2:0:0:
333,95,90187,1,2,1:2:0:0:
97,28,90336,5,6,1:2:0:0:
230,74,90484,1,0,0:0:0:0:
282,72,90558,1,0,0:0:0:0:
334,70,90632,1,0,1:0:0:0:
80,169,90781,6,0,L|67:394,1,210,6|0,1:2|3:0,0:0:0:0:
124,384,91153,1,0,3:0:0:0:
318,242,91227,2,0,L|394:255,1,52.5,2|0,3:0|0:0,0:0:0:0:
172,85,91375,2,0,L|101:89,1,52.5,0|0,3:0|0:0,0:0:0:0:
357,358,91523,6,0,L|364:133,1,210,6|2,1:2|1:2,0:0:0:0:
153,170,92043,1,0,1:0:0:0:
206,157,92117,2,0,L|396:146,1,157.5,2|0,1:2|0:0,0:0:0:0:
167,81,92414,2,2,L|154:55,2,26.25,2|2|2,3:3|0:2|0:2,0:2:0:0:
239,75,92562,2,2,L|252:49,2,26.25,2|2|2,3:2|0:2|0:2,0:2:0:0:
36,124,92711,6,0,L|34:244,1,105,4|2,1:0|0:0,0:0:0:0:
95,254,92934,1,2,0:0:0:0:
156,284,93008,2,0,L|94:312,1,52.5,2|0,3:2|0:0,0:0:0:0:
43,313,93156,1,0,0:0:0:0:
276,225,93305,6,0,L|150:205,1,105,2|0,3:2|0:0,0:0:0:0:
229,185,93528,1,0,0:0:0:0:
296,159,93602,2,0,L|302:103,1,52.5,2|0,3:2|3:0,0:0:0:0:
230,110,93751,2,0,L|224:52,1,52.5,2|0,3:2|3:0,0:0:0:0:
429,47,93899,5,2,3:2:0:0:
317,83,94048,2,0,L|306:208,1,105,2|0,0:0|0:0,0:0:0:0:
303,224,94270,1,0,0:0:0:0:
472,226,94345,2,0,L|481:302,1,52.5,2|0,0:0|0:0,0:0:0:0:
294,348,94493,6,0,L|216:328,1,52.5,2|0,3:2|0:0,0:0:0:0:
305,315,94642,2,0,L|401:314,1,52.5,0|0,0:0|0:0,0:0:0:0:
164,235,94790,2,0,L|94:228,1,52.5,0|0,1:0|1:0,0:0:0:0:
299,112,94939,2,0,L|361:109,1,52.5,0|0,1:0|1:0,0:0:0:0:
187,60,95087,5,0,1:0:0:0:
351,109,95162,2,0,L|408:110,2,52.5,10|0|0,1:2|0:0|0:0,0:0:0:0:
166,155,95384,2,0,L|217:185,1,52.5,10|0,1:2|0:0,0:0:0:0:
275,191,95533,1,0,0:0:0:0:
85,290,95608,2,0,L|28:291,2,52.5,10|0|0,1:2|0:0|0:0,0:0:0:0:
260,358,95830,2,0,L|199:354,1,52.5,10|0,1:2|0:0,0:0:0:0:
390,292,95979,2,0,L|459:290,1,52.5,10|0,1:2|0:0,0:0:0:0:
263,250,96127,2,0,L|262:177,1,52.5,10|0,1:2|0:0,0:0:0:0:
59,155,96276,6,0,B|174:151|174:151|70:184|31:264|71:358|168:375|220:349,1,462.000014099122,4|2,1:0|0:0,0:0:0:0:
262,349,96944,1,2,0:0:0:0:
207,354,97018,1,0,0:0:0:0:
148,358,97093,1,2,0:0:0:0:
363,215,97167,2,0,L|482:209,1,105,2|2,0:0|0:0,0:0:0:0:
225,269,97464,6,0,P|204:206|292:170,1,157.5,0|0,1:0|0:0,0:0:0:0:
466,129,97761,1,10,1:2:0:0:
218,71,97910,2,0,L|363:57,1,117.600001435547,2|0,0:1|1:0,0:0:0:0:
342,105,98132,1,0,0:0:0:0:
269,128,98207,2,0,L|258:219,1,58.8000007177734,2|2,0:0|0:0,0:0:0:0:
71,253,98355,6,0,L|207:260,1,117.600001435547,10|0,1:0|0:0,0:0:0:0:
247,262,98578,1,0,0:0:0:0:
70,358,98652,1,0,1:0:0:0:
314,374,98801,2,0,L|321:251,1,117.600001435547,2|8,0:1|1:2,0:0:0:0:
188,259,99098,2,0,L|176:187,1,58.8000007177734,2|0,0:0|0:0,0:0:0:0:
357,130,99246,6,0,L|217:121,1,117.600001435547,2|2,1:0|0:0,0:0:0:0:
300,95,99469,1,0,0:0:0:0:
488,60,99543,1,10,1:0:0:0:
264,30,99692,2,0,L|199:36,1,58.8000007177734,2|0,0:0|0:0,0:0:0:0:
393,185,99840,6,0,L|402:330,1,117.600001435547,2|0,1:0|0:0,0:0:0:0:
337,327,100063,1,0,0:0:0:0:
151,345,100137,1,8,1:2:0:0:
380,352,100286,2,0,L|314:316,1,58.8000007177734,2|0,0:1|0:0,0:0:0:0:
265,317,100434,1,0,1:0:0:0:
389,243,100583,2,0,L|394:161,1,58.8000007177734
177,117,100731,6,0,L|311:106,1,117.600001435547,10|0,1:0|0:0,0:0:0:0:
234,91,100954,1,0,0:0:0:0:
45,81,101028,1,0,1:0:0:0:
283,212,101177,2,0,L|316:272,2,58.8000007177734,2|0|8,0:1|0:0|1:2,0:0:0:0:
158,305,101474,2,0,L|248:304,1,58.8000007177734,2|2,0:0|0:0,0:0:0:0:
390,342,101622,5,2,1:0:0:0:
216,304,101697,2,0,L|70:273,1,117.600001435547,10|2,1:2|0:1,0:0:0:0:
300,206,101919,1,8,1:2:0:0:
64,117,102068,2,0,L|140:105,1,58.8000007177734,10|2,1:0|1:2,0:0:0:0:
342,70,102216,6,0,L|219:65,1,117.600001435547,2|0,1:0|0:0,0:0:0:0:
206,47,102402,1,0,0:0:0:0:
224,65,102439,1,0,0:0:0:0:
411,153,102514,1,8,1:2:0:0:
180,217,102662,6,0,L|147:277,2,58.8000007177734,2|0|0,0:1|0:0|1:0,0:0:0:0:
304,164,102959,2,0,L|217:156,1,58.8000007177734,2|2,0:0|0:0,0:0:0:0:
445,70,103108,2,0,L|456:200,1,117.600001435547,10|0,1:0|0:0,0:0:0:0:
425,212,103293,1,0,0:0:0:0:
390,218,103330,1,0,0:0:0:0:
203,338,103405,1,2,1:2:0:0:
420,352,103553,6,0,L|450:288,2,58.8000007177734,2|0|8,0:1|0:0|1:2,0:0:0:0:
297,292,103850,2,0,L|370:280,1,58.8000007177734,2|0,0:0|0:0,0:0:0:0:
161,203,103999,2,0,L|27:197,1,117.600001435547,2|2,1:0|0:0,0:0:0:0:
284,116,104296,1,10,1:0:0:0:
41,111,104444,1,2,0:0:0:0:
289,80,104593,6,0,L|438:68,1,117.600001435547,2|0,1:0|0:0,0:0:0:0:
222,23,104815,2,0,L|214:146,1,117.600001435547,8|0,1:2|0:0,0:0:0:0:
400,248,105038,2,0,L|230:265,1,117.600001435547,2|0,1:0|0:0,0:0:0:0:
475,362,105261,2,0,L|476:292,1,58.8000007177734,8|0,1:2|0:0,0:0:0:0:
409,288,105410,1,0,0:0:0:0:
215,214,105484,2,0,L|128:221,1,58.8000007177734,10|0,1:0|0:0,0:0:0:0:
339,155,105632,1,0,1:0:0:0:
178,144,105707,1,0,1:0:0:0:
21,160,105781,6,0,B|253:292|253:292|161:43|161:43|257:300,1,796.949994223766,4|2,1:0|0:0,0:0:0:0:
492,117,106375,6,0,L|492:0,1,117.600001435547,8|0,1:2|0:0,0:0:0:0:
432,24,106598,1,0,0:0:0:0:
224,93,106672,2,0,L|148:86,1,58.8000007177734,8|0,1:2|0:0,0:0:0:0:
321,197,106820,1,8,1:2:0:0:
479,222,106895,1,8,1:2:0:0:
285,347,106969,5,0,1:0:0:0:
394,319,107117,2,0,L|312:315,1,52.5,0|0,1:0|1:0,0:0:0:0:
144,265,107266,6,0,L|264:261,1,105,4|0,1:0|0:0,0:0:0:0:
304,253,107489,1,0,0:0:0:0:
119,168,107563,2,0,L|39:171,1,52.5,0|0,3:0|3:0,0:0:0:0:
265,103,107712,2,0,L|357:97,1,52.5,0|0,3:0|3:0,0:0:0:0:
85,312,107860,6,0,P|58:250|154:198,1,176.40000215332,10|0,1:0|0:0,0:0:0:0:
363,176,108157,5,6,1:2:0:0:
118,108,108306,2,0,L|186:75,1,58.8000007177734,2|0,0:1|0:0,0:0:0:0:
239,79,108454,1,8,1:2:0:0:
115,306,108603,2,0,L|109:236,1,58.8000007177734,2|0,0:0|0:0,0:0:0:0:
294,296,108751,6,0,L|155:290,1,117.600001435547,2|2,1:0|0:0,0:0:0:0:
416,213,109048,2,0,L|286:206,1,117.600001435547,10|2,1:0|0:0,0:0:0:0:
266,206,109234,1,0,0:0:0:0:
231,211,109271,1,0,0:0:0:0:
452,70,109345,6,0,L|455:204,1,117.600001435547,2|0,1:0|0:0,0:0:0:0:
396,230,109568,1,0,0:0:0:0:
195,313,109642,1,8,1:2:0:0:
439,351,109791,2,0,L|382:322,1,58.8000007177734,2|0,0:1|0:0,0:0:0:0:
320,321,109939,1,0,1:0:0:0:
445,275,110088,2,0,L|449:210,1,58.8000007177734
257,91,110236,6,0,P|172:122|287:160,1,251.999992309571,10|2,1:2|0:0,0:0:0:0:
319,199,110608,1,2,0:0:0:0:
138,300,110682,6,0,L|8:288,1,117.600001435547,2|8,0:1|1:0,0:0:0:0:
264,315,110979,1,2,1:0:0:0:
23,266,111127,1,0,1:0:0:0:
196,131,111202,2,0,L|271:112,2,58.8000007177734,10|0|0,1:0|0:0|0:0,0:0:0:0:
378,83,111424,1,10,1:0:0:0:
262,36,111573,2,0,L|256:106,1,58.8000007177734,2|0,1:0|1:0,0:0:0:0:
455,188,111721,6,0,L|458:335,1,117.600001435547,0|0,1:0|0:0,0:0:0:0:
424,329,111907,1,0,0:0:0:0:
387,335,111944,1,0,0:0:0:0:
183,352,112018,5,8,1:0:0:0:
421,358,112167,2,0,L|454:296,2,58.8000007177734,6|0|0,0:1|0:0|1:0,0:0:0:0:
297,276,112464,2,0,L|369:271,1,58.8000007177734
165,185,112613,2,0,L|16:170,1,117.600001435547,10|2,1:0|0:1,0:0:0:0:
276,79,112910,1,0,1:0:0:0:
151,76,113058,2,0,L|121:135,2,58.8000007177734,2|0|8,0:0|0:0|1:0,0:0:0:0:
276,79,113355,2,0,L|210:74,1,58.8000007177734,2|2,0:0|0:0,0:0:0:0:
405,178,113504,6,0,L|409:321,1,117.600001435547,2|0,1:2|0:0,0:0:0:0:
281,338,113801,2,0,L|338:360,1,58.8000007177734,2|0,0:0|0:0,0:0:0:0:
401,360,113949,1,2,0:0:0:0:
149,316,114098,5,6,1:0:0:0:
327,230,114172,2,0,L|393:219,2,58.8000007177734,8|0|0,1:0|0:0|0:0,0:0:0:0:
149,158,114395,2,0,L|277:138,1,117.600001435547,10|0,1:0|0:0,0:0:0:0:
91,83,114617,1,10,1:0:0:0:
265,139,114692,2,0,L|348:128,1,58.8000007177734,2|0,1:2|0:0,0:0:0:0:
126,332,114840,2,0,L|45:336,1,58.8000007177734,8|0,1:2|0:0,0:0:0:0:
279,305,114989,2,0,L|358:297,1,58.8000007177734,8|0,1:2|0:0,0:0:0:0:
183,245,115137,1,8,1:2:0:0:
26,244,115212,1,8,1:2:0:0:
228,154,115286,6,0,L|354:146,1,105,2|2,1:2|0:0,0:0:0:0:
276,128,115509,1,2,0:0:0:0:
207,113,115583,1,2,0:0:0:0:
177,118,115620,1,0,0:0:0:0:
164,140,115657,1,2,0:0:0:0:
178,163,115694,1,0,0:0:0:0:
207,167,115731,1,2,0:0:0:0:
276,128,115806,1,2,0:0:0:0:
93,190,115880,5,2,3:2:0:0:
65,233,115954,1,2,3:2:0:0:
90,277,116028,1,2,3:2:0:0:
144,280,116102,1,2,3:2:0:0:
341,317,116177,2,0,L|405:320,1,52.5,2|0,1:2|0:0,0:0:0:0:
198,363,116325,2,0,L|271:368,1,52.5,2|0,0:0|0:0,0:0:0:0:
449,371,116474,5,2,1:2:0:0:
488,293,116573,1,2,0:0:0:0:
449,371,116672,1,2,0:0:0:0:
358,368,116771,2,0,L|247:366,1,105,2|0,0:0|0:0,0:0:0:0:
310,346,116994,1,0,0:0:0:0:
123,237,117068,2,0,L|46:231,1,52.5,2|0,1:2|0:0,0:0:0:0:
272,73,117216,2,0,L|336:65,1,52.5,2|0,0:0|0:0,0:0:0:0:
90,163,117365,6,0,L|82:355,1,157.5,10|0,0:1|0:0,0:0:0:0:
339,372,117662,6,0,B|84:317|84:317|84:50,1,525,6|8,1:0|1:2,0:0:0:0:
142,38,118033,1,0,0:0:0:0:
210,38,118108,1,0,0:0:0:0:
463,142,118256,6,0,L|472:222,1,58.8000007177734,2|2,1:2|0:0,0:0:0:0:
391,212,118405,2,0,L|401:280,1,58.8000007177734,2|2,0:0|0:0,0:0:0:0:
316,274,118553,2,0,L|325:342,1,58.8000007177734,10|2,1:2|0:0,0:0:0:0:
234,310,118702,2,0,L|243:378,1,58.8000007177734,2|2,0:0|0:0,0:0:0:0:
412,353,118850,6,0,L|337:349,1,58.8000007177734,2|2,1:3|0:3,0:0:0:0:
199,208,118999,2,0,L|263:201,1,58.8000007177734,2|0,0:3|0:0,0:0:0:0:
105,128,119147,2,0,L|41:121,1,58.8000007177734,8|2,1:2|0:3,0:0:0:0:
202,85,119296,2,0,L|274:74,1,58.8000007177734,2|0,0:3|0:0,0:0:0:0:
94,164,119444,6,0,L|79:243,1,58.8000007177734,2|2,1:2|0:0,0:0:0:0:
239,224,119593,2,0,L|245:301,1,58.8000007177734,2|0,0:0|0:0,0:0:0:0:
401,239,119741,2,0,L|416:315,1,58.8000007177734,10|2,1:2|0:0,0:0:0:0:
335,301,119890,2,0,L|326:366,1,58.8000007177734,2|2,0:0|0:0,0:0:0:0:
128,367,120038,6,0,L|256:364,1,117.600001435547,0|2,1:0|0:1,0:0:0:0:
276,363,120224,1,0,0:0:0:0:
71,302,120335,2,0,L|60:259,1,29.4000003588867,10|0,1:2|0:0,0:0:0:0:
173,234,120484,2,0,L|162:191,1,29.4000003588867,2|0,0:0|0:0,0:0:0:0:
387,98,120632,6,0,L|228:98,1,117.600001435547,2|0,1:2|0:0,0:0:0:0:
482,39,120929,2,0,L|484:131,1,58.8000007177734,10|0,1:2|0:0,0:0:0:0:
306,214,121078,2,0,L|398:214,1,58.8000007177734,2|2,0:0|0:0,0:0:0:0:
186,347,121226,6,0,L|42:344,1,117.600001435547,2|2,1:2|0:1,0:0:0:0:
101,322,121412,1,0,0:0:0:0:
312,311,121523,2,0,L|323:268,1,29.4000003588867,10|0,1:2|0:0,0:0:0:0:
210,255,121672,2,0,L|221:212,1,29.4000003588867,2|0,0:0|0:0,0:0:0:0:
442,160,121820,5,0,1:0:0:0:
257,123,121895,2,0,L|134:110,1,117.600001435547,10|0,1:0|0:0,0:0:0:0:
336,55,122117,1,8,1:2:0:0:
99,34,122266,2,0,L|178:22,1,58.8000007177734,0|0,1:0|1:0,0:0:0:0:
364,34,122415,6,0,B|102:59|102:59|371:34,1,525,6|8,1:0|1:2,0:0:0:0:
367,61,122749,1,0,0:0:0:0:
264,101,122860,2,0,L|267:135,1,29.4000003588867
63,168,123009,6,0,L|52:208,1,29.4000003588867,2|0,1:0|0:0,0:0:0:0:
158,225,123157,2,0,L|147:265,1,29.4000003588867,2|0,0:1|0:0,0:0:0:0:
363,240,123306,2,0,L|373:280,1,29.4000003588867,10|0,1:0|0:0,0:0:0:0:
269,307,123454,2,0,L|331:312,1,58.8000007177734,2|0,0:1|0:0,0:0:0:0:
112,369,123603,6,0,L|98:191,1,176.40000215332,2|0,1:2|0:0,0:0:0:0:
297,108,123900,2,0,L|110:103,1,176.40000215332,10|0,1:2|0:0,0:0:0:0:
286,213,124197,1,0,1:0:0:0:
120,103,124271,2,0,L|241:69,1,117.600001435547,8|0,0:0|0:0,0:0:0:0:
441,95,124494,1,0,1:0:0:0:
441,95,124642,2,0,L|374:95,1,52.5,2|0,0:2|0:0,0:0:0:0:
173,290,124791,5,6,1:0:0:0:
403,327,124939,1,0,1:0:0:0:
170,312,125088,2,0,L|32:294,1,117.600001435547,10|2,1:2|0:0,0:0:0:0:
114,271,125311,1,2,0:0:0:0:
312,220,125385,5,0,1:0:0:0:
165,176,125459,1,0,1:0:0:0:
17,168,125533,1,0,1:0:0:0:
269,91,125682,2,0,L|337:82,1,58.8000007177734,10|0,1:0|0:0,0:0:0:0:
260,68,125830,2,0,L|178:66,1,58.8000007177734,0|2,0:0|0:1,0:0:0:0:
438,52,125979,6,0,B|475:187|475:187|438:59|438:59|153:83,1,545.999975006105,10|0,1:0|1:0,0:0:0:0:
148,106,126313,1,0,0:0:0:0:
166,81,126350,1,0,0:0:0:0:
363,219,126424,1,0,0:0:0:0:
381,243,126462,1,0,0:0:0:0:
363,219,126499,1,0,0:0:0:0:
153,351,126573,6,0,L|293:327,1,117.600001435547,2|2,1:2|1:2,0:0:0:0:
330,322,126796,1,0,1:2:0:0:
119,263,126870,2,0,L|39:261,1,58.8000007177734,10|0,3:2|3:0,0:0:0:0:
230,214,127018,1,0,1:0:0:0:
402,195,127093,1,0,1:0:0:0:
230,214,127167,6,0,L|229:51,1,157.5,0|2,1:0|0:0,0:0:0:0:
15,32,127464,6,0,B|277:57|277:57|8:32,1,525,10|2,1:0|1:2,0:0:0:0:
78,77,127835,1,2,0:0:0:0:
147,105,127910,2,0,L|159:194,1,58.8000007177734,2|2,0:0|0:0,0:0:0:0:
83,179,128058,2,0,L|74:271,1,58.8000007177734,10|2,1:2|0:0,0:0:0:0:
151,271,128207,2,0,L|75:285,1,58.8000007177734,2|2,0:0|0:0,0:0:0:0:
272,338,128355,6,0,L|358:330,1,58.8000007177734,2|2,1:3|0:3,0:0:0:0:
180,352,128504,2,0,L|172:274,1,58.8000007177734,2|2,0:3|0:3,0:0:0:0:
330,245,128652,2,0,L|236:241,1,58.8000007177734,8|2,1:2|0:3,0:0:0:0:
431,218,128801,2,0,L|439:153,1,58.8000007177734,2|0,0:3|0:0,0:0:0:0:
283,135,128949,6,0,L|369:127,1,58.8000007177734,2|2,1:2|0:0,0:0:0:0:
277,113,129098,2,0,L|269:49,1,58.8000007177734,2|0,0:0|0:0,0:0:0:0:
429,29,129246,2,0,L|351:39,1,58.8000007177734,10|2,1:2|0:0,0:0:0:0:
430,58,129395,2,0,L|436:122,1,58.8000007177734,2|0,0:0|0:0,0:0:0:0:
252,214,129543,6,0,L|115:226,1,117.600001435547,0|2,1:0|0:1,0:0:0:0:
167,247,129729,1,0,0:0:0:0:
370,338,129840,2,0,L|379:295,1,29.4000003588867,10|0,1:2|0:0,0:0:0:0:
273,287,129989,2,0,L|282:244,1,29.4000003588867,2|0,0:0|0:0,0:0:0:0:
52,132,130137,2,0,L|187:121,1,117.600001435547,2|2,1:2|0:0,0:0:0:0:
401,71,130434,1,10,1:2:0:0:
170,122,130583,2,0,L|79:117,1,58.8000007177734,2|2,0:0|0:0,0:0:0:0:
321,106,130731,5,0,1:0:0:0:
198,45,130880,2,0,L|192:80,1,29.4000003588867,2|0,0:1|0:0,0:0:0:0:
417,224,131028,2,0,L|369:225,1,29.4000003588867,10|0,1:2|0:0,0:0:0:0:
166,366,131177,2,0,L|215:362,1,29.4000003588867,2|0,0:0|0:0,0:0:0:0:
422,358,131325,5,0,1:0:0:0:
235,253,131400,2,0,L|102:248,1,117.600001435547,10|0,1:0|0:0,0:0:0:0:
326,166,131622,1,10,1:2:0:0:
76,101,131771,2,0,L|159:94,1,58.8000007177734,8|8,1:2|1:2,0:0:0:0:
353,284,131919,6,0,B|91:309|91:309|360:284,1,525,6|8,1:0|1:0,0:0:0:0:
409,293,132291,1,0,0:0:0:0:
471,295,132365,1,0,0:0:0:0:
232,189,132514,6,0,L|406:137,1,176.40000215332,2|0,1:2|0:0,0:0:0:0:
220,81,132811,2,0,L|217:260,1,176.40000215332,8|0,1:2|0:0,0:0:0:0:
33,69,133108,6,0,L|227:57,1,176.40000215332,2|0,1:2|0:0,0:0:0:0:
396,323,133405,2,0,L|205:335,1,176.40000215332,10|0,1:2|0:0,0:0:0:0:
42,373,133702,1,0,1:0:0:0:
219,334,133776,2,0,L|347:324,1,117.600001435547,8|0,1:2|0:0,0:0:0:0:
157,272,133999,6,0,L|149:103,1,157.5,0|0,1:0|0:0,0:0:0:0:
311,89,134296,1,6,1:2:0:0:
474,116,134370,6,0,L|212:264,1,278.250011675835,10|0,1:2|0:0,0:0:0:0:
416,187,134593,2,0,L|421:318,1,117.600001435547,8|0,1:2|0:0,0:0:0:0:
243,342,134815,1,8,1:2:0:0:
55,339,134890,2,0,L|127:334,1,58.8000007177734,8|0,0:0|0:0,0:0:0:0:
303,234,135038,2,0,L|210:242,1,58.8000007177734,8|0,1:2|0:0,0:0:0:0:
41,168,135187,2,0,L|121:160,1,58.8000007177734,8|0,1:2|0:0,0:0:0:0:
275,125,135335,1,8,1:2:0:0:
99,162,135410,1,8,1:2:0:0:
275,125,135484,6,0,B|495:268|495:268|273:128,1,525,14|2,1:0|1:0,0:0:0:0:
212,120,135855,1,0,0:0:0:0:
400,56,135929,2,0,L|411:155,1,58.8000007177734,2|0,0:0|0:0,0:0:0:0:
217,252,136078,6,0,L|142:249,1,58.8000007177734,8|0,3:2|0:0,0:0:0:0:
355,347,136226,2,0,L|280:346,1,58.8000007177734,0|0,1:0|1:0,1:0:0:0:
121,345,136375,1,8,1:0:0:0:
297,346,136449,1,0,1:0:0:0:
473,305,136523,2,0,L|386:292,1,58.8000007177734,0|0,1:0|1:0,1:0:0:0:
168,267,136672,5,4,1:1:0:0:
256,192,136746,12,0,141721,0:0:0:0:
