osu file format v14

[General]
AudioFilename: audio.mp3
AudioLeadIn: 0
PreviewTime: 96873
Countdown: 0
SampleSet: Soft
StackLeniency: 0.5
Mode: 0
LetterboxInBreaks: 0
WidescreenStoryboard: 1

[Editor]
DistanceSpacing: 0.9
BeatDivisor: 4
GridSize: 16
TimelineZoom: 1.6

[Metadata]
Title:Duplication
TitleUnicode:Duplication
Artist:Zekk
ArtistUnicode:Zekk
Creator:Elayue
Version:Extreme
Source:
Tags:_epreus molang agatsu electronic instrumental mappers' guild mpg featured artist fa
BeatmapID:3044230
BeatmapSetID:1484383

[Difficulty]
HPDrainRate:6
CircleSize:4.1
OverallDifficulty:9.2
ApproachRate:9.6
SliderMultiplier:2.5
SliderTickRate:1

[Events]
//Background and Video events
0,0,"fractal-1746830_1920.jpg",0,0
//Break Periods
2,40786,49582
2,78806,87305
//Storyboard Layer 0 (Background)
//Storyboard Layer 1 (Fail)
//Storyboard Layer 2 (Pass)
//Storyboard Layer 3 (Foreground)
//Storyboard Layer 4 (Overlay)
//Storyboard Sound Samples

[TimingPoints]
2567,297.029702970297,4,2,2,60,1,0
2567,-166.666666666667,4,2,2,60,0,0
2789,-100,4,2,2,5,0,0
2864,-100,4,2,2,30,0,0
4943,-100,4,2,2,40,0,0
7319,-100,4,2,2,45,0,0
7542,-100,4,2,2,5,0,0
7616,-100,4,2,2,50,0,0
9695,-100,4,2,2,55,0,0
10512,-100,4,2,2,5,0,0
10586,-100,4,2,2,55,0,0
11700,-100,4,2,2,5,0,0
11774,-100,4,2,2,55,0,0
12071,-62.5,4,2,2,75,0,0
12294,-62.5,4,2,2,5,0,0
12368,-62.5,4,2,2,75,0,0
12517,-90.9090909090909,4,2,2,75,0,0
12740,-90.9090909090909,4,2,2,5,0,0
12814,-66.6666666666667,4,2,2,75,0,0
12888,-66.6666666666667,4,2,2,5,0,0
12963,-66.6666666666667,4,2,2,75,0,0
13037,-66.6666666666667,4,2,2,5,0,0
13111,-66.6666666666667,4,2,2,75,0,0
13185,-66.6666666666667,4,2,2,5,0,0
13260,-62.5,4,2,2,75,0,0
13705,-90.9090909090909,4,2,2,75,0,0
14151,-66.6666666666667,4,2,2,75,0,0
14448,-62.5,4,2,2,75,0,0
14670,-62.5,4,2,2,5,0,0
14745,-62.5,4,2,2,75,0,0
15116,-62.5,4,2,2,5,0,0
15190,-62.5,4,2,2,75,0,0
15191,-66.6666666666667,4,2,2,75,0,0
15637,-62.5,4,2,2,75,0,0
16824,-111.111111111111,4,2,2,75,0,0
17121,-111.111111111111,4,2,2,55,0,0
19274,-66.6666666666667,4,2,2,55,0,0
19423,-66.6666666666667,4,2,2,5,0,0
19497,-66.6666666666667,4,2,2,55,0,0
19646,-66.6666666666667,4,2,2,5,0,0
19720,-66.6666666666667,4,2,2,55,0,0
19868,-66.6666666666667,4,2,2,5,0,0
19943,-66.6666666666667,4,2,2,45,0,0
20017,-66.6666666666667,4,2,2,5,0,0
20091,-66.6666666666667,4,2,2,30,0,0
20166,-66.6666666666667,4,2,2,5,0,0
20240,-66.6666666666667,4,2,2,15,0,0
20314,-66.6666666666667,4,2,2,5,0,0
20388,-66.6666666666667,4,2,2,65,0,0
21205,-66.6666666666667,4,2,2,5,0,0
21279,-66.6666666666667,4,2,2,65,0,0
21576,-58.8235294117647,4,2,2,75,0,0
21799,-58.8235294117647,4,2,2,5,0,0
21873,-52.6315789473684,4,2,2,75,0,0
22096,-52.6315789473684,4,2,2,5,0,0
22170,-90.9090909090909,4,2,2,75,0,0
23953,-66.6666666666667,4,2,2,75,0,0
24064,-66.6666666666667,4,2,2,5,0,0
24101,-66.6666666666667,4,2,2,75,0,0
24175,-66.6666666666667,4,2,2,5,0,0
24250,-66.6666666666667,4,2,2,75,0,0
24324,-66.6666666666667,4,2,2,5,0,0
24398,-66.6666666666667,4,2,2,75,0,0
24472,-66.6666666666667,4,2,2,5,0,0
24547,-66.6666666666667,4,2,2,75,0,0
24844,-66.6666666666667,4,2,2,75,0,0
24918,-66.6666666666667,4,2,2,5,0,0
24992,-66.6666666666667,4,2,2,75,0,0
25067,-66.6666666666667,4,2,2,5,0,0
25141,-62.5,4,2,2,75,0,0
25252,-62.5,4,2,2,5,0,0
25289,-62.5,4,2,2,75,0,0
25438,-62.5,4,2,2,75,0,0
25512,-62.5,4,2,2,5,0,0
25586,-62.5,4,2,2,75,0,0
26106,-62.5,4,2,2,5,0,0
26180,-62.5,4,2,2,75,0,0
26255,-62.5,4,2,2,5,0,0
26329,-76.9230769230769,4,2,2,75,0,0
26552,-76.9230769230769,4,2,2,5,0,0
26626,-62.5,4,2,2,75,0,0
26849,-62.5,4,2,2,5,0,0
26923,-90.9090909090909,4,2,2,75,0,0
26997,-90.9090909090909,4,2,2,5,0,0
27071,-76.9230769230769,4,2,2,75,0,0
27146,-76.9230769230769,4,2,2,5,0,0
27220,-76.9230769230769,4,2,2,75,0,0
27294,-76.9230769230769,4,2,2,5,0,0
27368,-62.5,4,2,2,75,0,0
27814,-62.5,4,2,2,75,0,0
28037,-62.5,4,2,2,5,0,0
28111,-62.5,4,2,2,75,0,0
28631,-62.5,4,2,2,5,0,0
28705,-66.6666666666667,4,2,2,75,0,0
28854,-66.6666666666667,4,2,2,75,0,0
28928,-66.6666666666667,4,2,2,5,0,0
29002,-66.6666666666667,4,2,2,75,0,0
29076,-66.6666666666667,4,2,2,5,0,0
29151,-66.6666666666667,4,2,2,75,0,0
29596,-66.6666666666667,4,2,2,75,0,0
29670,-66.6666666666667,4,2,2,5,0,0
29745,-66.6666666666667,4,2,2,75,0,0
29819,-66.6666666666667,4,2,2,5,0,0
29893,-66.6666666666667,4,2,2,75,0,0
30784,-76.9230769230769,4,2,2,75,0,0
31081,-142.857142857143,4,2,2,75,0,0
31304,-142.857142857143,4,2,2,5,0,0
31378,-58.8235294117647,4,2,2,75,0,0
31675,-90.9090909090909,4,2,2,75,0,0
33458,-66.6666666666667,4,2,2,75,0,0
33569,-66.6666666666667,4,2,2,5,0,0
33606,-66.6666666666667,4,2,2,75,0,0
33680,-66.6666666666667,4,2,2,5,0,0
33755,-66.6666666666667,4,2,2,75,0,0
33829,-66.6666666666667,4,2,2,5,0,0
33903,-66.6666666666667,4,2,2,75,0,0
33977,-66.6666666666667,4,2,2,5,0,0
34052,-90.9090909090909,4,2,2,75,0,0
34200,-66.6666666666667,4,2,2,75,0,0
34423,-66.6666666666667,4,2,2,5,0,0
34497,-66.6666666666667,4,2,2,75,0,0
34646,-62.5,4,2,2,75,0,0
34868,-62.5,4,2,2,5,0,0
34943,-62.5,4,2,2,75,0,0
35166,-62.5,4,2,2,5,0,0
35240,-62.5,4,2,2,75,0,0
35314,-62.5,4,2,2,5,0,0
35388,-62.5,4,2,2,75,0,0
35537,-62.5,4,2,2,75,0,0
35611,-62.5,4,2,2,5,0,0
35685,-62.5,4,2,2,75,0,0
35760,-62.5,4,2,2,5,0,0
35834,-90.9090909090909,4,2,2,75,0,0
36131,-62.5,4,2,2,75,0,0
36428,-76.9230769230769,4,2,2,75,0,0
36873,-62.5,4,2,2,75,0,0
37022,-66.6666666666667,4,2,2,75,0,0
37245,-66.6666666666667,4,2,2,5,0,0
37319,-62.5,4,2,2,75,0,0
37393,-62.5,4,2,2,5,0,0
37467,-62.5,4,2,2,75,0,0
37690,-62.5,4,2,2,5,0,0
37765,-62.5,4,2,2,75,0,0
38210,-66.6666666666667,4,2,2,75,0,0
38433,-66.6666666666667,4,2,2,5,0,0
38507,-66.6666666666667,4,2,2,75,0,0
38730,-66.6666666666667,4,2,2,75,0,0
38878,-66.6666666666667,4,2,2,5,0,0
38953,-66.6666666666667,4,2,2,75,0,0
39027,-66.6666666666667,4,2,2,5,0,0
39101,-66.6666666666667,4,2,2,75,0,0
39175,-66.6666666666667,4,2,2,5,0,0
39250,-66.6666666666667,4,2,2,75,0,0
40289,-76.9230769230769,4,2,2,75,0,0
40586,-500.000000000003,4,2,2,75,0,0
48903,-500.000000000003,4,2,2,55,0,0
49497,-142.857142857143,4,2,2,55,0,0
49943,-142.857142857143,4,2,2,30,0,0
50091,-166.666666666667,4,2,3,55,0,0
50314,-166.666666666667,4,2,3,5,0,0
50388,-166.666666666667,4,2,3,55,0,0
54844,-125,4,2,3,55,0,0
58334,-125,4,2,3,5,0,0
58408,-125,4,2,3,55,0,0
59299,-125,4,2,2,55,0,0
59596,-58.8235294117647,4,2,2,75,0,0
59819,-58.8235294117647,4,2,2,5,0,0
59893,-58.8235294117647,4,2,2,75,0,0
60190,-100,4,2,2,75,0,0
61675,-71.4285714285714,4,2,2,75,0,0
61898,-71.4285714285714,4,2,2,5,0,0
61972,-71.4285714285714,4,2,2,75,0,0
62047,-71.4285714285714,4,2,2,5,0,0
62121,-71.4285714285714,4,2,2,75,0,0
62195,-71.4285714285714,4,2,2,5,0,0
62269,-71.4285714285714,4,2,2,75,0,0
62418,-71.4285714285714,4,2,2,5,0,0
62492,-71.4285714285714,4,2,2,75,0,0
62641,-71.4285714285714,4,2,2,5,0,0
62715,-71.4285714285714,4,2,2,75,0,0
63086,-71.4285714285714,4,2,2,5,0,0
63161,-71.4285714285714,4,2,2,75,0,0
63235,-71.4285714285714,4,2,2,5,0,0
63309,-71.4285714285714,4,2,2,75,0,0
63977,-71.4285714285714,4,2,2,5,0,0
64052,-71.4285714285714,4,2,2,75,0,0
64126,-71.4285714285714,4,2,2,5,0,0
64200,-142.857142857143,4,2,2,75,0,0
64349,-71.4285714285714,4,2,2,75,0,0
64571,-71.4285714285714,4,2,2,5,0,0
64646,-71.4285714285714,4,2,2,75,0,0
64868,-71.4285714285714,4,2,2,5,0,0
64943,-71.4285714285714,4,2,2,75,0,0
65314,-71.4285714285714,4,2,2,5,0,0
65388,-71.4285714285714,4,2,2,75,0,0
65760,-71.4285714285714,4,2,2,5,0,0
65834,-71.4285714285714,4,2,2,75,0,0
66205,-71.4285714285714,4,2,2,5,0,0
66279,-71.4285714285714,4,2,2,75,0,0
66428,-76.9230769230769,4,2,2,75,0,0
66725,-90.9090909090909,4,2,2,75,0,0
67542,-90.9090909090909,4,2,2,5,0,0
67616,-90.9090909090909,4,2,2,75,0,0
67987,-90.9090909090909,4,2,2,5,0,0
68062,-90.9090909090909,4,2,2,75,0,0
68136,-90.9090909090909,4,2,2,5,0,0
68210,-90.9090909090909,4,2,2,75,0,0
69101,-58.8235294117647,4,2,2,75,0,0
69324,-58.8235294117647,4,2,2,5,0,0
69398,-58.8235294117647,4,2,2,75,0,0
69695,-100,4,2,2,75,0,0
71180,-71.4285714285714,4,2,2,75,0,0
71403,-71.4285714285714,4,2,2,5,0,0
71477,-71.4285714285714,4,2,2,75,0,0
71552,-71.4285714285714,4,2,2,5,0,0
71626,-71.4285714285714,4,2,2,75,0,0
71700,-71.4285714285714,4,2,2,5,0,0
71774,-71.4285714285714,4,2,2,75,0,0
71923,-71.4285714285714,4,2,2,5,0,0
71997,-71.4285714285714,4,2,2,75,0,0
72146,-71.4285714285714,4,2,2,5,0,0
72220,-71.4285714285714,4,2,2,75,0,0
72591,-71.4285714285714,4,2,2,5,0,0
72666,-71.4285714285714,4,2,2,75,0,0
72740,-71.4285714285714,4,2,2,5,0,0
72814,-71.4285714285714,4,2,2,75,0,0
73519,-71.4285714285714,4,2,2,5,0,0
73557,-71.4285714285714,4,2,2,75,0,0
73631,-71.4285714285714,4,2,2,5,0,0
73705,-142.857142857143,4,2,2,75,0,0
73854,-71.4285714285714,4,2,2,75,0,0
74373,-71.4285714285714,4,2,2,5,0,0
74448,-71.4285714285714,4,2,2,75,0,0
74819,-71.4285714285714,4,2,2,5,0,0
74893,-71.4285714285714,4,2,2,75,0,0
75265,-71.4285714285714,4,2,2,5,0,0
75339,-71.4285714285714,4,2,2,75,0,0
75710,-71.4285714285714,4,2,2,5,0,0
75784,-71.4285714285714,4,2,2,75,0,0
75933,-76.9230769230769,4,2,2,75,0,0
76230,-90.9090909090909,4,2,2,75,0,0
78532,-90.9090909090909,4,2,2,5,0,0
78606,-90.9090909090909,4,2,2,75,0,0
87740,-90.9090909090909,4,2,2,5,0,0
87814,-250,4,2,2,75,0,0
88037,-250,4,2,2,5,0,0
88111,-62.5,4,2,2,75,0,0
88334,-62.5,4,2,2,5,0,0
88408,-62.5,4,2,2,75,0,0
88557,-90.9090909090909,4,2,2,75,0,0
88779,-90.9090909090909,4,2,2,5,0,0
88854,-66.6666666666667,4,2,2,75,0,0
88928,-66.6666666666667,4,2,2,5,0,0
89002,-66.6666666666667,4,2,2,75,0,0
89076,-66.6666666666667,4,2,2,5,0,0
89151,-66.6666666666667,4,2,2,75,0,0
89225,-66.6666666666667,4,2,2,5,0,0
89299,-66.6666666666667,4,2,2,75,0,0
89411,-62.5,4,2,2,5,0,0
89448,-62.5,4,2,2,75,0,0
89745,-90.9090909090909,4,2,2,75,0,0
89967,-90.9090909090909,4,2,2,5,0,0
90042,-90.9090909090909,4,2,2,75,0,0
90191,-66.6666666666667,4,2,2,75,0,0
90265,-66.6666666666667,4,2,2,5,0,0
90339,-66.6666666666667,4,2,2,75,0,0
90413,-66.6666666666667,4,2,2,5,0,0
90487,-66.6666666666667,4,2,2,75,0,0
90933,-111.111111111111,4,2,2,75,0,0
91156,-111.111111111111,4,2,2,5,0,0
91230,-111.111111111111,4,2,2,75,0,0
91231,-66.6666666666667,4,2,2,75,0,0
91677,-62.5,4,2,2,75,0,0
92789,-62.5,4,2,2,5,0,0
92864,-111.111111111111,4,2,2,75,0,0
93161,-111.111111111111,4,2,2,55,0,0
95314,-66.6666666666667,4,2,2,55,0,0
95463,-66.6666666666667,4,2,2,5,0,0
95537,-66.6666666666667,4,2,2,55,0,0
95685,-66.6666666666667,4,2,2,5,0,0
95760,-66.6666666666667,4,2,2,55,0,0
95908,-66.6666666666667,4,2,2,5,0,0
95982,-66.6666666666667,4,2,2,35,0,0
95983,-66.6666666666667,4,2,2,35,0,0
96057,-66.6666666666667,4,2,2,5,0,0
96131,-66.6666666666667,4,2,2,50,0,0
96205,-66.6666666666667,4,2,2,5,0,0
96279,-66.6666666666667,4,2,2,65,0,0
96354,-66.6666666666667,4,2,2,5,0,0
96428,-66.6666666666667,4,2,2,55,0,0
97022,-66.6666666666667,4,2,2,75,0,0
97616,-62.5,4,2,2,75,0,0
97839,-62.5,4,2,2,5,0,0
97913,-62.5,4,2,2,75,0,0
97987,-62.5,4,2,2,5,0,0
98062,-66.6666666666667,4,2,2,75,0,0
98953,-66.6666666666667,4,2,2,75,0,0
99250,-66.6666666666667,4,2,2,75,0,0
99992,-71.4285714285714,4,2,2,75,0,0
100289,-66.6666666666667,4,2,2,75,0,0
100364,-66.6666666666667,4,2,2,5,0,0
100438,-66.6666666666667,4,2,2,75,0,0
101255,-66.6666666666667,4,2,2,5,0,0
101329,-66.6666666666667,4,2,2,75,0,0
101552,-66.6666666666667,4,2,2,5,0,0
101626,-66.6666666666667,4,2,2,75,0,0
102666,-66.6666666666667,4,2,2,75,0,0
103705,-66.6666666666667,4,2,2,75,0,0
104745,-62.5,4,2,2,75,0,0
104893,-62.5,4,2,2,5,0,0
104967,-62.5,4,2,2,75,0,0
105116,-62.5,4,2,2,5,0,0
105190,-62.5,4,2,2,75,0,0
105339,-62.5,4,2,2,5,0,0
105413,-62.5,4,2,2,75,0,0
105562,-62.5,4,2,2,5,0,0
105636,-62.5,4,2,2,75,0,0
105784,-62.5,4,2,2,5,0,0
105859,-62.5,4,2,2,75,0,0
105933,-83.3333333333333,4,2,2,75,0,0
106007,-83.3333333333333,4,2,2,5,0,0
106081,-83.3333333333333,4,2,2,75,0,0
106304,-83.3333333333333,4,2,2,5,0,0
106378,-83.3333333333333,4,2,2,75,0,0
106601,-83.3333333333333,4,2,2,5,0,0
106675,-83.3333333333333,4,2,2,75,0,0
106824,-66.6666666666667,4,2,2,75,0,0
107567,-66.6666666666667,4,2,2,65,0,0
107641,-66.6666666666667,4,2,2,5,0,0
107715,-66.6666666666667,4,2,2,65,0,0
108012,-66.6666666666667,4,2,2,75,0,0
108383,-66.6666666666667,4,2,2,5,0,0
108458,-66.6666666666667,4,2,2,75,0,0
108680,-66.6666666666667,4,2,2,5,0,0
108755,-66.6666666666667,4,2,2,75,0,0
110537,-125,4,2,2,75,0,0
110834,-66.6666666666667,4,2,2,75,0,0
110908,-66.6666666666667,4,2,2,5,0,0
110982,-66.6666666666667,4,2,2,75,0,0
112170,-66.6666666666667,4,2,2,75,0,0
113656,-66.6666666666667,4,2,2,65,0,0
114250,-66.6666666666667,4,2,2,75,0,0
114472,-66.6666666666667,4,2,2,5,0,0
114547,-66.6666666666667,4,2,2,75,0,0
114695,-66.6666666666667,4,2,2,5,0,0
114769,-66.6666666666667,4,2,2,75,0,0
114918,-66.6666666666667,4,2,2,5,0,0
114992,-66.6666666666667,4,2,2,75,0,0
116552,-66.6666666666667,4,2,2,5,0,0
116626,-66.6666666666667,4,2,2,75,0,0
117554,-66.6666666666667,4,2,2,5,0,0
117814,-76.9230769230769,4,2,2,75,0,0
118111,-62.5,4,2,2,75,0,0
118408,-90.9090909090909,4,2,2,75,0,0
120191,-66.6666666666667,4,2,2,75,0,0
120302,-66.6666666666667,4,2,2,5,0,0
120339,-66.6666666666667,4,2,2,75,0,0
120413,-66.6666666666667,4,2,2,5,0,0
120487,-66.6666666666667,4,2,2,75,0,0
120562,-66.6666666666667,4,2,2,5,0,0
120636,-66.6666666666667,4,2,2,75,0,0
121081,-66.6666666666667,4,2,2,75,0,0
121156,-66.6666666666667,4,2,2,5,0,0
121230,-66.6666666666667,4,2,2,75,0,0
121490,-62.5,4,2,2,5,0,0
121527,-62.5,4,2,2,75,0,0
121750,-62.5,4,2,2,5,0,0
121824,-62.5,4,2,2,75,0,0
122567,-76.9230769230769,4,2,2,75,0,0
122789,-76.9230769230769,4,2,2,5,0,0
122864,-62.5,4,2,2,75,0,0
123086,-62.5,4,2,2,5,0,0
123161,-62.5,4,2,2,75,0,0
123235,-62.5,4,2,2,5,0,0
123309,-62.5,4,2,2,75,0,0
123383,-62.5,4,2,2,5,0,0
123458,-62.5,4,2,2,75,0,0
123532,-62.5,4,2,2,5,0,0
123606,-62.5,4,2,2,75,0,0
124052,-62.5,4,2,2,75,0,0
124274,-62.5,4,2,2,5,0,0
124349,-62.5,4,2,2,75,0,0
124943,-66.6666666666667,4,2,2,75,0,0
125908,-66.6666666666667,4,2,2,5,0,0
125982,-66.6666666666667,4,2,2,75,0,0
126725,-66.6666666666667,4,2,2,75,0,0
126799,-66.6666666666667,4,2,2,5,0,0
126873,-66.6666666666667,4,2,2,75,0,0
127096,-76.9230769230769,4,2,2,5,0,0
127170,-76.9230769230769,4,2,2,75,0,0
127245,-76.9230769230769,4,2,2,5,0,0
127319,-142.857142857143,4,2,2,55,0,0
127542,-142.857142857143,4,2,2,5,0,0
127616,-58.8235294117647,4,2,2,75,0,0
127727,-58.8235294117647,4,2,2,5,0,0
127765,-58.8235294117647,4,2,2,75,0,0
127839,-58.8235294117647,4,2,2,5,0,0
127913,-90.9090909090909,4,2,2,75,0,0
129696,-66.6666666666667,4,2,2,75,0,0
129807,-66.6666666666667,4,2,2,5,0,0
129844,-66.6666666666667,4,2,2,75,0,0
130067,-66.6666666666667,4,2,2,5,0,0
130141,-66.6666666666667,4,2,2,75,0,0
130438,-66.6666666666667,4,2,2,75,0,0
131180,-83.3333333333333,4,2,2,75,0,0
131292,-83.3333333333333,4,2,2,5,0,0
131329,-62.5,4,2,2,75,0,0
132072,-90.9090909090909,4,2,2,75,0,0
132294,-90.9090909090909,4,2,2,5,0,0
132368,-90.9090909090909,4,2,2,75,0,0
132369,-62.5,4,2,2,75,0,0
132666,-76.9230769230769,4,2,2,75,0,0
132888,-76.9230769230769,4,2,2,5,0,0
132963,-76.9230769230769,4,2,2,75,0,0
133111,-62.5,4,2,2,75,0,0
133185,-62.5,4,2,2,5,0,0
133260,-62.5,4,2,2,75,0,0
133557,-62.5,4,2,2,75,0,0
133779,-62.5,4,2,2,5,0,0
133854,-62.5,4,2,2,75,0,0
134448,-58.8235294117647,4,2,2,75,0,0
135636,-142.857142857143,4,2,2,75,0,0
136081,-62.5,4,2,2,75,0,0
136972,-62.5,4,2,2,45,0,0
140982,333.333333333333,4,2,2,45,1,0
141482,389.61038961039,4,2,2,45,1,0

[Colours]
Combo1 : 26,140,255
Combo2 : 128,191,255
Combo3 : 192,192,192
Combo4 : 255,128,255
Combo5 : 188,121,255

[HitObjects]
256,192,9695,12,0,11700,0:0:0:0:
40,353,11774,5,0,1:0:0:0:
151,135,12071,6,0,B|243:145|243:145|248:150|248:150|356:164,2,200,4|0|8,1:2|0:0|0:0,0:0:0:0:
393,236,12517,2,0,B|423:267|423:267|304:283|304:283|325:246,1,206.250006294251,4|0,1:2|0:0,0:0:0:0:
419,123,12814,2,0,B|421:95|438:80|438:80|422:96|382:100,1,93.7500035762788,8|0,0:3|0:0,0:0:0:0:
206,112,12963,2,0,P|172:74|183:18,1,93.7500035762788,4|0,0:3|0:0,0:0:0:0:
266,2,13111,2,0,P|300:40|288:95,1,93.7500035762788,2|0,0:0|0:0,0:0:0:0:
245,229,13260,6,0,P|155:187|56:190,2,200,4|0|0,1:2|0:0|0:0,0:0:0:0:
302,288,13705,2,0,B|266:328|269:385|269:385|262:328|206:297,1,206.250006294251,4|0,1:2|0:0,0:0:0:0:
190,176,14002,1,2,0:0:0:0:
193,167,14076,1,0,0:0:0:0:
198,159,14151,2,0,P|241:193|216:270,1,93.7500035762788,8|0,0:0|0:0,0:0:0:0:
132,331,14299,2,0,P|93:305|84:260,1,93.7500035762788,0|0,1:0|0:0,0:0:0:0:
144,60,14448,6,0,B|185:81|179:128|179:128|156:273,2,200,4|0|8,1:2|0:0|0:0,0:0:0:0:
216,303,14893,2,0,P|297:246|396:247,2,200,4|0|2,1:2|0:0|0:0,0:0:0:0:
415,328,15265,1,4,0:3:0:0:
422,335,15339,2,0,P|466:311|472:253,1,93.7500035762788,8|0,0:3|0:0,0:0:0:0:
306,130,15487,1,4,0:3:0:0:
315,171,15562,1,4,0:3:0:0:
323,214,15636,1,4,1:2:0:0:
256,192,15710,12,0,16750,0:0:0:0:
81,82,16824,5,4,0:0:0:0:
75,97,16972,1,0,0:0:0:0:
131,189,17121,1,2,0:0:0:0:
127,181,17195,1,0,0:0:0:0:
124,174,17269,1,0,0:0:0:0:
41,264,17418,2,0,B|92:269|92:269|102:277|102:277|161:284,1,112.499996566773,2|0,0:0|0:0,0:0:0:0:
242,341,17715,1,2,0:0:0:0:
236,344,17789,1,0,0:0:0:0:
231,347,17864,1,2,0:0:0:0:
226,350,17938,1,0,0:0:0:0:
221,352,18012,5,2,0:0:0:0:
317,293,18161,1,2,0:0:0:0:
398,351,18309,1,0,0:0:0:0:
415,343,18383,1,0,0:0:0:0:
430,337,18458,1,2,0:0:0:0:
448,226,18606,2,0,B|442:275|442:275|437:282|437:282|430:337,1,112.499996566773,0|0,0:0|0:0,0:0:0:0:
451,132,18903,1,0,1:0:0:0:
456,129,18977,1,0,0:0:0:0:
461,126,19052,1,0,0:0:0:0:
466,123,19126,1,0,0:0:0:0:
471,120,19200,1,0,1:0:0:0:
475,116,19274,6,0,P|393:119|363:224,1,187.500007152558,8|0,0:0|0:0,0:0:0:0:
322,62,19497,6,0,P|372:133|477:112,1,187.500007152558,8|0,0:0|0:0,0:0:0:0:
357,207,19720,6,0,P|388:132|309:60,1,187.500007152558,8|0,0:0|0:0,0:0:0:0:
251,180,19943,6,0,B|264:160|285:150|285:150|263:159|228:154,1,93.7500035762788,8|0,0:0|0:0,0:0:0:0:
404,0,20091,6,0,B|414:21|412:44|412:44|416:20|438:-6,1,93.7500035762788,8|0,0:0|0:0,0:0:0:0:
489,211,20240,6,0,B|465:209|446:196|446:196|464:211|477:243,1,93.7500035762788,8|0,0:0|0:0,0:0:0:0:
379,129,20388,5,4,1:2:0:0:
32,106,21576,2,0,B|254:58|254:58|196:86|198:160,1,318.750006079674,6|0,1:2|0:0,0:0:0:0:
197,208,21873,2,0,B|208:239|179:258|179:258|162:230|192:204,1,118.749996829033
277,173,22022,2,0,P|328:187|356:256,1,118.749996829033,0|0,0:0|0:0,0:0:0:0:
399,339,22170,6,0,P|424:317|429:283,1,68.7500020980836,8|0,0:0|0:0,0:0:0:0:
415,155,22319,5,0,0:0:0:0:
380,158,22393,1,0,0:0:0:0:
348,162,22467,1,0,0:0:0:0:
310,166,22542,1,0,0:0:0:0:
277,173,22616,5,0,1:0:0:0:
280,181,22690,1,0,1:0:0:0:
283,188,22765,2,0,L|356:202,1,68.7500020980836,0|2,1:0|0:0,0:0:0:0:
509,263,22913,5,2,0:0:0:0:
506,271,22987,1,2,0:0:0:0:
503,278,23062,2,0,L|430:292,1,68.7500020980836,2|2,1:2|0:0,0:0:0:0:
261,320,23210,5,2,0:0:0:0:
264,328,23284,1,2,0:0:0:0:
267,335,23359,2,0,L|334:347,1,68.7500020980836,8|0,0:0|0:0,0:0:0:0:
193,254,23507,1,2,0:0:0:0:
163,236,23581,1,2,0:0:0:0:
129,247,23656,1,2,0:0:0:0:
108,274,23730,1,2,0:0:0:0:
107,308,23804,1,2,0:0:0:0:
126,338,23878,1,2,0:0:0:0:
153,349,23953,6,0,B|197:340|197:340|203:344|203:344|247:334,1,93.7500035762788,0|0,1:0|0:0,0:0:0:0:
410,318,24101,2,0,P|386:279|342:271,1,93.7500035762788,2|0,0:1|0:0,0:0:0:0:
348,181,24250,2,0,P|394:178|425:144,1,93.7500035762788,2|0,0:0|0:0,0:0:0:0:
505,200,24398,2,0,P|482:240|498:283,1,93.7500035762788,2|0,0:0|0:0,0:0:0:0:
497,74,24547,2,0,B|419:61|419:61|406:65|406:65|312:50,1,187.500007152558,8|0,0:0|0:0,0:0:0:0:
215,96,24769,1,0,0:0:0:0:
233,104,24844,2,0,P|215:63|172:48,1,93.7500035762788,0|0,1:0|0:0,0:0:0:0:
71,85,24992,2,0,B|54:69|69:42|69:42|94:58|85:83,1,93.7500035762788,0|0,1:0|0:0,0:0:0:0:
91,256,25141,6,0,B|42:284|33:334|33:334|40:285|-6:225,1,200,0|2,1:0|0:1,0:0:0:0:
61,181,25364,1,0,0:0:0:0:
71,171,25438,2,0,B|118:162|118:162|124:165|124:165|183:155,1,100,2|0,1:2|0:0,0:0:0:0:
276,283,25586,2,0,P|240:242|170:253,1,100,2|0,0:0|0:0,0:0:0:0:
162,340,25735,2,0,P|235:304|361:303,1,200,8|0,0:0|0:0,0:0:0:0:
350,226,25958,1,0,0:0:0:0:
337,220,26032,2,0,P|288:241|277:291,1,100,2|0,0:1|0:0,0:0:0:0:
366,384,26180,2,0,P|415:363|425:312,1,100,2|0,0:1|0:0,0:0:0:0:
332,77,26329,6,0,B|377:92|374:143|374:143|348:320,1,243.749988842011,4|0,1:2|0:0,0:0:0:0:
475,239,26626,2,0,P|453:194|389:191,1,100,0|0,0:0|0:0,0:0:0:0:
223,228,26774,2,0,P|176:216|155:172,1,100,0|0,0:0|0:0,0:0:0:0:
147,55,26923,2,0,P|119:72|111:105,1,68.7500020980836,8|0,0:0|0:0,0:0:0:0:
233,154,27071,2,0,B|329:139,1,81.2499962806703,2|0,0:0|0:0,0:0:0:0:
300,70,27220,2,0,B|219:82,1,81.2499962806703,2|0,0:0|0:0,0:0:0:0:
54,69,27368,1,0,1:0:0:0:
43,59,27443,1,0,1:0:0:0:
32,48,27517,6,0,B|45:134|45:134|40:142|40:142|56:244,1,200,2|0,1:0|0:0,0:0:0:0:
66,251,27740,1,0,0:0:0:0:
79,258,27814,2,0,B|40:285|31:341|31:341|33:282|0:248,1,200,2|0,1:0|0:0,0:0:0:0:
310,321,28111,6,0,B|271:283|221:308|221:308|193:359|129:354,1,200,10|0,0:0|0:0,0:0:0:0:
133,344,28334,1,0,0:0:0:0:
130,334,28408,2,0,P|226:331|329:362,1,200,2|0,0:1|0:0,0:0:0:0:
256,197,28705,5,0,1:0:0:0:
243,192,28779,1,0,0:0:0:0:
229,188,28854,2,0,P|188:208|173:251,1,93.7500035762788,2|0,0:2|0:0,0:0:0:0:
309,131,29002,2,0,P|310:83|279:50,1,93.7500035762788,2|0,0:0|0:0,0:0:0:0:
53,77,29151,1,2,0:0:0:0:
47,82,29225,1,2,0:0:0:0:
42,87,29299,6,0,B|68:126|111:120|111:120|215:105,1,187.500007152558,8|0,0:0|0:0,0:0:0:0:
359,74,29522,1,0,0:0:0:0:
372,66,29596,2,0,B|326:57|326:57|321:59|321:59|277:50,1,93.7500035762788,0|0,1:0|0:0,0:0:0:0:
124,150,29745,2,0,B|169:141|169:141|175:143|175:143|219:134,1,93.7500035762788,0|0,1:0|0:0,0:0:0:0:
357,174,29893,6,0,P|313:166|277:202,1,93.7500035762788,0|0,1:0|0:0,0:0:0:0:
324,319,30042,1,2,0:0:0:0:
328,327,30116,1,2,0:0:0:0:
333,337,30190,2,0,B|352:332|352:300|352:300|346:252,1,93.7500035762788,0|0,1:0|0:0,0:0:0:0:
475,315,30339,1,0,0:0:0:0:
485,325,30413,1,0,0:0:0:0:
493,334,30487,6,0,P|465:367|391:338,1,93.7500035762788,4|0,0:3|0:0,0:0:0:0:
240,310,30636,1,8,0:3:0:0:
225,292,30710,1,8,0:3:0:0:
208,277,30784,6,0,P|162:275|135:302,1,81.2499962806703,8|0,0:0|0:0,0:0:0:0:
44,377,30933,2,0,B|54:336|54:336|52:330|52:330|59:298,1,81.2499962806703,4|0,0:3|0:0,0:0:0:0:
0,240,31081,2,0,L|38:390,1,131.249995994568
136,138,31378,6,0,B|188:87|188:87|17:54|17:54|47:119,1,318.750006079674,4|0,1:2|0:0,0:0:0:0:
173,211,31675,2,0,P|213:213|242:183,1,68.7500020980836,8|0,0:0|0:0,0:0:0:0:
316,25,31824,5,0,0:0:0:0:
319,62,31898,1,0,0:0:0:0:
324,97,31972,1,0,0:0:0:0:
328,137,32047,1,0,0:0:0:0:
336,172,32121,5,0,1:0:0:0:
341,176,32195,1,0,1:0:0:0:
346,180,32269,2,0,B|354:109,1,68.7500020980836,0|2,1:0|0:0,0:0:0:0:
463,262,32418,5,2,0:0:0:0:
458,266,32492,1,2,0:0:0:0:
453,270,32566,2,0,B|445:199,1,68.7500020980836,2|2,1:2|0:0,0:0:0:0:
326,338,32715,5,2,0:0:0:0:
331,342,32789,1,2,0:0:0:0:
336,346,32863,2,0,B|344:275,1,68.7500020980836,10|2,0:0|0:0,0:0:0:0:
224,202,33012,1,2,0:0:0:0:
227,227,33086,1,2,0:0:0:0:
231,252,33160,1,2,0:0:0:0:
235,279,33234,1,2,0:0:0:0:
239,304,33309,1,2,0:0:0:0:
244,329,33383,1,2,0:0:0:0:
250,354,33458,6,0,B|211:342|211:342|201:344|201:344|134:325,1,93.7500035762788,0|0,1:0|0:0,0:0:0:0:
48,267,33606,2,0,B|87:255|87:255|97:257|97:257|164:238,1,93.7500035762788,2|0,0:1|0:0,0:0:0:0:
112,87,33755,2,0,P|80:128|93:175,1,93.7500035762788,2|0,0:0|0:0,0:0:0:0:
224,201,33903,2,0,P|255:159|242:112,1,93.7500035762788,2|0,0:0|0:0,0:0:0:0:
214,16,34052,2,0,P|247:21|271:46,1,68.7500020980836,8|0,0:0|0:0,0:0:0:0:
331,169,34200,1,0,0:0:0:0:
335,159,34274,1,0,0:0:0:0:
336,150,34349,2,0,B|355:170|381:166|381:166|435:147,1,93.7500035762788,0|0,1:0|0:0,0:0:0:0:
496,64,34497,1,0,1:0:0:0:
504,47,34571,1,0,0:0:0:0:
512,30,34646,6,0,L|497:148,1,100,12|0,0:0|0:0,0:0:0:0:
435,250,34794,2,0,L|422:150,1,100,0|0,0:0|0:0,0:0:0:0:
511,277,34943,2,0,P|491:321|444:333,1,100,2|0,1:2|0:0,0:0:0:0:
278,266,35091,2,0,P|231:278|208:321,1,100,2|0,0:0|0:0,0:0:0:0:
354,361,35240,2,0,P|320:259|333:146,1,200,12|0,0:0|0:0,0:0:0:0:
220,195,35463,1,0,0:0:0:0:
208,210,35537,2,0,P|230:253|277:265,1,100,2|0,1:2|0:0,0:0:0:0:
229,62,35685,2,0,P|180:83|170:134,1,100,2|0,0:0|0:0,0:0:0:0:
421,212,35834,6,0,B|413:167|369:157|369:157|209:134,1,206.250006294251,2|0,1:2|0:0,0:0:0:0:
159,110,36131,1,8,0:0:0:0:
151,101,36205,1,8,0:0:0:0:
144,92,36279,2,0,P|175:61|259:95,1,100,0|0,1:0|1:0,0:0:0:0:
28,208,36428,6,0,B|56:172|47:132|47:132|53:171|110:205,1,162.499992561341,12|0,0:0|0:0,0:0:0:0:
151,316,36651,2,0,B|110:340|103:379|103:379|112:339|84:303,1,162.499992561341,12|0,0:0|0:0,0:0:0:0:
202,234,36873,2,0,P|250:232|280:270,1,100,12|0,0:0|0:0,0:0:0:0:
207,378,37022,6,0,B|331:352|331:352|360:364|360:364|505:334,1,281.250010728836,4|0,1:2|0:0,0:0:0:0:
480,339,37319,2,0,B|440:333|440:333|433:336|433:336|381:329,1,100,2|0,1:2|0:0,0:0:0:0:
192,221,37467,2,0,B|232:215|232:215|239:218|239:218|290:211,1,100
490,326,37616,2,0,B|450:320|450:320|443:323|443:323|391:316,1,100,10|0,0:0|0:0,0:0:0:0:
202,234,37764,2,0,B|242:228|242:228|249:231|249:231|300:224,1,100
459,153,37913,2,0,P|373:141|367:20,1,200,2|0,0:0|0:0,0:0:0:0:
495,71,38210,5,4,1:2:0:0:
499,61,38284,2,0,P|482:18|440:1,2,93.7500035762788,8|0|0,0:0|0:0|0:0,0:0:0:0:
351,42,38507,2,0,P|266:49|153:100,1,187.500007152558,8|0,0:0|0:0,0:0:0:0:
129,29,38730,1,8,0:0:0:0:
116,34,38804,2,0,P|85:78|111:131,1,93.7500035762788,0|0,0:0|0:0,0:0:0:0:
165,215,38953,2,0,P|171:260|142:295,1,93.7500035762788,8|0,0:0|0:0,0:0:0:0:
10,224,39101,2,0,P|41:191|103:213,1,93.7500035762788,8|0,1:2|0:0,0:0:0:0:
182,374,39250,1,8,0:0:0:0:
182,374,39324,1,8,0:0:0:0:
182,374,39398,1,0,1:0:0:0:
413,110,40586,5,4,1:2:0:0:
206,75,50091,6,0,P|240:48|297:53,2,74.9999977111817,6|0|0,1:2|0:0|0:0,0:0:0:0:
257,138,50537,2,0,P|300:142|336:186,2,74.9999977111817,2|0|0,0:0|0:0|0:0,0:0:0:0:
242,215,50982,2,0,P|269:248|264:306,2,74.9999977111817,2|0|0,0:0|0:0|0:0,0:0:0:0:
177,265,51428,2,0,P|172:308|128:344,2,74.9999977111817,2|0|0,0:0|0:0|0:0,0:0:0:0:
104,228,51873,1,2,0:0:0:0:
79,250,52022,1,2,0:0:0:0:
48,260,52170,1,2,0:0:0:0:
15,255,52319,1,2,0:0:0:0:
96,136,52467,6,0,L|189:152,2,74.9999977111817,2|0|0,0:0|0:0|0:0,0:0:0:0:
151,74,52913,2,0,L|205:151,2,74.9999977111817,2|0|0,0:0|0:0|0:0,0:0:0:0:
234,68,53359,2,0,L|217:161,2,74.9999977111817,2|0|0,0:0|0:0|0:0,0:0:0:0:
304,114,53804,2,0,L|226:168,1,74.9999977111817,2|0,0:0|0:0,0:0:0:0:
166,276,54101,5,2,0:0:0:0:
166,276,54175,1,2,0:0:0:0:
166,276,54250,1,2,0:0:0:0:
235,230,54399,1,2,0:0:0:0:
242,250,54548,1,2,0:0:0:0:
312,291,54696,1,2,0:0:0:0:
388,267,54844,6,0,B|437:274|437:274|444:273|444:273|498:283,2,100,2|0|0,0:0|0:0|0:0,0:0:0:0:
310,371,55289,2,0,B|262:378|262:378|255:377|255:377|201:386,2,100,2|0|0,0:0|0:0|0:0,0:0:0:0:
201,295,55735,1,2,0:0:0:0:
112,342,55883,2,0,P|74:310|101:235,1,100,2|0,0:0|0:0,0:0:0:0:
175,184,56180,2,0,P|179:129|141:94,1,100,0|0,0:0|0:0,0:0:0:0:
0,151,56477,1,0,0:0:0:0:
27,176,56626,1,0,0:0:0:0:
63,181,56773,1,0,0:0:0:0:
96,165,56923,1,0,0:0:0:0:
175,184,57072,1,0,0:0:0:0:
275,119,57220,1,2,0:0:0:0:
256,192,57294,12,0,58334,0:0:0:0:
78,78,58408,5,0,1:0:0:0:
5,125,59299,6,0,P|30:83|78:77,1,100,2|0,0:0|0:0,0:0:0:0:
109,290,59596,6,0,B|150:275|153:237|153:237|160:71,1,212.500004053116,4|0,1:2|0:0,0:0:0:0:
291,134,59893,5,2,1:2:0:0:
302,144,59967,1,2,0:0:0:0:
308,158,60041,1,2,0:0:0:0:
304,171,60115,1,2,0:0:0:0:
296,183,60190,2,0,L|201:203,1,62.5,10|2,0:0|0:0,0:0:0:0:
446,298,60339,1,2,1:2:0:0:
457,288,60413,1,2,0:0:0:0:
463,274,60487,1,2,0:0:0:0:
459,261,60561,1,2,0:0:0:0:
451,249,60636,2,0,L|356:228,1,62.5,10|2,0:0|0:0,0:0:0:0:
243,326,60784,5,2,1:2:0:0:
253,337,60858,1,2,0:0:0:0:
267,343,60932,1,2,0:0:0:0:
280,339,61006,1,2,0:0:0:0:
292,331,61081,2,0,L|312:236,1,62.5,10|2,0:0|0:0,0:0:0:0:
430,141,61230,1,2,1:2:0:0:
420,152,61304,1,2,0:0:0:0:
406,158,61378,1,2,0:0:0:0:
393,154,61452,1,2,0:0:0:0:
381,146,61527,2,0,L|360:51,1,62.5,10|2,0:0|0:0,0:0:0:0:
222,152,61675,6,0,B|264:162|264:162|266:168|266:168|307:177,1,87.499997329712,4|0,1:2|0:0,0:0:0:0:
300,38,61824,2,0,B|258:48|258:48|256:54|256:54|215:63,1,87.499997329712,0|0,0:0|0:0,0:0:0:0:
139,184,61972,2,0,P|96:179|68:147,1,87.499997329712,2|0,1:1|0:0,0:0:0:0:
65,66,62121,2,0,B|86:57|93:32|93:32|87:56|107:88,1,87.499997329712,2|0,0:1|0:0,0:0:0:0:
83,227,62269,6,0,B|40:246|30:290|30:290|38:247|-1:183,1,174.999994659424,8|0,0:0|0:0,0:0:0:0:
149,315,62492,2,0,P|51:316|0:369,1,174.999994659424,8|0,0:0|0:0,0:0:0:0:
151,337,62715,1,0,1:0:0:0:
231,208,62864,2,0,B|242:291|242:291|238:300|238:300|249:385,1,174.999994659424,8|0,0:0|0:0,0:0:0:0:
340,322,63161,2,0,P|312:291|262:290,1,87.499997329712,0|0,1:0|0:0,0:0:0:0:
423,376,63309,2,0,P|465:372|494:341,1,87.499997329712,0|0,0:0|0:0,0:0:0:0:
409,197,63458,1,8,0:0:0:0:
407,269,63606,2,0,B|411:230|411:230|415:224|415:224|418:182,1,87.499997329712,0|0,0:0|0:0,0:0:0:0:
512,71,63755,5,0,0:0:0:0:
487,62,63829,1,8,0:0:0:0:
462,54,63903,2,0,B|489:88|489:88|473:140,1,87.499997329712,0|0,1:0|0:0,0:0:0:0:
334,170,64052,2,0,B|307:136|307:136|322:83,1,87.499997329712,10|0,0:0|0:0,0:0:0:0:
338,109,64200,2,0,L|346:167,1,43.749998664856,2|0,0:0|0:0,0:0:0:0:
175,220,64349,2,0,B|289:251|289:251|265:236|259:206,1,174.999994659424,4|0,1:2|0:0,0:0:0:0:
141,106,64646,6,0,B|153:218|153:218|164:232|164:232|179:365,1,262.499991989136,4|0,1:2|0:0,0:0:0:0:
189,353,64943,1,8,0:0:0:0:
483,283,65091,6,0,B|423:309|344:259|409:230|332:171|258:204,1,262.499991989136,4|0,1:2|0:0,0:0:0:0:
262,221,65388,1,8,0:0:0:0:
87,301,65537,6,0,P|-14:305|58:234,1,262.499991989136,4|0,1:2|0:0,0:0:0:0:
72,220,65834,1,8,0:0:0:0:
178,363,65982,6,0,P|283:286|430:299,1,262.499991989136,4|0,1:2|0:0,0:0:0:0:
401,303,66279,1,8,0:0:0:0:
370,197,66428,2,0,P|339:218|341:283,1,81.2499962806703,0|0,1:0|0:0,0:0:0:0:
472,339,66576,2,0,P|503:314|510:275,1,81.2499962806703,2|0,0:0|0:0,0:0:0:0:
500,138,66725,5,0,1:0:0:0:
401,303,66873,1,2,0:0:0:0:
138,210,67022,2,0,B|204:196|204:196|211:190|211:190|272:178,1,137.500004196167,2|0,0:0|0:0,0:0:0:0:
74,153,67319,6,0,B|45:116|45:116|27:239|27:239|57:222,1,206.250006294251,10|0,0:0|0:0,0:0:0:0:
62,240,67616,1,2,1:2:0:0:
179,122,67765,1,2,1:2:0:0:
188,310,67913,6,0,L|107:292,1,68.7500020980836,2|0,1:2|0:0,0:0:0:0:
18,384,68062,2,0,L|85:369,1,68.7500020980836,2|0,1:2|0:0,0:0:0:0:
283,259,68210,1,0,1:0:0:0:
268,246,68284,2,0,B|277:309|277:309|282:316|282:316|297:413,1,137.500004196167,0|0,0:0|1:0,0:0:0:0:
421,307,68507,2,0,P|400:284|364:277,1,68.7500020980836,8|0,0:0|0:0,0:0:0:0:
204,352,68656,1,0,1:0:0:0:
195,329,68730,1,0,0:0:0:0:
188,310,68804,1,0,1:0:0:0:
370,379,68953,1,0,0:0:0:0:
479,224,69101,6,0,B|255:247,1,212.500004053116,0|0,1:0|0:0,0:0:0:0:
91,357,69398,1,6,1:2:0:0:
80,350,69472,1,2,0:0:0:0:
70,344,69547,1,2,0:0:0:0:
59,338,69621,1,2,0:0:0:0:
51,334,69695,2,0,L|117:347,1,62.5,10|2,0:0|0:0,0:0:0:0:
227,268,69844,5,2,1:2:0:0:
238,261,69918,1,2,0:0:0:0:
248,255,69993,1,2,0:0:0:0:
259,249,70067,1,2,0:0:0:0:
267,245,70141,2,0,L|200:258,1,62.5,10|2,0:0|0:0,0:0:0:0:
94,166,70289,5,2,1:2:0:0:
83,159,70363,1,2,0:0:0:0:
73,153,70438,1,2,0:0:0:0:
62,147,70512,1,2,0:0:0:0:
54,143,70586,2,0,L|120:156,1,62.5,10|2,0:0|0:0,0:0:0:0:
235,82,70735,5,2,1:2:0:0:
246,75,70809,1,2,0:0:0:0:
256,69,70884,1,2,0:0:0:0:
267,63,70958,1,2,0:0:0:0:
275,59,71032,2,0,L|208:72,1,62.5,10|2,0:0|0:0,0:0:0:0:
336,156,71180,2,0,P|367:123|350:66,1,87.499997329712,4|0,1:2|0:0,0:0:0:0:
275,59,71329,2,0,P|244:92|261:149,1,87.499997329712,0|0,0:0|0:0,0:0:0:0:
349,239,71477,2,0,B|311:230|311:230|302:234|302:234|239:219,1,87.499997329712,2|0,1:1|0:0,0:0:0:0:
154,327,71626,2,0,B|191:318|191:318|200:322|200:322|263:307,1,87.499997329712,2|0,0:1|0:0,0:0:0:0:
429,384,71774,6,0,P|374:318|302:354,1,174.999994659424,8|0,0:0|0:0,0:0:0:0:
194,357,71997,2,0,B|201:310|168:273|168:273|201:310|239:314,1,174.999994659424,8|0,0:0|0:0,0:0:0:0:
81,260,72220,1,0,1:0:0:0:
264,225,72369,2,0,B|187:237|187:237|170:230|170:230|87:243,1,174.999994659424,8|0,0:0|0:0,0:0:0:0:
0,330,72666,2,0,L|86:344,1,87.499997329712,0|0,1:0|0:0,0:0:0:0:
187,211,72814,2,0,L|100:225,1,87.499997329712,0|0,0:0|0:0,0:0:0:0:
238,313,72963,1,8,0:0:0:0:
344,223,73111,2,0,P|338:180|305:153,1,87.499997329712,0|0,0:0|0:0,0:0:0:0:
160,77,73260,5,0,0:0:0:0:
153,100,73334,1,8,0:0:0:0:
148,122,73408,2,0,B|271:87,1,87.499997329712,0|0,1:0|0:0,0:0:0:0:
57,177,73557,2,0,B|28:145|28:145|44:89,1,87.499997329712,10|0,0:0|0:0,0:0:0:0:
56,117,73705,2,0,L|68:173,1,43.749998664856,2|0,0:0|0:0,0:0:0:0:
1,260,73854,2,0,B|88:271|88:271|94:278|94:278|180:288,1,174.999994659424,0|0,1:0|0:0,0:0:0:0:
250,378,74151,6,0,P|314:271|438:282,1,262.499991989136,6|0,1:2|0:0,0:0:0:0:
430,298,74448,1,0,0:0:0:0:
372,151,74596,6,0,B|308:178|294:251|294:251|297:180|239:130,1,262.499991989136,6|0,1:2|0:0,0:0:0:0:
255,123,74893,1,0,0:0:0:0:
334,17,75042,6,0,P|223:102|86:62,1,262.499991989136,6|0,1:2|0:0,0:0:0:0:
96,97,75339,1,0,0:0:0:0:
35,178,75487,6,0,P|-3:213|83:188,1,262.499991989136,6|0,1:2|0:0,0:0:0:0:
121,202,75784,1,0,0:0:0:0:
261,224,75933,6,0,B|234:256|234:256|184:242,1,81.2499962806703,0|0,1:0|0:0,0:0:0:0:
162,129,76081,2,0,B|189:97|189:97|238:110,1,81.2499962806703,2|2,0:0|0:0,0:0:0:0:
260,341,76230,1,4,1:0:0:0:
256,192,76304,12,0,78532,0:0:0:0:
366,384,78606,5,4,1:2:0:0:
179,193,87814,6,0,P|151:174|145:131,1,75,0|0,1:0|0:0,0:0:0:0:
260,165,88111,6,0,P|329:105|466:127,2,200,4|0|8,1:2|0:0|0:0,0:0:0:0:
235,254,88557,2,0,B|282:269|300:330|300:330|291:268|316:231,1,206.250006294251,4|0,1:2|0:0,0:0:0:0:
260,165,88854,2,0,B|267:135|245:125|245:125|236:145|252:168,1,93.7500035762788,8|0,0:3|0:0,0:0:0:0:
407,221,89003,2,0,P|460:209|479:166,1,93.7500035762788,4|0,0:3|0:0,0:0:0:0:
433,106,89151,2,0,P|380:118|361:161,1,93.7500035762788,8|0,0:3|0:0,0:0:0:0:
298,329,89299,6,0,B|292:281|248:274|248:274|75:257,2,187.500007152558,4|0|0,1:2|0:0|0:0,0:0:0:0:
76,365,89745,2,0,B|61:270|61:270|65:257|65:257|46:129,1,206.250006294251,4|0,1:2|0:0,0:0:0:0:
142,40,90042,1,8,0:3:0:0:
146,32,90116,1,0,0:0:0:0:
153,23,90191,2,0,L|133:137,1,93.7500035762788,0|0,1:0|0:0,0:0:0:0:
55,247,90339,2,0,L|35:132,1,93.7500035762788,0|0,1:0|0:0,0:0:0:0:
225,174,90487,6,0,L|10:151,2,187.500007152558,4|0|8,1:2|0:0|0:0,0:0:0:0:
271,288,90933,2,0,B|260:187|260:187|252:175|252:175|236:42,1,224.999993133545,4|2,1:2|0:0,0:0:0:0:
350,163,91305,1,8,0:3:0:0:
356,169,91379,2,0,P|336:214|274:219,1,93.7500035762788,8|0,0:3|0:0,0:0:0:0:
296,5,91527,1,4,0:3:0:0:
339,13,91601,1,4,0:3:0:0:
380,22,91676,1,4,0:3:0:0:
256,192,91750,12,0,92790,0:0:0:0:
465,154,92864,5,0,0:0:0:0:
448,156,93012,1,0,0:0:0:0:
370,89,93161,1,2,0:0:0:0:
379,92,93235,1,0,0:0:0:0:
386,95,93309,1,0,0:0:0:0:
265,170,93458,2,0,B|281:50,1,112.499996566773,2|0,0:0|0:0,0:0:0:0:
184,29,93755,1,2,0:0:0:0:
185,35,93829,1,0,0:0:0:0:
186,40,93904,1,2,0:0:0:0:
187,46,93978,1,0,0:0:0:0:
189,51,94052,5,2,0:0:0:0:
118,113,94201,1,2,0:0:0:0:
28,54,94349,1,2,0:0:0:0:
45,47,94423,1,0,0:0:0:0:
61,42,94498,1,2,0:0:0:0:
139,209,94646,2,0,L|17:184,1,112.499996566773,2|0,0:0|0:0,0:0:0:0:
348,165,94943,1,0,1:0:0:0:
353,162,95017,1,0,0:0:0:0:
358,159,95092,1,0,0:0:0:0:
363,156,95166,1,0,1:0:0:0:
368,153,95240,1,0,1:0:0:0:
372,149,95314,6,0,P|272:178|302:275,1,187.500007152558,8|0,0:0|0:0,0:0:0:0:
308,381,95537,6,0,P|332:279|233:257,1,187.500007152558,8|0,0:0|0:0,0:0:0:0:
139,209,95760,6,0,P|214:281|283:206,1,187.500007152558,8|0,0:0|0:0,0:0:0:0:
349,127,95982,6,0,P|303:126|258:184,1,93.7500035762788,8|0,0:0|0:0,0:0:0:0:
338,378,96131,6,0,P|360:338|334:270,1,93.7500035762788,8|0,0:0|0:0,0:0:0:0:
129,239,96279,6,0,P|151:278|223:289,1,93.7500035762788,8|0,0:0|0:0,0:0:0:0:
272,246,96428,5,0,0:0:0:0:
112,99,97616,2,0,B|202:76|202:76|215:76|215:76|317:48|317:48|266:78|265:142,1,300,2|0,1:2|0:0,0:0:0:0:
329,213,97913,2,0,B|281:205|281:205|274:208|274:208|208:196,1,100,12|0,0:0|0:0,0:0:0:0:
398,156,98062,2,0,B|436:172|488:158|488:158|437:177|413:232,1,187.500007152558,2|0,0:0|1:0,0:0:0:0:
276,360,98359,1,0,0:0:0:0:
294,370,98433,1,0,0:0:0:0:
309,380,98507,2,0,L|292:287,1,93.7500035762788,10|0,0:0|0:0,0:0:0:0:
143,204,98656,2,0,L|126:296,1,93.7500035762788,0|0,0:0|0:0,0:0:0:0:
112,99,98804,5,0,1:0:0:0:
129,109,98879,1,0,0:0:0:0:
143,120,98953,2,0,B|152:81|152:81|52:120|52:120|96:145,1,187.500007152558,2|8,0:0|0:0,0:0:0:0:
240,206,99175,1,0,0:0:0:0:
226,221,99250,2,0,B|263:212|263:212|270:215|270:215|316:205,1,93.7500035762788,0|0,0:0|0:0,0:0:0:0:
366,92,99398,2,0,L|341:322,1,187.500007152558,2|0,1:2|0:0,0:0:0:0:
409,165,99695,2,0,P|450:135|454:87,1,93.7500035762788,10|0,0:0|0:0,0:0:0:0:
331,17,99844,2,0,P|289:46|286:95,1,93.7500035762788,2|0,0:0|0:0,0:0:0:0:
316,205,99992,6,0,P|261:157|139:163,1,174.999994659424,2|0,1:2|0:0,0:0:0:0:
71,213,100215,1,0,0:0:0:0:
81,201,100289,2,0,B|58:194|31:205|31:205|56:191|70:161,1,93.7500035762788,8|0,0:0|0:0,0:0:0:0:
59,27,100438,2,0,B|95:48|93:84|93:84|77:237,1,187.500007152558,2|0,0:0|1:0,0:0:0:0:
27,294,100735,1,0,0:0:0:0:
12,305,100809,1,0,0:0:0:0:
0,317,100883,2,0,P|61:252|151:263,1,187.500007152558,10|0,0:0|0:0,0:0:0:0:
227,336,101180,6,0,P|275:338|304:304,1,93.7500035762788,0|0,1:0|0:0,0:0:0:0:
259,163,101329,2,0,L|244:255,1,93.7500035762788,2|0,0:0|0:0,0:0:0:0:
389,356,101477,2,0,L|374:263,1,93.7500035762788,8|0,0:0|0:0,0:0:0:0:
339,122,101626,1,2,0:0:0:0:
499,200,101774,1,0,1:0:0:0:
504,183,101848,1,8,0:0:0:0:
511,164,101923,2,0,B|471:172|471:172|468:177|468:177|416:188,1,93.7500035762788,0|0,0:0|0:0,0:0:0:0:
244,255,102071,2,0,L|259:163,1,93.7500035762788,10|0,0:0|0:0,0:0:0:0:
392,10,102220,1,2,1:2:0:0:
385,23,102294,1,8,0:0:0:0:
375,37,102368,6,0,B|287:45|287:45|277:51|277:51|164:59,1,187.500007152558,2|0,1:2|0:0,0:0:0:0:
35,69,102591,1,0,0:0:0:0:
45,57,102666,2,0,P|101:74|103:128,1,93.7500035762788,14|0,0:0|0:0,0:0:0:0:
108,226,102814,2,0,B|89:239|79:265|79:265|85:239|78:213,1,93.7500035762788,2|0,0:0|0:0,0:0:0:0:
193,180,102963,6,0,B|110:188|110:188|101:194|101:194|8:204,1,187.500007152558,0|0,1:0|0:0,0:0:0:0:
192,266,103185,1,0,0:0:0:0:
176,273,103260,2,0,L|199:150,1,93.7500035762788,10|0,0:0|0:0,0:0:0:0:
339,122,103408,2,0,L|362:244,1,93.7500035762788,0|0,0:0|0:0,0:0:0:0:
282,348,103557,1,0,1:0:0:0:
267,345,103631,1,0,0:0:0:0:
252,341,103705,2,0,L|358:323,1,93.7500035762788,2|0,0:0|0:0,0:0:0:0:
512,290,103854,2,0,L|406:272,1,93.7500035762788,8|0,0:0|0:0,0:0:0:0:
339,122,104002,1,0,0:0:0:0:
339,122,104076,1,0,0:0:0:0:
339,122,104151,6,0,B|386:95|397:50|397:50|390:100|419:162,1,187.500007152558,2|0,1:2|0:0,0:0:0:0:
266,226,104448,2,0,P|220:219|194:181,1,93.7500035762788,10|0,0:0|0:0,0:0:0:0:
261,70,104596,2,0,P|306:76|332:114,1,93.7500035762788,2|0,0:0|0:0,0:0:0:0:
79,193,104745,2,0,P|163:142|268:148,1,200,2|0,1:2|0:2,0:0:0:0:
263,155,104967,2,0,P|164:150|80:201,1,200,10|0,1:2|0:0,0:0:0:0:
19,310,105190,2,0,B|53:284|49:251|49:251|22:82,1,200,2|0,1:2|0:0,0:0:0:0:
37,127,105413,2,0,B|57:255|57:255|61:288|27:314,1,200,10|0,1:2|0:0,0:0:0:0:
128,374,105635,2,0,B|223:362|223:362|233:367|233:367|325:358,1,200,10|0,1:2|0:0,0:0:0:0:
436,199,105933,1,6,1:2:0:0:
512,266,106081,6,0,B|411:317|411:317|343:220,1,224.999993133545,2|0,0:0|0:0,0:0:0:0:
332,240,106378,1,2,0:0:0:0:
483,377,106527,1,8,0:0:0:0:
243,181,106750,1,0,0:0:0:0:
257,175,106824,2,0,L|239:267,1,93.7500035762788
176,78,106972,5,8,0:0:0:0:
173,64,107047,1,8,0:0:0:0:
170,51,107121,2,0,B|129:74|136:115|136:115|151:225,1,187.500007152558,0|0,1:0|1:0,0:0:0:0:
49,234,107344,1,0,1:0:0:0:
34,239,107418,2,0,B|44:192|44:192|50:188|50:188|59:149,1,93.7500035762788,0|0,1:0|0:0,0:0:0:0:
104,292,107567,6,0,P|80:319|12:310,1,93.7500035762788,0|0,0:0|0:0,0:0:0:0:
59,151,107715,2,0,B|148:163|148:163|156:170|156:170|273:184,1,187.500007152558,0|0,0:0|0:0,0:0:0:0:
310,238,107938,1,0,0:0:0:0:
322,248,108012,2,0,P|388:194|487:201,1,187.500007152558,10|0,0:0|0:0,0:0:0:0:
330,329,108309,6,0,B|283:335|283:335|249:288,1,93.7500035762788,4|0,1:2|0:0,0:0:0:0:
485,200,108458,2,0,B|440:212|432:249|432:249|411:360,1,187.500007152558,2|8,0:0|0:0,0:0:0:0:
358,92,108755,2,0,B|368:138|368:138|367:145|367:145|377:187,1,93.7500035762788
460,38,108903,2,0,B|434:74|395:71|395:71|275:58,1,187.500007152558,2|0,1:2|0:0,0:0:0:0:
176,164,109200,2,0,P|226:164|256:123,1,93.7500035762788,10|0,0:0|0:0,0:0:0:0:
212,26,109349,2,0,P|162:26|132:67,1,93.7500035762788,2|0,0:0|0:0,0:0:0:0:
79,193,109497,6,0,B|34:215|25:264|25:264|32:214|-11:162,1,187.500007152558,2|0,1:2|0:0,0:0:0:0:
7,43,109720,1,0,0:0:0:0:
14,33,109794,2,0,P|50:72|36:130,1,93.7500035762788,8|0,0:0|0:0,0:0:0:0:
125,275,109943,2,0,B|208:284|208:284|231:277|231:277|310:285,1,187.500007152558,2|0,0:0|1:0,0:0:0:0:
253,133,110240,1,0,0:0:0:0:
241,135,110314,1,0,0:0:0:0:
230,137,110388,2,0,B|238:178|238:178|246:186|246:186|257:229,1,93.7500035762788,10|0,1:2|0:0,0:0:0:0:
294,384,110537,6,0,B|313:271,1,100
461,273,110760,1,0,0:0:0:0:
469,283,110834,2,0,P|443:314|390:312,1,93.7500035762788,2|0,1:2|0:0,0:0:0:0:
350,205,110982,2,0,P|376:174|429:176,1,93.7500035762788,10|0,0:0|0:0,0:0:0:0:
310,285,111131,1,2,1:2:0:0:
299,96,111279,5,2,1:2:0:0:
304,105,111353,1,10,0:0:0:0:
307,114,111428,2,0,B|270:107|270:107|262:100|262:100|201:88,1,93.7500035762788,0|0,0:0|0:0,0:0:0:0:
377,62,111576,2,0,B|407:100|407:100|385:148,1,93.7500035762788,10|0,0:0|0:0,0:0:0:0:
183,170,111725,1,10,0:0:0:0:
169,174,111799,1,0,0:0:0:0:
155,177,111873,6,0,P|212:111|336:136,1,187.500007152558,2|0,1:2|0:0,0:0:0:0:
261,25,112096,1,0,0:0:0:0:
253,18,112171,2,0,P|218:43|217:90,1,93.7500035762788,12|0,0:0|0:0,0:0:0:0:
279,196,112319,2,0,P|279:241|243:268,1,93.7500035762788,2|0,0:0|0:0,0:0:0:0:
145,331,112467,2,0,B|171:294|206:296|206:296|326:310,1,187.500007152558,0|0,1:0|0:0,0:0:0:0:
431,350,112690,1,0,0:0:0:0:
420,359,112765,2,0,L|398:237,1,93.7500035762788,10|0,0:2|0:0,0:0:0:0:
512,190,112913,2,0,L|495:282,1,93.7500035762788,2|0,0:0|0:0,0:0:0:0:
441,124,113062,5,0,1:0:0:0:
432,111,113136,1,0,0:0:0:0:
424,98,113210,2,0,P|454:64|499:72,1,93.7500035762788,2|0,0:0|0:0,0:0:0:0:
335,171,113359,2,0,P|295:179|259:144,1,93.7500035762788,8|0,0:0|0:0,0:0:0:0:
208,26,113507,1,0,0:0:0:0:
214,14,113581,1,0,0:0:0:0:
220,0,113656,2,0,L|244:283,1,281.250010728836,2|0,1:2|0:0,0:0:0:0:
161,352,113953,2,0,B|202:358|202:358|210:366|210:366|262:372,1,93.7500035762788,2|0,0:0|0:0,0:0:0:0:
333,261,114101,2,0,B|291:267|291:267|283:275|283:275|231:281,1,93.7500035762788,2|0,0:0|0:0,0:0:0:0:
63,235,114250,5,2,1:2:0:0:
48,243,114324,2,0,P|131:269|180:197,1,187.500007152558,10|0,0:0|0:0,0:0:0:0:
97,135,114547,2,0,B|182:147|182:147|192:156|192:156|284:169,1,187.500007152558,10|0,0:0|0:0,0:0:0:0:
259,65,114769,1,10,0:0:0:0:
260,56,114844,2,0,P|227:68|228:137,1,93.7500035762788,0|0,0:0|0:0,0:0:0:0:
356,199,114992,2,0,P|389:187|387:117,1,93.7500035762788,10|0,0:0|0:0,0:0:0:0:
243,279,115141,2,0,L|351:297,1,93.7500035762788,8|0,0:0|0:0,0:0:0:0:
470,349,115289,1,8,0:0:0:0:
441,356,115364,1,8,0:0:0:0:
417,363,115438,5,0,1:0:0:0:
256,192,115512,12,0,116552,0:0:0:0:
256,192,116626,5,2,1:2:0:0:
191,68,117814,2,0,B|243:94|240:146|240:146|221:319,1,243.749988842011,4|0,1:2|0:0,0:0:0:0:
125,215,118111,2,0,P|139:186|203:179,1,100,8|0,0:0|0:0,0:0:0:0:
319,257,118260,2,0,P|367:258|394:219,1,100,0|0,0:0|0:0,0:0:0:0:
341,81,118408,6,0,L|349:149,1,68.7500020980836,2|0,1:2|0:0,0:0:0:0:
471,268,118557,5,2,0:0:0:0:
467,292,118631,1,2,0:0:0:0:
464,321,118705,1,10,0:0:0:0:
460,345,118780,1,2,0:0:0:0:
457,370,118854,5,2,0:0:0:0:
445,359,118928,1,2,0:0:0:0:
433,350,119003,2,0,L|365:362,1,68.7500020980836,2|0,1:2|0:0,0:0:0:0:
227,264,119151,5,2,0:0:0:0:
239,253,119225,1,2,0:0:0:0:
251,244,119300,2,0,L|318:256,1,68.7500020980836,10|0,0:0|0:0,0:0:0:0:
440,156,119448,5,2,0:0:0:0:
428,145,119522,1,2,0:0:0:0:
416,136,119597,2,0,L|348:148,1,68.7500020980836,2|0,1:2|0:0,0:0:0:0:
160,96,119745,1,2,0:0:0:0:
152,65,119819,1,2,0:0:0:0:
164,29,119894,1,10,0:0:0:0:
190,9,119968,1,2,0:0:0:0:
228,7,120042,1,2,0:0:0:0:
259,26,120116,1,2,0:0:0:0:
276,57,120191,6,0,B|266:99|266:99|268:110|268:110|259:152,1,93.7500035762788,0|0,1:0|0:0,0:0:0:0:
416,136,120339,2,0,B|406:94|406:94|408:83|408:83|399:41,1,93.7500035762788,2|0,0:0|0:0,0:0:0:0:
385,233,120488,2,0,P|416:265|461:262,1,93.7500035762788,10|0,0:2|0:0,0:0:0:0:
492,166,120636,2,0,P|460:133|415:136,1,93.7500035762788,2|0,0:0|0:0,0:0:0:0:
280,267,120785,2,0,B|200:250|200:250|185:253|185:253|86:229,1,187.500007152558,0|0,1:0|0:0,0:0:0:0:
104,104,121007,1,0,0:0:0:0:
110,96,121082,2,0,P|139:108|148:171,1,93.7500035762788,10|0,0:0|0:0,0:0:0:0:
145,322,121230,1,2,0:0:0:0:
128,327,121304,1,0,0:0:0:0:
114,330,121378,6,0,P|177:278|303:273,1,187.500007152558,0|2,1:0|0:1,0:0:0:0:
332,330,121601,1,0,0:0:0:0:
332,330,121676,2,0,B|292:364|292:364|230:338,1,100,10|0,0:0|0:0,0:0:0:0:
225,208,121824,2,0,B|265:173|265:173|326:199,1,100,2|0,0:0|0:0,0:0:0:0:
423,270,121972,1,0,1:0:0:0:
407,295,122047,2,0,L|427:77,1,200,8|0,0:0|0:0,0:0:0:0:
323,23,122270,2,0,L|342:131,1,100,2|0,0:1|0:0,0:0:0:0:
225,208,122418,1,2,0:1:0:0:
234,192,122492,1,8,0:0:0:0:
241,179,122567,6,0,P|217:141|26:155,1,243.749988842011,4|0,1:2|0:0,0:0:0:0:
28,214,122864,2,0,B|47:227|57:254|57:254|56:225|72:199,1,100,8|0,0:0|0:0,0:0:0:0:
97,76,123012,2,0,P|45:100|43:148,1,100
56,254,123161,2,0,L|167:232,1,100,2|2,1:2|0:0,0:0:0:0:
303,338,123309,2,0,L|192:316,1,100,2|0,0:0|0:0,0:0:0:0:
50,267,123458,2,0,L|161:245,1,100,10|0,0:0|0:0,0:0:0:0:
309,351,123606,2,0,L|198:329,1,100,2|0,0:0|0:0,0:0:0:0:
404,286,123755,6,0,B|452:317|497:308|497:308|451:322|421:371,1,200,2|0,1:0|0:0,0:0:0:0:
433,378,123978,1,0,0:0:0:0:
447,383,124052,2,0,B|458:282|458:282|465:274|465:274|474:180,1,200,8|0,0:0|0:0,0:0:0:0:
370,77,124349,1,0,1:0:0:0:
359,69,124423,2,0,B|314:75|306:118|306:118|280:263,1,200,8|0,0:0|0:0,0:0:0:0:
287,255,124646,2,0,B|279:173|279:173|270:162|270:162|259:48,1,200,0|0,1:0|0:0,0:0:0:0:
82,174,124943,6,0,P|88:208|148:226,1,93.7500035762788,4|0,1:2|0:0,0:0:0:0:
283,238,125091,2,0,P|272:195|229:182,1,93.7500035762788,0|0,1:0|0:0,0:0:0:0:
187,344,125240,2,0,L|375:323,1,187.500007152558,8|0,0:0|0:0,0:0:0:0:
110,384,125537,1,0,1:0:0:0:
110,384,125611,1,0,1:0:0:0:
110,384,125685,2,0,B|90:341|90:341|120:293,1,93.7500035762788,0|0,1:0|0:0,0:0:0:0:
15,201,125834,2,0,B|20:249|20:249|17:256|17:256|25:317,1,93.7500035762788,10|0,0:0|0:0,0:0:0:0:
190,90,125982,1,2,0:0:0:0:
186,112,126057,1,0,0:0:0:0:
182,129,126131,6,0,P|91:145|46:46,1,187.500007152558,2|0,1:2|0:0,0:0:0:0:
272,11,126428,2,0,L|284:123,1,93.7500035762788,0|0,1:2|0:0,0:0:0:0:
388,193,126577,1,0,0:0:0:0:
373,194,126651,1,2,0:0:0:0:
361,194,126725,6,0,P|350:151|417:109,1,93.7500035762788,8|0,0:0|0:0,0:0:0:0:
456,264,126873,1,4,0:3:0:0:
457,279,126947,1,4,0:3:0:0:
457,291,127021,6,0,L|357:269,1,93.7500035762788,0|0,1:0|0:0,0:0:0:0:
276,216,127171,2,0,B|281:249|281:249|278:255|278:255|285:296,1,81.2499962806703,8|0,0:3|0:0,0:0:0:0:
328,357,127319,2,0,B|292:382|292:382|238:360,1,87.499997329712,0|0,1:2|0:0,0:0:0:0:
0,360,127616,6,0,B|76:335|105:241|105:241|88:336|140:384,1,318.750006079674,10|0,0:0|0:0,0:0:0:0:
150,373,127913,2,0,L|135:295,1,68.7500020980836,2|0,1:2|0:0,0:0:0:0:
205,108,128062,5,2,0:0:0:0:
199,138,128136,1,0,0:0:0:0:
192,168,128210,1,10,0:0:0:0:
186,201,128285,1,2,0:0:0:0:
180,230,128359,5,2,0:0:0:0:
174,221,128433,1,2,0:0:0:0:
169,212,128507,2,0,B|269:203,1,68.7500020980836,2|2,1:2|0:0,0:0:0:0:
372,154,128656,5,2,0:0:0:0:
378,145,128730,1,2,0:0:0:0:
383,136,128804,2,0,B|282:127,1,68.7500020980836,10|2,0:2|0:0,0:0:0:0:
211,11,128953,5,2,0:0:0:0:
205,20,129027,1,2,0:0:0:0:
200,29,129101,2,0,B|300:37,1,68.7500020980836,2|2,1:2|0:0,0:0:0:0:
130,100,129250,1,2,0:0:0:0:
94,120,129324,1,2,0:0:0:0:
54,111,129398,1,10,0:0:0:0:
31,75,129472,1,2,0:0:0:0:
37,36,129547,1,2,0:0:0:0:
63,16,129621,1,2,0:0:0:0:
110,7,129696,6,0,B|152:19|152:19|159:17|159:17|227:37,1,93.7500035762788,0|0,1:0|0:0,0:0:0:0:
293,115,129844,2,0,B|250:95|250:95|215:127,1,93.7500035762788,2|0,0:1|0:0,0:0:0:0:
253,290,129993,2,0,L|267:195,1,93.7500035762788,10|0,0:0|0:0,0:0:0:0:
130,100,130141,2,0,L|148:198,1,93.7500035762788,2|0,0:0|0:0,0:0:0:0:
77,301,130290,2,0,B|102:267|141:272|141:272|285:295,1,187.500007152558,0|0,1:0|0:0,0:0:0:0:
348,367,130512,1,0,0:0:0:0:
334,356,130586,2,0,B|294:361|294:361|289:367|289:367|213:378,1,93.7500035762788,8|0,0:0|0:0,0:0:0:0:
385,221,130734,1,2,0:0:0:0:
383,209,130808,1,2,0:0:0:0:
379,197,130883,6,0,P|339:232|349:290,1,93.7500035762788,0|0,1:0|0:0,0:0:0:0:
428,314,131032,2,0,P|468:279|460:225,1,93.7500035762788,2|0,0:1|0:0,0:0:0:0:
448,130,131181,2,0,P|485:144|502:186,1,74.9999977111817,10|0,0:0|0:0,0:0:0:0:
379,197,131329,2,0,B|337:186|337:186|329:189|329:189|280:178,1,100,2|0,0:0|0:0,0:0:0:0:
188,219,131477,1,0,1:0:0:0:
187,234,131552,2,0,P|140:176|9:211,1,200,8|0,0:0|0:0,0:0:0:0:
196,27,131775,2,0,B|201:74|201:74|206:82|206:82|211:126,1,100,8|0,0:0|0:0,0:0:0:0:
282,178,131923,1,2,0:1:0:0:
278,194,131997,1,8,0:0:0:0:
276,210,132072,6,0,B|284:165|328:155|328:155|488:132,1,206.250006294251,4|0,1:2|0:0,0:0:0:0:
435,45,132369,1,8,0:0:0:0:
419,41,132443,1,0,0:0:0:0:
407,40,132517,2,0,P|365:65|359:115,1,100,0|0,0:0|0:0,0:0:0:0:
349,236,132666,2,0,B|384:251|395:300|395:300|388:248|410:222,1,162.499992561341,2|0,1:2|0:0,0:0:0:0:
320,370,132963,2,0,P|248:309|89:319,1,243.749988842011,8|0,0:2|0:0,0:0:0:0:
27,363,133260,6,0,B|70:354|77:307|77:307|86:186,1,200,0|0,1:0|0:0,0:0:0:0:
90,178,133483,1,0,0:0:0:0:
95,167,133557,2,0,B|103:250|103:250|109:257|109:257|123:388,1,200,2|0,1:2|0:0,0:0:0:0:
355,198,133854,5,0,1:0:0:0:
348,185,133928,2,0,P|306:247|171:206,1,200,8|0,0:0|0:0,0:0:0:0:
189,224,134151,2,0,B|281:235|281:235|289:243|289:243|394:254,1,200,0|0,1:0|0:0,0:0:0:0:
504,159,134448,5,4,1:2:0:0:
493,153,134522,2,0,B|457:170|462:215|462:215|483:356,1,212.500004053116,10|0,0:0|0:0,0:0:0:0:
393,384,134745,2,0,P|346:294|231:295,1,212.500004053116,8|0,0:0|0:0,0:0:0:0:
158,337,134967,1,8,0:0:0:0:
149,352,135042,2,0,B|155:296|155:296|161:292|161:292|167:228,1,106.250002026558,0|0,0:0|0:0,0:0:0:0:
135,127,135190,2,0,P|87:158|110:230,1,106.250002026558,8|0,0:0|0:0,0:0:0:0:
244,287,135339,2,0,P|291:255|268:183,1,106.250002026558,8|0,0:0|0:0,0:0:0:0:
196,62,135487,5,8,0:0:0:0:
205,80,135562,1,8,0:0:0:0:
215,96,135636,2,0,B|292:80|292:80|306:86|306:86|399:64,1,174.999994659424,0|0,1:2|0:0,0:0:0:0:
497,141,136081,5,0,1:0:0:0:
505,154,136156,1,0,1:0:0:0:
511,164,136230,2,0,L|387:139,1,100,8|0,0:0|0:0,0:0:0:0:
287,250,136378,2,0,L|411:225,1,100,0|0,1:0|1:0,0:0:0:0:
512,341,136527,2,0,L|388:316,1,100,8|0,0:0|0:0,0:0:0:0:
236,384,136675,1,0,1:0:0:0:
269,376,136750,1,0,0:0:0:0:
306,365,136824,5,6,1:2:0:0:
