osu file format v14

[General]
AudioFilename: audio.mp3
AudioLeadIn: 0
PreviewTime: 53516
Countdown: 0
SampleSet: Soft
StackLeniency: 0.7
Mode: 0
LetterboxInBreaks: 0
WidescreenStoryboard: 0

[Editor]
Bookmarks: 1402,12373,23344,34316,45287,56259,67230,78202,98687,100144,122087,133059,144030,155002,165973,166316,171459,171802,182430,182773,186544,187916,198887,202659,208402,209859,220830,231459
DistanceSpacing: 1
BeatDivisor: 4
GridSize: 32
TimelineZoom: 1.6

[Metadata]
Title:D4NCE
TitleUnicode:D4NCE
Artist:Zekk
ArtistUnicode:Zekk
Creator:eiri-
Version:Normal
Source:osu!
Tags:Ayyri Electronic Instrumental Featured Artist FA FÜGENE2 FUGENE 2 Future Core Bass Hardcore jcore DANCE
BeatmapID:2382801
BeatmapSetID:1140776

[Difficulty]
HPDrainRate:4
CircleSize:3
OverallDifficulty:4
ApproachRate:6
SliderMultiplier:1
SliderTickRate:1

[Events]
//Background and Video events
0,0,"D4NCE.jpg",0,0
//Break Periods
2,45487,53516
2,122287,130316
2,144230,148144
//Storyboard Layer 0 (Background)
//Storyboard Layer 1 (Fail)
//Storyboard Layer 2 (Pass)
//Storyboard Layer 3 (Foreground)
//Storyboard Layer 4 (Overlay)
//Storyboard Sound Samples

[TimingPoints]
1402,342.857142857143,4,2,1,75,1,0
1487,-100,4,2,1,50,0,0
12373,-100,4,2,1,50,0,0
20602,-100,4,2,1,55,0,0
21973,-100,4,2,1,60,0,0
23344,-100,4,2,1,75,0,0
53516,-100,4,2,1,60,0,0
56259,-100,4,2,1,65,0,0
61744,-100,4,2,1,70,0,0
67230,-100,4,2,1,75,0,0
72716,-100,4,2,1,80,0,0
78202,-90.9090909090909,4,2,1,90,0,1
98687,-90.9090909090909,4,2,1,80,0,0
100144,-90.9090909090909,4,2,1,100,0,1
122087,-100,4,2,1,75,0,0
130316,-100,4,2,1,60,0,0
133059,-100,4,2,1,65,0,0
138544,-100,4,2,1,70,0,0
144030,-100,4,2,1,75,0,0
149516,-100,4,2,1,60,0,0
155002,-100,4,2,1,75,0,0
160487,-100,4,2,1,80,0,0
165973,-90.9090909090909,4,2,1,90,0,1
166059,-90.9090909090909,4,2,1,90,0,0
166316,-90.9090909090909,4,2,1,90,0,1
171459,-90.9090909090909,4,2,1,90,0,0
171802,-90.9090909090909,4,2,1,90,0,1
182430,-90.9090909090909,4,2,1,90,0,0
182773,-90.9090909090909,4,2,1,90,0,1
186544,-90.9090909090909,4,2,1,80,0,0
187916,-90.9090909090909,4,2,1,100,0,1
198887,-90.9090909090909,4,2,1,100,0,0
202659,-90.9090909090909,4,2,1,100,0,1
208402,-90.9090909090909,4,2,1,80,0,0
209859,-100,4,2,1,75,0,0
211230,-100,4,2,1,73,0,0
212602,-100,4,2,1,70,0,0
213973,-100,4,2,1,67,0,0
215344,-100,4,2,1,65,0,0
216716,-100,4,2,1,63,0,0
218087,-100,4,2,1,60,0,0
219459,-100,4,2,1,57,0,0
220830,-100,4,2,1,55,0,0
222202,-100,4,2,1,53,0,0
223573,-100,4,2,1,50,0,0
224944,-100,4,2,1,47,0,0
226316,-100,4,2,1,45,0,0
227687,-100,4,2,1,43,0,0
229059,-100,4,2,1,40,0,0
230430,-100,4,2,1,75,0,0
231459,-100,4,2,1,80,0,0

[Colours]
Combo1 : 231,137,109
Combo2 : 124,124,131
Combo3 : 255,96,96
Combo4 : 180,180,182

[HitObjects]
256,192,1402,5,14,0:0:0:0:
256,192,1487,12,2,12373,0:0:0:0:
256,192,12459,12,2,16487,0:0:0:0:
61,285,17859,5,10,0:0:0:0:
157,259,18202,2,0,L|176:369,2,100,8|8|8,0:0|0:0|0:0,0:0:0:0:
210,174,19230,2,0,L|191:64,2,100,10|8|8,0:0|0:0|0:0,0:0:0:0:
304,208,20259,1,8,0:0:0:0:
369,132,20602,2,0,L|487:147,1,100,10|8,0:0|0:0,0:0:0:0:
491,242,21287,2,0,L|373:227,1,100,8|8,0:0|0:0,0:0:0:0:
320,299,21973,5,14,0:0:0:0:
182,254,22487,1,10,0:0:0:0:
182,254,22659,2,0,L|178:327,1,50,10|10,0:0|0:0,0:0:0:0:
178,354,23002,1,2,1:2:0:0:
90,318,23344,5,14,0:0:0:0:
90,318,23516,2,0,L|68:202,1,100,2|2,0:0|0:0,0:0:0:0:
50,121,24202,2,0,L|-3:111,2,50,2|10|2,0:0|0:0|0:0,0:0:0:0:
141,80,24887,1,2,0:0:0:0:
141,80,25059,2,0,L|194:70,1,50,10|0,0:0|0:0,0:0:0:0:
243,66,25402,1,10,0:0:0:0:
243,66,25573,2,0,L|232:187,1,100,2|10,1:2|1:2,0:0:0:0:
267,260,26259,5,2,0:0:0:0:
356,215,26602,1,2,0:0:0:0:
448,252,26944,2,0,P|488:230|491:180,1,100,2|2,0:0|0:0,0:0:0:0:
459,140,27459,2,0,L|473:80,1,50,10|0,0:0|0:0,0:0:0:0:
455,43,27802,1,2,1:2:0:0:
362,72,28144,1,10,0:0:0:0:
362,72,28316,2,0,L|348:12,2,50,2|10|2,1:2|0:0|1:2,0:0:0:0:
350,126,28830,5,10,0:0:0:0:
350,126,29001,1,10,0:0:0:0:
350,126,29173,1,10,0:0:0:0:
267,182,29516,1,10,0:0:0:0:
267,182,29687,2,0,L|160:167,1,100,2|2,0:0|0:0,0:0:0:0:
72,156,30373,1,2,0:0:0:0:
72,156,30544,2,0,P|90:189|92:221,1,50,10|0,0:0|0:0,0:0:0:0:
53,293,31059,1,2,1:2:0:0:
53,293,31230,2,0,P|78:321|148:314,1,100,10|10,0:0|0:0,0:0:0:0:
174,288,31744,5,2,0:0:0:0:
266,325,32087,1,2,0:0:0:0:
342,260,32430,2,0,L|413:270,1,50,2|10,0:0|0:0,0:0:0:0:
445,277,32773,1,2,1:2:0:0:
445,277,32944,6,0,L|429:171,1,100,14|10,0:0|0:0,0:0:0:0:
412,79,33630,2,2,P|384:89|337:35,1,100,2|10,1:2|0:0,0:1:0:0:
361,3,34144,1,2,1:2:0:0:
361,3,34316,5,14,0:0:0:0:
361,3,34487,2,0,L|245:21,1,100,2|2,0:0|0:0,0:0:0:0:
192,90,35173,2,0,L|203:151,2,50,2|10|2,0:0|0:0|0:0,0:0:0:0:
95,64,35859,1,2,0:0:0:0:
95,64,36030,2,0,P|43:102|-9:118,1,100,10|10,0:0|0:0,0:0:0:0:
36,156,36544,2,0,L|48:221,1,50,2|10,1:2|0:0,0:0:0:0:
53,254,36887,1,10,1:2:0:0:
143,212,37230,6,0,L|253:232,1,100,2|2,0:0|0:0,0:0:0:0:
308,304,37916,2,0,L|243:316,2,50,2|10|2,0:0|0:0|0:0,0:0:0:0:
395,353,38602,2,0,L|415:297,1,50,2|2,0:0|1:2,0:0:0:0:
433,261,38944,1,2,0:0:0:0:
364,187,39287,1,2,1:2:0:0:
364,187,39459,2,0,L|344:131,1,50,10|2,0:0|1:2,0:0:0:0:
362,92,39802,5,14,0:0:0:0:
362,92,39973,2,0,L|256:70,1,100,2|2,0:0|0:0,0:0:0:0:
173,115,40659,2,0,L|67:137,1,100,2|2,0:0|0:0,0:0:0:0:
22,220,41344,1,2,0:0:0:0:
22,220,41516,2,0,P|40:274|76:321,1,100,2|2,0:0|0:0,0:0:0:0:
107,335,42030,1,2,0:0:0:0:
107,335,42202,2,0,P|149:318|167:318,1,50,2|2,0:0|0:0,0:0:0:0:
201,329,42544,5,10,1:2:0:0:
297,304,42887,1,10,1:2:0:0:
272,208,43230,1,10,1:2:0:0:
176,233,43573,1,10,1:2:0:0:
201,329,43916,5,10,0:0:0:0:
201,329,45287,5,14,0:0:0:0:
256,192,55573,6,0,L|256:128,2,50,2|0|10,1:2|0:0|0:0,0:0:0:0:
281,235,56087,1,10,0:0:0:0:
281,235,56259,6,0,P|322:234|367:181,1,100,14|2,0:0|1:2,0:0:0:0:
360,94,56944,1,10,0:0:0:0:
360,94,57116,1,10,0:0:0:0:
360,94,57287,2,0,L|371:22,1,50,2|2,1:2|0:0,0:0:0:0:
405,11,57630,6,0,P|452:29|468:77,1,100,10|2,0:0|1:2,0:0:0:0:
448,171,58316,2,0,L|461:238,1,50,10|10,0:0|0:0,0:0:0:0:
489,259,58659,2,0,L|476:326,1,50,2|10,1:2|0:0,0:0:0:0:
465,356,59002,6,0,P|412:338|349:331,1,100,10|2,0:0|1:2,0:0:0:0:
324,356,59516,1,2,0:0:0:0:
324,356,59687,2,0,L|204:369,1,100,10|2,0:0|1:2,0:0:0:0:
178,346,60202,1,2,0:0:0:0:
178,346,60373,5,10,0:0:0:0:
80,369,60716,1,2,1:2:0:0:
57,271,61059,2,0,L|70:206,1,50,10|2,0:0|1:2,0:0:0:0:
66,180,61402,1,2,1:2:0:0:
66,180,61573,1,2,1:2:0:0:
66,180,61744,6,0,L|175:187,1,100,14|2,0:0|1:2,0:0:0:0:
260,144,62430,1,10,0:0:0:0:
260,144,62602,1,2,0:0:0:0:
260,144,62773,2,0,L|272:206,1,50,2|2,1:2|0:0,0:0:0:0:
279,242,63116,5,10,0:0:0:0:
268,341,63459,1,2,1:2:0:0:
368,372,63802,1,10,0:0:0:0:
368,372,63973,1,10,0:0:0:0:
368,372,64144,2,0,L|423:365,1,50,2|8,1:2|0:0,0:0:0:0:
467,357,64487,6,0,P|484:319|468:252,1,100,10|2,0:0|1:2,0:0:0:0:
437,229,65002,1,10,0:0:0:0:
437,229,65173,2,0,P|451:174|470:126,1,100,10|2,0:0|1:2,0:0:0:0:
499,95,65687,1,14,0:0:0:0:
499,95,65859,6,0,L|487:-8,1,100,2|2,0:3|0:3,0:0:0:0:
388,10,66544,2,0,L|400:113,1,100,2|2,0:3|0:3,0:0:0:0:
413,208,67230,5,14,1:2:0:0:
340,277,67573,1,2,1:2:0:0:
340,277,67744,1,2,1:2:0:0:
340,277,67916,2,0,P|306:268|278:274,1,50,2|2,1:2|0:0,0:0:0:0:
254,303,68259,2,0,P|220:312|192:306,1,50,2|2,1:2|1:2,0:0:0:0:
157,295,68602,5,2,1:2:0:0:
222,220,68944,1,2,1:2:0:0:
222,220,69116,1,2,1:2:0:0:
222,220,69287,2,0,L|233:111,1,100,2|2,1:2|1:2,0:0:0:0:
191,28,69973,5,2,1:2:0:0:
110,87,70316,1,2,1:2:0:0:
110,87,70487,1,2,1:2:0:0:
110,87,70659,2,0,L|46:101,1,50,2|2,1:2|0:0,0:0:0:0:
12,107,71002,2,0,L|26:171,1,50,2|2,1:2|1:2,0:0:0:0:
12,204,71344,5,2,1:2:0:0:
107,260,71687,1,2,1:2:0:0:
107,260,71859,1,2,1:2:0:0:
107,260,72030,2,0,P|115:293|113:317,1,50,2|2,1:2|0:0,0:0:0:0:
80,345,72373,2,0,L|40:342,2,33.3333333333333,10|10|10,1:2|0:0|0:0,0:0:0:0:
98,372,72716,5,6,1:2:0:0:
199,353,73059,1,2,1:2:0:0:
199,353,73230,1,2,1:2:0:0:
199,353,73402,2,0,L|270:365,1,50,2|0,1:2|0:0,0:0:0:0:
285,329,73744,1,2,1:2:0:0:
285,329,73915,1,2,1:2:0:0:
285,329,74087,5,2,1:2:0:0:
386,310,74431,1,2,1:2:0:0:
386,310,74602,1,2,1:2:0:0:
386,310,74774,2,0,L|457:322,1,50,2|0,1:2|0:0,0:0:0:0:
472,286,75116,1,2,1:2:0:0:
472,286,75287,1,2,1:2:0:0:
472,286,75459,6,0,L|451:171,1,100,10|0,3:2|3:0,0:0:0:0:
411,161,75973,2,0,L|432:46,1,100,10|0,3:2|3:0,0:0:0:0:
440,13,76487,2,0,L|327:0,1,100,10|14,3:2|0:0,0:0:0:0:
76,144,77859,6,2,L|84:212,1,50,14|0,0:0|0:0,0:1:0:0:
87,243,78202,6,0,B|156:229|156:229|169:291,1,110.000003356934,14|10,0:0|0:0,0:0:0:0:
173,322,78716,1,10,0:0:0:0:
173,322,78887,2,0,B|217:286|217:286|291:304,1,110.000003356934,2|2,1:2|3:2,0:0:0:0:
374,328,79573,1,2,3:2:0:0:
374,328,79744,2,0,L|490:309,1,110.000003356934,14|2,0:0|0:0,0:0:0:0:
506,259,80259,1,2,1:2:0:0:
423,186,80602,2,0,L|432:111,1,55.0000016784668,10|10,0:0|0:0,0:0:0:0:
438,77,80944,6,0,B|419:47|419:47|327:57,1,110.000003356934,14|10,0:0|0:0,0:0:0:0:
303,91,81459,1,10,0:0:0:0:
303,91,81630,2,0,L|233:79,1,55.0000016784668,2|10,1:2|0:0,0:0:0:0:
194,70,81973,1,14,0:0:0:0:
113,144,82316,1,8,0:0:0:0:
113,144,82487,2,0,P|127:182|138:267,1,110.000003356934,14|8,0:0|0:0,0:0:0:0:
127,305,83002,2,0,L|59:297,2,55.0000016784668,6|2|2,1:2|0:0|0:0,0:0:0:0:
215,369,83687,6,0,L|309:345,1,82.5000025177003,14|14,0:0|0:0,0:0:0:0:
354,291,84202,1,14,0:0:0:0:
354,291,84373,2,0,L|342:223,1,55.0000016784668,2|2,1:2|1:2,0:0:0:0:
367,195,84716,1,2,0:0:0:0:
367,195,84887,1,2,0:0:0:0:
367,195,85059,1,2,0:0:0:0:
367,195,85230,6,0,L|487:219,1,110.000003356934,14|2,0:0|0:0,0:0:0:0:
507,172,85744,2,0,B|474:118|474:118|488:50,1,110.000003356934,2|10,1:2|0:0,0:0:0:0:
389,15,86430,2,0,P|355:26|319:95,1,110.000003356934,14|2,0:0|1:2,0:0:0:0:
309,141,86944,1,10,0:0:0:0:
309,141,87116,2,0,P|273:139|220:81,1,110.000003356934,14|10,0:0|0:0,0:0:0:0:
214,39,87630,1,10,0:0:0:0:
214,39,87802,5,14,0:0:0:0:
115,87,88144,1,14,0:0:0:0:
103,196,88487,1,14,0:0:0:0:
4,244,88830,2,0,L|19:304,1,55.0000016784668,10|2,0:0|1:2,0:0:0:0:
12,352,89173,5,14,0:0:0:0:
256,32,90544,5,14,0:0:0:0:
500,352,91916,5,14,0:0:0:0:
416,280,92259,1,2,0:0:0:0:
320,335,92602,2,0,L|245:342,1,55.0000016784668,0|10,1:0|0:0,0:0:0:0:
210,346,92944,6,2,L|237:223,1,110.000003356934,14|0,0:0|0:0,0:1:0:0:
216,185,93459,1,14,0:0:0:0:
216,185,93630,2,2,L|295:167,1,55.0000016784668,0|0,0:0|0:0,0:1:0:0:
323,159,93973,1,2,1:2:0:0:
427,194,94316,1,2,0:0:0:0:
479,97,94659,5,10,0:0:0:0:
273,20,95344,2,0,L|289:141,1,110.000003356934,2|0,1:2|0:0,0:0:0:0:
296,183,95859,1,2,0:0:0:0:
218,261,96202,6,0,P|168:260|136:208,1,110.000003356934,14|2,0:0|0:0,0:0:0:0:
137,158,96716,2,0,L|80:146,1,55.0000016784668,2|10,1:2|0:0,0:0:0:0:
32,169,97059,1,10,0:0:0:0:
32,169,97230,1,10,0:0:0:0:
32,169,97402,6,0,L|41:39,2,110.000003356934,14|10|10,0:0|0:0|0:0,0:0:0:0:
76,269,98430,1,10,0:0:0:0:
76,269,98602,2,0,L|128:260,1,27.5000008392334,2|14,1:2|0:0,0:0:0:0:
344,317,99459,6,0,L|356:384,2,36.6666677856446,10|10|10,0:0|0:0|0:0,0:0:0:0:
365,275,99802,2,0,L|353:208,2,36.6666677856446,2|2|2,1:2|1:2|1:2,0:0:0:0:
408,291,100144,5,14,0:0:0:0:
487,214,100487,2,0,P|501:170|497:138,1,55.0000016784668,2|2,0:0|0:0,0:0:0:0:
483,109,100830,1,2,1:2:0:0:
483,109,101002,2,0,P|421:96|379:57,1,110.000003356934,14|10,0:0|0:0,0:0:0:0:
363,16,101516,5,14,0:0:0:0:
211,80,102030,2,0,L|142:75,1,55.0000016784668,10|2,0:0|1:2,0:0:0:0:
100,76,102373,2,0,L|117:194,1,110.000003356934,10|10,0:0|0:0,0:0:0:0:
103,238,102887,5,14,0:0:0:0:
249,314,103402,2,0,L|318:309,1,55.0000016784668,2|2,0:0|1:2,0:0:0:0:
358,303,103744,2,0,P|398:282|399:214,1,110.000003356934,14|10,0:0|0:0,0:0:0:0:
365,182,104259,6,0,L|381:62,1,110.000003356934,14|0,0:0|0:0,0:0:0:0:
386,18,104773,2,0,L|314:25,1,55.0000016784668,14|2,0:0|1:2,0:0:0:0:
287,57,105116,1,2,0:0:0:0:
287,57,105287,2,0,L|215:50,1,55.0000016784668,14|2,0:0|3:2,0:0:0:0:
177,45,105630,5,14,0:0:0:0:
140,205,106144,1,2,0:0:0:0:
140,205,106316,2,0,P|98:225|79:219,1,55.0000016784668,2|10,1:2|0:0,0:0:0:0:
37,214,106659,2,0,L|51:141,1,55.0000016784668,2|10,0:0|0:0,0:0:0:0:
33,106,107002,5,14,0:0:0:0:
195,135,107516,1,14,0:0:0:0:
210,26,107859,1,14,0:0:0:0:
210,26,108030,2,0,P|242:14|286:19,1,55.0000016784668,2|14,0:0|0:0,0:0:0:0:
308,43,108373,6,0,L|298:166,1,110.000003356934,14|2,0:0|3:2,0:0:0:0:
294,207,108887,2,0,P|349:187|416:191,1,110.000003356934,14|2,0:0|3:2,0:0:0:0:
450,209,109402,2,0,L|459:281,1,55.0000016784668,14|2,0:0|3:2,0:0:0:0:
465,317,109744,5,14,0:0:0:0:
365,357,110087,1,10,0:0:0:0:
365,357,110259,1,2,1:2:0:0:
292,282,110602,1,10,0:0:0:0:
292,282,110773,2,0,L|228:295,1,55.0000016784668,2|2,3:2|3:2,0:0:0:0:
190,265,111116,6,0,L|199:164,2,82.5000025177003,14|14|14,0:0|0:0|0:0,0:0:0:0:
142,293,111802,1,6,1:2:0:0:
142,293,111973,2,0,L|25:271,1,110.000003356934,14|10,0:0|0:0,0:0:0:0:
8,223,112487,5,14,0:0:0:0:
120,102,113002,2,0,L|112:29,1,55.0000016784668,10|2,0:0|1:2,0:0:0:0:
152,7,113344,2,0,P|199:10|238:72,1,110.000003356934,10|2,0:0|0:0,0:0:0:0:
227,111,113859,5,14,0:0:0:0:
327,67,114202,1,14,3:2:0:0:
397,150,114544,2,0,L|453:144,1,55.0000016784668,14|2,0:0|3:2,0:0:0:0:
506,137,114887,2,0,L|501:218,1,55.0000016784668,14|2,3:2|3:2,0:0:0:0:
495,246,115230,6,0,B|440:255|440:255|424:321,1,110.000003356934,14|2,0:0|0:0,0:0:0:0:
415,361,115744,1,2,0:0:0:0:
415,361,115916,2,0,P|358:365|317:318,1,110.000003356934,10|2,0:0|0:0,0:0:0:0:
307,221,116602,5,14,0:0:0:0:
205,261,116944,1,10,0:0:0:0:
108,208,117287,1,10,0:0:0:0:
6,248,117629,1,10,3:2:0:0:
6,248,117802,6,0,L|26:130,1,110.000003356934,2|2,0:0|0:0,0:0:0:0:
4,31,118487,1,2,0:0:0:0:
4,31,118659,2,0,L|66:47,1,55.0000016784668,10|2,0:0|0:0,0:0:0:0:
103,75,119002,2,0,L|165:59,1,55.0000016784668,10|10,3:2|3:2,0:0:0:0:
209,49,119344,6,0,L|194:150,1,82.5000025177003,14|14,0:0|0:0,0:0:0:0:
246,196,119859,2,0,L|261:297,1,82.5000025177003,14|14,0:0|0:0,0:0:0:0:
237,362,120373,1,10,0:0:0:0:
237,362,120544,1,10,0:0:0:0:
237,362,120716,5,10,0:0:0:0:
465,208,121573,1,8,0:0:0:0:
465,208,121744,2,0,L|457:139,2,36.6666677856446,8|8|8,0:0|0:0|0:0,0:0:0:0:
456,247,122087,5,14,0:0:0:0:
256,192,132373,6,0,L|256:128,2,50,10|0|2,0:0|0:0|0:0,0:0:0:0:
231,235,132887,1,2,0:0:0:0:
231,235,133059,6,0,P|190:234|145:181,1,100,14|2,1:2|1:2,0:0:0:0:
113,113,133744,1,2,1:2:0:0:
113,113,133916,1,2,0:0:0:0:
113,113,134087,2,0,L|124:41,1,50,2|2,1:2|0:0,0:0:0:0:
109,14,134430,6,0,P|147:32|210:30,1,100,2|2,1:2|1:2,0:0:0:0:
301,7,135116,2,0,L|314:74,1,50,2|2,1:2|0:2,0:0:0:0:
301,105,135459,2,0,L|314:172,1,50,0|2,1:2|0:0,0:0:0:0:
320,203,135802,6,0,P|267:185|204:178,1,100,10|10,3:2|0:0,0:0:0:0:
182,207,136316,1,10,0:0:0:0:
182,207,136487,2,0,L|202:314,1,100,14|0,0:0|0:0,0:0:0:0:
212,354,137002,2,0,L|50:328,1,150,14|0,0:0|0:0,0:0:0:0:
15,242,137859,2,0,L|28:177,1,50,2|8,0:0|0:0,0:0:0:0:
23,152,138202,1,2,1:2:0:0:
23,152,138373,1,2,1:2:0:0:
23,152,138544,6,0,L|138:140,1,100,14|10,0:0|0:0,0:0:0:0:
230,143,139230,1,10,0:0:0:0:
230,143,139402,1,2,3:2:0:0:
230,143,139573,2,0,L|218:205,1,50,10|2,0:0|3:2,0:0:0:0:
211,241,139916,5,10,0:0:0:0:
310,254,140259,1,10,0:0:0:0:
363,354,140602,1,10,0:0:0:0:
363,354,140773,1,10,0:0:0:0:
363,354,140944,2,0,L|418:347,1,50,10|10,0:0|0:0,0:0:0:0:
462,339,141287,6,0,P|493:301|476:245,1,100,14|2,0:0|3:2,0:0:0:0:
443,224,141802,2,0,P|412:186|429:130,1,100,14|2,0:0|3:2,0:0:0:0:
454,101,142316,1,14,0:0:0:0:
454,101,142487,1,14,0:0:0:0:
454,101,142659,6,0,L|442:-2,1,100,2|2,0:3|0:3,0:0:0:0:
343,16,143344,2,0,L|355:119,1,100,2|2,0:3|0:3,0:0:0:0:
368,214,144030,5,10,0:0:0:0:
368,214,149516,5,2,3:2:0:0:
286,156,149859,1,2,3:2:0:0:
195,198,150202,1,2,3:2:0:0:
113,140,150545,1,2,3:2:0:0:
42,210,150887,6,0,L|55:321,1,100,2|2,3:2|3:2,0:0:0:0:
153,302,151573,2,0,L|254:334,1,100,2|2,3:2|3:2,0:0:0:0:
311,253,152259,2,0,L|412:221,1,100,2|2,3:2|3:2,0:0:0:0:
501,191,152944,1,2,3:2:0:0:
451,104,153287,2,0,L|464:39,1,50,2|0,3:2|0:0,0:0:0:0:
472,6,153630,5,10,0:0:0:0:
472,6,155002,6,0,P|490:40|505:112,1,100,14|2,1:2|1:2,0:0:0:0:
460,141,155516,2,0,P|416:122|345:121,1,100,2|2,0:0|0:0,0:0:0:0:
321,143,156030,1,2,1:2:0:0:
225,215,156373,2,0,L|108:223,1,100,2|2,1:2|1:2,0:0:0:0:
69,228,156887,1,2,0:0:0:0:
69,228,157059,2,0,P|99:194|106:126,1,100,2|2,1:2|1:2,0:0:0:0:
56,33,157744,6,0,P|84:8|163:9,1,100,2|2,1:2|1:2,0:0:0:0:
237,77,158430,2,0,L|306:67,1,50,2|2,1:2|0:0,0:0:0:0:
340,98,158773,1,2,1:2:0:0:
340,98,158944,1,2,1:2:0:0:
340,98,159116,2,0,L|362:-11,1,100,2|2,1:2|1:2,0:0:0:0:
478,19,159802,1,2,1:2:0:0:
451,135,160144,1,10,1:2:0:0:
331,128,160487,6,0,L|353:237,1,100,6|2,1:2|1:2,0:0:0:0:
362,279,161002,1,2,1:2:0:0:
362,279,161173,2,0,P|322:263|296:263,1,50,2|0,1:2|0:0,0:0:0:0:
276,294,161516,2,0,P|236:310|210:310,1,50,2|2,1:2|1:2,0:0:0:0:
181,296,161859,1,2,1:2:0:0:
77,355,162202,1,2,1:2:0:0:
77,355,162373,1,2,1:2:0:0:
77,355,162544,2,0,L|89:250,1,100,2|2,1:2|1:2,0:0:0:0:
65,210,163059,1,2,1:2:0:0:
65,210,163230,6,0,P|105:180|164:191,1,100,10|0,3:2|3:0,0:0:0:0:
187,220,163744,2,0,P|227:250|286:239,1,100,10|0,3:2|3:0,0:0:0:0:
318,221,164259,2,0,L|303:105,1,100,10|14,3:2|0:0,0:0:0:0:
90,24,165630,6,0,L|29:34,1,50,14|0,0:0|0:0,0:0:0:0:
14,80,165973,5,10,0:0:0:0:
92,156,166316,2,0,L|84:226,1,55.0000016784668,6|0,1:2|0:0,0:0:0:0:
106,261,166659,2,0,P|142:280|209:244,1,110.000003356934,10|2,0:0|1:2,0:0:0:0:
231,210,167173,1,2,0:0:0:0:
231,210,167344,2,0,L|362:229,1,110.000003356934,10|2,0:0|1:2,0:0:0:0:
391,206,167859,1,2,0:0:0:0:
468,284,168202,2,0,L|462:350,2,55.0000016784668,2|2|2,0:0|1:2|0:0,0:0:0:0:
499,239,168716,6,0,P|491:192|457:128,1,110.000003356934,10|0,0:0|1:0,0:0:0:0:
420,102,169230,1,2,0:0:0:0:
312,125,169573,2,0,L|306:59,1,55.0000016784668,2|2,0:0|1:2,0:0:0:0:
328,19,169916,1,2,0:0:0:0:
328,19,170087,2,0,L|211:6,1,110.000003356934,10|2,3:2|1:2,0:0:0:0:
176,43,170602,1,2,0:0:0:0:
176,43,170773,2,0,L|59:56,1,110.000003356934,10|2,3:2|1:2,0:0:0:0:
32,160,171459,5,10,0:0:0:0:
91,252,171802,2,0,L|83:322,1,55.0000016784668,6|0,1:2|0:0,0:0:0:0:
117,351,172145,2,0,P|157:353|203:292,1,110.000003356934,10|2,0:0|1:2,0:0:0:0:
203,253,172659,1,2,0:0:0:0:
203,253,172830,2,0,L|334:237,1,110.000003356934,10|0,0:0|1:0,0:0:0:0:
356,206,173345,1,2,0:0:0:0:
444,270,173688,2,0,L|438:336,2,55.0000016784668,2|2|2,0:0|1:2|0:0,0:0:0:0:
473,223,174202,6,0,L|463:102,1,110.000003356934,10|2,0:0|1:2,0:0:0:0:
459,58,174716,1,2,0:0:0:0:
354,92,175059,2,0,L|287:76,1,55.0000016784668,2|2,0:0|1:2,0:0:0:0:
257,44,175402,1,2,0:0:0:0:
257,44,175573,5,14,0:0:0:0:
197,136,175916,1,10,0:0:0:0:
105,75,176259,2,0,P|81:53|30:35,2,73.3333355712891,14|10|10,0:0|0:0|0:0,0:0:0:0:
93,161,176945,5,14,0:0:0:0:
93,161,177116,1,10,0:0:0:0:
93,161,177287,6,0,L|103:236,1,55.0000016784668,6|0,1:2|0:0,0:0:0:0:
79,266,177630,2,0,P|48:247|-3:253,2,82.5000025177003,10|2|2,0:0|0:0|0:0,0:0:0:0:
96,318,178316,1,10,0:0:0:0:
190,262,178659,2,0,L|316:280,1,110.000003356934,2|10,1:2|0:0,0:0:0:0:
349,255,179173,1,2,0:0:0:0:
349,255,179344,2,0,L|337:177,1,55.0000016784668,2|0,1:2|3:0,0:0:0:0:
362,150,179687,5,10,0:0:0:0:
469,174,180030,2,0,L|481:96,1,55.0000016784668,2|0,1:2|0:0,0:0:0:0:
487,65,180373,2,0,P|464:29|389:28,1,110.000003356934,10|2,0:0|1:2,0:0:0:0:
356,53,180887,1,2,0:0:0:0:
356,53,181059,6,0,L|230:66,1,110.000003356934,10|2,0:0|1:2,0:0:0:0:
195,43,181573,1,2,0:0:0:0:
195,43,181744,1,10,0:0:0:0:
148,143,182087,1,2,1:2:0:0:
41,113,182430,5,10,0:0:0:0:
72,218,182773,2,0,B|96:272|96:272|219:262,1,165.000005035401,6|2,1:2|0:0,0:0:0:0:
260,261,183459,1,2,3:2:0:0:
260,261,183630,2,0,L|275:131,1,110.000003356934,2|0,0:0|0:0,0:0:0:0:
258,98,184144,1,2,3:2:0:0:
343,29,184487,1,2,3:2:0:0:
447,89,184830,1,2,3:2:0:0:
447,89,185002,1,2,3:2:0:0:
447,89,185173,6,0,L|523:102,1,55.0000016784668,14|2,0:0|0:0,0:0:0:0:
496,153,185516,2,0,L|509:228,1,55.0000016784668,14|2,0:0|0:0,0:0:0:0:
452,220,185859,2,0,L|385:258,1,55.0000016784668,14|2,0:0|0:0,0:0:0:0:
373,201,186202,2,0,L|313:151,1,55.0000016784668,14|2,0:0|0:0,0:0:0:0:
363,120,186544,5,14,0:0:0:0:
148,47,187230,2,0,L|159:125,1,55.0000016784668,10|2,3:2|3:2,0:0:0:0:
139,154,187573,1,10,3:2:0:0:
139,154,187744,1,10,3:2:0:0:
139,154,187916,6,2,B|106:126|106:126|27:143,1,110.000003356934,14|2,0:0|1:2,0:1:0:0:
61,220,188516,2,2,L|79:313,1,82.5000025177003,10|10,0:0|0:0,0:1:0:0:
68,355,188944,1,2,1:2:0:0:
167,308,189287,2,2,P|219:297|284:325,1,110.000003356934,10|2,0:0|1:2,0:1:0:0:
341,359,189887,2,2,L|367:259,1,82.5000025177003,10|0,0:0|0:0,0:1:0:0:
353,234,190316,1,10,0:0:0:0:
353,234,190487,1,10,0:0:0:0:
353,234,190659,6,2,L|468:222,1,110.000003356934,10|2,0:0|1:2,0:1:0:0:
501,149,191259,2,2,P|482:108|429:92,1,82.5000025177003,10|10,0:0|0:0,0:1:0:0:
396,104,191687,1,2,1:2:0:0:
286,118,192030,2,2,B|248:99|248:99|233:27,1,110.000003356934,10|2,0:0|1:2,0:1:0:0:
153,14,192630,2,2,P|109:26|92:71,1,82.5000025177003,10|10,0:0|0:0,0:1:0:0:
118,116,193059,1,2,1:2:0:0:
118,116,193230,1,10,0:0:0:0:
118,116,193402,6,2,L|6:136,1,110.000003356934,14|2,0:0|1:2,0:1:0:0:
50,207,194002,2,2,L|39:311,1,82.5000025177003,10|10,0:0|0:0,0:1:0:0:
62,339,194430,1,2,1:2:0:0:
168,366,194773,2,2,P|215:343|215:282,1,110.000003356934,10|2,0:0|1:2,0:1:0:0:
179,217,195373,2,2,L|190:113,1,82.5000025177003,10|10,0:0|0:0,0:1:0:0:
166,83,195802,1,2,1:2:0:0:
166,83,195973,6,2,B|274:61|274:61|320:124,1,165.000005035401,14|2,0:0|1:2,0:1:0:0:
348,176,196744,2,0,L|446:183,1,82.5000025177003,10|10,0:0|0:0,0:0:0:0:
508,259,197344,6,0,P|511:305|454:352,1,110.000003356934,14|10,0:0|0:0,0:0:0:0:
414,336,197859,1,10,0:0:0:0:
309,301,198202,2,2,L|299:212,2,73.3333355712891,14|10|10,0:0|0:0|0:0,0:1:0:0:
256,372,198887,5,14,0:0:0:0:
12,8,200259,5,14,0:0:0:0:
256,372,201630,5,14,0:0:0:0:
207,273,201973,1,2,0:0:0:0:
97,293,202316,2,0,L|106:221,1,55.0000016784668,0|10,1:0|0:0,0:0:0:0:
81,188,202659,6,2,P|115:139|223:141,1,165.000005035401,14|14,0:0|0:0,0:1:0:0:
313,191,203516,1,2,0:0:0:0:
313,191,203687,2,0,L|330:61,1,110.000003356934,2|2,1:2|0:0,0:0:0:0:
411,10,204373,5,10,0:0:0:0:
486,209,205059,2,0,B|462:243|462:243|322:220,1,165.000005035401,2|2,1:2|0:0,0:0:0:0:
198,203,205916,6,0,L|213:329,1,110.000003356934,14|2,0:0|0:0,0:0:0:0:
188,362,206430,2,0,L|110:356,1,55.0000016784668,2|10,1:2|0:0,0:0:0:0:
100,328,206774,1,10,0:0:0:0:
100,328,206945,1,10,0:0:0:0:
100,328,207116,6,0,L|84:199,2,110.000003356934,14|10|10,0:0|0:0|0:0,0:0:0:0:
232,269,208144,1,10,0:0:0:0:
232,269,208316,2,0,L|224:221,1,27.5000008392334,2|14,1:2|0:0,0:0:0:0:
416,192,209859,5,14,0:0:0:0:
256,192,209944,12,2,220830,0:0:0:0:
256,192,220916,12,10,230430,0:0:0:0:
256,192,231116,6,0,L|256:256,1,50,10|10,0:0|0:0,0:0:0:0:
256,288,231459,1,14,0:0:0:0:
