osu file format v14

[General]
AudioFilename: audio.mp3
AudioLeadIn: 0
PreviewTime: 53516
Countdown: 0
SampleSet: Soft
StackLeniency: 0.5
Mode: 0
LetterboxInBreaks: 0
WidescreenStoryboard: 0

[Editor]
Bookmarks: 1402,12373,23344,34316,45287,56259,67230,78202,98687,100144,122087,133059,144030,155002,165973,166316,171459,171802,182430,182773,186544,187916,198887,202659,208402,209859,220830,231459
DistanceSpacing: 1.3
BeatDivisor: 4
GridSize: 32
TimelineZoom: 2.3

[Metadata]
Title:D4NCE
TitleUnicode:D4NCE
Artist:Zekk
ArtistUnicode:Zekk
Creator:eiri-
Version:Insane
Source:osu!
Tags:Ayyri Electronic Instrumental Featured Artist FA FÜGENE2 FUGENE 2 Future Core Bass Hardcore jcore DANCE
BeatmapID:2382800
BeatmapSetID:1140776

[Difficulty]
HPDrainRate:5
CircleSize:4
OverallDifficulty:8
ApproachRate:9
SliderMultiplier:1.4
SliderTickRate:1

[Events]
//Background and Video events
0,0,"D4NCE.jpg",0,0
//Break Periods
2,45487,53516
2,122287,130316
2,144230,148144
//Storyboard Layer 0 (Background)
//Storyboard Layer 1 (Fail)
//Storyboard Layer 2 (Pass)
//Storyboard Layer 3 (Foreground)
//Storyboard Layer 4 (Overlay)
//Storyboard Sound Samples

[TimingPoints]
1402,342.857142857143,4,2,1,75,1,0
1487,-100,4,2,1,50,0,0
12373,-100,4,2,1,50,0,0
20602,-100,4,2,1,55,0,0
21973,-100,4,2,1,60,0,0
23002,-200,4,2,1,70,0,0
23344,-100,4,2,1,75,0,0
33973,-200,4,2,1,75,0,0
34144,-50,4,2,1,75,0,0
34316,-100,4,2,1,75,0,0
42544,-86.9565217391304,4,2,1,75,0,0
43916,-133.333333333333,4,2,1,75,0,0
45287,-125,4,2,1,75,0,0
53516,-125,4,2,1,60,0,0
56259,-100,4,2,1,65,0,0
61744,-90.9090909090909,4,2,1,70,0,0
67230,-86.9565217391304,4,2,1,75,0,0
72716,-83.3333333333333,4,2,1,80,0,0
77859,-66.6666666666667,4,2,1,80,0,0
78202,-76.9230769230769,4,2,1,90,0,1
89173,-333.333333333333,4,2,1,90,0,1
92944,-76.9230769230769,4,2,1,90,0,1
98687,-90.9090909090909,4,2,1,80,0,0
100144,-74.0740740740741,4,2,1,100,0,1
122087,-125,4,2,1,75,0,0
130316,-125,4,2,1,60,0,0
133059,-100,4,2,1,65,0,0
138544,-90.9090909090909,4,2,1,70,0,0
144030,-100,4,2,1,75,0,0
149516,-100,4,2,1,60,0,0
155002,-86.9565217391304,4,2,1,75,0,0
160487,-83.3333333333333,4,2,1,80,0,0
165630,-66.6666666666667,4,2,1,80,0,0
165973,-200,4,2,1,90,0,1
166059,-200,4,2,1,90,0,0
166316,-66.6666666666667,4,2,1,90,0,1
171459,-200,4,2,1,90,0,0
171802,-66.6666666666667,4,2,1,90,0,1
182430,-200,4,2,1,90,0,0
182773,-76.9230769230769,4,2,1,90,0,1
186544,-66.6666666666667,4,2,1,80,0,0
187916,-57.1428571428571,4,2,1,100,0,1
188259,-100,4,2,1,100,0,1
188516,-57.1428571428571,4,2,1,100,0,1
193744,-100,4,2,1,100,0,1
194002,-57.1428571428571,4,2,1,100,0,1
198887,-333.333333333333,4,2,1,100,0,0
202659,-76.9230769230769,4,2,1,100,0,1
208402,-57.1428571428571,4,2,1,80,0,0
209859,-100,4,2,1,75,0,0
211230,-100,4,2,1,73,0,0
212602,-100,4,2,1,70,0,0
213973,-100,4,2,1,67,0,0
215344,-100,4,2,1,65,0,0
216716,-100,4,2,1,63,0,0
218087,-100,4,2,1,60,0,0
219459,-100,4,2,1,57,0,0
220830,-100,4,2,1,55,0,0
222202,-100,4,2,1,53,0,0
223573,-100,4,2,1,50,0,0
224944,-100,4,2,1,47,0,0
226316,-100,4,2,1,45,0,0
227687,-100,4,2,1,43,0,0
229059,-100,4,2,1,40,0,0
230430,-100,4,2,1,75,0,0
231459,-100,4,2,1,80,0,0

[Colours]
Combo1 : 231,137,109
Combo2 : 124,124,131
Combo3 : 255,96,96
Combo4 : 180,180,182

[HitObjects]
256,192,1402,5,14,0:0:0:0:
256,192,1487,12,2,12373,0:0:0:0:
256,192,12459,12,2,16487,0:0:0:0:
256,192,17859,5,10,0:0:0:0:
288,192,18202,1,8,0:0:0:0:
320,192,18544,1,8,0:0:0:0:
352,192,18887,1,8,0:0:0:0:
256,192,19230,5,10,0:0:0:0:
224,192,19573,1,8,0:0:0:0:
192,192,19915,1,8,0:0:0:0:
160,192,20258,1,8,0:0:0:0:
256,192,20602,5,10,0:0:0:0:
256,224,20945,1,8,0:0:0:0:
256,256,21287,1,8,0:0:0:0:
256,288,21630,1,8,0:0:0:0:
256,96,21973,5,14,0:0:0:0:
256,96,22487,2,0,L|256:160,1,35,10|10,0:0|0:0,0:0:0:0:
256,288,22659,1,10,0:0:0:0:
256,320,22830,1,10,0:0:0:0:
256,372,23002,6,2,L|256:308,1,52.5,2|0,1:2|0:0,0:1:0:0:
256,192,23344,5,14,0:0:0:0:
378,257,23516,2,0,P|421:238|438:209,1,70,2|8,0:0|0:0,0:0:0:0:
454,147,23859,1,2,0:0:0:0:
334,87,24030,2,0,L|260:96,1,70,10|0,0:0|0:0,0:0:0:0:
196,138,24287,6,0,L|152:131,1,35,2|10,0:0|0:0,0:0:0:0:
89,46,24459,1,2,0:0:0:0:
89,46,24544,2,0,L|133:39,1,35,2|0,0:0|0:0,0:0:0:0:
64,192,24716,5,10,0:0:0:0:
174,240,24887,1,2,0:0:0:0:
169,255,24973,1,2,0:0:0:0:
181,273,25059,2,0,P|234:266|283:266,1,70,10|0,0:0|0:0,0:0:0:0:
350,275,25402,1,10,0:0:0:0:
273,371,25573,1,2,1:2:0:0:
305,175,25744,1,10,0:0:0:0:
312,188,25830,1,10,0:0:0:0:
333,157,25916,2,0,P|326:131|305:108,1,35,10|0,1:2|0:0,0:0:0:0:
240,39,26087,5,10,0:0:0:0:
119,120,26259,2,0,P|62:113|32:98,1,70,2|8,0:0|0:0,0:0:0:0:
0,48,26602,1,2,0:0:0:0:
210,21,26773,2,0,L|198:105,1,70,10|0,0:0|0:0,0:0:0:0:
188,185,27030,6,0,L|233:175,1,35,2|10,0:0|0:0,0:0:0:0:
330,241,27202,1,2,0:0:0:0:
330,241,27287,2,0,L|285:231,1,35,2|0,0:0|0:0,0:0:0:0:
472,155,27459,6,0,P|462:211|460:252,1,70,10|0,0:0|0:0,0:0:0:0:
460,224,27716,1,2,0:0:0:0:
460,224,27802,2,0,P|470:280|472:321,1,70,2|0,1:2|0:0,0:0:0:0:
448,370,28144,1,10,0:0:0:0:
305,309,28316,1,2,1:2:0:0:
108,370,28487,1,10,0:0:0:0:
95,354,28573,1,10,0:0:0:0:
113,344,28659,2,0,L|180:329,1,35,2|0,1:2|0:0,0:0:0:0:
335,301,28830,5,10,0:0:0:0:
359,191,29002,1,10,0:0:0:0:
383,81,29173,1,10,0:0:0:0:
244,65,29344,2,0,L|194:75,1,35,2|2,0:0|0:0,0:0:0:0:
157,65,29516,2,0,L|174:156,1,70,10|0,0:0|0:0,0:0:0:0:
233,196,29773,6,0,L|222:250,1,35,2|10,0:0|0:0,0:0:0:0:
114,314,29944,1,2,0:0:0:0:
114,314,30030,2,0,L|103:260,1,35,2|0,0:0|0:0,0:0:0:0:
288,352,30202,5,10,0:0:0:0:
366,211,30373,1,2,0:0:0:0:
375,223,30459,1,2,0:0:0:0:
393,232,30544,2,0,P|444:203|451:182,1,70,10|0,0:0|0:0,0:0:0:0:
469,121,30887,1,10,0:0:0:0:
288,96,31059,1,2,1:2:0:0:
320,288,31230,1,10,0:0:0:0:
330,279,31316,1,10,0:0:0:0:
312,262,31402,2,0,L|251:272,1,35,2|0,1:2|0:0,0:0:0:0:
134,287,31573,5,10,0:0:0:0:
172,148,31744,2,0,P|153:109|131:80,1,70,2|8,0:0|0:0,0:0:0:0:
69,48,32087,1,2,0:0:0:0:
230,4,32259,2,0,L|321:14,1,70,10|2,0:0|0:0,0:0:0:0:
363,62,32516,6,0,L|407:55,1,35,2|10,0:0|0:0,0:0:0:0:
495,16,32687,1,2,1:2:0:0:
495,16,32773,2,0,L|451:9,1,35,2|2,1:2|1:2,0:0:0:0:
493,183,32944,6,0,L|515:318,1,105,14|0,0:0|0:0,0:0:0:0:
492,365,33287,1,10,0:0:0:0:
492,365,33459,1,10,0:0:0:0:
359,308,33630,2,0,L|285:320,1,70,2|0,1:2|0:0,0:0:0:0:
153,340,33973,6,2,L|158:320,1,17.5,10|0,0:0|0:0,0:1:0:0:
153,340,34144,6,2,L|135:253,1,70,2|0,1:2|0:0,0:1:0:0:
105,115,34316,5,14,0:0:0:0:
208,148,34487,2,0,P|251:129|268:100,1,70,2|8,0:0|0:0,0:0:0:0:
284,38,34830,1,2,0:0:0:0:
430,116,35001,2,0,L|504:107,1,70,10|0,0:0|0:0,0:0:0:0:
370,203,35258,6,0,L|326:196,1,35,2|10,0:0|0:0,0:0:0:0:
263,111,35430,1,2,0:0:0:0:
263,111,35516,2,0,L|307:104,1,35,2|0,0:0|0:0,0:0:0:0:
238,257,35687,5,10,0:0:0:0:
392,293,35858,1,2,0:0:0:0:
397,308,35944,1,2,0:0:0:0:
385,326,36030,2,0,P|332:319|283:319,1,70,10|0,0:0|0:0,0:0:0:0:
196,346,36373,1,10,0:0:0:0:
320,171,36544,1,2,1:2:0:0:
392,293,36715,1,10,0:0:0:0:
399,306,36801,1,10,0:0:0:0:
420,275,36887,2,0,P|413:249|392:226,1,35,10|0,1:2|0:0,0:0:0:0:
323,154,37058,5,10,0:0:0:0:
163,243,37230,2,0,P|106:236|76:221,1,70,2|8,0:0|0:0,0:0:0:0:
44,171,37573,1,2,0:0:0:0:
143,52,37744,2,0,L|230:62,1,70,10|0,0:0|0:0,0:0:0:0:
292,170,38001,6,0,L|247:160,1,35,2|10,0:0|0:0,0:0:0:0:
150,226,38173,1,2,0:0:0:0:
150,226,38258,2,0,L|195:216,1,35,2|0,0:0|0:0,0:0:0:0:
404,90,38430,6,0,P|394:146|392:187,1,70,10|0,0:0|0:0,0:0:0:0:
392,159,38687,1,2,0:0:0:0:
392,159,38773,2,0,P|402:215|404:256,1,70,2|0,1:2|0:0,0:0:0:0:
379,329,39115,1,10,0:0:0:0:
305,274,39287,1,2,1:2:0:0:
495,239,39458,1,10,0:0:0:0:
508,223,39544,1,10,0:0:0:0:
490,213,39630,2,0,L|423:198,1,35,2|0,1:2|0:0,0:0:0:0:
266,173,39801,5,14,0:0:0:0:
266,173,39973,2,0,L|276:259,1,70,2|0,0:0|0:0,0:0:0:0:
175,119,40316,2,0,L|165:205,1,70,2|0,0:0|0:0,0:0:0:0:
306,53,40659,1,2,0:0:0:0:
306,53,40744,6,0,L|317:107,1,35,2|0,0:0|0:0,0:0:0:0:
425,171,40915,1,2,0:0:0:0:
425,171,41001,2,0,L|436:117,1,35,2|0,0:0|0:0,0:0:0:0:
251,209,41173,5,2,0:0:0:0:
355,273,41344,1,2,0:0:0:0:
347,286,41430,1,2,0:0:0:0:
356,304,41516,2,0,L|443:296,1,70,2|2,0:0|0:0,0:0:0:0:
425,297,41773,1,2,0:0:0:0:
425,297,41858,1,2,0:0:0:0:
335,178,42030,1,2,0:0:0:0:
235,370,42201,1,2,0:0:0:0:
239,243,42373,2,0,L|178:253,1,35,2|0,0:0|0:0,0:0:0:0:
62,277,42544,5,10,1:2:0:0:
62,277,42630,1,10,0:0:0:0:
62,277,42716,2,0,P|86:260|121:248,1,40.2500007677078,10|10,0:0|0:0,0:0:0:0:
160,323,42887,1,10,1:2:0:0:
160,323,42973,1,10,0:0:0:0:
160,323,43059,2,0,P|184:340|219:352,1,40.2500007677078,10|10,0:0|0:0,0:0:0:0:
286,279,43230,5,10,1:2:0:0:
286,279,43316,1,10,0:0:0:0:
286,279,43402,2,0,P|310:262|345:250,1,40.2500007677078,10|10,0:0|0:0,0:0:0:0:
425,350,43572,1,10,1:2:0:0:
425,350,43658,1,10,1:2:0:0:
425,350,43744,2,0,P|449:367|484:379,1,40.2500007677078,10|10,1:2|1:2,0:0:0:0:
512,192,43916,5,10,0:0:0:0:
512,192,44259,2,0,L|497:120,1,52.5000020027161,2|0,0:3|0:0,0:0:0:0:
512,59,44602,1,0,0:0:0:0:
512,59,44687,1,0,0:0:0:0:
512,59,44773,2,0,L|451:52,1,52.5000020027161,2|0,0:3|0:0,0:0:0:0:
347,36,45116,1,2,0:3:0:0:
353,45,45202,1,2,0:3:0:0:
350,64,45287,5,14,0:0:0:0:
256,192,55573,6,0,L|314:180,1,56,2|0,1:2|0:0,0:0:0:0:
399,240,55916,1,10,0:0:0:0:
399,240,56087,1,10,0:0:0:0:
399,240,56259,6,0,P|422:188|420:121,1,105,14|0,0:0|0:0,0:0:0:0:
439,95,56602,2,0,P|420:60|389:31,1,70,2|0,1:2|0:0,0:0:0:0:
319,8,56944,1,10,0:0:0:0:
173,78,57116,1,10,0:0:0:0:
295,51,57287,1,2,1:2:0:0:
107,13,57459,1,2,0:0:0:0:
107,13,57630,6,0,P|126:73|124:144,1,105,10|0,0:0|0:0,0:0:0:0:
108,166,57973,2,0,L|8:155,1,70,2|0,1:2|0:0,0:0:0:0:
171,111,58316,1,10,0:0:0:0:
213,243,58487,1,10,0:0:0:0:
305,211,58659,1,2,1:2:0:0:
140,196,58830,1,10,0:0:0:0:
140,196,59002,6,0,P|120:242|114:290,1,70,10|0,0:0|0:0,0:0:0:0:
235,165,59344,1,2,1:2:0:0:
279,290,59516,1,2,0:0:0:0:
439,248,59687,2,0,P|398:220|329:227,1,105,10|0,0:0|0:0,0:0:0:0:
351,228,60030,2,0,P|386:185|375:147,1,70,2|2,1:2|0:0,0:0:0:0:
333,93,60373,6,0,L|296:109,2,35,10|2|2,0:0|0:0|0:0,0:0:0:0:
220,185,60716,2,0,L|183:169,2,35,2|2|2,1:2|0:0|0:0,0:0:0:0:
107,93,61059,2,0,L|70:109,2,35,10|2|2,0:0|0:0|1:2,0:0:0:0:
111,110,61316,1,2,1:2:0:0:
115,127,61402,2,0,L|107:188,1,35,2|0,1:2|0:0,0:0:0:0:
98,251,61573,2,0,L|90:312,1,35,2|0,1:2|0:0,0:0:0:0:
81,376,61744,6,0,P|146:340|196:370,1,115.50000352478,14|0,0:0|0:0,0:0:0:0:
196,346,62087,2,0,P|243:366|284:338,1,77.0000023498536,2|0,1:2|0:0,0:0:0:0:
365,305,62430,1,10,0:0:0:0:
360,297,62516,1,2,0:0:0:0:
371,284,62602,2,0,L|440:275,1,38.5000011749268,2|0,0:0|0:0,0:0:0:0:
511,267,62773,1,2,1:2:0:0:
505,138,62944,1,2,0:0:0:0:
511,150,63030,1,2,0:0:0:0:
505,166,63116,5,10,0:0:0:0:
339,214,63287,1,2,0:0:0:0:
309,106,63459,1,2,1:2:0:0:
475,58,63630,1,2,0:0:0:0:
373,15,63802,2,0,L|390:82,1,38.5000011749268,10|0,0:0|0:0,0:0:0:0:
441,257,63973,2,0,L|424:190,1,38.5000011749268,10|0,0:0|0:0,0:0:0:0:
388,72,64144,1,2,1:2:0:0:
426,200,64316,1,8,0:0:0:0:
373,15,64487,6,0,P|352:59|235:61,1,154.000004699707,10|2,0:0|1:2,0:0:0:0:
168,39,65002,1,10,0:0:0:0:
168,39,65087,1,10,0:0:0:0:
168,39,65173,2,0,B|131:23|131:23|29:49,1,115.50000352478,10|8,0:0|0:0,0:0:0:0:
58,41,65516,2,0,L|70:111,1,38.5000011749268,2|8,1:2|0:0,0:0:0:0:
95,257,65687,1,14,0:0:0:0:
104,246,65859,6,0,L|208:258,1,77.0000023498536,2|0,0:3|0:0,0:0:0:0:
235,351,66202,2,0,L|131:339,1,77.0000023498536,2|0,0:3|0:0,0:0:0:0:
277,325,66544,2,0,L|381:337,1,77.0000023498536,2|0,0:3|0:0,0:0:0:0:
425,378,66887,2,0,L|321:366,1,77.0000023498536,2|2,0:3|0:3,0:0:0:0:
509,306,67230,6,0,P|485:244|443:184,1,120.750002303124,14|0,1:2|0:0,0:0:0:0:
456,199,67573,2,0,L|447:267,1,40.2500007677078,2|0,1:2|0:0,0:0:0:0:
492,109,67744,2,0,L|482:41,1,40.2500007677078,2|0,1:2|0:0,0:0:0:0:
336,129,67916,2,0,P|295:110|288:65,1,80.5000015354157,2|2,1:2|0:0,0:0:0:0:
287,66,68173,1,2,1:2:0:0:
296,48,68259,1,2,1:2:0:0:
393,0,68430,1,2,1:2:0:0:
381,195,68602,6,0,P|327:184|246:181,1,120.750002303124,2|0,1:2|0:0,0:0:0:0:
261,180,68944,2,0,L|276:250,1,40.2500007677078,2|0,1:2|0:0,0:0:0:0:
295,320,69116,2,0,L|309:389,1,40.2500007677078,2|0,1:2|0:0,0:0:0:0:
139,378,69287,2,0,P|158:327|188:284,1,80.5000015354157,2|2,1:2|0:0,0:0:0:0:
207,268,69544,1,2,1:2:0:0:
207,268,69630,2,0,B|184:255|184:255|105:274,1,80.5000015354157,2|0,1:2|0:0,0:0:0:0:
13,297,69973,6,0,P|63:247|36:184,1,120.750002303124,2|0,1:2|0:0,0:0:0:0:
55,203,70316,2,0,L|59:163,1,40.2500007677078,2|0,1:2|0:0,0:0:0:0:
15,49,70487,2,0,L|19:88,1,40.2500007677078,2|0,1:2|0:0,0:0:0:0:
180,50,70659,6,0,P|228:59|270:78,1,80.5000015354157,2|2,1:2|0:0,0:0:0:0:
267,79,70916,1,2,1:2:0:0:
282,91,71002,1,2,1:2:0:0:
319,180,71173,1,2,1:2:0:0:
192,288,71344,6,0,L|65:275,1,120.750002303124,2|0,1:2|0:0,0:0:0:0:
72,276,71687,2,0,L|53:208,1,40.2500007677078,2|0,1:2|0:0,0:0:0:0:
120,147,71859,2,0,L|139:79,1,40.2500007677078,2|0,1:2|0:0,0:0:0:0:
163,21,72030,2,0,P|209:39|257:32,1,80.5000015354157,2|2,1:2|0:0,0:0:0:0:
250,35,72287,1,2,1:2:0:0:
275,19,72373,5,10,1:2:0:0:
322,49,72487,1,10,0:0:0:0:
397,29,72602,1,10,0:0:0:0:
470,66,72716,6,0,P|456:138|446:227,1,125.999996154785,6|0,1:2|0:0,0:0:0:0:
458,266,73059,2,0,P|403:250|386:261,1,41.9999987182618,2|0,1:2|0:0,0:0:0:0:
371,357,73230,2,0,P|391:351|406:337,1,41.9999987182618,2|0,1:2|0:0,0:0:0:0:
265,317,73402,2,0,P|206:308|128:266,1,125.999996154785,2|0,1:2|0:0,0:0:0:0:
97,206,73744,2,0,P|133:203|147:211,1,41.9999987182618,2|0,1:2|0:0,0:0:0:0:
59,312,73916,2,0,P|38:316|18:310,1,41.9999987182618,2|0,1:2|0:0,0:0:0:0:
3,180,74087,6,0,P|41:140|109:97,1,125.999996154785,2|0,1:2|0:0,0:0:0:0:
199,126,74430,2,0,P|166:138|152:118,1,41.9999987182618,2|0,1:2|0:0,0:0:0:0:
247,20,74602,2,0,P|267:17|282:30,1,41.9999987182618,2|0,1:2|0:0,0:0:0:0:
393,139,74773,2,0,P|440:117|425:21,1,125.999996154785,2|0,1:2|0:0,0:0:0:0:
384,8,75116,2,0,P|366:26|357:49,1,41.9999987182618,2|0,1:2|0:0,0:0:0:0:
348,144,75287,2,0,P|357:162|372:176,1,41.9999987182618,2|0,1:2|0:0,0:0:0:0:
502,241,75459,5,10,3:2:0:0:
504,234,75544,1,0,3:0:0:0:
506,227,75630,2,0,L|439:241,1,41.9999987182618,0|0,3:0|3:0,0:0:0:0:
403,365,75802,2,0,L|470:351,1,41.9999987182618,0|0,3:0|3:0,0:0:0:0:
270,306,75973,1,10,3:2:0:0:
272,314,76059,1,0,3:0:0:0:
274,322,76144,2,0,L|265:376,3,41.9999987182618,0|0|0|0,3:0|3:0|3:0|3:0,0:0:0:0:
339,243,76487,2,0,L|330:189,3,41.9999987182618,10|2|2|0,3:2|3:2|3:2|3:2,0:0:0:0:
495,305,76830,5,14,0:0:0:0:
208,239,77173,1,10,0:0:0:0:
208,239,77344,1,10,0:0:0:0:
208,239,77516,2,0,B|180:186|180:186|113:208,1,125.999996154785,2|0,1:2|0:0,0:0:0:0:
117,206,77859,6,2,L|300:184,1,157.500006008148,14|0,0:0|0:0,0:1:0:0:
446,172,78202,6,0,P|392:157|413:223,1,136.499993751526,14|0,0:0|0:0,0:0:0:0:
425,201,78544,1,10,0:0:0:0:
464,81,78716,1,10,0:0:0:0:
497,272,78887,1,2,1:2:0:0:
512,174,79059,1,2,0:0:0:0:
320,256,79230,6,0,L|309:200,1,45.4999979171754,2|0,3:2|3:0,0:0:0:0:
320,256,79402,2,0,L|309:200,1,45.4999979171754,2|0,3:2|3:0,0:0:0:0:
320,256,79573,2,0,L|309:200,1,45.4999979171754,2|0,3:2|3:0,0:0:0:0:
293,106,79744,6,0,P|232:110|216:199,1,136.499993751526,14|0,0:0|0:0,0:0:0:0:
209,188,80087,2,0,L|216:115,1,45.4999979171754,2|0,0:0|0:0,0:0:0:0:
222,9,80259,1,2,1:2:0:0:
227,20,80430,6,0,L|258:15,3,22.7499989585877,2|2|2|2,0:0|0:0|0:0|0:0,0:0:0:0:
298,32,80602,1,10,0:0:0:0:
190,92,80773,1,10,0:0:0:0:
16,23,80944,6,0,P|33:90|62:177,1,136.499993751526,14|0,0:0|0:0,0:0:0:0:
85,201,81287,1,10,0:0:0:0:
113,49,81459,1,10,0:0:0:0:
146,268,81630,1,2,1:2:0:0:
12,251,81802,2,0,L|79:236,1,45.4999979171754,10|10,0:0|0:0,0:0:0:0:
278,203,81973,6,0,L|165:184,2,90.9999958343508,14|8|8,0:0|0:0|0:0,0:0:0:0:
176,307,82487,2,0,L|63:326,2,90.9999958343508,14|8|8,0:0|0:0|0:0,0:0:0:0:
340,340,83002,5,6,1:2:0:0:
345,351,83173,5,2,0:0:0:0:
340,372,83344,5,2,0:0:0:0:
340,372,83687,6,0,P|302:315|314:268,1,90.9999958343508,14|0,0:0|0:0,0:0:0:0:
420,226,83944,6,0,P|414:270|383:303,1,90.9999958343508,14|0,0:0|0:0,0:0:0:0:
243,236,84202,6,0,P|249:191|280:159,1,90.9999958343508,14|2,0:0|1:2,0:0:0:0:
280,159,84459,1,2,1:2:0:0:
280,159,84544,1,2,1:2:0:0:
141,207,84716,5,2,0:0:0:0:
213,82,84887,1,2,0:0:0:0:
224,320,85059,1,2,0:0:0:0:
224,320,85230,6,0,P|162:286|91:281,1,136.499993751526,14|0,0:0|0:0,0:0:0:0:
87,314,85573,2,0,P|119:293|126:274,1,45.4999979171754,2|0,0:0|0:0,0:0:0:0:
110,153,85744,2,0,L|-4:187,1,90.9999958343508,2|0,1:2|0:0,0:0:0:0:
245,247,86087,1,10,0:0:0:0:
245,247,86259,1,10,0:0:0:0:
245,247,86430,6,0,P|222:121|209:79,1,136.499993751526,14|0,0:0|3:0,0:0:0:0:
186,44,86773,1,2,1:2:0:0:
179,55,86859,1,2,1:2:0:0:
159,52,86944,1,10,0:0:0:0:
365,18,87116,6,0,P|432:43|498:81,1,136.499993751526,14|0,0:0|0:0,0:0:0:0:
416,77,87459,2,0,L|424:156,1,45.4999979171754,10|0,0:0|0:0,0:0:0:0:
434,293,87630,1,10,0:0:0:0:
446,285,87716,1,10,0:0:0:0:
436,267,87802,6,0,L|323:288,1,90.9999958343508,14|0,0:0|0:0,0:0:0:0:
268,338,88144,2,0,L|155:317,1,90.9999958343508,14|0,0:0|0:0,0:0:0:0:
112,282,88487,2,0,L|-1:303,1,90.9999958343508,14|0,0:0|0:0,0:0:0:0:
30,308,88830,6,0,L|85:314,1,45.4999979171754,10|2,0:0|1:2,0:0:0:0:
91,194,89002,2,0,L|36:188,1,45.4999979171754,2|2,1:2|1:2,0:0:0:0:
209,275,89173,6,0,L|182:118,1,157.499995193482,14|0,0:0|0:0,0:0:0:0:
180,112,90544,6,0,L|249:123,1,62.9999980773926,14|2,0:0|0:0,0:0:0:0:
336,83,91230,1,2,0:0:0:0:
365,153,91402,1,2,0:0:0:0:
385,17,91573,1,2,0:0:0:0:
414,219,91744,1,10,0:0:0:0:
422,214,91830,1,10,0:0:0:0:
434,227,91916,6,0,L|431:261,1,31.4999990386963,14|0,0:0|0:0,0:0:0:0:
465,323,92259,2,0,L|468:293,1,20.9999993591309,2|2,0:0|0:0,0:0:0:0:
272,370,92602,1,0,1:0:0:0:
335,273,92773,1,10,0:0:0:0:
335,273,92859,1,10,0:0:0:0:
335,273,92944,6,2,B|235:254|235:254|188:189|188:189|83:179,2,272.999987503052,14|14|2,0:0|0:0|1:2,0:1:0:0:
432,241,94316,1,2,0:0:0:0:
369,116,94659,5,10,0:0:0:0:
369,116,95002,2,0,L|376:66,3,45.4999979171754,10|10|10|10,0:0|0:0|0:0|0:0,0:0:0:0:
326,11,95344,5,2,1:2:0:0:
326,11,95430,1,2,1:2:0:0:
326,11,95516,1,2,1:2:0:0:
375,149,95859,1,2,0:0:0:0:
176,177,96202,6,0,L|197:326,1,136.499993751526,14|0,0:0|0:0,0:0:0:0:
202,361,96544,1,2,0:0:0:0:
401,303,96716,1,2,1:2:0:0:
304,276,96887,1,10,0:0:0:0:
304,276,96973,1,10,0:0:0:0:
304,276,97059,2,0,L|319:227,1,45.4999979171754,10|0,0:0|0:0,0:0:0:0:
431,175,97230,2,0,L|416:126,1,45.4999979171754,10|0,0:0|0:0,0:0:0:0:
379,16,97402,6,0,P|328:34|311:82,1,90.9999958343508,14|0,0:0|0:0,0:0:0:0:
308,78,97659,2,0,P|251:76|233:34,1,90.9999958343508,2|0,0:0|0:0,0:0:0:0:
227,5,97916,2,0,L|123:15,1,90.9999958343508,2|8,0:0|0:0,0:0:0:0:
139,144,98173,2,0,L|243:154,1,90.9999958343508,2|0,0:0|0:0,0:0:0:0:
48,82,98430,1,10,0:0:0:0:
56,69,98602,6,0,L|50:157,1,45.4999979171754,2|14,1:2|0:0,0:0:0:0:
59,357,99459,5,10,0:0:0:0:
75,352,99573,1,10,0:0:0:0:
111,340,99687,1,10,0:0:0:0:
162,237,99802,5,2,1:2:0:0:
142,244,99916,1,2,1:2:0:0:
97,259,100030,1,2,1:2:0:0:
245,327,100144,6,0,P|292:269|269:186,1,141.750000540733,14|0,0:0|0:0,0:0:0:0:
239,145,100487,1,2,0:0:0:0:
239,145,100573,1,2,0:0:0:0:
239,145,100659,2,0,L|248:86,1,47.2500001802444,2|0,0:0|0:0,0:0:0:0:
259,9,100830,1,2,1:2:0:0:
259,22,101002,6,0,L|105:49,1,141.750000540733,14|0,0:0|0:0,0:0:0:0:
78,115,101344,1,10,0:0:0:0:
78,115,101430,1,10,0:0:0:0:
78,115,101516,6,0,L|97:238,1,94.5000003604889,14|0,0:0|0:0,0:0:0:0:
70,249,101773,2,0,L|51:372,1,94.5000003604889,2|0,0:0|0:0,0:0:0:0:
68,373,102030,1,10,0:0:0:0:
273,337,102202,1,2,1:2:0:0:
176,307,102373,2,0,L|166:233,1,47.2500001802444,10|2,0:0|0:0,0:0:0:0:
176,307,102544,2,0,L|166:233,1,47.2500001802444,2|2,0:0|0:0,0:0:0:0:
176,307,102716,2,0,L|166:233,1,47.2500001802444,10|2,0:0|0:0,0:0:0:0:
155,136,102887,6,0,B|209:99|209:99|346:125,1,189.000000720978,14|0,0:0|0:0,0:0:0:0:
408,149,103316,1,2,0:0:0:0:
408,149,103402,2,0,L|397:79,1,47.2500001802444,2|0,0:0|0:0,0:0:0:0:
362,274,103573,1,2,1:2:0:0:
362,274,103744,2,0,P|308:270|235:207,1,141.750000540733,14|0,0:0|0:0,0:0:0:0:
206,152,104087,1,10,0:0:0:0:
206,152,104173,1,10,0:0:0:0:
206,152,104259,6,0,L|101:175,1,94.5000003604889,14|0,0:0|3:0,0:0:0:0:
13,117,104516,2,0,L|105:96,1,94.5000003604889,10|0,0:0|3:0,0:0:0:0:
167,9,104773,2,0,L|94:26,1,47.2500001802444,14|0,0:0|3:0,0:0:0:0:
275,83,104944,1,2,1:2:0:0:
287,72,105030,1,2,0:0:0:0:
279,40,105116,1,2,0:0:0:0:
303,218,105287,2,0,P|354:194|373:151,1,94.5000003604889,14|2,0:0|3:2,0:0:0:0:
377,146,105544,1,2,3:2:0:0:
373,110,105630,6,0,B|423:74|466:91|466:91|447:150|480:211,1,189.000000720978,14|0,0:0|0:0,0:0:0:0:
466,179,106144,2,0,L|462:246,1,47.2500001802444,2|0,0:0|0:0,0:0:0:0:
454,371,106316,1,2,1:2:0:0:
400,311,106487,1,10,0:0:0:0:
242,368,106659,2,0,L|183:376,1,47.2500001802444,2|2,0:0|0:0,0:0:0:0:
80,338,106830,1,10,0:0:0:0:
80,338,106916,1,10,0:0:0:0:
80,338,107002,6,0,P|113:286|164:281,1,94.5000003604889,14|0,0:0|0:0,0:0:0:0:
174,236,107259,2,0,P|234:249|256:295,1,94.5000003604889,2|0,0:0|0:0,0:0:0:0:
293,365,107516,6,0,P|363:352|372:236,1,189.000000720978,14|14,0:0|0:0,0:0:0:0:
302,174,108030,1,2,0:0:0:0:
467,141,108202,1,14,0:0:0:0:
452,65,108373,6,0,L|440:183,2,94.5000003604889,14|2|2,0:0|3:2|3:2,0:0:0:0:
307,28,108887,2,0,L|319:146,2,94.5000003604889,14|2|2,0:0|3:2|3:2,0:0:0:0:
190,85,109402,2,0,L|180:179,1,94.5000003604889,14|2,0:0|3:2,0:0:0:0:
45,48,109744,5,14,0:0:0:0:
45,48,110087,5,10,0:0:0:0:
273,8,110259,1,2,1:2:0:0:
273,8,110602,5,10,0:0:0:0:
272,19,110773,2,0,L|216:14,1,47.2500001802444,2|2,3:2|3:2,0:0:0:0:
272,19,110944,2,0,L|216:14,1,47.2500001802444,2|2,3:2|3:2,0:0:0:0:
125,66,111116,6,0,P|161:32|207:91,2,141.750000540733,14|14|14,0:0|0:0|0:0,0:0:0:0:
288,32,111802,1,6,1:2:0:0:
320,224,111973,6,0,L|332:108,1,94.5000003604889,14|0,0:0|0:0,0:0:0:0:
219,174,112316,1,10,0:0:0:0:
219,174,112402,1,10,0:0:0:0:
219,174,112487,6,0,L|125:157,1,94.5000003604889,14|0,0:0|0:0,0:0:0:0:
121,192,112744,2,0,L|27:209,1,94.5000003604889,2|0,0:0|0:0,0:0:0:0:
29,220,113002,1,10,0:0:0:0:
114,83,113173,1,2,1:2:0:0:
175,272,113344,2,0,P|227:232|232:190,1,94.5000003604889,10|2,0:0|0:0,0:0:0:0:
238,130,113687,1,2,0:0:0:0:
238,130,113859,6,0,L|343:152,1,94.5000003604889,14|2,0:0|3:2,0:0:0:0:
399,116,114116,1,2,3:2:0:0:
399,116,114202,2,0,L|504:94,1,94.5000003604889,14|2,3:2|3:2,0:0:0:0:
448,256,114544,6,0,L|343:234,1,94.5000003604889,14|2,0:0|3:2,0:0:0:0:
357,246,114802,1,2,3:2:0:0:
358,255,114887,1,14,3:2:0:0:
340,285,114973,2,0,L|350:347,2,47.2500001802444,2|2|2,3:2|3:2|3:2,0:0:0:0:
320,174,115230,5,14,0:0:0:0:
176,239,115487,1,2,0:0:0:0:
111,143,115744,1,2,0:0:0:0:
311,193,115916,5,10,0:0:0:0:
195,245,116173,1,2,0:0:0:0:
143,168,116430,1,2,0:0:0:0:
430,142,116602,6,0,L|416:265,1,94.5000003604889,14|0,0:0|0:0,0:0:0:0:
336,44,116944,2,0,L|350:167,1,94.5000003604889,10|0,0:0|0:0,0:0:0:0:
509,9,117287,2,0,L|495:132,1,94.5000003604889,10|2,0:0|3:2,0:0:0:0:
498,102,117544,1,2,3:2:0:0:
498,102,117630,1,2,3:2:0:0:
313,27,117802,6,0,L|212:44,1,94.5000003604889,2|8,0:0|0:0,0:0:0:0:
140,110,118144,2,0,L|39:93,1,94.5000003604889,2|8,0:0|0:0,0:0:0:0:
208,16,118487,1,2,0:0:0:0:
236,224,118659,1,10,0:0:0:0:
230,212,118744,1,2,0:0:0:0:
237,197,118830,1,2,0:0:0:0:
228,178,118916,1,2,0:0:0:0:
241,148,119002,2,0,L|225:84,1,47.2500001802444,10|2,3:2|3:2,0:0:0:0:
281,297,119173,2,0,L|297:361,1,47.2500001802444,10|10,3:2|3:2,0:0:0:0:
146,275,119344,6,0,L|2:305,1,141.750000540733,14|14,0:0|0:0,0:0:0:0:
366,275,119859,6,0,L|510:305,1,141.750000540733,14|14,0:0|0:0,0:0:0:0:
256,96,120373,6,0,L|256:0,1,94.5000003604889,10|10,0:0|0:0,0:0:0:0:
256,192,120716,5,10,0:0:0:0:
256,192,121487,2,0,L|256:288,1,94.5000003604889,8|8,0:0|0:0,0:0:0:0:
256,320,121744,5,8,0:0:0:0:
288,352,121859,1,8,0:0:0:0:
352,320,121973,1,8,0:0:0:0:
416,352,122087,5,14,0:0:0:0:
256,192,132373,6,0,L|198:180,1,56,10|0,0:0|0:0,0:0:0:0:
113,240,132716,1,2,0:0:0:0:
113,240,132887,1,2,0:0:0:0:
113,240,133059,6,0,P|90:188|92:121,1,105,14|0,1:2|0:0,0:0:0:0:
73,95,133402,2,0,P|92:60|123:31,1,70,2|0,1:2|0:0,0:0:0:0:
245,13,133744,1,2,1:2:0:0:
260,95,133916,1,2,0:0:0:0:
401,82,134087,1,2,1:2:0:0:
386,0,134259,1,2,0:0:0:0:
371,211,134430,6,0,P|433:184|492:186,1,105,2|0,1:2|0:0,0:0:0:0:
487,190,134773,2,0,P|475:243|473:280,1,70,2|0,1:2|0:0,0:0:0:0:
490,352,135116,1,2,1:2:0:0:
363,382,135287,1,2,0:2:0:0:
352,371,135373,1,2,3:2:0:0:
363,344,135459,1,0,1:2:0:0:
490,352,135630,1,2,0:0:0:0:
272,292,135802,6,0,L|278:340,3,35,10|2|2|2,3:2|3:2|3:2|3:2,0:0:0:0:
269,368,136144,1,10,0:0:0:0:
269,368,136316,1,10,0:0:0:0:
339,210,136487,6,0,B|358:151|358:151|228:170,1,175,14|0,0:0|0:0,0:0:0:0:
134,181,137002,2,0,P|165:137|186:254,1,280,14|0,0:0|0:0,0:0:0:0:
237,52,137859,1,2,0:0:0:0:
337,114,138030,1,8,0:0:0:0:
337,114,138116,1,8,0:0:0:0:
337,114,138202,2,0,L|387:104,1,35,2|0,1:2|0:0,0:0:0:0:
463,21,138373,2,0,L|413:11,1,35,2|0,1:2|0:0,0:0:0:0:
464,177,138544,6,0,P|472:226|476:301,1,115.50000352478,14|0,0:0|0:0,0:0:0:0:
463,279,138887,2,0,P|458:226|450:187,1,77.0000023498536,10|0,0:0|0:0,0:0:0:0:
397,371,139230,1,10,0:0:0:0:
335,305,139402,1,2,3:2:0:0:
321,302,139487,1,2,3:2:0:0:
307,299,139573,1,10,0:0:0:0:
178,365,139744,1,2,3:2:0:0:
178,365,139916,6,0,P|148:320|75:271,1,115.50000352478,10|0,0:0|0:0,0:0:0:0:
108,293,140259,2,0,P|151:269|142:236,1,77.0000023498536,10|10,0:0|0:0,0:0:0:0:
9,248,140602,2,0,L|21:301,1,38.5000011749268,10|10,0:0|0:0,0:0:0:0:
80,149,140773,2,0,L|68:202,1,38.5000011749268,10|10,0:0|0:0,0:0:0:0:
12,50,140944,1,10,0:0:0:0:
25,47,141030,1,10,0:0:0:0:
38,44,141116,1,10,0:0:0:0:
51,41,141202,1,10,0:0:0:0:
78,69,141287,6,0,P|158:63|293:64,1,192.500005874634,14|0,0:0|0:0,0:0:0:0:
343,88,141802,2,0,P|326:196|299:283,1,192.500005874634,14|0,0:0|0:0,0:0:0:0:
255,337,142316,1,14,0:0:0:0:
206,111,142487,1,14,0:0:0:0:
210,122,142659,6,0,L|202:211,1,77.0000023498536,2|0,0:3|0:0,0:0:0:0:
371,92,143002,2,0,L|379:3,1,77.0000023498536,2|0,0:3|0:0,0:0:0:0:
330,128,143344,2,0,L|322:217,1,77.0000023498536,2|0,0:3|0:0,0:0:0:0:
348,272,143687,2,0,L|356:183,1,77.0000023498536,2|2,0:3|0:3,0:0:0:0:
256,352,144030,5,10,0:0:0:0:
256,192,149516,5,2,3:2:0:0:
256,192,149859,1,2,3:2:0:0:
256,192,150202,1,2,3:2:0:0:
256,192,150545,1,2,3:2:0:0:
256,32,150887,5,2,3:2:0:0:
256,32,151230,1,2,3:2:0:0:
256,32,151573,1,2,3:2:0:0:
256,64,151830,1,2,3:2:0:0:
256,32,151916,1,2,3:2:0:0:
256,352,152259,5,2,3:2:0:0:
256,352,152602,1,2,3:2:0:0:
256,352,152945,1,2,3:2:0:0:
256,352,153288,1,2,3:2:0:0:
256,192,153630,5,10,0:0:0:0:
335,148,153802,1,2,0:0:0:0:
367,306,153973,1,2,0:0:0:0:
367,306,154316,6,0,L|353:240,1,35,10|0,3:2|3:0,0:0:0:0:
456,133,154487,2,0,L|470:199,1,35,10|0,3:2|3:0,0:0:0:0:
367,306,154659,2,0,L|353:240,1,35,10|0,3:2|3:0,0:0:0:0:
456,133,154830,2,0,L|470:199,1,35,10|10,3:2|3:2,0:0:0:0:
499,330,155002,6,0,P|439:349|357:343,1,120.750002303124,14|0,1:2|0:0,0:0:0:0:
346,324,155344,2,0,P|390:313|415:340,1,80.5000015354157,2|2,1:2|0:0,0:0:0:0:
213,377,155687,2,0,P|191:342|182:276,1,80.5000015354157,2|2,1:2|0:0,0:0:0:0:
238,239,155944,1,2,1:2:0:0:
246,247,156030,2,0,P|268:212|277:146,1,80.5000015354157,2|2,1:2|1:2,0:0:0:0:
250,51,156373,6,0,P|179:63|161:17,1,120.750002303124,2|0,1:2|0:0,0:0:0:0:
167,17,156716,2,0,P|179:66|170:107,1,80.5000015354157,2|2,1:2|0:0,0:0:0:0:
142,163,156973,1,2,0:0:0:0:
136,173,157059,2,0,L|145:265,1,80.5000015354157,2|0,1:2|0:0,0:0:0:0:
254,356,157402,2,0,L|245:264,1,80.5000015354157,2|2,1:2|0:0,0:0:0:0:
233,141,157744,6,0,B|295:141|275:77|358:86,1,120.750002303124,2|0,1:2|0:0,0:0:0:0:
380,103,158087,2,0,L|394:2,1,80.5000015354157,2|2,1:2|0:0,0:0:0:0:
436,179,158344,1,2,0:0:0:0:
430,192,158430,2,0,L|444:293,1,80.5000015354157,2|2,1:2|0:0,0:0:0:0:
451,282,158687,1,2,1:2:0:0:
460,292,158773,2,0,L|474:393,1,80.5000015354157,2|2,1:2|1:2,0:0:0:0:
308,380,159116,6,0,P|243:359|236:283,1,120.750002303124,2|0,1:2|0:0,0:0:0:0:
257,275,159459,2,0,P|217:264|188:294,1,80.5000015354157,2|2,1:2|0:0,0:0:0:0:
372,325,159716,1,2,0:0:0:0:
372,325,159802,2,0,L|358:224,1,80.5000015354157,2|2,1:2|0:0,0:0:0:0:
347,142,160059,1,2,0:0:0:0:
353,153,160144,5,10,1:2:0:0:
276,127,160259,1,10,0:0:0:0:
206,177,160373,1,10,0:0:0:0:
104,137,160487,6,0,P|152:109|211:93,1,83.9999974365235,6|2,1:2|0:0,0:0:0:0:
296,92,160744,1,2,0:0:0:0:
296,92,160830,2,0,L|289:150,1,41.9999987182618,2|0,1:2|0:0,0:0:0:0:
211,218,161002,2,0,L|204:160,1,41.9999987182618,2|0,1:2|0:0,0:0:0:0:
340,282,161173,2,0,L|451:263,1,83.9999974365235,2|2,1:2|0:0,0:0:0:0:
495,213,161430,1,2,0:0:0:0:
495,213,161516,2,0,L|439:178,1,41.9999987182618,2|0,1:2|0:0,0:0:0:0:
478,340,161687,2,0,L|504:307,1,41.9999987182618,2|0,1:2|0:0,0:0:0:0:
327,367,161859,6,0,L|216:348,1,83.9999974365235,2|2,1:2|0:0,0:0:0:0:
81,373,162116,1,2,0:0:0:0:
81,373,162202,2,0,L|103:307,1,41.9999987182618,2|0,1:2|0:0,0:0:0:0:
16,179,162373,2,0,L|38:245,1,41.9999987182618,2|0,1:2|0:0,0:0:0:0:
143,112,162544,2,0,L|114:23,1,83.9999974365235,2|2,1:2|0:0,0:0:0:0:
136,159,162802,1,2,0:0:0:0:
136,159,162887,2,0,L|124:217,1,41.9999987182618,2|0,1:2|0:0,0:0:0:0:
240,110,163059,2,0,L|291:154,1,41.9999987182618,2|0,1:2|0:0,0:0:0:0:
416,256,163230,5,10,3:2:0:0:
421,250,163316,1,0,3:0:0:0:
426,244,163402,1,0,3:0:0:0:
431,238,163487,1,0,3:0:0:0:
436,232,163573,1,0,3:0:0:0:
441,226,163659,1,0,3:0:0:0:
446,220,163744,6,0,L|456:286,5,41.9999987182618,10|0|0|0|0|0,3:2|3:0|3:0|3:0|3:0|3:0,0:0:0:0:
488,115,164259,6,0,L|478:49,3,41.9999987182618,10|2|2|0,3:2|3:2|3:2|3:2,0:0:0:0:
273,145,164602,5,14,0:0:0:0:
273,145,164944,2,0,L|267:216,1,41.9999987182618,10|0,0:0|0:0,0:0:0:0:
273,145,165116,2,0,L|267:216,1,41.9999987182618,10|0,0:0|0:0,0:0:0:0:
252,340,165287,6,0,B|280:287|280:287|347:309,1,125.999996154785,2|0,1:2|0:0,0:0:0:0:
343,307,165630,6,2,L|160:285,1,157.500006008148,14|0,0:0|0:0,0:1:0:0:
14,368,165973,6,0,L|21:306,1,52.5,10|0,0:0|0:0,0:0:0:0:
10,276,166316,6,0,P|74:270|74:174,1,157.500006008148,6|0,1:2|0:0,0:0:0:0:
23,120,166659,1,10,0:0:0:0:
23,120,166744,1,2,0:0:0:0:
23,120,166830,2,0,L|112:98,1,52.5000020027161,2|2,0:0|0:0,0:0:0:0:
250,75,167002,2,0,L|133:45,1,105.000004005432,2|2,1:2|0:0,0:0:0:0:
190,254,167344,6,0,P|235:199|275:187,1,105.000004005432,10|2,0:0|0:0,0:0:0:0:
233,353,167602,2,0,P|186:330|157:287,1,105.000004005432,2|2,0:0|0:0,0:0:0:0:
320,256,167859,1,2,0:0:0:0:
326,268,167944,2,0,L|317:382,1,105.000004005432,2|0,0:0|0:0,0:0:0:0:
325,365,168202,6,0,L|397:357,1,52.5000020027161,2|2,0:0|0:0,0:0:0:0:
400,337,168373,2,0,L|472:329,1,52.5000020027161,2|2,1:2|0:0,0:0:0:0:
502,360,168544,1,2,0:0:0:0:
502,360,168630,1,2,0:0:0:0:
502,360,168716,6,0,L|513:222,1,105.000004005432,10|0,0:0|0:0,0:0:0:0:
433,144,168973,2,0,L|440:238,1,52.5000020027161,2|0,0:0|1:0,0:0:0:0:
464,50,169144,2,0,L|457:144,1,52.5000020027161,2|0,0:0|0:0,0:0:0:0:
396,18,169316,1,2,0:0:0:0:
278,117,169487,1,2,0:0:0:0:
269,108,169573,2,0,L|187:121,1,52.5000020027161,2|0,0:0|0:0,0:0:0:0:
63,148,169744,1,2,1:2:0:0:
110,82,169916,1,2,0:0:0:0:
144,273,170087,6,0,L|208:252,1,52.5000020027161,10|2,3:2|3:2,0:0:0:0:
343,216,170259,1,2,3:2:0:0:
343,216,170344,2,0,L|353:141,1,52.5000020027161,2|2,3:2|1:2,0:0:0:0:
256,155,170516,2,0,L|272:268,1,105.000004005432,2|2,3:2|3:2,0:0:0:0:
286,366,170773,1,10,3:2:0:0:
302,356,170859,1,2,3:2:0:0:
288,341,170944,1,2,3:2:0:0:
176,378,171116,1,2,1:2:0:0:
176,378,171287,1,10,0:0:0:0:
431,338,171459,6,0,L|442:276,1,52.5,10|0,0:0|0:0,0:0:0:0:
457,188,171802,6,0,B|377:201|392:106|294:136,1,157.500006008148,6|0,1:2|0:0,0:0:0:0:
211,226,172144,1,10,0:0:0:0:
211,226,172229,1,2,0:0:0:0:
211,226,172316,2,0,L|300:204,1,52.5000020027161,2|2,0:0|0:0,0:0:0:0:
134,159,172487,2,0,P|162:236|162:324,1,157.500006008148,2|0,1:2|0:0,0:0:0:0:
123,346,172830,6,0,L|17:365,1,105.000004005432,10|2,0:0|0:0,0:0:0:0:
22,375,173087,1,2,0:0:0:0:
81,240,173259,1,2,0:0:0:0:
272,305,173430,2,0,P|326:276|355:213,1,105.000004005432,2|0,0:0|0:0,0:0:0:0:
389,202,173687,2,0,P|388:137|361:83,1,105.000004005432,2|2,0:0|1:2,0:0:0:0:
333,35,173944,1,2,0:0:0:0:
333,35,174030,1,2,0:0:0:0:
333,35,174116,1,2,0:0:0:0:
333,35,174202,6,0,P|407:57|456:55,1,105.000004005432,10|0,0:0|0:0,0:0:0:0:
453,49,174459,2,0,L|439:180,1,105.000004005432,2|0,0:0|0:0,0:0:0:0:
425,257,174716,2,0,P|351:279|302:277,1,105.000004005432,2|8,0:0|0:0,0:0:0:0:
305,271,174973,2,0,L|319:402,1,105.000004005432,2|0,0:0|0:0,0:0:0:0:
316,375,175229,1,2,1:2:0:0:
430,337,175401,1,2,0:0:0:0:
210,281,175573,5,14,0:0:0:0:
210,281,175659,1,0,3:0:0:0:
210,281,175744,2,0,L|218:374,1,52.5000020027161,0|0,3:0|3:0,0:0:0:0:
115,218,175916,1,10,0:0:0:0:
115,218,176002,1,0,3:0:0:0:
115,218,176087,2,0,L|107:311,1,52.5000020027161,0|0,3:0|3:0,0:0:0:0:
288,160,176259,6,0,L|298:259,1,70.0000026702882,14|0,0:0|0:0,0:0:0:0:
330,86,176487,2,0,L|340:185,1,70.0000026702882,10|0,0:0|0:0,0:0:0:0:
372,12,176716,2,0,L|382:111,1,70.0000026702882,10|0,0:0|0:0,0:0:0:0:
399,254,176944,5,14,0:0:0:0:
435,146,177116,1,10,0:0:0:0:
206,207,177287,6,0,P|146:186|145:79,1,157.500006008148,6|0,1:2|0:0,0:0:0:0:
141,91,177630,2,0,P|98:62|31:73,1,105.000004005432,10|0,0:0|0:0,0:0:0:0:
51,211,177887,2,0,P|102:213|145:184,1,105.000004005432,2|0,0:0|0:0,0:0:0:0:
11,139,178144,2,0,L|80:139,1,52.5000020027161,2|0,0:0|0:0,0:0:0:0:
242,141,178316,6,0,P|232:75|205:20,1,105.000004005432,10|0,0:0|0:0,0:0:0:0:
154,219,178659,2,0,P|160:271|178:319,1,105.000004005432,2|0,1:2|0:0,0:0:0:0:
237,370,178916,1,2,0:0:0:0:
248,361,179002,1,10,0:0:0:0:
250,344,179087,2,0,L|123:361,1,105.000004005432,2|0,0:0|0:0,0:0:0:0:
15,368,179344,2,0,L|26:308,2,52.5000020027161,2|0|0,1:2|3:0|3:0,0:0:0:0:
113,273,179687,6,0,L|86:140,1,105.000004005432,10|0,0:0|3:0,0:0:0:0:
113,82,179944,1,0,3:0:0:0:
118,91,180030,1,2,1:2:0:0:
123,100,180116,2,0,L|203:106,1,52.5000020027161,2|0,0:0|0:0,0:0:0:0:
288,32,180287,2,0,L|165:59,1,105.000004005432,2|0,0:0|0:0,0:0:0:0:
335,145,180544,1,2,0:0:0:0:
369,47,180716,1,2,1:2:0:0:
381,240,180887,1,2,0:0:0:0:
415,142,181059,6,0,P|425:211|425:319,1,157.500006008148,10|0,0:0|0:0,0:0:0:0:
402,376,181402,1,2,1:2:0:0:
387,363,181487,1,2,0:0:0:0:
355,379,181573,1,2,0:0:0:0:
311,354,181659,1,2,0:0:0:0:
262,378,181744,2,0,P|186:373|150:364,1,105.000004005432,10|0,0:0|3:0,0:0:0:0:
157,252,182087,2,0,P|208:241|260:240,1,105.000004005432,2|2,1:2|0:0,0:0:0:0:
493,257,182430,6,0,L|482:198,1,52.5,10|0,0:0|0:0,0:0:0:0:
462,103,182773,6,0,B|423:71|423:71|288:97,1,181.999991668702,6|0,1:2|3:0,0:0:0:0:
200,123,183287,1,2,0:0:0:0:
309,134,183459,1,2,3:2:0:0:
260,194,183630,6,0,L|288:383,1,181.999991668702,2|0,0:0|0:0,0:0:0:0:
291,284,184144,1,2,3:2:0:0:
174,339,184316,1,2,0:0:0:0:
17,281,184487,2,0,L|25:172,1,90.9999958343508,2|2,3:2|0:0,0:0:0:0:
31,87,184830,1,2,3:2:0:0:
28,100,184916,1,2,3:2:0:0:
41,116,185002,1,2,3:2:0:0:
175,185,185173,6,0,L|148:72,1,90.9999958343508,14|2,0:0|0:0,0:0:0:0:
274,18,185516,2,0,L|247:131,1,90.9999958343508,14|2,0:0|0:0,0:0:0:0:
368,272,185859,2,0,L|341:159,1,90.9999958343508,14|2,0:0|0:0,0:0:0:0:
495,17,186202,2,0,L|468:130,1,90.9999958343508,14|2,0:0|0:0,0:0:0:0:
453,180,186544,5,14,0:0:0:0:
304,142,186802,1,2,0:0:0:0:
209,239,187059,1,2,0:0:0:0:
209,239,187230,6,0,L|216:168,3,52.5000020027161,10|2|2|2,3:2|3:2|3:2|3:2,0:0:0:0:
128,320,187573,2,0,L|135:391,3,52.5000020027161,10|10|10|10,3:2|3:2|3:2|3:2,0:0:0:0:
32,256,187916,6,2,P|54:168|142:174,1,183.750001752377,14|0,0:0|0:0,0:1:0:0:
132,177,188259,6,0,L|123:269,1,70,2|0,1:2|0:0,0:0:0:0:
106,319,188516,6,2,L|79:148,1,122.500001168251,10|0,0:0|0:0,0:1:0:0:
223,109,188773,2,2,L|237:219,1,61.2500005841255,10|0,0:0|0:0,0:1:0:0:
113,17,188944,1,2,1:2:0:0:
113,17,189287,6,2,P|160:74|270:45,1,183.750001752377,10|0,0:0|0:0,0:1:0:0:
291,14,189630,1,2,1:2:0:0:
319,177,189887,2,2,P|250:163|120:162,1,183.750001752377,10|0,0:0|0:0,0:1:0:0:
281,202,190316,2,2,P|213:190|138:192,1,122.500001168251,10|10,0:0|0:0,0:1:0:0:
309,303,190659,6,2,B|457:263|457:263|440:323,1,183.750001752377,10|0,0:0|0:0,0:1:0:0:
415,381,191002,1,2,1:2:0:0:
336,208,191259,2,2,P|364:134|410:56,1,122.500001168251,10|0,0:0|0:0,0:1:0:0:
390,134,191516,2,2,P|418:208|464:286,1,122.500001168251,10|2,0:0|1:2,0:1:0:0:
496,46,192030,6,2,P|416:14|295:22,1,183.750001752377,10|0,0:0|0:0,0:1:0:0:
239,47,192373,1,2,1:2:0:0:
243,57,192459,2,2,L|233:165,1,61.2500005841255,10|0,0:0|0:0,0:1:0:0:
226,208,192630,2,2,L|211:68,1,122.500001168251,10|0,0:0|0:0,0:1:0:0:
172,112,192887,2,2,L|21:88,1,122.500001168251,10|2,0:0|1:2,0:1:0:0:
165,26,193230,1,10,0:0:0:0:
187,239,193402,6,2,B|148:303|148:303|27:291,1,183.750001752377,14|0,0:0|0:0,0:1:0:0:
23,288,193744,6,0,L|121:266,1,70,2|0,1:2|0:0,0:0:0:0:
169,219,194002,6,2,L|48:246,1,122.500001168251,10|0,0:0|0:0,0:1:0:0:
112,361,194259,2,2,L|216:336,1,61.2500005841255,10|0,0:0|0:0,0:1:0:0:
78,143,194430,1,2,1:2:0:0:
78,143,194773,6,2,B|136:102|136:102|271:123,1,183.750001752377,10|0,0:0|0:0,0:1:0:0:
346,146,195116,1,2,1:2:0:0:
364,368,195373,2,2,L|506:318,1,122.500001168251,10|0,0:0|0:0,0:1:0:0:
491,321,195630,2,2,L|356:309,1,122.500001168251,10|2,0:0|1:2,0:1:0:0:
144,368,195973,6,2,B|50:243|265:176|120:42,1,306.250002920628,14|2,0:0|0:0,0:1:0:0:
105,20,196487,1,2,1:2:0:0:
433,114,196744,1,10,0:0:0:0:
301,239,197002,1,10,0:0:0:0:
384,288,197173,1,2,1:2:0:0:
333,105,197344,1,14,0:0:0:0:
336,119,197430,6,0,L|469:135,1,122.500001168251,10|10,0:0|0:0,0:0:0:0:
399,182,197687,1,10,0:0:0:0:
399,182,197773,1,10,0:0:0:0:
399,182,197859,2,0,L|410:252,1,61.2500005841255,10|10,0:0|0:0,0:0:0:0:
433,377,198030,1,10,0:0:0:0:
433,377,198116,1,10,0:0:0:0:
433,377,198202,6,2,P|386:344|325:348,1,81.6666674455007,14|0,0:0|0:0,0:1:0:0:
258,348,198430,2,2,P|211:381|150:377,1,81.6666674455007,10|0,0:0|0:0,0:1:0:0:
83,377,198659,2,2,P|36:344|-25:348,1,81.6666674455007,10|0,0:0|0:0,0:1:0:0:
38,377,198887,6,0,L|56:214,1,157.499995193482,14|0,0:0|0:0,0:0:0:0:
56,210,200259,6,0,L|125:199,1,62.9999980773926,14|2,0:0|0:0,0:0:0:0:
288,180,200945,1,2,0:0:0:0:
209,134,201117,1,2,0:0:0:0:
367,102,201288,1,2,0:0:0:0:
392,269,201459,1,10,0:0:0:0:
381,260,201545,1,10,0:0:0:0:
394,248,201630,6,0,L|432:252,1,31.4999990386963,14|0,0:0|0:0,0:0:0:0:
430,176,201973,2,0,L|400:172,1,20.9999993591309,2|2,0:0|0:0,0:0:0:0:
464,367,202317,1,0,1:0:0:0:
216,300,202487,1,10,0:0:0:0:
216,300,202573,1,10,0:0:0:0:
216,300,202659,6,2,B|122:266|41:311|41:311|70:350|136:342,2,272.999987503052,14|14|2,0:0|0:0|1:2,0:1:0:0:
346,350,204030,1,2,0:0:0:0:
320,96,204373,5,10,0:0:0:0:
64,192,204717,2,0,L|54:131,3,45.4999979171754,10|10|10|10,0:0|0:0|0:0|0:0,0:0:0:0:
90,77,205059,5,2,1:2:0:0:
90,77,205145,1,2,1:2:0:0:
90,77,205231,1,2,1:2:0:0:
132,339,205574,1,2,0:0:0:0:
132,339,205916,6,0,P|195:312|257:305,1,90.9999958343508,14|0,0:0|0:0,0:0:0:0:
359,326,206259,1,2,0:0:0:0:
235,208,206431,1,2,1:2:0:0:
371,186,206602,1,10,0:0:0:0:
371,186,206688,1,10,0:0:0:0:
371,186,206774,2,0,L|379:131,1,45.4999979171754,10|0,0:0|0:0,0:0:0:0:
273,47,206944,2,0,L|281:102,1,45.4999979171754,10|0,0:0|0:0,0:0:0:0:
310,282,207116,6,0,P|260:245|217:254,1,90.9999958343508,14|0,0:0|0:0,0:0:0:0:
218,278,207373,2,0,P|168:315|125:306,1,90.9999958343508,2|0,0:0|0:0,0:0:0:0:
42,258,207631,2,0,L|151:234,1,90.9999958343508,2|8,0:0|0:0,0:0:0:0:
209,177,207887,2,0,L|318:201,1,90.9999958343508,2|0,0:0|0:0,0:0:0:0:
473,238,208145,1,10,0:0:0:0:
468,248,208317,6,0,L|474:317,1,45.4999979171754,2|14,1:2|0:0,0:0:0:0:
256,192,209859,5,14,0:0:0:0:
256,192,209944,12,2,220830,0:0:0:0:
256,192,220916,12,0,230259,0:0:0:0:
256,192,230430,5,10,0:0:0:0:
256,192,230944,6,0,L|256:256,1,35,10|10,0:0|0:0,0:0:0:0:
256,320,231116,1,10,0:0:0:0:
256,340,231287,1,10,0:0:0:0:
256,380,231459,5,14,0:0:0:0:
