osu file format v14

[General]
AudioFilename: audio.mp3
AudioLeadIn: 0
PreviewTime: 53516
Countdown: 0
SampleSet: Soft
StackLeniency: 0.7
Mode: 0
LetterboxInBreaks: 0
WidescreenStoryboard: 0

[Editor]
Bookmarks: 1402,12373,23344,34316,45287,56259,67230,78202,98687,100144,122087,133059,144030,155002,165973,166316,171459,171802,182430,182773,186544,187916,198887,202659,208402,209859,220830,231459
DistanceSpacing: 1.5
BeatDivisor: 4
GridSize: 32
TimelineZoom: 2.2

[Metadata]
Title:D4NCE
TitleUnicode:D4NCE
Artist:Zekk
ArtistUnicode:Zekk
Creator:eiri-
Version:Hard
Source:osu!
Tags:Ayyri Electronic Instrumental Featured Artist FA FÜGENE2 FUGENE 2 Future Core Bass Hardcore jcore DANCE
BeatmapID:2382799
BeatmapSetID:1140776

[Difficulty]
HPDrainRate:4.5
CircleSize:3.5
OverallDifficulty:7
ApproachRate:8
SliderMultiplier:1.2
SliderTickRate:1

[Events]
//Background and Video events
0,0,"D4NCE.jpg",0,0
//Break Periods
2,45487,53516
2,122287,130316
2,144230,148144
//Storyboard Layer 0 (Background)
//Storyboard Layer 1 (Fail)
//Storyboard Layer 2 (Pass)
//Storyboard Layer 3 (Foreground)
//Storyboard Layer 4 (Overlay)
//Storyboard Sound Samples

[TimingPoints]
1402,342.857142857143,4,2,1,75,1,0
1487,-100,4,2,1,50,0,0
12373,-100,4,2,1,50,0,0
20602,-100,4,2,1,55,0,0
21973,-100,4,2,1,60,0,0
23344,-100,4,2,1,75,0,0
53516,-100,4,2,1,60,0,0
56259,-100,4,2,1,65,0,0
61744,-100,4,2,1,70,0,0
67230,-100,4,2,1,75,0,0
72716,-100,4,2,1,80,0,0
78202,-90.9090909090909,4,2,1,90,0,1
98687,-90.9090909090909,4,2,1,80,0,0
100144,-90.9090909090909,4,2,1,100,0,1
122087,-100,4,2,1,75,0,0
130316,-100,4,2,1,60,0,0
133059,-100,4,2,1,65,0,0
138544,-100,4,2,1,70,0,0
144030,-100,4,2,1,75,0,0
149516,-100,4,2,1,60,0,0
155002,-100,4,2,1,75,0,0
160487,-100,4,2,1,80,0,0
165973,-90.9090909090909,4,2,1,90,0,1
166059,-90.9090909090909,4,2,1,90,0,0
166316,-90.9090909090909,4,2,1,90,0,1
171459,-90.9090909090909,4,2,1,90,0,0
171802,-90.9090909090909,4,2,1,90,0,1
182430,-90.9090909090909,4,2,1,90,0,0
182773,-90.9090909090909,4,2,1,90,0,1
186544,-90.9090909090909,4,2,1,80,0,0
187916,-90.9090909090909,4,2,1,100,0,1
198887,-90.9090909090909,4,2,1,100,0,0
202659,-90.9090909090909,4,2,1,100,0,1
208402,-90.9090909090909,4,2,1,80,0,0
209859,-100,4,2,1,75,0,0
211230,-100,4,2,1,73,0,0
212602,-100,4,2,1,70,0,0
213973,-100,4,2,1,67,0,0
215344,-100,4,2,1,65,0,0
216716,-100,4,2,1,63,0,0
218087,-100,4,2,1,60,0,0
219459,-100,4,2,1,57,0,0
220830,-100,4,2,1,55,0,0
222202,-100,4,2,1,53,0,0
223573,-100,4,2,1,50,0,0
224944,-100,4,2,1,47,0,0
226316,-100,4,2,1,45,0,0
227687,-100,4,2,1,43,0,0
229059,-100,4,2,1,40,0,0
230430,-100,4,2,1,75,0,0
231459,-100,4,2,1,80,0,0

[Colours]
Combo1 : 231,137,109
Combo2 : 124,124,131
Combo3 : 255,96,96
Combo4 : 180,180,182

[HitObjects]
256,192,1402,5,14,0:0:0:0:
256,192,1487,12,2,12373,0:0:0:0:
256,192,12459,12,2,16487,0:0:0:0:
96,320,17859,6,0,L|235:338,1,120,10|8,0:0|0:0,0:0:0:0:
310,262,18544,2,0,L|449:244,1,120,8|8,0:0|0:0,0:0:0:0:
412,127,19230,2,0,L|273:145,1,120,10|8,0:0|0:0,0:0:0:0:
198,69,19916,2,0,L|59:51,1,120,8|8,0:0|0:0,0:0:0:0:
18,158,20602,1,10,0:0:0:0:
57,271,20944,1,8,0:0:0:0:
170,232,21287,1,8,0:0:0:0:
131,119,21630,1,8,0:0:0:0:
57,271,21973,5,14,0:0:0:0:
256,128,22487,1,10,0:0:0:0:
256,128,22659,2,0,L|318:132,1,60,10|10,0:0|0:0,0:0:0:0:
424,183,23002,2,0,P|464:167|476:115,1,90,2|0,1:2|0:0,0:0:0:0:
469,96,23344,5,14,0:0:0:0:
405,31,23516,2,0,L|334:45,1,60,2|8,0:0|0:0,0:0:0:0:
262,77,23859,2,0,L|191:63,1,60,2|10,0:0|0:0,0:0:0:0:
129,117,24202,1,0,0:0:0:0:
129,117,24287,2,0,L|146:196,1,60,2|2,0:0|0:0,0:0:0:0:
132,219,24544,2,0,L|149:298,1,60,2|10,0:0|0:0,0:0:0:0:
167,364,24887,6,0,L|221:371,1,30,2|2,0:0|0:0,0:0:0:0:
223,330,25059,2,0,L|352:304,1,120,10|10,0:0|0:0,0:0:0:0:
409,365,25573,1,2,1:2:0:0:
418,275,25744,2,0,L|402:221,2,30,10|10|10,0:0|0:0|1:2,0:0:0:0:
503,304,26087,5,10,0:0:0:0:
480,216,26259,2,0,L|495:145,1,60,2|8,0:0|0:0,0:0:0:0:
414,110,26602,2,0,L|399:181,1,60,2|10,0:0|0:0,0:0:0:0:
321,211,26944,1,2,0:0:0:0:
321,211,27030,2,0,P|267:198|250:185,1,60,2|2,0:0|0:0,0:0:0:0:
245,154,27287,2,0,P|288:119|298:100,1,60,2|10,0:0|0:0,0:0:0:0:
309,28,27630,6,0,L|259:37,1,30,2|2,0:0|0:0,0:0:0:0:
240,56,27802,2,0,L|112:38,1,120,2|10,1:2|0:0,0:0:0:0:
45,88,28316,1,2,1:2:0:0:
104,155,28487,2,0,L|111:210,2,30,10|10|2,0:0|0:0|1:2,0:0:0:0:
183,108,28830,5,10,0:0:0:0:
183,108,29002,1,10,0:0:0:0:
183,108,29173,1,10,0:0:0:0:
239,177,29344,2,0,L|287:169,1,30,2|2,0:0|0:0,0:0:0:0:
311,187,29516,1,10,0:0:0:0:
377,126,29687,1,2,0:0:0:0:
377,126,29773,2,0,L|362:51,1,60,2|2,0:0|0:0,0:0:0:0:
360,22,30030,2,0,P|415:29|434:39,1,60,2|10,0:0|0:0,0:0:0:0:
489,86,30373,6,0,L|481:125,1,30,2|2,0:0|0:0,0:0:0:0:
457,152,30544,2,0,L|490:274,1,120,10|10,0:0|0:0,0:0:0:0:
455,352,31059,1,2,1:2:0:0:
378,304,31230,2,0,L|387:256,2,30,10|10|2,0:0|0:0|1:2,0:0:0:0:
302,352,31573,6,0,L|224:362,1,60,10|2,0:0|0:0,0:0:0:0:
202,339,31830,1,2,0:0:0:0:
202,339,31916,2,0,L|124:329,1,60,10|2,0:0|0:0,0:0:0:0:
56,360,32259,2,0,P|20:324|18:294,1,60,10|2,0:0|0:0,0:0:0:0:
42,278,32516,1,2,0:0:0:0:
42,278,32602,2,0,B|71:238|71:238|59:173,1,90,10|0,0:0|0:0,0:0:0:0:
55,154,32944,5,14,0:0:0:0:
186,31,33287,1,10,0:0:0:0:
186,31,33459,1,10,0:0:0:0:
186,31,33630,2,0,L|200:127,1,90,2|0,1:2|0:0,0:0:0:0:
206,164,33973,1,10,0:0:0:0:
305,131,34144,1,2,1:2:0:0:
341,248,34316,5,14,0:0:0:0:
341,248,34487,2,0,P|373:232|424:225,1,60,2|8,0:0|0:0,0:0:0:0:
427,310,34830,2,0,P|400:323|371:331,1,60,2|10,0:0|0:0,0:0:0:0:
285,325,35173,1,2,0:0:0:0:
285,325,35258,2,0,L|268:404,1,60,2|2,0:0|0:0,0:0:0:0:
227,377,35516,2,0,L|148:360,1,60,2|10,0:0|0:0,0:0:0:0:
80,344,35859,6,0,L|95:300,1,30,2|2,0:0|0:0,0:0:0:0:
121,283,36030,2,0,P|101:231|38:223,1,120,10|10,0:0|0:0,0:0:0:0:
22,133,36544,1,2,1:2:0:0:
84,68,36716,2,0,L|78:13,2,30,10|10|10,0:0|0:0|1:2,0:0:0:0:
167,113,37058,5,10,0:0:0:0:
167,113,37230,2,0,L|238:121,1,60,2|8,0:0|0:0,0:0:0:0:
298,65,37573,2,0,L|369:57,1,60,2|10,0:0|0:0,0:0:0:0:
444,96,37915,1,2,0:0:0:0:
444,96,38002,2,0,P|419:139|418:169,1,60,2|2,0:0|0:0,0:0:0:0:
390,184,38259,2,0,P|410:229|434:247,1,60,2|10,0:0|0:0,0:0:0:0:
490,288,38602,6,0,L|482:340,1,30,2|2,0:0|0:0,0:0:0:0:
458,354,38773,2,0,P|429:330|341:334,1,120,2|10,1:2|0:0,0:0:0:0:
268,289,39287,1,2,1:2:0:0:
200,348,39458,2,0,L|207:403,2,30,10|10|2,0:0|0:0|1:2,0:0:0:0:
125,297,39801,5,14,0:0:0:0:
161,214,39973,2,0,L|146:139,1,60,2|0,0:0|0:0,0:0:0:0:
179,69,40316,2,0,L|164:-6,1,60,2|0,0:0|0:0,0:0:0:0:
260,27,40659,1,2,0:0:0:0:
260,27,40744,2,0,L|337:39,1,60,2|2,0:0|0:0,0:0:0:0:
349,70,41002,2,0,L|426:58,1,60,2|2,0:0|0:0,0:0:0:0:
485,107,41344,6,0,L|477:146,1,30,2|2,0:0|0:0,0:0:0:0:
451,172,41516,2,0,L|478:300,1,120,2|2,0:0|0:0,0:0:0:0:
436,370,42030,1,2,0:0:0:0:
357,335,42202,1,2,0:0:0:0:
357,335,42373,1,2,0:0:0:0:
261,377,42544,6,0,P|226:366|198:332,1,60,10|10,1:2|0:0,0:0:0:0:
194,312,42802,1,10,0:0:0:0:
194,312,42887,2,0,P|229:301|257:267,1,60,10|10,1:2|0:0,0:0:0:0:
298,212,43230,2,0,L|386:223,1,60,10|10,1:2|0:0,0:0:0:0:
399,201,43487,1,10,0:0:0:0:
399,201,43573,2,0,L|487:190,1,60,10|10,1:2|1:2,0:0:0:0:
498,113,43915,5,10,0:0:0:0:
256,192,45287,5,14,0:0:0:0:
256,192,55573,6,0,L|320:192,1,60,2|0,1:2|0:0,0:0:0:0:
402,156,55916,1,10,0:0:0:0:
402,156,56087,1,10,0:0:0:0:
402,156,56259,6,0,L|379:24,1,120,14|2,0:0|1:2,0:0:0:0:
202,15,56944,2,0,P|174:40|168:85,1,60,10|10,0:0|0:0,0:0:0:0:
119,137,57287,2,0,P|147:162|153:207,1,60,2|2,1:2|0:0,0:0:0:0:
113,263,57630,6,0,P|74:285|20:239,1,120,10|2,0:0|1:2,0:0:0:0:
201,253,58316,2,0,L|219:340,1,60,10|10,0:0|0:0,0:0:0:0:
298,311,58659,2,0,L|311:253,1,60,2|10,1:2|0:0,0:0:0:0:
256,180,59002,6,0,L|256:52,1,120,10|2,0:0|1:2,0:0:0:0:
334,15,59516,1,2,0:0:0:0:
334,15,59687,2,0,P|375:39|405:41,1,60,10|0,0:0|0:0,0:0:0:0:
482,28,60030,1,2,1:2:0:0:
482,28,60202,1,2,0:0:0:0:
482,28,60373,6,0,L|487:65,2,30,10|2|2,0:0|0:0|0:0,0:0:0:0:
422,116,60716,2,0,L|417:153,2,30,2|2|2,1:2|0:0|0:0,0:0:0:0:
482,204,61059,2,0,L|487:241,2,30,10|2|2,0:0|0:0|1:2,0:0:0:0:
422,292,61402,1,2,1:2:0:0:
422,292,61573,1,2,1:2:0:0:
422,292,61744,6,0,P|384:267|352:261,1,60,14|0,0:0|0:0,0:0:0:0:
296,315,62087,2,0,P|258:340|226:346,1,60,2|0,1:2|0:0,0:0:0:0:
157,320,62430,1,10,0:0:0:0:
157,320,62516,1,2,0:0:0:0:
157,320,62602,2,0,L|80:336,1,60,2|2,0:0|1:2,0:0:0:0:
20,287,62944,1,2,0:0:0:0:
20,287,63116,6,0,L|34:203,1,60,10|2,0:0|0:0,0:0:0:0:
99,170,63459,2,0,L|85:86,1,60,2|2,1:2|0:0,0:0:0:0:
82,29,63802,1,10,0:0:0:0:
82,29,63973,1,10,0:0:0:0:
82,29,64144,2,0,L|159:37,1,60,2|8,1:2|0:0,0:0:0:0:
241,13,64487,6,0,L|255:133,1,120,10|2,0:0|1:2,0:0:0:0:
219,215,65002,1,10,0:0:0:0:
219,215,65087,1,10,0:0:0:0:
219,215,65173,2,0,L|286:228,1,60,10|8,0:0|0:0,0:0:0:0:
355,281,65516,1,2,1:2:0:0:
458,249,65687,1,14,0:0:0:0:
458,249,65859,6,0,L|471:173,1,60,2|0,0:3|0:0,0:0:0:0:
482,100,66202,2,0,L|406:87,1,60,2|0,0:3|0:0,0:0:0:0:
333,76,66544,2,0,L|320:152,1,60,2|0,0:3|0:0,0:0:0:0:
309,225,66887,2,0,L|385:238,1,60,2|2,0:3|0:3,0:0:0:0:
418,341,67230,6,0,B|384:372|384:372|289:361,1,120,14|2,1:2|1:2,0:0:0:0:
220,352,67744,1,2,1:2:0:0:
220,352,67916,2,0,L|252:279,1,60,2|2,1:2|0:0,0:0:0:0:
212,212,68259,1,2,1:2:0:0:
212,212,68430,1,2,1:2:0:0:
212,212,68602,6,0,L|80:195,1,120,2|2,1:2|1:2,0:0:0:0:
8,181,69116,1,2,1:2:0:0:
8,181,69287,2,0,L|19:98,1,60,2|2,1:2|0:0,0:0:0:0:
37,81,69544,1,2,1:2:0:0:
37,81,69630,2,0,L|16:13,1,60,2|0,1:2|0:0,0:0:0:0:
108,7,69973,6,0,P|149:25|177:98,1,120,2|2,1:2|1:2,0:0:0:0:
145,175,70487,1,2,1:2:0:0:
145,175,70659,2,0,L|223:163,1,60,2|2,1:2|0:0,0:0:0:0:
242,190,70916,1,2,1:2:0:0:
242,190,71002,1,2,1:2:0:0:
315,138,71173,1,2,1:2:0:0:
315,138,71344,6,0,B|360:162|360:162|344:247,1,120,2|2,1:2|1:2,0:0:0:0:
323,317,71859,1,2,1:2:0:0:
323,317,72030,2,0,L|243:332,1,60,2|2,1:2|0:0,0:0:0:0:
184,370,72373,6,0,L|137:356,1,40,10|10,1:2|0:0,0:0:0:0:
86,371,72602,1,10,0:0:0:0:
86,371,72716,6,0,L|116:243,1,120,6|2,1:2|1:2,0:0:0:0:
88,172,73230,1,2,1:2:0:0:
88,172,73402,2,0,L|168:160,1,60,2|0,1:2|0:0,0:0:0:0:
227,203,73744,1,2,1:2:0:0:
299,149,73916,1,2,1:2:0:0:
299,149,74087,6,0,L|275:29,1,120,2|2,1:2|1:2,0:0:0:0:
369,48,74602,1,2,1:2:0:0:
369,48,74773,2,0,L|445:27,1,60,2|0,1:2|0:0,0:0:0:0:
504,77,75116,1,2,1:2:0:0:
462,156,75287,1,2,1:2:0:0:
383,114,75459,6,0,L|389:157,5,30,10|0|0|0|0|0,3:2|3:0|3:0|3:0|3:0|3:0,0:0:0:0:
360,179,75973,2,0,L|354:222,5,30,10|0|0|0|0|0,3:2|3:0|3:0|3:0|3:0|3:0,0:0:0:0:
383,244,76487,2,0,L|389:287,3,30,10|2|2|0,3:2|3:2|3:2|3:2,0:0:0:0:
360,309,76830,5,14,0:0:0:0:
192,256,77173,1,10,0:0:0:0:
192,256,77344,1,10,0:0:0:0:
192,256,77516,2,0,L|116:267,1,60,2|0,1:2|0:0,0:0:0:0:
17,310,77859,2,0,B|48:275|48:275|40:214,1,90,14|0,0:0|0:0,0:0:0:0:
33,183,78202,6,0,P|94:147|99:83,1,132.00000402832,14|10,0:0|0:0,0:0:0:0:
43,10,78716,1,10,0:0:0:0:
43,10,78887,2,0,L|132:-2,1,66.0000020141602,2|2,1:2|0:0,0:0:0:0:
196,46,79230,2,0,L|251:54,1,33.0000010070801,2|0,3:2|3:0,0:0:0:0:
271,24,79402,2,0,L|326:16,1,33.0000010070801,2|0,3:2|3:0,0:0:0:0:
346,46,79573,2,0,L|401:54,1,33.0000010070801,2|0,3:2|3:0,0:0:0:0:
421,24,79744,6,0,B|456:60|456:60|431:154,1,132.00000402832,14|2,0:0|0:0,0:0:0:0:
408,235,80259,1,2,1:2:0:0:
314,203,80430,1,2,0:0:0:0:
314,203,80516,1,2,0:0:0:0:
314,203,80602,1,10,0:0:0:0:
268,290,80773,1,10,0:0:0:0:
169,294,80944,6,0,B|130:264|130:264|139:172,1,132.00000402832,14|10,0:0|0:0,0:0:0:0:
162,87,81459,1,10,0:0:0:0:
162,87,81630,2,0,L|72:108,1,66.0000020141602,2|10,1:2|0:0,0:0:0:0:
61,136,81887,1,10,0:0:0:0:
61,136,81973,6,0,L|72:216,1,66.0000020141602,14|8,0:0|0:0,0:0:0:0:
252,69,82487,6,0,L|241:149,1,66.0000020141602,14|8,0:0|0:0,0:0:0:0:
443,136,83002,6,0,L|454:216,1,66.0000020141602,6|2,1:2|0:0,0:0:0:0:
474,306,83344,1,2,0:0:0:0:
474,306,83687,6,0,P|513:253|498:213,2,99.0000030212403,14|14|14,0:0|0:0|0:0,0:0:0:0:
380,272,84373,2,0,L|334:282,1,33.0000010070801,2|2,1:2|1:2,0:0:0:0:
313,315,84544,1,2,1:2:0:0:
226,266,84716,2,0,P|236:217|247:191,1,66.0000020141602,2|2,0:0|0:0,0:0:0:0:
289,115,85059,1,2,0:0:0:0:
289,115,85230,6,0,P|253:60|185:18,1,132.00000402832,14|2,0:0|0:0,0:0:0:0:
114,76,85744,2,0,P|69:85|40:106,1,66.0000020141602,2|0,1:2|0:0,0:0:0:0:
116,184,86087,1,10,0:0:0:0:
116,184,86259,1,10,0:0:0:0:
116,184,86430,6,0,L|93:317,1,132.00000402832,14|2,0:0|1:2,0:0:0:0:
177,375,86944,1,10,0:0:0:0:
177,375,87116,2,0,L|200:242,1,132.00000402832,14|10,0:0|0:0,0:0:0:0:
225,155,87630,1,10,0:0:0:0:
225,155,87716,1,10,0:0:0:0:
225,155,87802,6,0,L|306:169,1,66.0000020141602,14|0,0:0|0:0,0:0:0:0:
321,259,88144,2,0,L|402:245,1,66.0000020141602,14|0,0:0|0:0,0:0:0:0:
436,333,88487,2,0,L|517:347,2,66.0000020141602,14|0|10,0:0|0:0|0:0,0:0:0:0:
345,375,89002,1,2,1:2:0:0:
224,320,89173,5,14,0:0:0:0:
256,32,90544,5,14,0:0:0:0:
288,320,91916,5,14,0:0:0:0:
434,186,92259,1,2,0:0:0:0:
489,376,92602,2,0,P|455:348|420:339,1,66.0000020141602,0|10,1:0|0:0,0:0:0:0:
338,365,92944,6,2,L|361:207,1,132.00000402832,14|0,0:0|0:0,0:1:0:0:
438,176,93459,2,2,L|415:18,1,132.00000402832,14|0,0:0|0:0,0:1:0:0:
329,3,93973,1,2,1:2:0:0:
160,96,94316,1,2,0:0:0:0:
341,176,94659,5,10,0:0:0:0:
210,325,95002,2,0,L|204:283,3,33.0000010070801,10|10|10|10,0:0|0:0|0:0|0:0,0:0:0:0:
179,250,95344,2,0,L|185:208,1,33.0000010070801,2|2,1:2|1:2,0:0:0:0:
193,167,95516,1,2,1:2:0:0:
384,224,95859,1,2,0:0:0:0:
481,51,96202,6,0,B|452:18|452:18|349:34,1,132.00000402832,14|2,0:0|0:0,0:0:0:0:
268,55,96716,1,2,1:2:0:0:
330,144,96887,1,10,0:0:0:0:
330,144,96973,1,10,0:0:0:0:
330,144,97059,2,0,L|324:232,1,66.0000020141602,10|10,0:0|0:0,0:0:0:0:
325,309,97402,6,0,L|429:283,1,99.0000030212403,14|2,0:0|0:0,0:0:0:0:
467,302,97744,1,10,0:0:0:0:
494,206,97916,2,0,L|472:130,1,66.0000020141602,2|8,0:0|0:0,0:0:0:0:
487,94,98173,2,0,P|453:73|407:69,1,66.0000020141602,2|0,0:0|0:0,0:0:0:0:
385,94,98430,1,10,0:0:0:0:
291,61,98602,6,0,L|242:68,1,33.0000010070801,2|14,1:2|0:0,0:0:0:0:
32,352,99459,6,0,L|83:344,1,44.0000013427735,10|10,0:0|0:0,0:0:0:0:
120,297,99687,1,10,0:0:0:0:
120,297,99802,2,0,L|171:305,1,44.0000013427735,2|2,1:2|1:2,0:0:0:0:
208,352,100030,1,2,1:2:0:0:
208,352,100144,6,0,P|259:326|264:244,1,132.00000402832,14|2,0:0|0:0,0:0:0:0:
240,161,100659,1,2,0:0:0:0:
306,88,100830,1,2,1:2:0:0:
306,88,101002,2,0,B|367:80|367:80|380:169,1,132.00000402832,14|10,0:0|0:0,0:0:0:0:
389,202,101430,1,10,0:0:0:0:
389,202,101516,6,0,L|489:218,1,99.0000030212403,14|2,0:0|0:0,0:0:0:0:
390,330,102030,2,0,L|325:340,1,66.0000020141602,10|2,0:0|1:2,0:0:0:0:
233,301,102373,1,10,0:0:0:0:
233,301,102459,1,2,0:0:0:0:
233,301,102544,1,2,0:0:0:0:
161,369,102716,1,10,0:0:0:0:
161,369,102887,6,0,B|99:349|99:349|104:259,1,132.00000402832,14|0,0:0|0:0,0:0:0:0:
110,236,103316,1,2,0:0:0:0:
110,236,103402,2,0,L|85:153,1,66.0000020141602,2|2,0:0|1:2,0:0:0:0:
59,79,103744,2,0,P|112:91|203:76,1,132.00000402832,14|10,0:0|0:0,0:0:0:0:
237,63,104173,1,10,0:0:0:0:
237,63,104259,6,0,L|227:180,1,99.0000030212403,14|10,0:0|0:0,0:0:0:0:
350,246,104773,2,0,L|358:343,1,66.0000020141602,14|2,0:0|1:2,0:0:0:0:
363,365,105030,1,2,0:0:0:0:
363,365,105116,1,2,0:0:0:0:
443,308,105287,1,14,0:0:0:0:
435,213,105459,1,2,3:2:0:0:
435,213,105630,6,0,B|468:195|473:173|473:173|462:129|414:102,1,132.00000402832,14|0,0:0|0:0,0:0:0:0:
336,143,106144,2,0,L|250:124,1,66.0000020141602,2|2,0:0|1:2,0:0:0:0:
178,154,106487,1,10,0:0:0:0:
178,154,106659,2,0,L|191:209,1,33.0000010070801,2|2,0:0|0:0,0:0:0:0:
172,238,106830,1,10,0:0:0:0:
172,238,106916,1,10,0:0:0:0:
172,238,107002,6,0,P|117:216|67:209,1,99.0000030212403,14|2,0:0|0:0,0:0:0:0:
35,350,107516,2,0,P|90:372|126:380,1,66.0000020141602,14|0,0:0|0:0,0:0:0:0:
187,325,107859,2,0,P|243:307|280:303,1,66.0000020141602,14|2,0:0|0:0,0:0:0:0:
352,324,108202,1,14,0:0:0:0:
352,324,108373,6,0,P|396:294|389:205,1,132.00000402832,14|2,0:0|3:2,0:0:0:0:
301,205,108887,2,0,P|257:175|264:86,1,132.00000402832,14|2,0:0|3:2,0:0:0:0:
295,10,109402,2,0,L|368:23,1,66.0000020141602,14|2,0:0|3:2,0:0:0:0:
438,81,109744,6,0,L|473:71,3,33.0000010070801,14|0|0|0,0:0|3:0|3:0|3:0,0:0:0:0:
508,102,110087,1,10,0:0:0:0:
365,151,110259,5,2,1:2:0:0:
492,302,110602,1,10,0:0:0:0:
492,302,110773,2,0,L|445:294,1,33.0000010070801,2|2,3:2|3:2,0:0:0:0:
422,329,110944,2,0,L|375:337,1,33.0000010070801,2|2,3:2|3:2,0:0:0:0:
345,310,111116,5,14,0:0:0:0:
256,192,111373,5,14,0:0:0:0:
167,310,111630,6,0,L|77:329,1,66.0000020141602,14|6,0:0|1:2,0:0:0:0:
21,265,111973,2,0,P|37:211|120:191,1,132.00000402832,14|10,0:0|0:0,0:0:0:0:
146,211,112402,1,10,0:0:0:0:
146,211,112487,6,0,P|188:151|185:67,1,132.00000402832,14|0,0:0|0:0,0:0:0:0:
156,6,113002,1,10,0:0:0:0:
156,6,113173,2,0,L|249:15,1,66.0000020141602,2|10,1:2|0:0,0:0:0:0:
320,1,113516,1,2,0:0:0:0:
352,96,113687,1,2,0:0:0:0:
352,96,113859,6,0,P|404:73|439:72,1,66.0000020141602,14|2,0:0|3:2,0:0:0:0:
467,179,114202,2,0,P|435:171|406:154,1,66.0000020141602,14|2,3:2|3:2,0:0:0:0:
501,83,114544,1,14,0:0:0:0:
499,209,114716,2,0,L|499:259,1,33.0000010070801,2|2,3:2|3:2,0:0:0:0:
480,288,114887,1,14,3:2:0:0:
480,288,114973,2,0,L|494:338,2,33.0000010070801,2|2|2,3:2|3:2|3:2,0:0:0:0:
438,261,115230,6,0,B|399:234|399:234|291:253,1,132.00000402832,14|2,0:0|0:0,0:0:0:0:
222,274,115744,1,2,0:0:0:0:
222,274,115916,2,0,L|111:255,2,99.0000030212403,10|2|2,0:0|0:0|0:0,0:0:0:0:
309,367,116602,5,14,0:0:0:0:
256,160,116944,1,10,0:0:0:0:
203,367,117287,1,10,0:0:0:0:
128,319,117459,1,2,3:2:0:0:
128,319,117544,1,2,3:2:0:0:
128,319,117630,1,2,3:2:0:0:
37,359,117802,2,0,L|22:265,1,66.0000020141602,2|8,0:0|0:0,0:0:0:0:
8,196,118144,6,0,B|33:156|33:156|138:145,1,132.00000402832,2|2,0:0|0:0,0:0:0:0:
217,143,118659,2,0,L|225:96,1,33.0000010070801,10|2,0:0|0:0,0:0:0:0:
202,64,118830,2,0,L|210:17,1,33.0000010070801,2|2,0:0|0:0,0:0:0:0:
247,1,119002,1,10,3:2:0:0:
341,56,119173,1,10,3:2:0:0:
341,56,119259,1,10,3:2:0:0:
341,56,119344,6,0,L|445:69,1,99.0000030212403,14|14,0:0|0:0,0:0:0:0:
325,164,119859,2,0,L|221:177,1,99.0000030212403,14|14,0:0|0:0,0:0:0:0:
341,272,120373,1,10,0:0:0:0:
408,200,120544,1,10,0:0:0:0:
431,338,120716,5,10,0:0:0:0:
431,338,121487,2,0,L|447:258,1,66.0000020141602,8|8,0:0|0:0,0:0:0:0:
448,234,121744,2,0,L|381:245,1,44.0000013427735,8|8,0:0|0:0,0:0:0:0:
343,224,121973,1,8,0:0:0:0:
294,270,122087,5,14,0:0:0:0:
256,192,132373,6,0,L|192:192,1,60,10|0,0:0|0:0,0:0:0:0:
110,156,132716,1,2,0:0:0:0:
110,156,132887,1,2,0:0:0:0:
110,156,133059,6,0,L|133:24,1,120,14|2,1:2|1:2,0:0:0:0:
308,9,133744,2,0,P|336:40|347:72,1,60,2|2,1:2|0:0,0:0:0:0:
347,146,134087,2,0,P|333:172|311:193,1,60,2|2,1:2|0:0,0:0:0:0:
235,242,134430,6,0,L|378:226,1,120,2|2,1:2|1:2,0:0:0:0:
509,136,135116,2,0,L|499:212,1,60,2|2,1:2|0:2,0:0:0:0:
457,274,135459,2,0,L|467:350,1,60,0|2,1:2|0:0,0:0:0:0:
374,327,135802,6,0,L|322:344,3,30,10|2|2|2,3:2|3:2|3:2|3:2,0:0:0:0:
312,366,136144,1,10,0:0:0:0:
312,366,136316,1,10,0:0:0:0:
234,320,136487,6,0,P|193:306|112:301,1,120,14|0,0:0|0:0,0:0:0:0:
26,303,137002,2,0,P|42:256|215:202,1,240,14|0,0:0|0:0,0:0:0:0:
288,236,137859,1,2,0:0:0:0:
370,195,138030,1,8,0:0:0:0:
370,195,138116,1,8,0:0:0:0:
370,195,138202,1,2,1:2:0:0:
465,231,138373,1,2,1:2:0:0:
502,129,138544,6,0,L|486:55,1,60,14|0,0:0|0:0,0:0:0:0:
415,17,138887,2,0,P|372:40|334:111,1,120,10|10,0:0|0:0,0:0:0:0:
281,173,139402,1,2,3:2:0:0:
281,173,139573,2,0,L|215:164,1,60,10|2,0:0|3:2,0:0:0:0:
138,129,139916,6,0,L|71:138,1,60,10|0,0:0|0:0,0:0:0:0:
71,227,140259,2,0,L|197:245,1,120,10|10,0:0|0:0,0:0:0:0:
286,238,140773,1,10,0:0:0:0:
286,238,140859,1,10,0:0:0:0:
286,238,140944,2,0,L|297:321,1,60,10|10,0:0|0:0,0:0:0:0:
357,361,141287,6,0,P|421:341|424:273,1,120,14|2,0:0|3:2,0:0:0:0:
413,206,141802,2,0,P|414:163|436:80,1,120,14|2,0:0|3:2,0:0:0:0:
482,7,142316,1,14,0:0:0:0:
482,7,142487,1,14,0:0:0:0:
482,7,142659,6,0,L|404:18,1,60,2|0,0:3|0:0,0:0:0:0:
359,79,143002,2,0,L|281:68,1,60,2|0,0:3|0:0,0:0:0:0:
236,7,143344,2,0,L|158:18,1,60,2|0,0:3|0:0,0:0:0:0:
113,79,143687,2,0,L|35:68,1,60,2|2,0:3|0:3,0:0:0:0:
6,147,144030,5,10,0:0:0:0:
6,147,149516,5,2,3:2:0:0:
54,320,149859,1,2,3:2:0:0:
227,272,150202,1,2,3:2:0:0:
179,99,150544,1,2,3:2:0:0:
227,272,150887,6,0,L|372:285,1,120,2|2,3:2|3:2,0:0:0:0:
493,177,151573,2,0,L|379:167,1,90,2|2,3:2|3:2,0:0:0:0:
358,165,151916,1,2,3:2:0:0:
396,340,152259,5,2,3:2:0:0:
239,250,152602,1,2,3:2:0:0:
108,373,152944,1,2,3:2:0:0:
239,250,153287,1,2,3:2:0:0:
201,73,153630,5,10,0:0:0:0:
274,138,153802,1,2,0:0:0:0:
177,188,153973,1,2,0:0:0:0:
177,188,155002,6,0,L|195:299,1,90,14|0,1:2|0:0,0:0:0:0:
198,320,155344,1,2,1:2:0:0:
110,299,155516,2,0,L|26:325,1,60,2|2,0:0|1:2,0:0:0:0:
9,237,155859,1,2,0:0:0:0:
9,237,155944,2,0,P|52:219|60:159,1,90,2|2,1:2|1:2,0:0:0:0:
34,95,156373,6,0,P|76:72|169:68,1,120,2|2,1:2|1:2,0:0:0:0:
242,91,156887,1,2,0:0:0:0:
242,91,156973,1,2,0:0:0:0:
242,91,157059,2,0,L|235:169,1,60,2|0,1:2|0:0,0:0:0:0:
316,193,157402,2,0,L|323:115,1,60,2|2,1:2|0:0,0:0:0:0:
383,68,157744,6,0,L|508:93,1,120,2|2,1:2|1:2,0:0:0:0:
500,91,158173,1,2,0:0:0:0:
459,170,158344,2,0,L|474:278,1,90,2|2,0:0|0:0,0:0:0:0:
483,307,158687,1,2,1:2:0:0:
483,307,158773,1,2,1:2:0:0:
404,351,158944,1,2,1:2:0:0:
327,302,159116,6,0,L|254:295,1,60,2|0,1:2|0:0,0:0:0:0:
185,335,159459,1,2,1:2:0:0:
145,254,159630,1,2,0:0:0:0:
145,254,159716,1,2,0:0:0:0:
145,254,159802,2,0,P|193:224|200:178,1,90,2|2,1:2|0:0,0:0:0:0:
187,152,160144,6,0,L|132:160,2,40,10|10|10,1:2|0:0|0:0,0:0:0:0:
231,111,160487,6,0,L|215:30,1,60,6|0,1:2|0:0,0:0:0:0:
295,3,160830,2,0,L|311:84,1,60,2|2,1:2|1:2,0:0:0:0:
327,149,161173,2,0,L|405:163,1,60,2|0,1:2|0:0,0:0:0:0:
424,241,161516,2,0,L|346:255,1,60,2|2,1:2|1:2,0:0:0:0:
277,306,161859,5,2,1:2:0:0:
277,306,162030,1,0,0:0:0:0:
212,228,162202,1,2,1:2:0:0:
212,228,162373,1,2,1:2:0:0:
117,285,162544,6,0,L|41:296,1,60,2|0,1:2|0:0,0:0:0:0:
44,204,162887,2,0,L|120:193,1,60,2|2,1:2|1:2,0:0:0:0:
224,201,163230,6,0,L|216:157,5,30,10|0|0|0|0|0,3:2|3:0|3:0|3:0|3:0|3:0,0:0:0:0:
244,134,163744,2,0,L|252:90,5,30,10|0|0|0|0|0,3:2|3:0|3:0|3:0|3:0|3:0,0:0:0:0:
224,67,164259,2,0,L|216:23,3,30,10|2|2|0,3:2|3:2|3:2|3:2,0:0:0:0:
244,0,164602,5,14,0:0:0:0:
404,81,164944,1,10,0:0:0:0:
404,81,165116,1,10,0:0:0:0:
404,81,165287,2,0,L|486:73,1,60,2|0,1:2|0:0,0:0:0:0:
453,164,165630,2,0,L|474:275,1,90,14|0,0:0|0:0,0:0:0:0:
480,300,165973,5,10,0:0:0:0:
293,365,166316,2,0,P|256:340|241:280,1,99.0000030212403,6|0,1:2|0:0,0:0:0:0:
265,247,166659,2,0,L|256:194,1,33.0000010070801,10|2,0:0|0:0,0:0:0:0:
254,165,166830,1,2,0:0:0:0:
161,201,167002,2,0,L|77:187,1,66.0000020141602,2|2,1:2|0:0,0:0:0:0:
16,131,167344,6,0,P|60:109|88:79,1,66.0000020141602,10|2,0:0|0:0,0:0:0:0:
96,53,167602,1,2,0:0:0:0:
187,90,167773,1,2,0:0:0:0:
294,26,167944,2,0,P|338:30|373:89,1,99.0000030212403,2|2,0:0|0:0,0:0:0:0:
358,121,168287,1,2,0:0:0:0:
358,121,168373,2,0,L|416:135,1,33.0000010070801,2|2,1:2|0:0,0:0:0:0:
421,166,168544,2,0,L|479:152,1,33.0000010070801,2|2,0:0|0:0,0:0:0:0:
489,124,168716,5,10,0:0:0:0:
445,265,168973,2,0,L|460:359,1,66.0000020141602,2|2,0:0|0:0,0:0:0:0:
358,350,169316,2,0,L|343:256,1,66.0000020141602,2|2,0:0|0:0,0:0:0:0:
340,235,169573,1,2,0:0:0:0:
254,284,169744,2,0,P|210:265|188:236,1,66.0000020141602,2|2,1:2|0:0,0:0:0:0:
158,161,170087,6,0,L|166:122,3,33.0000010070801,10|2|2|2,3:2|3:2|3:2|3:2,0:0:0:0:
192,87,170430,2,0,L|184:48,3,33.0000010070801,2|2|0|2,1:2|3:2|0:0|3:2,0:0:0:0:
171,6,170773,2,0,L|82:22,1,66.0000020141602,10|2,3:2|3:2,0:0:0:0:
13,43,171116,1,2,1:2:0:0:
13,43,171287,1,10,0:0:0:0:
38,139,171459,5,10,0:0:0:0:
227,81,171802,2,0,P|254:114|260:184,1,99.0000030212403,6|0,1:2|0:0,0:0:0:0:
250,215,172144,2,0,L|264:276,1,33.0000010070801,10|2,0:0|0:0,0:0:0:0:
248,296,172316,1,2,0:0:0:0:
334,344,172487,2,0,L|407:328,1,66.0000020141602,2|2,1:2|0:0,0:0:0:0:
495,310,172830,6,0,P|509:265|496:225,1,66.0000020141602,10|2,0:0|0:0,0:0:0:0:
480,204,173087,1,2,0:0:0:0:
386,237,173259,1,2,0:0:0:0:
349,145,173430,2,0,L|363:66,1,66.0000020141602,2|0,0:0|0:0,0:0:0:0:
366,30,173687,1,2,0:0:0:0:
269,54,173859,2,0,L|216:43,1,33.0000010070801,2|2,1:2|0:0,0:0:0:0:
196,17,174030,2,0,L|143:28,1,33.0000010070801,2|2,0:0|0:0,0:0:0:0:
131,62,174202,6,0,P|164:106|179:170,1,99.0000030212403,10|2,0:0|0:0,0:0:0:0:
168,195,174544,1,0,0:0:0:0:
68,193,174716,2,0,P|35:237|20:301,1,99.0000030212403,2|2,0:0|0:0,0:0:0:0:
31,326,175058,1,0,0:0:0:0:
119,371,175230,1,2,1:2:0:0:
214,308,175402,1,2,0:0:0:0:
352,352,175573,6,0,L|388:345,3,33.0000010070801,14|0|0|0,0:0|3:0|3:0|3:0,0:0:0:0:
416,308,175916,2,0,L|452:315,3,33.0000010070801,10|0|0|0,0:0|3:0|3:0|3:0,0:0:0:0:
477,274,176259,6,0,L|460:192,1,44.0000013427735,14|0,0:0|0:0,0:0:0:0:
429,177,176487,2,0,L|446:95,1,44.0000013427735,10|0,0:0|0:0,0:0:0:0:
456,70,176716,1,10,0:0:0:0:
345,19,176944,5,14,0:0:0:0:
345,19,177116,1,10,0:0:0:0:
345,19,177287,2,0,P|308:40|293:66,1,66.0000020141602,6|0,1:2|0:0,0:0:0:0:
232,135,177630,2,0,P|188:123|166:69,1,99.0000030212403,10|2,0:0|0:0,0:0:0:0:
181,30,177973,1,0,0:0:0:0:
85,4,178144,1,2,0:0:0:0:
41,93,178316,6,0,L|58:172,1,66.0000020141602,10|0,0:0|0:0,0:0:0:0:
132,220,178659,2,0,L|115:299,1,66.0000020141602,2|0,1:2|0:0,0:0:0:0:
87,323,178916,1,2,0:0:0:0:
169,377,179087,2,0,L|262:363,1,66.0000020141602,2|0,0:0|0:0,0:0:0:0:
266,329,179344,2,0,L|378:346,1,99.0000030212403,2|0,1:2|0:0,0:0:0:0:
397,307,179687,6,0,L|390:255,2,33.0000010070801,10|2|2,0:0|0:0|3:2,0:0:0:0:
492,352,180030,1,2,1:2:0:0:
492,352,180116,2,0,L|501:300,1,33.0000010070801,2|0,0:0|0:0,0:0:0:0:
502,270,180287,2,0,L|486:160,1,99.0000030212403,2|2,0:0|0:0,0:0:0:0:
507,74,180716,1,2,1:2:0:0:
416,32,180887,1,2,0:0:0:0:
330,98,181059,6,0,L|288:90,3,33.0000010070801,10|0|0|0,0:0|0:0|0:0|0:0,0:0:0:0:
261,126,181402,2,0,L|219:134,3,33.0000010070801,2|2|2|2,1:2|0:0|0:0|0:0,0:0:0:0:
189,102,181744,2,0,P|146:124|146:183,1,99.0000030212403,10|2,0:0|3:2,0:0:0:0:
165,213,182087,2,0,L|158:309,1,66.0000020141602,2|2,1:2|0:0,0:0:0:0:
151,377,182430,6,0,P|225:359|277:352,1,99.0000030212403,10|0,0:0|0:0,0:0:0:0:
295,366,182773,5,6,1:2:0:0:
371,303,182944,2,0,L|358:230,1,66.0000020141602,0|0,0:0|3:0,0:0:0:0:
308,152,183287,2,0,L|321:79,1,66.0000020141602,2|2,0:0|3:2,0:0:0:0:
387,13,183630,2,0,P|430:31|448:64,1,66.0000020141602,2|0,0:0|3:0,0:0:0:0:
441,144,183973,2,0,P|398:162|380:195,1,66.0000020141602,0|2,0:0|3:2,0:0:0:0:
428,266,184316,2,0,L|511:277,1,66.0000020141602,2|2,0:0|3:2,0:0:0:0:
428,350,184659,2,0,L|345:361,1,66.0000020141602,2|2,0:0|3:2,0:0:0:0:
317,370,184916,1,2,3:2:0:0:
317,370,185002,1,2,3:2:0:0:
237,291,185173,6,0,P|255:253|281:228,1,66.0000020141602,14|2,0:0|0:0,0:0:0:0:
347,171,185516,2,0,P|329:133|303:108,1,66.0000020141602,14|2,0:0|0:0,0:0:0:0:
224,69,185859,2,0,P|178:82|142:77,1,66.0000020141602,14|2,0:0|0:0,0:0:0:0:
75,29,186202,2,0,P|42:29|11:41,1,66.0000020141602,14|2,0:0|0:0,0:0:0:0:
60,126,186544,5,14,0:0:0:0:
177,217,186802,1,2,0:0:0:0:
62,310,187059,1,2,0:0:0:0:
62,310,187230,6,0,L|68:355,3,33.0000010070801,10|2|2|2,3:2|3:2|3:2|3:2,0:0:0:0:
101,377,187573,2,0,L|148:367,3,33.0000010070801,10|10|10|10,3:2|3:2|3:2|3:2,0:0:0:0:
182,373,187916,6,2,P|230:349|255:289,1,99.0000030212403,14|0,0:0|0:0,0:1:0:0:
265,263,188259,1,2,1:2:0:0:
119,235,188516,2,2,L|132:148,1,66.0000020141602,10|0,0:0|0:0,0:1:0:0:
162,132,188773,2,2,L|149:45,1,66.0000020141602,10|2,0:0|1:2,0:1:0:0:
342,11,189287,6,2,P|391:39|407:99,1,99.0000030212403,10|0,0:0|0:0,0:1:0:0:
388,122,189630,1,2,1:2:0:0:
501,217,189887,2,2,L|491:296,1,66.0000020141602,10|0,0:0|0:0,0:1:0:0:
483,331,190144,1,0,0:0:0:0:
391,291,190316,2,2,L|312:301,1,66.0000020141602,10|10,0:0|0:0,0:1:0:0:
251,365,190659,6,2,P|204:350|185:289,1,99.0000030212403,10|0,0:0|0:0,0:1:0:0:
201,261,191002,1,2,1:2:0:0:
68,193,191259,2,2,L|84:104,1,66.0000020141602,10|0,0:0|0:0,0:1:0:0:
65,80,191516,2,2,L|141:54,1,66.0000020141602,10|2,0:0|1:2,0:1:0:0:
306,144,192030,6,2,P|337:112|335:46,1,99.0000030212403,10|0,0:0|0:0,0:1:0:0:
318,15,192373,2,2,L|266:8,1,33.0000010070801,2|10,1:2|0:0,0:1:0:0:
208,74,192630,2,2,L|220:152,1,66.0000020141602,10|0,0:0|0:0,0:1:0:0:
202,186,192887,2,2,L|214:264,1,66.0000020141602,10|2,0:0|1:2,0:1:0:0:
228,349,193230,1,10,0:0:0:0:
320,313,193402,6,2,P|394:325|446:342,1,99.0000030212403,14|0,0:0|0:0,0:1:0:0:
462,351,193744,2,2,L|441:266,1,66.0000020141602,2|0,1:2|0:0,0:1:0:0:
435,237,194002,2,2,P|455:190|480:163,1,66.0000020141602,10|0,0:0|0:0,0:1:0:0:
493,138,194259,2,2,P|473:91|448:64,1,66.0000020141602,10|2,0:0|1:2,0:1:0:0:
282,0,194773,6,2,P|248:51|190:51,1,99.0000030212403,10|0,0:0|0:0,0:1:0:0:
166,45,195116,2,2,L|177:106,1,33.0000010070801,2|0,1:2|0:0,0:1:0:0:
185,175,195373,2,2,L|108:166,1,66.0000020141602,10|0,0:0|0:0,0:1:0:0:
91,208,195630,2,2,L|14:217,1,66.0000020141602,10|2,0:0|1:2,0:1:0:0:
68,305,195973,6,2,L|176:318,1,99.0000030212403,14|0,0:0|0:0,0:1:0:0:
218,301,196316,1,2,0:0:0:0:
218,301,196402,1,2,0:0:0:0:
218,301,196487,2,0,L|228:382,1,66.0000020141602,2|0,1:2|0:0,0:0:0:0:
307,309,196830,2,0,L|300:250,2,33.0000010070801,2|2|10,0:0|0:0|0:0,0:0:0:0:
396,363,197173,1,2,1:2:0:0:
396,363,197344,6,0,L|446:372,3,33.0000010070801,14|10|0|8,0:0|0:0|0:0|0:0,0:0:0:0:
469,340,197687,2,0,L|456:252,1,66.0000020141602,10|10,0:0|0:0,0:0:0:0:
456,229,197944,1,10,0:0:0:0:
456,229,198030,1,10,0:0:0:0:
371,176,198202,6,2,L|389:80,2,88.000002685547,14|10|10,0:0|0:0|0:0,0:1:0:0:
341,304,198887,5,14,0:0:0:0:
256,32,200259,5,14,0:0:0:0:
171,304,201630,5,14,0:0:0:0:
256,128,201973,1,2,0:0:0:0:
341,304,202316,2,0,P|391:289|435:289,1,66.0000020141602,0|10,1:0|0:0,0:0:0:0:
498,319,202659,6,2,L|475:185,1,132.00000402832,14|0,0:0|0:0,0:1:0:0:
387,142,203173,2,2,L|410:8,1,132.00000402832,14|0,0:0|0:0,0:1:0:0:
504,40,203687,1,2,1:2:0:0:
309,79,204030,1,2,0:0:0:0:
359,270,204373,5,10,0:0:0:0:
153,270,204716,2,0,L|147:228,3,33.0000010070801,10|10|10|10,0:0|0:0|0:0|0:0,0:0:0:0:
122,195,205058,2,0,L|128:153,1,33.0000010070801,2|2,1:2|1:2,0:0:0:0:
136,112,205230,1,2,1:2:0:0:
376,112,205573,1,2,0:0:0:0:
376,310,205916,6,0,B|347:343|347:343|244:327,1,132.00000402832,14|2,0:0|0:0,0:0:0:0:
162,311,206430,1,2,1:2:0:0:
221,233,206602,1,10,0:0:0:0:
221,233,206687,1,10,0:0:0:0:
221,233,206773,2,0,L|211:143,1,66.0000020141602,10|10,0:0|0:0,0:0:0:0:
202,68,207116,6,0,P|163:40|92:43,1,99.0000030212403,14|2,0:0|0:0,0:0:0:0:
70,60,207459,1,10,0:0:0:0:
64,158,207630,2,0,L|-18:171,1,66.0000020141602,2|8,0:0|0:0,0:0:0:0:
34,202,207887,2,0,L|21:284,1,66.0000020141602,2|0,0:0|0:0,0:0:0:0:
42,313,208144,1,10,0:0:0:0:
133,273,208316,6,0,L|180:281,1,33.0000010070801,2|14,1:2|0:0,0:0:0:0:
350,101,209859,5,14,0:0:0:0:
256,192,209944,12,2,220830,0:0:0:0:
256,192,220916,12,10,230430,0:0:0:0:
256,192,230944,5,10,0:0:0:0:
256,192,231116,2,0,L|256:224,1,30,10|0,0:0|0:0,0:0:0:0:
256,267,231287,2,0,L|256:299,1,30,10|0,0:0|0:0,0:0:0:0:
256,352,231459,5,14,0:0:0:0:
