osu file format v14

[General]
AudioFilename: audio.mp3
AudioLeadIn: 0
PreviewTime: 53516
Countdown: 0
SampleSet: Soft
StackLeniency: 0.5
Mode: 0
LetterboxInBreaks: 0
WidescreenStoryboard: 1

[Editor]
Bookmarks: 1402,12373,23344,34316,45287,56259,67230,78202,98687,100144,122087,133059,144030,155002,165973,166316,171459,171802,182430,182773,186544,187916,198887,202659,208402,209859,220830,231459
DistanceSpacing: 1.3
BeatDivisor: 4
GridSize: 32
TimelineZoom: 2

[Metadata]
Title:D4NCE
TitleUnicode:D4NCE
Artist:Zekk
ArtistUnicode:Zekk
Creator:eiri-
Version:Extra
Source:osu!
Tags:Ayyri Electronic Instrumental Featured Artist FA FÜGENE2 FUGENE 2 Future Core Bass Hardcore jcore DANCE
BeatmapID:2382798
BeatmapSetID:1140776

[Difficulty]
HPDrainRate:5
CircleSize:5
OverallDifficulty:8.5
ApproachRate:9.3
SliderMultiplier:1.6
SliderTickRate:1

[Events]
//Background and Video events
0,0,"D4NCE.jpg",0,0
//Break Periods
2,45487,53516
2,122287,130316
2,144230,148144
//Storyboard Layer 0 (Background)
//Storyboard Layer 1 (Fail)
//Storyboard Layer 2 (Pass)
//Storyboard Layer 3 (Foreground)
//Storyboard Layer 4 (Overlay)
//Storyboard Sound Samples

[TimingPoints]
1402,342.857142857143,4,2,1,75,1,0
1487,-100,4,2,1,50,0,0
12373,-100,4,2,1,50,0,0
20602,-100,4,2,1,55,0,0
21973,-100,4,2,1,60,0,0
23002,-333.333333333333,4,2,1,70,0,0
23344,-100,4,2,1,75,0,0
27459,-125,4,2,1,75,0,0
28830,-100,4,2,1,75,0,0
32944,-125,4,2,1,75,0,0
33973,-200,4,2,1,75,0,0
34144,-50,4,2,1,75,0,0
34316,-100,4,2,1,75,0,0
38430,-125,4,2,1,75,0,0
39802,-100,4,2,1,75,0,0
42544,-80,4,2,1,75,0,0
43916,-133.333333333333,4,2,1,75,0,0
45287,-125,4,2,1,75,0,0
53516,-125,4,2,1,60,0,0
56259,-100,4,2,1,65,0,0
61744,-90.9090909090909,4,2,1,70,0,0
67230,-80,4,2,1,75,0,0
72716,-76.9230769230769,4,2,1,80,0,0
77859,-66.6666666666667,4,2,1,80,0,0
78202,-76.9230769230769,4,2,1,90,0,1
89173,-333.333333333333,4,2,1,90,0,1
92944,-76.9230769230769,4,2,1,90,0,1
98687,-90.9090909090909,4,2,1,80,0,0
100144,-74.0740740740741,4,2,1,100,0,1
122087,-125,4,2,1,75,0,0
130316,-125,4,2,1,60,0,0
133059,-100,4,2,1,65,0,0
138544,-90.9090909090909,4,2,1,70,0,0
144030,-100,4,2,1,75,0,0
149516,-100,4,2,1,60,0,0
155002,-86.9565217391304,4,2,1,75,0,0
160487,-83.3333333333333,4,2,1,80,0,0
165287,-76.9230769230769,4,2,1,80,0,0
165630,-66.6666666666667,4,2,1,80,0,0
165973,-200,4,2,1,90,0,1
166059,-200,4,2,1,90,0,0
166316,-66.6666666666667,4,2,1,90,0,1
170087,-57.1428571428571,4,2,1,90,0,1
171459,-200,4,2,1,90,0,0
171802,-66.6666666666667,4,2,1,90,0,1
182430,-200,4,2,1,90,0,0
182773,-76.9230769230769,4,2,1,90,0,1
186544,-66.6666666666667,4,2,1,80,0,0
187916,-57.1428571428571,4,2,1,100,0,1
188259,-100,4,2,1,100,0,1
188516,-57.1428571428571,4,2,1,100,0,1
193744,-100,4,2,1,100,0,1
194002,-57.1428571428571,4,2,1,100,0,1
198887,-333.333333333333,4,2,1,100,0,0
202659,-76.9230769230769,4,2,1,100,0,1
208402,-57.1428571428571,4,2,1,80,0,0
209859,-100,4,2,1,75,0,0
211230,-100,4,2,1,73,0,0
212602,-100,4,2,1,70,0,0
213973,-100,4,2,1,67,0,0
215344,-100,4,2,1,65,0,0
216716,-100,4,2,1,63,0,0
218087,-100,4,2,1,60,0,0
219459,-100,4,2,1,57,0,0
220830,-100,4,2,1,55,0,0
222202,-100,4,2,1,53,0,0
223573,-100,4,2,1,50,0,0
224944,-100,4,2,1,47,0,0
226316,-100,4,2,1,45,0,0
227687,-100,4,2,1,43,0,0
229059,-100,4,2,1,40,0,0
230430,-100,4,2,1,75,0,0
231459,-100,4,2,1,80,0,0

[Colours]
Combo1 : 231,137,109
Combo2 : 124,124,131
Combo3 : 255,96,96
Combo4 : 180,180,182

[HitObjects]
256,192,1402,5,14,0:0:0:0:
256,192,1487,12,2,12373,0:0:0:0:
256,192,12459,12,2,16487,0:0:0:0:
224,160,17859,5,10,0:0:0:0:
224,224,18202,1,8,0:0:0:0:
288,224,18544,1,8,0:0:0:0:
288,160,18887,1,8,0:0:0:0:
288,160,19230,5,10,0:0:0:0:
288,224,19573,1,8,0:0:0:0:
224,224,19915,1,8,0:0:0:0:
224,160,20258,1,8,0:0:0:0:
256,160,20602,5,10,0:0:0:0:
256,224,20945,1,8,0:0:0:0:
256,288,21287,1,8,0:0:0:0:
256,352,21630,1,8,0:0:0:0:
256,32,21973,5,14,0:0:0:0:
256,32,22487,2,0,L|256:102,1,40,10|10,0:0|0:0,0:0:0:0:
256,288,22659,1,10,0:0:0:0:
256,320,22830,1,10,0:0:0:0:
256,356,23002,6,2,L|256:320,1,35.9999989013672,2|0,1:2|0:0,0:1:0:0:
256,192,23344,5,14,0:0:0:0:
400,141,23516,2,0,L|504:156,1,80,2|8,0:0|0:0,0:0:0:0:
333,47,23859,1,2,0:0:0:0:
333,47,23944,1,2,0:0:0:0:
333,47,24030,2,0,L|229:62,1,80,10|0,0:0|0:0,0:0:0:0:
113,70,24287,6,0,L|128:123,1,40,2|10,0:0|0:0,0:0:0:0:
305,149,24459,1,2,0:0:0:0:
305,149,24544,2,0,L|290:202,1,40,2|0,0:0|0:0,0:0:0:0:
243,355,24716,5,10,0:0:0:0:
43,274,24887,1,2,0:0:0:0:
56,262,24973,1,2,0:0:0:0:
66,279,25059,1,10,0:0:0:0:
66,279,25144,6,0,P|73:332|72:386,1,80,2|0,0:0|0:0,0:0:0:0:
73,372,25402,1,10,0:0:0:0:
14,179,25573,1,2,1:2:0:0:
208,115,25744,1,10,0:0:0:0:
223,183,25830,1,10,0:0:0:0:
206,109,25916,2,0,L|261:97,1,40,10|0,1:2|0:0,0:0:0:0:
465,144,26087,5,10,0:0:0:0:
364,20,26259,2,0,P|357:73|358:127,1,80,2|8,0:0|0:0,0:0:0:0:
384,288,26602,1,2,0:0:0:0:
384,288,26687,1,2,0:0:0:0:
384,288,26773,2,0,L|492:275,1,80,10|0,0:0|0:0,0:0:0:0:
268,365,27030,6,0,L|191:356,1,40,2|10,0:0|0:0,0:0:0:0:
110,306,27202,1,2,0:0:0:0:
110,306,27287,2,0,L|33:315,1,40,2|0,0:0|0:0,0:0:0:0:
259,300,27459,6,0,L|238:216,1,64,10|0,0:0|0:0,0:0:0:0:
273,174,27716,1,2,0:0:0:0:
270,163,27802,1,2,1:2:0:0:
284,164,27887,6,0,L|305:80,1,64,2|0,0:0|0:0,0:0:0:0:
329,5,28144,1,10,0:0:0:0:
329,5,28316,1,2,1:2:0:0:
174,78,28487,1,10,0:0:0:0:
193,11,28573,1,10,0:0:0:0:
174,88,28659,2,0,L|183:145,1,32,2|0,1:2|0:0,0:0:0:0:
210,372,28830,5,10,0:0:0:0:
222,362,29002,5,10,0:0:0:0:
208,353,29173,5,10,0:0:0:0:
12,370,29344,5,2,0:0:0:0:
1,362,29430,1,2,0:0:0:0:
20,353,29516,2,0,P|68:341|117:337,1,80,10|0,0:0|0:0,0:0:0:0:
322,349,29773,6,0,L|334:294,1,40,2|10,0:0|0:0,0:0:0:0:
258,221,29944,1,2,0:0:0:0:
258,221,30030,2,0,L|246:166,1,40,2|0,0:0|0:0,0:0:0:0:
226,29,30202,5,10,0:0:0:0:
404,76,30373,1,2,0:0:0:0:
412,89,30459,1,2,0:0:0:0:
407,104,30544,1,10,0:0:0:0:
407,104,30630,6,0,L|309:89,1,80,2|0,0:0|0:0,0:0:0:0:
104,66,30887,1,10,0:0:0:0:
226,29,31059,1,2,1:2:0:0:
240,206,31230,1,10,0:0:0:0:
221,139,31316,1,10,0:0:0:0:
240,216,31402,2,0,L|231:277,1,40,2|0,1:2|0:0,0:0:0:0:
210,372,31573,5,10,0:0:0:0:
218,363,31659,1,2,0:0:0:0:
206,353,31744,2,0,P|145:361|113:370,1,80,2|8,0:0|0:0,0:0:0:0:
336,384,32087,1,2,0:0:0:0:
362,180,32259,2,0,L|373:110,1,40,10|0,0:0|0:0,0:0:0:0:
383,47,32430,1,2,0:0:0:0:
383,47,32516,2,0,L|305:56,1,40,2|10,0:0|0:0,0:0:0:0:
148,66,32687,5,2,1:2:0:0:
154,101,32773,1,2,1:2:0:0:
189,95,32859,1,2,1:2:0:0:
183,60,32944,6,0,L|84:92,1,96,14|0,0:0|0:0,0:0:0:0:
251,162,33287,1,10,0:0:0:0:
251,162,33459,1,10,0:0:0:0:
251,162,33630,2,0,L|350:194,1,96,2|0,1:2|0:0,0:0:0:0:
494,162,33973,6,2,L|503:137,1,20,10|0,0:0|0:0,0:1:0:0:
494,162,34144,6,2,L|505:263,1,80,2|0,1:2|0:0,0:1:0:0:
480,21,34316,5,14,0:0:0:0:
400,141,34487,2,0,L|504:156,1,80,2|8,0:0|0:0,0:0:0:0:
308,25,34830,1,2,0:0:0:0:
308,25,34915,1,2,0:0:0:0:
308,25,35001,2,0,L|293:129,1,80,10|0,0:0|0:0,0:0:0:0:
270,244,35258,6,0,L|285:297,1,40,2|10,0:0|0:0,0:0:0:0:
322,133,35430,1,2,0:0:0:0:
322,133,35516,2,0,L|258:142,1,40,2|0,0:0|0:0,0:0:0:0:
123,155,35687,1,10,0:0:0:0:
192,32,35858,1,2,0:0:0:0:
205,20,35944,1,2,0:0:0:0:
215,37,36030,1,10,0:0:0:0:
215,37,36115,6,0,P|222:90|221:144,1,80,2|0,0:0|0:0,0:0:0:0:
222,130,36373,1,10,0:0:0:0:
18,147,36544,1,2,1:2:0:0:
335,155,36715,1,10,0:0:0:0:
320,223,36801,1,10,0:0:0:0:
337,149,36887,2,0,L|282:137,1,40,10|0,1:2|0:0,0:0:0:0:
366,334,37058,5,10,0:0:0:0:
175,276,37230,2,0,P|168:329|169:383,1,80,2|8,0:0|0:0,0:0:0:0:
401,275,37573,1,2,0:0:0:0:
401,275,37658,1,2,0:0:0:0:
401,275,37744,2,0,L|509:288,1,80,10|0,0:0|0:0,0:0:0:0:
348,339,38001,6,0,L|271:348,1,40,2|10,0:0|0:0,0:0:0:0:
207,374,38173,1,2,0:0:0:0:
207,374,38258,2,0,L|130:365,1,40,2|0,0:0|0:0,0:0:0:0:
11,353,38430,6,0,L|32:269,1,64,10|0,0:0|0:0,0:0:0:0:
49,182,38687,1,2,0:0:0:0:
52,171,38773,1,2,1:2:0:0:
38,172,38858,6,0,L|17:88,1,64,2|0,0:0|0:0,0:0:0:0:
0,32,39115,1,10,0:0:0:0:
0,32,39287,1,2,1:2:0:0:
196,67,39458,1,10,0:0:0:0:
215,0,39544,1,10,0:0:0:0:
196,77,39630,2,0,L|205:134,1,32,2|0,1:2|0:0,0:0:0:0:
224,312,39801,5,14,0:0:0:0:
289,278,39973,2,0,L|402:293,1,80,2|0,0:0|0:0,0:0:0:0:
141,241,40316,2,0,L|28:256,1,80,2|0,0:0|0:0,0:0:0:0:
206,176,40659,1,2,0:0:0:0:
209,186,40744,6,0,L|220:243,1,40,2|0,0:0|0:0,0:0:0:0:
307,146,40916,1,2,0:0:0:0:
307,146,41001,2,0,L|296:89,1,40,2|0,0:0|0:0,0:0:0:0:
326,256,41173,1,2,0:0:0:0:
465,214,41344,1,2,0:0:0:0:
454,204,41430,1,2,0:0:0:0:
465,191,41516,1,2,0:0:0:0:
465,191,41602,6,0,P|475:133|473:93,1,80,2|0,0:0|0:0,0:0:0:0:
455,47,41858,1,2,0:0:0:0:
369,111,42030,1,2,0:0:0:0:
310,62,42201,1,2,0:0:0:0:
273,94,42373,2,0,L|205:103,1,40,2|0,0:0|0:0,0:0:0:0:
60,117,42544,5,10,1:2:0:0:
66,109,42630,1,10,0:0:0:0:
72,101,42716,2,0,L|81:167,1,50,10|10,0:0|0:0,0:0:0:0:
104,328,42887,5,10,1:2:0:0:
114,325,42973,1,10,0:0:0:0:
124,322,43059,1,10,0:0:0:0:
134,319,43144,1,10,0:0:0:0:
153,287,43230,5,10,1:2:0:0:
163,284,43316,1,10,0:0:0:0:
173,281,43402,1,10,0:0:0:0:
183,278,43487,6,0,L|192:344,1,50,10|10,0:0|1:2,0:0:0:0:
241,187,43659,1,10,1:2:0:0:
240,178,43744,2,0,L|231:112,1,50,10|10,1:2|1:2,0:0:0:0:
217,10,43916,5,10,0:0:0:0:
217,10,44259,2,0,L|288:17,1,60.0000022888184,2|0,0:3|0:0,0:0:0:0:
107,83,44602,1,0,0:0:0:0:
107,83,44687,1,0,0:0:0:0:
107,83,44773,2,0,P|117:114|123:155,1,60.0000022888184,2|0,0:3|0:0,0:0:0:0:
109,228,45030,1,2,0:3:0:0:
119,235,45116,1,2,0:3:0:0:
136,231,45202,1,2,0:3:0:0:
124,205,45287,5,14,0:0:0:0:
256,192,55573,6,0,P|294:181|321:178,1,64,2|0,1:2|0:0,0:0:0:0:
448,224,55916,1,10,0:0:0:0:
448,224,56087,1,10,0:0:0:0:
448,224,56259,6,0,P|429:184|367:120,1,120,14|0,0:0|0:0,0:0:0:0:
384,145,56602,2,0,P|432:109|479:93,1,80,2|0,1:2|0:0,0:0:0:0:
274,51,56944,1,10,0:0:0:0:
256,160,57116,1,10,0:0:0:0:
276,36,57287,1,2,1:2:0:0:
258,145,57459,1,2,0:0:0:0:
171,242,57630,6,0,P|99:227|33:185,1,120,10|0,0:0|0:0,0:0:0:0:
64,196,57973,2,0,P|86:237|88:283,1,80,2|0,1:2|0:0,0:0:0:0:
64,375,58316,1,10,0:0:0:0:
13,336,58487,1,10,0:0:0:0:
205,305,58659,1,2,1:2:0:0:
307,383,58830,1,10,0:0:0:0:
348,248,59002,6,0,P|338:201|321:155,1,80,10|0,0:0|0:0,0:0:0:0:
290,109,59344,1,2,1:2:0:0:
274,308,59516,1,2,0:0:0:0:
436,333,59687,2,0,B|480:298|480:298|456:217,1,120,10|0,0:0|0:0,0:0:0:0:
458,225,60030,2,0,P|479:171|499:142,1,80,2|2,1:2|0:0,0:0:0:0:
490,152,60373,5,10,0:0:0:0:
422,139,60459,1,2,0:0:0:0:
353,125,60544,1,2,0:0:0:0:
377,96,60716,5,2,1:2:0:0:
432,107,60801,1,2,0:0:0:0:
487,118,60887,1,2,0:0:0:0:
488,86,61059,5,10,0:0:0:0:
444,77,61144,1,2,0:0:0:0:
400,68,61230,2,0,L|421:6,1,40,2|2,1:2|1:2,0:0:0:0:
437,265,61402,1,2,1:2:0:0:
437,265,61573,1,2,1:2:0:0:
437,265,61744,6,0,P|409:209|321:233,1,132.00000402832,14|0,0:0|0:0,0:0:0:0:
340,215,62087,2,0,P|364:274|367:313,1,88.000002685547,2|0,1:2|0:0,0:0:0:0:
192,352,62430,1,10,0:0:0:0:
185,342,62516,1,2,0:0:0:0:
197,335,62602,2,0,L|271:354,1,44.0000013427735,2|0,0:0|0:0,0:0:0:0:
95,376,62773,1,2,1:2:0:0:
64,160,62944,1,2,0:0:0:0:
74,153,63030,1,2,0:0:0:0:
83,168,63116,5,10,0:0:0:0:
107,279,63287,1,2,0:0:0:0:
304,238,63459,1,2,1:2:0:0:
280,127,63630,1,2,0:0:0:0:
223,341,63802,6,0,L|149:322,1,44.0000013427735,10|0,0:0|0:0,0:0:0:0:
304,238,63973,2,0,L|378:219,1,44.0000013427735,10|0,0:0|0:0,0:0:0:0:
49,233,64144,1,2,1:2:0:0:
266,138,64316,1,8,0:0:0:0:
266,138,64487,6,0,B|271:82|271:82|123:107,1,176.000005371094,10|2,0:0|1:2,0:0:0:0:
44,124,65002,1,10,0:0:0:0:
36,115,65087,1,10,0:0:0:0:
47,103,65173,6,0,P|65:155|60:223,1,88.000002685547,10|8,0:0|0:0,0:0:0:0:
38,303,65430,1,8,0:0:0:0:
32,294,65516,2,0,P|63:279|84:285,1,44.0000013427735,2|8,1:2|0:0,0:0:0:0:
238,336,65687,1,14,0:0:0:0:
232,323,65859,6,0,L|244:210,1,88.000002685547,2|0,0:3|0:0,0:0:0:0:
437,256,66202,2,0,L|425:369,1,88.000002685547,2|0,0:3|0:0,0:0:0:0:
368,181,66544,2,0,L|380:68,1,88.000002685547,2|0,0:3|0:0,0:0:0:0:
422,33,66887,2,0,L|410:146,1,88.000002685547,2|2,0:3|0:3,0:0:0:0:
397,268,67144,1,2,0:3:0:0:
399,259,67230,6,0,B|358:224|358:224|242:249,1,150,14|0,1:2|0:0,0:0:0:0:
91,280,67573,2,0,L|102:217,1,50,2|0,1:2|0:0,0:0:0:0:
92,297,67744,2,0,L|103:360,1,50,2|0,1:2|0:0,0:0:0:0:
31,126,67916,2,0,P|80:75|138:96,1,100,2|2,1:2|0:0,0:0:0:0:
116,82,68173,1,2,1:2:0:0:
130,93,68259,1,2,1:2:0:0:
288,64,68430,1,2,1:2:0:0:
334,276,68602,6,0,P|410:254|477:212,1,150,2|0,1:2|0:0,0:0:0:0:
309,181,68944,2,0,P|321:157|343:138,1,50,2|0,1:2|0:0,0:0:0:0:
309,203,69116,2,0,P|321:227|343:246,1,50,2|0,1:2|0:0,0:0:0:0:
487,91,69287,2,0,P|456:41|418:11,1,100,2|2,1:2|0:0,0:0:0:0:
245,0,69544,1,2,1:2:0:0:
248,11,69630,2,0,L|236:133,1,100,2|0,1:2|0:0,0:0:0:0:
220,290,69973,6,0,P|279:272|243:195,1,150,2|0,1:2|0:0,0:0:0:0:
81,272,70316,2,0,L|92:341,1,50,2|0,1:2|0:0,0:0:0:0:
82,241,70487,2,0,L|93:172,1,50,2|0,1:2|0:0,0:0:0:0:
110,37,70659,2,0,P|165:18|234:13,1,100,2|2,1:2|0:0,0:0:0:0:
218,13,70916,1,2,1:2:0:0:
233,18,71002,1,2,1:2:0:0:
178,145,71173,1,2,1:2:0:0:
371,111,71344,6,0,P|316:92|223:87,1,150,2|0,1:2|0:0,0:0:0:0:
367,213,71687,2,0,L|431:186,1,50,2|0,1:2|0:0,0:0:0:0:
348,255,71859,2,0,L|412:228,1,50,2|0,1:2|0:0,0:0:0:0:
160,178,72030,6,0,L|180:293,1,100,2|2,1:2|0:0,0:0:0:0:
194,380,72287,1,2,1:2:0:0:
205,367,72373,5,10,1:2:0:0:
125,344,72487,1,10,0:0:0:0:
32,384,72602,1,10,0:0:0:0:
31,375,72716,6,0,P|49:300|88:205,1,155.999992858887,6|0,1:2|0:0,0:0:0:0:
146,104,73059,2,0,L|87:114,1,51.999997619629,2|0,1:2|0:0,0:0:0:0:
237,243,73230,2,0,L|178:233,1,51.999997619629,2|0,1:2|0:0,0:0:0:0:
448,192,73402,2,0,P|430:117|391:22,1,155.999992858887,2|0,1:2|0:0,0:0:0:0:
368,273,73744,2,0,L|383:348,1,51.999997619629,2|0,1:2|0:0,0:0:0:0:
245,178,73916,2,0,L|256:128,1,51.999997619629,2|0,1:2|0:0,0:0:0:0:
293,364,74087,6,0,L|261:202,1,155.999992858887,2|0,1:2|0:0,0:0:0:0:
235,24,74430,2,0,P|269:9|313:28,1,51.999997619629,2|0,1:2|0:0,0:0:0:0:
160,160,74602,2,0,P|134:159|111:146,1,51.999997619629,2|0,1:2|0:0,0:0:0:0:
352,96,74773,2,0,L|514:137,1,155.999992858887,2|0,1:2|0:0,0:0:0:0:
288,192,75116,2,0,P|293:215|318:242,1,51.999997619629,2|0,1:2|0:0,0:0:0:0:
224,95,75287,2,0,P|229:70|246:50,1,51.999997619629,2|0,1:2|0:0,0:0:0:0:
495,16,75459,5,10,3:2:0:0:
494,25,75544,1,0,3:0:0:0:
493,34,75630,1,0,3:0:0:0:
492,43,75716,1,0,3:0:0:0:
491,52,75802,1,0,3:0:0:0:
490,61,75887,1,0,3:0:0:0:
466,93,75973,5,10,3:2:0:0:
467,102,76058,1,0,3:0:0:0:
468,111,76144,1,0,3:0:0:0:
469,120,76230,1,0,3:0:0:0:
470,129,76316,1,0,3:0:0:0:
471,138,76401,1,0,3:0:0:0:
495,170,76487,6,0,L|487:232,1,51.999997619629,10|2,3:2|3:2,0:0:0:0:
368,277,76659,2,0,L|375:226,1,51.999997619629,2|0,3:2|3:2,0:0:0:0:
462,383,76830,5,14,0:0:0:0:
175,338,77173,1,10,0:0:0:0:
175,338,77344,1,10,0:0:0:0:
175,338,77516,6,0,B|146:278|146:278|36:310,1,155.999992858887,2|0,1:2|0:0,0:0:0:0:
62,315,77859,6,2,B|162:315|125:225|250:244,1,180.000006866455,14|0,0:0|0:0,0:1:0:0:
358,269,78202,6,0,B|387:226|364:166|364:166|327:185|338:247,1,155.999992858887,14|0,0:0|0:0,0:0:0:0:
384,352,78544,1,10,0:0:0:0:
275,305,78716,1,10,0:0:0:0:
462,276,78887,1,2,1:2:0:0:
376,364,79059,1,2,0:0:0:0:
319,174,79230,6,0,L|334:110,1,51.999997619629,2|0,3:2|3:0,0:0:0:0:
319,174,79402,2,0,L|334:110,1,51.999997619629,2|0,3:2|3:0,0:0:0:0:
319,174,79573,2,0,L|334:110,1,51.999997619629,2|0,3:2|3:0,0:0:0:0:
357,14,79744,6,0,B|330:37|298:39|298:39|260:-6|186:8,1,155.999992858887,14|0,0:0|0:0,0:0:0:0:
132,82,80087,2,0,P|167:74|187:50,1,51.999997619629,2|0,0:0|0:0,0:0:0:0:
33,12,80259,1,2,1:2:0:0:
38,24,80430,6,0,L|32:73,3,25.9999988098145,2|2|2|2,0:0|0:0|0:0|0:0,0:0:0:0:
53,40,80602,1,10,0:0:0:0:
288,64,80773,1,10,0:0:0:0:
257,321,80944,6,0,P|298:258|391:297,1,155.999992858887,14|0,0:0|0:0,0:0:0:0:
325,319,81287,1,10,0:0:0:0:
370,174,81459,1,10,0:0:0:0:
141,210,81630,1,2,1:2:0:0:
147,219,81802,2,0,L|141:296,1,51.999997619629,10|10,0:0|0:0,0:0:0:0:
99,123,81973,6,0,L|219:90,2,103.999995239258,14|8|8,0:0|0:0|0:0,0:0:0:0:
223,0,82487,2,0,L|343:33,2,103.999995239258,14|8|8,0:0|0:0|0:0,0:0:0:0:
347,123,83002,5,6,1:2:0:0:
352,134,83173,5,2,0:0:0:0:
347,155,83344,5,2,0:0:0:0:
347,155,83687,6,0,L|481:134,1,103.999995239258,14|0,0:0|0:0,0:0:0:0:
384,256,83944,6,0,L|250:235,1,103.999995239258,14|0,0:0|0:0,0:0:0:0:
393,106,84202,6,0,L|527:85,1,103.999995239258,14|2,0:0|1:2,0:0:0:0:
495,89,84459,1,2,1:2:0:0:
495,89,84544,1,2,1:2:0:0:
403,190,84716,5,2,0:0:0:0:
239,145,84887,1,2,0:0:0:0:
273,373,85059,1,2,0:0:0:0:
273,373,85230,6,0,P|224:331|131:315,1,155.999992858887,14|0,0:0|0:0,0:0:0:0:
43,352,85573,2,0,B|58:372|58:372|86:351,1,51.999997619629,2|0,0:0|0:0,0:0:0:0:
77,174,85744,2,0,L|66:316,1,103.999995239258,2|0,1:2|0:0,0:0:0:0:
16,81,86087,1,10,0:0:0:0:
16,81,86259,1,10,0:0:0:0:
16,81,86430,6,0,P|70:59|123:51,1,103.999995239258,14|0,0:0|3:0,0:0:0:0:
231,60,86687,1,0,3:0:0:0:
228,68,86773,5,2,1:2:0:0:
237,141,86859,1,2,1:2:0:0:
246,214,86944,1,10,0:0:0:0:
109,369,87116,6,0,P|177:302|262:331,1,155.999992858887,14|0,0:0|0:0,0:0:0:0:
387,357,87459,2,0,L|470:341,1,51.999997619629,10|0,0:0|0:0,0:0:0:0:
410,176,87630,1,10,0:0:0:0:
426,185,87716,1,10,0:0:0:0:
402,207,87802,6,0,L|283:232,1,103.999995239258,14|0,0:0|0:0,0:0:0:0:
235,300,88144,2,0,L|116:275,1,103.999995239258,14|0,0:0|0:0,0:0:0:0:
125,352,88487,2,0,L|6:377,1,103.999995239258,14|0,0:0|0:0,0:0:0:0:
0,209,88830,1,10,0:0:0:0:
12,219,88916,1,2,1:2:0:0:
80,210,89002,1,2,1:2:0:0:
148,201,89087,1,2,1:2:0:0:
157,269,89173,6,0,P|258:236|263:166,1,179.999994506836,14|0,0:0|0:0,0:0:0:0:
262,164,90544,6,0,L|189:174,1,71.9999978027344,14|2,0:0|0:0,0:0:0:0:
120,146,91230,1,2,0:0:0:0:
207,82,91402,1,2,0:0:0:0:
238,240,91573,1,2,0:0:0:0:
397,207,91744,1,10,0:0:0:0:
405,202,91830,1,10,0:0:0:0:
417,215,91916,6,0,L|414:258,1,35.9999989013672,14|0,0:0|0:0,0:0:0:0:
408,322,92259,2,0,L|400:290,1,23.9999992675781,2|2,0:0|0:0,0:0:0:0:
267,371,92602,1,0,1:0:0:0:
49,307,92773,1,10,0:0:0:0:
49,307,92859,1,10,0:0:0:0:
49,307,92944,6,0,B|161:322|161:322|197:109,2,311.999985717774,14|14|2,0:0|0:0|1:2,0:0:0:0:
0,253,94316,1,2,0:0:0:0:
480,192,94659,5,10,0:0:0:0:
480,192,95002,2,0,L|492:126,1,51.999997619629,10|10,0:0|0:0,0:0:0:0:
480,192,95173,2,0,L|492:126,1,51.999997619629,10|10,0:0|0:0,0:0:0:0:
470,75,95344,5,2,1:2:0:0:
470,75,95430,1,2,1:2:0:0:
470,75,95516,1,2,1:2:0:0:
497,369,95859,1,2,0:0:0:0:
497,369,96202,6,0,L|329:379,1,155.999992858887,14|0,0:0|0:0,0:0:0:0:
272,354,96544,1,2,0:0:0:0:
491,272,96716,1,2,1:2:0:0:
372,212,96887,1,10,0:0:0:0:
372,212,96973,1,10,0:0:0:0:
372,212,97059,2,0,P|415:190|432:195,1,51.999997619629,10|0,0:0|0:0,0:0:0:0:
292,252,97230,2,0,P|266:247|247:230,1,51.999997619629,10|0,0:0|0:0,0:0:0:0:
247,66,97402,6,0,P|316:43|329:1,1,103.999995239258,14|0,0:0|0:0,0:0:0:0:
319,13,97659,2,0,L|332:123,1,103.999995239258,2|0,0:0|0:0,0:0:0:0:
346,267,97916,2,0,L|463:237,1,103.999995239258,2|8,0:0|0:0,0:0:0:0:
285,189,98173,2,0,L|402:219,1,103.999995239258,2|0,0:0|0:0,0:0:0:0:
176,335,98430,1,10,0:0:0:0:
227,133,98602,1,2,1:2:0:0:
256,192,98687,5,14,0:0:0:0:
256,192,99459,5,10,0:0:0:0:
314,227,99573,1,10,0:0:0:0:
387,189,99687,1,10,0:0:0:0:
404,97,99802,5,2,1:2:0:0:
331,53,99916,1,2,1:2:0:0:
240,100,100030,1,2,1:2:0:0:
319,139,100144,6,0,P|304:54|251:-16,1,162.000000617981,14|0,0:0|0:0,0:0:0:0:
278,216,100487,1,2,0:0:0:0:
293,208,100573,1,2,0:0:0:0:
314,227,100659,2,0,L|392:242,1,54.0000002059937,2|0,0:0|0:0,0:0:0:0:
176,304,100830,1,2,1:2:0:0:
172,295,101002,6,0,L|127:127,1,162.000000617981,14|0,0:0|0:0,0:0:0:0:
99,42,101344,1,10,0:0:0:0:
104,51,101430,1,10,0:0:0:0:
114,61,101516,6,0,P|182:51|204:18,1,108.000000411987,14|0,0:0|0:0,0:0:0:0:
212,50,101773,2,0,P|248:88|300:88,1,108.000000411987,2|0,0:0|0:0,0:0:0:0:
377,49,102030,1,10,0:0:0:0:
320,288,102202,1,2,1:2:0:0:
448,224,102373,2,0,L|520:233,1,54.0000002059937,10|2,0:0|0:0,0:0:0:0:
491,306,102544,2,0,L|419:297,1,54.0000002059937,2|2,0:0|0:0,0:0:0:0:
448,224,102716,2,0,L|520:233,1,54.0000002059937,10|2,0:0|0:0,0:0:0:0:
384,352,102887,6,0,B|272:353|305:258|172:278,1,216.000000823975,14|0,0:0|0:0,0:0:0:0:
64,320,103316,1,2,0:0:0:0:
69,310,103402,2,0,L|50:234,1,54.0000002059937,2|0,0:0|0:0,0:0:0:0:
19,104,103573,1,2,1:2:0:0:
30,108,103744,6,0,B|108:123|108:123|143:32,1,162.000000617981,14|0,0:0|0:0,0:0:0:0:
79,7,104087,1,10,0:0:0:0:
79,7,104173,1,10,0:0:0:0:
79,7,104259,6,0,L|202:-4,1,108.000000411987,14|0,0:0|3:0,0:0:0:0:
256,128,104516,2,0,L|133:117,1,108.000000411987,10|0,0:0|3:0,0:0:0:0:
400,51,104773,2,0,L|393:150,1,54.0000002059937,14|0,0:0|3:0,0:0:0:0:
381,339,104944,1,2,1:2:0:0:
369,328,105030,1,2,0:0:0:0:
377,296,105116,1,2,0:0:0:0:
465,322,105287,2,0,P|418:265|370:285,1,108.000000411987,14|2,0:0|3:2,0:0:0:0:
223,306,105544,1,2,3:2:0:0:
223,316,105630,6,0,B|172:283|199:230|199:230|263:269|328:245,1,216.000000823975,14|0,0:0|0:0,0:0:0:0:
473,207,106144,2,0,P|437:182|403:200,1,54.0000002059937,2|0,0:0|0:0,0:0:0:0:
450,375,106316,1,2,1:2:0:0:
499,309,106487,1,10,0:0:0:0:
272,368,106659,2,0,L|192:348,1,54.0000002059937,2|2,0:0|0:0,0:0:0:0:
51,315,106830,1,10,0:0:0:0:
51,315,106916,1,10,0:0:0:0:
51,315,107002,6,0,P|129:258|109:229,1,108.000000411987,14|0,0:0|0:0,0:0:0:0:
102,204,107259,2,0,P|24:261|44:290,1,108.000000411987,2|0,0:0|0:0,0:0:0:0:
274,217,107516,6,0,B|335:204|335:204|322:88,1,162.000000617981,14|0,0:0|0:0,0:0:0:0:
310,8,107859,2,0,P|371:27|432:25,1,108.000000411987,14|2,0:0|0:0,0:0:0:0:
173,80,108202,1,14,0:0:0:0:
180,90,108373,6,0,L|167:215,1,108.000000411987,14|2,0:0|3:2,0:0:0:0:
147,310,108630,1,2,3:2:0:0:
157,306,108716,1,2,3:2:0:0:
332,90,108887,2,0,L|345:215,1,108.000000411987,14|2,0:0|3:2,0:0:0:0:
365,310,109144,1,2,3:2:0:0:
355,306,109230,1,2,3:2:0:0:
256,128,109402,2,0,L|256:0,1,108.000000411987,14|2,0:0|3:2,0:0:0:0:
256,352,109744,5,14,0:0:0:0:
256,352,110087,5,10,0:0:0:0:
512,320,110259,1,2,1:2:0:0:
512,320,110602,5,10,0:0:0:0:
510,329,110773,2,0,L|437:320,1,54.0000002059937,2|2,3:2|3:2,0:0:0:0:
510,329,110944,2,0,L|437:320,1,54.0000002059937,2|2,3:2|3:2,0:0:0:0:
314,305,111116,6,0,B|277:260|309:211|309:211|356:215|366:275,2,162.000000617981,14|14|14,0:0|0:0|0:0,0:0:0:0:
492,241,111802,1,6,1:2:0:0:
487,230,111973,6,0,L|502:97,1,108.000000411987,14|0,0:0|0:0,0:0:0:0:
334,182,112316,1,10,0:0:0:0:
334,182,112402,1,10,0:0:0:0:
334,182,112487,6,0,L|319:49,1,108.000000411987,14|0,0:0|0:0,0:0:0:0:
239,15,112744,2,0,L|254:148,1,108.000000411987,2|0,0:0|0:0,0:0:0:0:
277,324,113002,1,10,0:0:0:0:
429,273,113173,1,2,1:2:0:0:
176,237,113344,2,0,P|106:251|53:269,1,108.000000411987,10|2,0:0|0:0,0:0:0:0:
15,303,113602,1,2,0:0:0:0:
19,313,113687,1,2,0:0:0:0:
67,149,113859,6,0,P|47:93|16:41,1,108.000000411987,14|2,0:0|3:2,0:0:0:0:
153,204,114116,1,2,3:2:0:0:
153,204,114202,2,0,P|209:184|261:153,1,108.000000411987,14|2,3:2|3:2,0:0:0:0:
375,58,114544,2,0,P|327:31|276:14,1,108.000000411987,14|2,0:0|3:2,0:0:0:0:
300,237,114802,1,2,3:2:0:0:
316,245,114887,1,14,3:2:0:0:
345,228,114973,2,0,P|331:178|321:168,2,54.0000002059937,2|2|2,3:2|3:2|3:2,0:0:0:0:
288,352,115230,5,14,0:0:0:0:
108,369,115487,1,2,0:0:0:0:
173,305,115744,1,2,0:0:0:0:
274,366,115916,5,10,0:0:0:0:
129,379,116173,1,2,0:0:0:0:
182,328,116430,1,2,0:0:0:0:
482,377,116602,6,0,L|464:245,1,108.000000411987,14|0,0:0|0:0,0:0:0:0:
330,137,116944,2,0,L|312:269,1,108.000000411987,10|0,0:0|0:0,0:0:0:0:
497,113,117287,2,0,L|479:-19,1,108.000000411987,10|2,0:0|3:2,0:0:0:0:
416,192,117544,1,2,3:2:0:0:
416,192,117630,2,0,L|330:175,1,54.0000002059937,2|0,3:2|0:0,0:0:0:0:
343,336,117802,6,0,L|465:312,1,108.000000411987,2|8,0:0|0:0,0:0:0:0:
232,250,118144,2,0,L|208:372,1,108.000000411987,2|8,0:0|0:0,0:0:0:0:
174,144,118487,1,2,0:0:0:0:
428,147,118659,1,10,0:0:0:0:
420,132,118744,1,2,0:0:0:0:
429,113,118830,1,2,0:0:0:0:
418,89,118916,1,2,0:0:0:0:
434,52,119002,2,0,L|414:-28,1,54.0000002059937,10|2,3:2|3:2,0:0:0:0:
484,238,119173,2,0,L|504:318,1,54.0000002059937,10|10,3:2|3:2,0:0:0:0:
173,306,119344,6,0,L|4:342,1,162.000000617981,14|14,0:0|0:0,0:0:0:0:
339,306,119859,6,0,L|508:342,1,162.000000617981,14|14,0:0|0:0,0:0:0:0:
256,96,120373,6,0,L|256:22,1,54.0000002059937,10|0,0:0|0:0,0:0:0:0:
256,288,120544,2,0,L|256:362,1,54.0000002059937,10|0,0:0|0:0,0:0:0:0:
256,192,120716,5,10,0:0:0:0:
256,192,121487,2,0,L|256:280,1,54.0000002059937,8|8,0:0|0:0,0:0:0:0:
256,316,121659,1,8,0:0:0:0:
256,342,121744,5,8,0:0:0:0:
294,380,121859,1,8,0:0:0:0:
371,342,121973,1,8,0:0:0:0:
448,380,122087,5,14,0:0:0:0:
256,192,132373,6,0,P|218:181|191:178,1,64,10|0,0:0|0:0,0:0:0:0:
64,224,132716,1,2,0:0:0:0:
64,224,132887,1,2,0:0:0:0:
64,224,133059,6,0,P|83:184|145:120,1,120,14|0,1:2|0:0,0:0:0:0:
128,145,133402,2,0,P|80:109|33:93,1,80,2|0,1:2|0:0,0:0:0:0:
257,20,133744,1,2,1:2:0:0:
273,110,133916,1,2,0:0:0:0:
436,90,134087,1,2,1:2:0:0:
420,0,134259,1,2,0:0:0:0:
368,200,134430,6,0,P|408:129|450:155,1,120,2|0,1:2|0:0,0:0:0:0:
461,163,134773,2,0,P|447:217|445:269,1,80,2|0,1:2|0:0,0:0:0:0:
460,374,135116,1,2,1:2:0:0:
272,383,135287,1,2,0:2:0:0:
261,372,135373,1,2,3:2:0:0:
272,345,135459,1,0,1:2:0:0:
460,374,135630,1,2,0:0:0:0:
138,336,135802,6,0,L|145:398,1,40,10|2,3:2|3:2,0:0:0:0:
153,381,135973,2,0,L|146:319,1,40,2|2,3:2|3:2,0:0:0:0:
140,237,136144,1,10,0:0:0:0:
140,237,136316,1,10,0:0:0:0:
386,301,136487,6,0,B|453:304|511:275|511:275|514:312|456:333,1,200,14|0,0:0|0:0,0:0:0:0:
344,222,137002,2,0,B|339:172|385:140|385:140|457:216|383:352,1,320,14|0,0:0|0:0,0:0:0:0:
379,360,137859,1,2,0:0:0:0:
469,249,138030,1,8,0:0:0:0:
469,249,138116,1,8,0:0:0:0:
469,249,138202,2,0,L|523:239,1,40,2|0,1:2|0:0,0:0:0:0:
512,106,138373,2,0,L|458:96,1,40,2|0,1:2|0:0,0:0:0:0:
214,148,138544,6,0,P|277:125|377:117,1,132.00000402832,14|0,0:0|0:0,0:0:0:0:
322,136,138887,2,0,P|273:143|222:163,1,88.000002685547,10|0,0:0|0:0,0:0:0:0:
305,339,139230,1,10,0:0:0:0:
144,316,139402,1,2,3:2:0:0:
130,313,139487,1,2,3:2:0:0:
116,310,139573,1,10,0:0:0:0:
301,240,139744,1,2,3:2:0:0:
304,251,139830,1,2,3:2:0:0:
316,263,139916,6,0,P|377:242|422:172,1,132.00000402832,10|0,0:0|0:0,0:0:0:0:
412,180,140259,2,0,P|410:226|417:273,1,88.000002685547,10|10,0:0|0:0,0:0:0:0:
483,94,140516,1,10,0:0:0:0:
483,94,140602,2,0,L|464:35,1,44.0000013427735,10|10,0:0|0:0,0:0:0:0:
333,175,140773,2,0,L|352:116,1,44.0000013427735,10|10,0:0|0:0,0:0:0:0:
383,10,140944,1,10,0:0:0:0:
370,7,141030,1,10,0:0:0:0:
357,4,141116,1,10,0:0:0:0:
344,1,141202,1,10,0:0:0:0:
317,29,141287,6,0,P|237:23|103:24,1,176.000005371094,14|2,0:0|3:2,0:0:0:0:
146,191,141716,1,2,3:2:0:0:
147,200,141802,2,0,P|234:199|322:193,1,176.000005371094,14|2,0:0|3:2,0:0:0:0:
502,160,142316,1,14,0:0:0:0:
78,81,142487,1,14,0:0:0:0:
82,92,142659,6,0,L|70:205,1,88.000002685547,2|0,0:3|0:0,0:0:0:0:
256,128,143002,2,0,L|244:15,1,88.000002685547,2|0,0:3|0:0,0:0:0:0:
224,224,143344,2,0,L|236:337,1,88.000002685547,2|0,0:3|0:0,0:0:0:0:
269,255,143687,2,0,L|257:142,1,88.000002685547,2|2,0:3|0:3,0:0:0:0:
256,384,144030,5,10,0:0:0:0:
256,192,149516,5,2,3:2:0:0:
256,96,149859,1,2,3:2:0:0:
256,288,150202,1,2,3:2:0:0:
256,192,150545,1,2,3:2:0:0:
256,32,150887,5,2,3:2:0:0:
384,32,151230,1,2,3:2:0:0:
128,32,151573,1,2,3:2:0:0:
256,64,151830,1,2,3:2:0:0:
256,32,151916,1,2,3:2:0:0:
256,352,152259,5,2,3:2:0:0:
384,352,152602,1,2,3:2:0:0:
128,352,152945,1,2,3:2:0:0:
256,352,153288,1,2,3:2:0:0:
256,192,153630,5,10,0:0:0:0:
401,146,153802,1,2,0:0:0:0:
208,114,153973,1,2,0:0:0:0:
208,114,154316,6,0,L|216:185,1,40,10|0,3:2|3:0,0:0:0:0:
304,270,154487,2,0,L|296:199,1,40,10|0,3:2|3:0,0:0:0:0:
208,114,154659,2,0,L|216:185,1,40,10|0,3:2|3:0,0:0:0:0:
304,270,154830,2,0,L|296:199,1,40,10|8,3:2|3:2,0:0:0:0:
181,304,155002,6,0,P|240:298|339:303,1,138.000002632141,14|0,1:2|0:0,0:0:0:0:
319,315,155344,2,0,P|263:325|205:340,1,92.0000017547608,2|2,1:2|0:0,0:0:0:0:
462,370,155687,2,0,P|510:306|494:280,1,92.0000017547608,2|2,1:2|0:0,0:0:0:0:
432,233,155944,1,2,1:2:0:0:
431,244,156030,2,0,P|383:180|399:154,1,92.0000017547608,2|2,1:2|1:2,0:0:0:0:
389,52,156373,6,0,P|336:31|237:27,1,138.000002632141,2|0,1:2|0:0,0:0:0:0:
148,58,156716,2,0,P|198:80|238:118,1,92.0000017547608,2|2,1:2|0:0,0:0:0:0:
292,192,156973,1,2,0:0:0:0:
299,181,157059,2,0,L|179:196,1,92.0000017547608,2|0,1:2|0:0,0:0:0:0:
218,347,157402,2,0,L|338:332,1,92.0000017547608,2|2,1:2|0:0,0:0:0:0:
126,274,157744,6,0,B|49:270|100:186|-15:202,1,138.000002632141,2|0,1:2|0:0,0:0:0:0:
33,211,158087,2,0,L|49:97,1,92.0000017547608,2|2,1:2|0:0,0:0:0:0:
172,20,158344,1,2,0:0:0:0:
166,33,158430,2,0,L|182:147,1,92.0000017547608,2|2,1:2|0:0,0:0:0:0:
199,257,158687,1,2,1:2:0:0:
201,268,158773,2,0,P|251:245|243:192,1,92.0000017547608,2|2,1:2|1:2,0:0:0:0:
245,70,159116,6,0,P|305:51|387:42,1,138.000002632141,2|0,1:2|0:0,0:0:0:0:
453,114,159459,2,0,P|394:83|346:77,1,92.0000017547608,2|2,1:2|0:0,0:0:0:0:
420,272,159716,1,2,0:0:0:0:
429,277,159802,2,0,P|473:265|512:241,1,92.0000017547608,2|2,1:2|0:0,0:0:0:0:
289,234,160059,1,2,0:0:0:0:
295,245,160144,5,10,1:2:0:0:
337,185,160259,1,10,0:0:0:0:
284,101,160373,1,10,0:0:0:0:
284,111,160487,6,0,L|172:130,1,95.9999970703126,6|2,1:2|0:0,0:0:0:0:
384,64,160744,1,2,0:0:0:0:
383,74,160830,2,0,L|375:138,1,47.9999985351563,2|0,1:2|0:0,0:0:0:0:
192,197,161002,2,0,L|184:133,1,47.9999985351563,2|0,1:2|0:0,0:0:0:0:
205,368,161173,2,0,P|265:349|310:302,1,95.9999970703126,2|2,1:2|0:0,0:0:0:0:
360,249,161430,1,2,0:0:0:0:
359,242,161516,2,0,L|290:253,1,47.9999985351563,2|0,1:2|0:0,0:0:0:0:
434,370,161687,2,0,L|503:359,1,47.9999985351563,2|0,1:2|0:0,0:0:0:0:
179,275,161859,6,0,P|170:331|173:389,1,95.9999970703126,2|2,1:2|0:0,0:0:0:0:
224,192,162116,1,2,0:0:0:0:
226,183,162202,2,0,L|210:120,1,47.9999985351563,2|0,1:2|0:0,0:0:0:0:
396,78,162373,2,0,L|380:141,1,47.9999985351563,2|0,1:2|0:0,0:0:0:0:
113,96,162544,6,0,L|86:-7,1,95.9999970703126,2|2,1:2|0:0,0:0:0:0:
117,172,162802,1,2,0:0:0:0:
117,172,162887,2,0,L|102:238,1,47.9999985351563,2|0,1:2|0:0,0:0:0:0:
274,84,163059,2,0,L|327:123,1,47.9999985351563,2|0,1:2|0:0,0:0:0:0:
473,207,163230,5,10,3:2:0:0:
479,199,163316,1,0,3:0:0:0:
485,192,163402,1,0,3:0:0:0:
491,184,163487,1,0,3:0:0:0:
498,177,163573,1,0,3:0:0:0:
504,169,163659,1,0,3:0:0:0:
510,161,163744,6,0,L|440:148,1,47.9999985351563,10|0,3:2|3:0,0:0:0:0:
384,237,163916,2,0,L|314:250,1,47.9999985351563,0|0,3:0|3:0,0:0:0:0:
223,176,164087,2,0,L|153:163,1,47.9999985351563,0|0,3:0|3:0,0:0:0:0:
31,271,164259,5,10,3:2:0:0:
33,279,164344,1,2,3:2:0:0:
35,287,164430,1,2,3:2:0:0:
37,295,164516,1,0,3:2:0:0:
31,336,164602,5,14,0:0:0:0:
31,336,164944,2,0,L|101:324,1,47.9999985351563,10|0,0:0|0:0,0:0:0:0:
174,241,165116,2,0,L|104:253,1,47.9999985351563,10|0,0:0|0:0,0:0:0:0:
337,296,165287,6,0,B|366:236|366:236|476:268,1,155.999992858887,2|0,1:2|0:0,0:0:0:0:
450,273,165630,6,2,B|350:273|387:183|262:202,1,180.000006866455,14|0,0:0|0:0,0:1:0:0:
5,313,165973,6,0,L|14:241,1,60,10|0,0:0|0:0,0:0:0:0:
21,208,166316,6,0,B|105:224|105:224|143:91,1,180.000006866455,6|0,1:2|0:0,0:0:0:0:
49,112,166659,1,10,0:0:0:0:
54,123,166744,1,2,0:0:0:0:
59,134,166830,2,0,L|79:50,1,60.0000022888184,2|2,0:0|0:0,0:0:0:0:
208,98,167002,2,0,L|174:235,1,120.000004577637,2|2,1:2|0:0,0:0:0:0:
126,371,167344,6,0,P|80:307|14:296,1,120.000004577637,10|2,0:0|0:0,0:0:0:0:
154,384,167602,2,0,P|228:357|256:297,1,120.000004577637,2|2,0:0|0:0,0:0:0:0:
259,185,167859,1,2,0:0:0:0:
264,195,167944,2,0,L|425:182,1,120.000004577637,2|0,0:0|0:0,0:0:0:0:
316,0,168202,5,2,0:0:0:0:
313,11,168287,1,2,0:0:0:0:
320,25,168373,1,2,1:2:0:0:
315,50,168459,1,2,0:0:0:0:
321,81,168544,1,2,0:0:0:0:
313,119,168630,1,2,0:0:0:0:
323,166,168716,6,0,L|162:153,1,120.000004577637,10|0,0:0|0:0,0:0:0:0:
34,138,168973,2,0,L|123:130,1,60.0000022888184,2|0,0:0|1:0,0:0:0:0:
105,307,169144,2,0,L|16:315,1,60.0000022888184,2|0,0:0|0:0,0:0:0:0:
230,241,169316,1,2,0:0:0:0:
304,372,169487,1,2,0:0:0:0:
308,362,169573,2,0,L|294:275,1,60.0000022888184,2|0,0:0|0:0,0:0:0:0:
276,128,169744,1,2,1:2:0:0:
432,210,169916,1,2,0:0:0:0:
224,320,170087,6,0,L|141:300,1,70.000000667572,10|2,3:2|3:2,0:0:0:0:
398,279,170259,1,2,3:2:0:0:
400,269,170344,2,0,L|411:188,1,70.000000667572,2|2,3:2|1:2,0:0:0:0:
203,147,170516,2,0,L|223:304,1,140.000001335144,2|2,3:2|3:2,0:0:0:0:
274,79,170773,1,10,3:2:0:0:
283,89,170859,1,2,3:2:0:0:
276,105,170944,1,2,3:2:0:0:
114,89,171116,1,2,1:2:0:0:
114,89,171287,1,10,0:0:0:0:
448,64,171459,6,0,L|440:4,1,60,10|0,0:0|0:0,0:0:0:0:
466,207,171802,6,0,B|499:192|498:167|498:167|429:133|354:209,1,180.000006866455,6|0,1:2|0:0,0:0:0:0:
235,279,172144,1,10,0:0:0:0:
235,279,172229,1,2,0:0:0:0:
235,279,172316,2,0,L|247:350,1,60.0000022888184,2|2,0:0|0:0,0:0:0:0:
213,164,172487,2,0,P|257:240|320:160,1,180.000006866455,2|0,1:2|0:0,0:0:0:0:
356,125,172830,6,0,P|287:128|216:145,1,120.000004577637,10|2,0:0|0:0,0:0:0:0:
124,189,173087,2,0,P|158:146|182:129,1,60.0000022888184,2|0,0:0|1:0,0:0:0:0:
168,315,173259,2,0,P|143:299|122:278,1,60.0000022888184,2|2,0:0|0:0,0:0:0:0:
348,354,173430,2,0,P|420:312|458:258,1,120.000004577637,2|0,0:0|0:0,0:0:0:0:
482,279,173687,2,0,P|504:202|498:136,1,120.000004577637,2|2,0:0|1:2,0:0:0:0:
477,51,173944,1,2,0:0:0:0:
477,51,174030,1,2,0:0:0:0:
477,51,174116,1,2,0:0:0:0:
477,51,174202,6,0,P|407:37|343:33,1,120.000004577637,10|0,0:0|0:0,0:0:0:0:
370,40,174459,2,0,P|384:106|384:168,1,120.000004577637,2|0,0:0|0:0,0:0:0:0:
335,263,174716,2,0,P|405:249|469:245,1,120.000004577637,2|8,0:0|0:0,0:0:0:0:
442,252,174973,2,0,P|428:318|428:380,1,120.000004577637,2|0,0:0|0:0,0:0:0:0:
462,316,175229,1,2,1:2:0:0:
273,380,175402,1,2,0:0:0:0:
16,300,175573,5,14,0:0:0:0:
26,296,175659,1,0,3:0:0:0:
36,292,175744,1,0,3:0:0:0:
46,288,175830,1,0,3:0:0:0:
72,308,175916,5,10,0:0:0:0:
82,304,176002,1,0,3:0:0:0:
92,300,176087,1,0,3:0:0:0:
102,296,176173,1,0,3:0:0:0:
128,316,176259,6,0,P|192:334|248:370,1,80.0000030517579,14|0,0:0|0:0,0:0:0:0:
353,231,176487,2,0,P|289:249|233:285,1,80.0000030517579,10|0,0:0|0:0,0:0:0:0:
480,343,176716,2,0,L|491:264,1,80.0000030517579,10|0,0:0|0:0,0:0:0:0:
432,50,176944,5,14,0:0:0:0:
484,239,177116,1,10,0:0:0:0:
432,50,177287,6,0,B|418:12|385:9|385:9|362:88|248:71,1,180.000006866455,6|0,1:2|0:0,0:0:0:0:
172,44,177630,2,0,P|235:18|266:67,1,120.000004577637,10|0,0:0|0:0,0:0:0:0:
255,172,177887,2,0,P|192:198|161:149,1,120.000004577637,2|0,0:0|0:0,0:0:0:0:
372,122,178144,2,0,L|364:205,1,60.0000022888184,2|0,0:0|0:0,0:0:0:0:
352,371,178316,6,0,P|409:331|401:274,1,120.000004577637,10|0,0:0|0:0,0:0:0:0:
230,288,178659,2,0,P|173:248|181:191,1,120.000004577637,2|0,1:2|0:0,0:0:0:0:
439,203,178916,1,2,0:0:0:0:
436,216,179002,1,10,0:0:0:0:
444,229,179087,2,0,L|479:80,1,120.000004577637,2|0,0:0|0:0,0:0:0:0:
373,27,179344,2,0,L|389:107,2,60.0000022888184,2|0|0,1:2|3:0|3:0,0:0:0:0:
149,11,179687,6,0,P|183:91|246:66,1,120.000004577637,10|0,0:0|3:0,0:0:0:0:
303,50,179944,1,0,3:0:0:0:
304,61,180030,1,2,1:2:0:0:
305,72,180116,2,0,L|297:175,1,60.0000022888184,2|0,0:0|0:0,0:0:0:0:
291,278,180287,2,0,P|354:240|421:232,1,120.000004577637,2|0,0:0|0:0,0:0:0:0:
512,235,180544,1,2,0:0:0:0:
403,382,180716,1,2,1:2:0:0:
384,160,180887,1,2,0:0:0:0:
437,17,181059,6,0,P|448:107|447:197,1,180.000006866455,10|0,0:0|0:0,0:0:0:0:
423,355,181402,1,2,1:2:0:0:
404,338,181487,1,2,0:0:0:0:
364,358,181573,1,2,0:0:0:0:
309,327,181659,1,2,0:0:0:0:
248,357,181744,2,0,P|153:350|108:339,1,120.000004577637,10|0,0:0|3:0,0:0:0:0:
131,195,182002,1,2,3:2:0:0:
132,186,182087,2,0,P|191:175|250:174,1,120.000004577637,2|2,1:2|0:0,0:0:0:0:
512,197,182430,6,0,L|499:130,1,60,10|0,0:0|0:0,0:0:0:0:
480,18,182773,6,0,B|446:68|380:71|380:71|354:5|261:24,1,207.999990478516,6|0,1:2|3:0,0:0:0:0:
209,96,183287,1,2,0:0:0:0:
310,63,183459,1,2,3:2:0:0:
195,12,183630,6,0,P|101:37|-7:83,1,207.999990478516,2|0,0:0|0:0,0:0:0:0:
217,112,184144,1,2,3:2:0:0:
110,9,184316,1,2,0:0:0:0:
43,203,184487,2,0,L|18:85,1,103.999995239258,2|2,3:2|0:0,0:0:0:0:
58,281,184830,1,2,3:2:0:0:
71,284,184916,1,2,3:2:0:0:
87,271,185002,1,2,3:2:0:0:
199,116,185173,6,0,P|143:152|156:211,1,103.999995239258,14|2,0:0|0:0,0:0:0:0:
332,135,185516,2,0,P|296:79|237:92,1,103.999995239258,14|2,0:0|0:0,0:0:0:0:
313,268,185859,2,0,P|369:232|356:173,1,103.999995239258,14|2,0:0|0:0,0:0:0:0:
180,249,186202,2,0,P|216:305|275:292,1,103.999995239258,14|2,0:0|0:0,0:0:0:0:
384,64,186544,5,14,0:0:0:0:
288,160,186802,1,2,0:0:0:0:
192,128,187059,1,2,0:0:0:0:
464,109,187230,5,10,3:2:0:0:
466,101,187316,1,2,3:2:0:0:
468,93,187402,1,2,3:2:0:0:
470,85,187487,1,2,3:2:0:0:
472,77,187573,6,0,L|448:0,1,60.0000022888184,10|10,3:2|3:2,0:0:0:0:
448,192,187744,2,0,L|472:269,1,60.0000022888184,10|10,3:2|3:2,0:0:0:0:
252,184,187916,6,2,P|261:85|351:97,1,210.000002002716,14|0,0:0|0:0,0:1:0:0:
349,106,188259,2,0,L|259:97,1,80,2|0,1:2|0:0,0:0:0:0:
48,79,188516,2,2,P|122:15|195:20,1,140.000001335144,10|0,0:0|0:0,0:1:0:0:
149,177,188773,2,2,L|142:278,1,70.000000667572,10|0,0:0|0:0,0:1:0:0:
159,48,188944,1,2,1:2:0:0:
159,48,189287,6,2,P|186:122|324:79,1,210.000002002716,10|0,0:0|0:0,0:1:0:0:
351,67,189630,1,2,1:2:0:0:
349,301,189887,2,2,P|280:287|137:285,1,210.000002002716,10|0,0:0|0:0,0:1:0:0:
314,326,190316,2,2,P|245:314|158:317,1,140.000001335144,10|10,0:0|0:0,0:1:0:0:
472,248,190659,6,2,B|510:167|464:108|464:108|427:157|486:201,1,210.000002002716,10|0,0:0|0:0,0:1:0:0:
496,368,191002,1,2,1:2:0:0:
154,303,191259,2,2,P|81:329|16:371,1,140.000001335144,10|0,0:0|0:0,0:1:0:0:
52,256,191516,2,2,L|15:139,1,70.000000667572,10|0,0:0|0:0,0:1:0:0:
0,93,191687,1,2,1:2:0:0:
0,93,192030,6,2,P|84:63|233:49,1,210.000002002716,10|0,0:0|0:0,0:1:0:0:
369,68,192373,1,2,1:2:0:0:
365,76,192459,2,2,L|379:190,1,70.000000667572,10|0,0:0|0:0,0:1:0:0:
393,330,192630,2,2,P|463:280|442:236,1,140.000001335144,10|0,0:0|0:0,0:1:0:0:
272,274,192887,2,2,L|183:255,1,70.000000667572,10|0,0:0|0:0,0:1:0:0:
86,232,193059,1,2,1:2:0:0:
224,192,193230,1,10,0:0:0:0:
203,48,193402,6,2,B|252:-6|252:-6|423:29,1,210.000002002716,14|0,0:0|0:0,0:1:0:0:
387,31,193744,2,2,L|401:119,1,80,2|0,1:2|0:0,0:1:0:0:
428,290,194002,2,2,B|491:273|491:273|470:152,1,140.000001335144,10|0,0:0|0:0,0:1:0:0:
273,241,194259,2,2,B|294:362,1,70.000000667572,10|0,0:0|0:0,0:1:0:0:
320,96,194430,1,2,1:2:0:0:
320,96,194773,6,2,B|207:125|225:13|101:58,1,210.000002002716,10|0,0:0|0:0,0:1:0:0:
64,96,195116,1,2,1:2:0:0:
65,104,195373,2,2,L|83:253,1,140.000001335144,10|0,0:0|0:0,0:1:0:0:
271,224,195630,2,2,L|254:91,1,70.000000667572,10|0,0:0|0:0,0:1:0:0:
188,360,195802,1,2,1:2:0:0:
188,360,195973,6,2,B|280:344|280:344|310:284|310:284|469:263,1,280.000002670288,14|2,0:0|0:0,0:1:0:0:
501,259,196402,1,2,0:0:0:0:
496,274,196487,1,2,1:2:0:0:
480,64,196744,1,10,0:0:0:0:
212,86,197002,1,10,0:0:0:0:
336,146,197173,1,2,1:2:0:0:
315,8,197344,1,14,0:0:0:0:
311,21,197430,6,0,P|390:15|461:15,1,140.000001335144,10|8,0:0|0:0,0:0:0:0:
448,24,197687,2,0,L|466:118,1,70.000000667572,10|10,0:0|0:0,0:0:0:0:
476,194,197859,2,0,L|381:178,1,70.000000667572,10|10,0:0|0:0,0:0:0:0:
128,143,198030,1,10,0:0:0:0:
128,143,198116,1,10,0:0:0:0:
128,143,198202,6,2,L|149:38,1,93.3333342234294,14|0,0:0|0:0,0:1:0:0:
330,213,198430,2,2,L|309:108,1,93.3333342234294,10|0,0:0|0:0,0:1:0:0:
148,336,198659,2,2,L|169:231,1,93.3333342234294,10|0,0:0|0:0,0:1:0:0:
305,378,198887,6,0,P|376:370|372:270,1,179.999994506836,14|0,0:0|0:0,0:0:0:0:
379,287,200259,6,0,L|459:275,1,71.9999978027344,14|2,0:0|0:0,0:0:0:0:
497,225,200945,1,2,0:0:0:0:
352,192,201117,1,2,0:0:0:0:
480,128,201288,1,2,0:0:0:0:
468,375,201459,1,10,0:0:0:0:
458,367,201545,1,10,0:0:0:0:
465,352,201630,6,0,L|456:306,1,35.9999989013672,14|0,0:0|0:0,0:0:0:0:
372,331,201973,2,0,L|378:361,1,23.9999992675781,2|2,0:0|0:0,0:0:0:0:
480,224,202317,1,0,1:0:0:0:
256,192,202487,1,10,0:0:0:0:
256,192,202573,1,10,0:0:0:0:
256,192,202659,6,2,B|161:162|51:188|51:188|114:156|131:95,2,311.999985717774,14|14|2,0:0|0:0|1:2,0:1:0:0:
335,242,204030,1,2,0:0:0:0:
384,32,204373,5,10,0:0:0:0:
433,306,204716,2,0,L|445:240,1,51.999997619629,10|10,0:0|0:0,0:0:0:0:
433,306,204887,2,0,L|445:240,1,51.999997619629,10|10,0:0|0:0,0:0:0:0:
423,189,205058,5,2,1:2:0:0:
423,189,205144,1,2,1:2:0:0:
423,189,205230,1,2,1:2:0:0:
50,271,205574,1,2,0:0:0:0:
50,271,205916,6,0,P|134:239|223:224,1,155.999992858887,14|0,0:0|0:0,0:0:0:0:
282,241,206259,1,2,0:0:0:0:
240,96,206431,1,2,1:2:0:0:
245,373,206602,1,10,0:0:0:0:
245,373,206687,1,10,0:0:0:0:
245,373,206773,2,0,P|277:365|301:325,1,51.999997619629,10|0,0:0|0:0,0:0:0:0:
253,246,206944,2,0,P|227:250|207:266,1,51.999997619629,10|0,0:0|0:0,0:0:0:0:
415,293,207116,6,0,P|472:263|451:202,1,103.999995239258,14|0,0:0|0:0,0:0:0:0:
463,182,207373,2,0,P|406:152|427:91,1,103.999995239258,2|0,0:0|0:0,0:0:0:0:
489,50,207630,2,0,P|425:29|371:24,1,103.999995239258,2|8,0:0|0:0,0:0:0:0:
317,95,207887,2,0,P|268:112|216:120,1,103.999995239258,2|0,0:0|0:0,0:0:0:0:
48,98,208145,1,10,0:0:0:0:
304,18,208316,1,2,1:2:0:0:
333,77,208402,5,14,0:0:0:0:
256,192,209859,5,14,0:0:0:0:
256,192,209944,12,2,220830,0:0:0:0:
256,192,220916,12,0,230259,0:0:0:0:
256,192,230430,5,10,0:0:0:0:
256,192,230944,6,0,L|256:259,1,40,10|10,0:0|0:0,0:0:0:0:
256,384,231116,1,10,0:0:0:0:
256,376,231287,6,0,L|256:309,1,40,10|0,0:0|0:0,0:0:0:0:
256,192,231459,5,14,0:0:0:0:
