osu file format v14

[General]
AudioFilename: audio.mp3
AudioLeadIn: 0
PreviewTime: 53516
Countdown: 0
SampleSet: Soft
StackLeniency: 0.7
Mode: 0
LetterboxInBreaks: 0
WidescreenStoryboard: 0

[Editor]
Bookmarks: 1402,12373,23344,34316,45287,56259,67230,78202,98687,100144,122087,133059,144030,155002,165973,166316,171459,171802,182430,182773,186544,187916,198887,202659,208402,209859,220830,231459
DistanceSpacing: 1.2
BeatDivisor: 4
GridSize: 32
TimelineZoom: 1.6

[Metadata]
Title:D4NCE
TitleUnicode:D4NCE
Artist:Zekk
ArtistUnicode:Zekk
Creator:eiri-
Version:Easy
Source:osu!
Tags:Ayyri Electronic Instrumental Featured Artist FA FÜGENE2 FUGENE 2 Future Core Bass Hardcore jcore DANCE
BeatmapID:2382797
BeatmapSetID:1140776

[Difficulty]
HPDrainRate:3
CircleSize:2
OverallDifficulty:3
ApproachRate:5
SliderMultiplier:0.8
SliderTickRate:1

[Events]
//Background and Video events
0,0,"D4NCE.jpg",0,0
//Break Periods
2,45487,53516
2,122287,130316
2,144230,148144
//Storyboard Layer 0 (Background)
//Storyboard Layer 1 (Fail)
//Storyboard Layer 2 (Pass)
//Storyboard Layer 3 (Foreground)
//Storyboard Layer 4 (Overlay)
//Storyboard Sound Samples

[TimingPoints]
1402,342.857142857143,4,2,1,75,1,0
1487,-100,4,2,1,50,0,0
12373,-100,4,2,1,50,0,0
20602,-100,4,2,1,55,0,0
21973,-100,4,2,1,60,0,0
23344,-100,4,2,1,75,0,0
53516,-100,4,2,1,60,0,0
56259,-100,4,2,1,65,0,0
61744,-100,4,2,1,70,0,0
67230,-100,4,2,1,75,0,0
72716,-100,4,2,1,80,0,0
78202,-90.9090909090909,4,2,1,90,0,1
98687,-90.9090909090909,4,2,1,80,0,0
100144,-90.9090909090909,4,2,1,100,0,1
122087,-100,4,2,1,75,0,0
130316,-100,4,2,1,60,0,0
133059,-100,4,2,1,65,0,0
138544,-100,4,2,1,70,0,0
144030,-100,4,2,1,75,0,0
149516,-100,4,2,1,60,0,0
155002,-100,4,2,1,75,0,0
160487,-100,4,2,1,80,0,0
165973,-90.9090909090909,4,2,1,90,0,1
166059,-90.9090909090909,4,2,1,90,0,0
166316,-90.9090909090909,4,2,1,90,0,1
171459,-90.9090909090909,4,2,1,90,0,0
171802,-90.9090909090909,4,2,1,90,0,1
182430,-90.9090909090909,4,2,1,90,0,0
182773,-90.9090909090909,4,2,1,90,0,1
186544,-90.9090909090909,4,2,1,80,0,0
187916,-90.9090909090909,4,2,1,100,0,1
198887,-90.9090909090909,4,2,1,100,0,0
202659,-90.9090909090909,4,2,1,100,0,1
208402,-90.9090909090909,4,2,1,80,0,0
209859,-100,4,2,1,75,0,0
211230,-100,4,2,1,73,0,0
212602,-100,4,2,1,70,0,0
213973,-100,4,2,1,67,0,0
215344,-100,4,2,1,65,0,0
216716,-100,4,2,1,63,0,0
218087,-100,4,2,1,60,0,0
219459,-100,4,2,1,57,0,0
220830,-100,4,2,1,55,0,0
222202,-100,4,2,1,53,0,0
223573,-100,4,2,1,50,0,0
224944,-100,4,2,1,47,0,0
226316,-100,4,2,1,45,0,0
227687,-100,4,2,1,43,0,0
229059,-100,4,2,1,40,0,0
230430,-100,4,2,1,75,0,0
231459,-100,4,2,1,80,0,0

[Colours]
Combo1 : 231,137,109
Combo2 : 124,124,131
Combo3 : 255,96,96
Combo4 : 180,180,182

[HitObjects]
256,192,1402,5,14,0:0:0:0:
256,192,1487,12,2,12373,0:0:0:0:
256,192,12459,12,2,16487,0:0:0:0:
256,192,17859,6,0,L|342:203,1,80,10|8,0:0|0:0,0:0:0:0:
423,217,18544,2,0,L|437:131,1,80,8|8,0:0|0:0,0:0:0:0:
450,49,19230,2,0,L|363:36,1,80,10|8,0:0|0:0,0:0:0:0:
281,23,19916,2,0,L|268:109,1,80,8|8,0:0|0:0,0:0:0:0:
256,192,20602,5,10,0:0:0:0:
177,131,20944,1,8,0:0:0:0:
118,208,21287,1,8,0:0:0:0:
195,268,21630,1,8,0:0:0:0:
272,327,21973,5,14,0:0:0:0:
272,327,23344,6,0,L|359:318,2,80,14|8|8,0:0|0:0|0:0,0:0:0:0:
184,287,24373,1,10,0:0:0:0:
237,205,24716,2,0,L|228:124,1,80,10|8,0:0|0:0,0:0:0:0:
210,35,25402,2,0,P|182:24|128:35,1,80,8|10,0:0|0:0,0:0:0:0:
67,94,26087,6,0,L|76:175,1,80,10|8,0:0|0:0,0:0:0:0:
96,262,26773,1,10,0:0:0:0:
173,205,27116,1,10,0:0:0:0:
260,246,27459,2,0,L|344:236,1,80,10|2,0:0|1:2,0:0:0:0:
428,272,28144,1,10,0:0:0:0:
482,193,28487,1,10,0:0:0:0:
428,113,28830,6,0,L|441:64,2,40,10|10|10,0:0|0:0|0:0,0:0:0:0:
336,142,29516,1,8,0:0:0:0:
291,57,29859,1,10,0:0:0:0:
199,87,30202,2,0,L|112:76,1,80,10|8,0:0|0:0,0:0:0:0:
24,64,30887,2,0,L|34:150,1,80,10|8,0:0|0:0,0:0:0:0:
46,238,31573,5,10,0:0:0:0:
142,224,31916,1,10,0:0:0:0:
220,279,32259,1,10,0:0:0:0:
317,267,32602,1,10,0:0:0:0:
395,322,32944,5,14,0:0:0:0:
395,322,34316,6,0,L|403:236,2,80,14|8|8,0:0|0:0|0:0,0:0:0:0:
311,368,35344,1,10,0:0:0:0:
251,293,35687,2,0,L|164:304,1,80,10|8,0:0|0:0,0:0:0:0:
78,312,36373,2,0,P|56:282|60:241,1,80,10|10,0:0|0:0,0:0:0:0:
133,187,37059,6,0,L|117:103,1,80,10|8,0:0|0:0,0:0:0:0:
100,16,37744,1,10,0:0:0:0:
188,54,38087,1,10,0:0:0:0:
278,19,38430,2,0,L|360:30,1,80,10|2,0:0|1:2,0:0:0:0:
449,42,39115,1,10,0:0:0:0:
413,132,39459,1,10,0:0:0:0:
379,222,39802,6,0,P|316:187|231:192,2,160,14|0|2,0:0|0:0|0:0,0:0:0:0:
383,318,41516,2,0,P|320:354|234:347,1,160,2|2,0:0|0:0,0:0:0:0:
160,286,42544,5,10,1:2:0:0:
205,200,42887,1,10,1:2:0:0:
250,113,43230,1,10,1:2:0:0:
336,158,43573,1,10,1:2:0:0:
422,201,43916,5,10,0:0:0:0:
422,201,45287,5,14,0:0:0:0:
256,192,55573,6,0,L|345:192,1,80,2|10,1:2|0:0,0:0:0:0:
403,128,56259,6,0,P|388:94|345:71,1,80,14|2,0:0|1:2,0:0:0:0:
263,49,56944,1,10,0:0:0:0:
180,98,57287,1,2,1:2:0:0:
92,56,57630,6,0,L|10:69,1,80,10|2,0:0|1:2,0:0:0:0:
55,157,58316,1,10,0:0:0:0:
92,247,58659,1,2,1:2:0:0:
185,221,59002,6,0,L|177:311,2,80,10|2|10,0:0|1:2|0:0,0:0:0:0:
193,124,60030,1,2,1:2:0:0:
282,162,60373,2,0,L|372:168,1,80,10|2,0:0|1:2,0:0:0:0:
418,93,61059,2,0,L|508:86,1,80,10|2,0:0|1:2,0:0:0:0:
486,184,61744,5,14,0:0:0:0:
481,281,62087,1,2,1:2:0:0:
384,287,62430,2,0,L|305:315,1,80,10|2,0:0|1:2,0:0:0:0:
225,351,63116,2,0,L|147:323,1,80,10|2,0:0|1:2,0:0:0:0:
67,283,63802,2,0,L|96:201,1,80,10|2,0:0|1:2,0:0:0:0:
139,127,64487,6,0,P|190:105|213:100,1,80,10|2,0:0|1:2,0:0:0:0:
302,123,65173,2,0,L|294:212,1,80,10|2,0:0|1:2,0:0:0:0:
314,241,65687,5,14,0:0:0:0:
314,241,67230,6,0,L|399:228,1,80,14|2,1:2|1:2,0:0:0:0:
469,178,67916,1,2,1:2:0:0:
412,98,68259,1,2,1:2:0:0:
319,125,68602,2,0,P|279:113|248:85,1,80,2|2,1:2|1:2,0:0:0:0:
188,15,69287,2,0,P|151:22|109:48,1,80,2|2,1:2|1:2,0:0:0:0:
64,125,69973,5,2,1:2:0:0:
94,216,70316,2,0,L|6:207,2,80,2|2|2,1:2|1:2|1:2,0:0:0:0:
183,251,71344,1,2,1:2:0:0:
253,185,71687,2,0,P|286:168|336:166,1,80,2|2,1:2|1:2,0:0:0:0:
419,194,72373,1,10,1:2:0:0:
472,114,72716,6,0,L|447:30,1,80,6|2,1:2|1:2,0:0:0:0:
355,64,73402,2,0,L|269:43,1,80,2|2,1:2|1:2,0:0:0:0:
252,138,74087,2,0,L|195:198,1,80,2|2,1:2|1:2,0:0:0:0:
260,265,74773,2,0,L|283:343,1,80,2|2,1:2|1:2,0:0:0:0:
374,319,75459,5,10,3:2:0:0:
400,176,75973,1,10,3:2:0:0:
256,150,76487,1,10,3:2:0:0:
243,245,76830,5,14,0:0:0:0:
243,245,78202,6,0,L|145:259,1,88.000002685547,14|10,0:0|0:0,0:0:0:0:
57,217,78887,2,0,P|63:178|91:135,1,88.000002685547,2|2,1:2|3:2,0:0:0:0:
200,25,79744,2,0,L|346:34,1,132.00000402832,14|2,0:0|1:2,0:0:0:0:
437,41,80602,1,10,0:0:0:0:
459,143,80944,6,0,L|452:238,1,88.000002685547,14|10,0:0|0:0,0:0:0:0:
494,328,81630,1,2,1:2:0:0:
392,358,81973,2,0,P|343:350|312:272,1,132.00000402832,14|14,0:0|0:0,0:0:0:0:
341,125,83002,2,0,L|251:138,1,88.000002685547,6|2,1:2|0:0,0:0:0:0:
149,150,83687,6,0,L|165:73,2,66.0000020141602,14|14|14,0:0|0:0|0:0,0:0:0:0:
166,201,84373,1,2,1:2:0:0:
271,194,84716,1,2,0:0:0:0:
350,331,85230,2,0,B|432:329|432:329|454:281,1,132.00000402832,14|2,0:0|1:2,0:0:0:0:
488,184,86087,1,10,0:0:0:0:
397,129,86430,6,0,L|307:137,1,88.000002685547,14|2,0:0|1:2,0:0:0:0:
225,71,87116,2,0,L|135:79,1,88.000002685547,14|2,0:0|1:2,0:0:0:0:
54,144,87802,5,14,0:0:0:0:
81,245,88144,1,14,0:0:0:0:
109,347,88487,2,0,L|197:330,1,88.000002685547,14|10,0:0|0:0,0:0:0:0:
298,347,89173,5,14,0:0:0:0:
256,42,90544,5,14,0:0:0:0:
211,347,91916,5,14,0:0:0:0:
256,250,92259,1,2,0:0:0:0:
193,163,92602,1,0,1:0:0:0:
237,66,92944,6,2,B|317:53|317:53|353:96,2,132.00000402832,14|14|2,0:0|0:0|1:2,0:1:0:0:
133,92,94316,1,2,0:0:0:0:
188,182,94659,5,10,0:0:0:0:
393,124,95344,2,0,L|385:262,1,132.00000402832,2|2,1:2|0:0,0:0:0:0:
378,353,96202,1,14,0:0:0:0:
252,256,96716,2,0,L|155:273,1,88.000002685547,2|10,1:2|0:0,0:0:0:0:
87,342,97402,5,14,0:0:0:0:
47,243,97744,1,10,0:0:0:0:
101,151,98087,1,10,0:0:0:0:
60,51,98430,2,0,L|134:56,1,66.0000020141602,10|14,0:0|0:0,0:0:0:0:
360,30,99459,5,10,0:0:0:0:
383,133,99802,1,2,1:2:0:0:
278,155,100144,6,0,L|297:287,1,132.00000402832,14|2,0:0|0:0,0:0:0:0:
220,353,101002,1,14,0:0:0:0:
70,300,101516,2,0,L|88:170,1,132.00000402832,14|10,0:0|0:0,0:0:0:0:
108,65,102373,1,10,0:0:0:0:
234,159,102887,6,0,P|316:155|368:131,1,132.00000402832,14|2,0:0|0:0,0:0:0:0:
442,68,103744,2,0,P|471:82|493:133,1,88.000002685547,14|10,0:0|0:0,0:0:0:0:
488,184,104259,2,0,L|472:323,2,132.00000402832,14|14|14,0:0|0:0|0:0,0:0:0:0:
458,67,105630,6,0,P|383:39|325:39,1,132.00000402832,14|2,0:0|0:0,0:0:0:0:
244,81,106487,2,0,L|144:72,1,88.000002685547,10|10,0:0|0:0,0:0:0:0:
109,66,107002,2,0,L|124:203,1,132.00000402832,14|14,0:0|0:0,0:0:0:0:
99,290,107859,1,14,0:0:0:0:
237,366,108373,2,0,P|312:340|372:340,1,132.00000402832,14|14,0:0|0:0,0:0:0:0:
469,350,109230,2,0,L|481:299,1,44.0000013427735,2|14,3:2|0:0,0:0:0:0:
438,209,109744,6,0,P|399:201|355:168,1,88.000002685547,14|10,0:0|0:0,0:0:0:0:
335,132,110259,1,2,1:2:0:0:
106,263,111116,6,0,L|118:338,2,66.0000020141602,14|14|14,0:0|0:0|0:0,0:0:0:0:
44,176,111973,6,0,L|140:157,1,88.000002685547,14|10,0:0|0:0,0:0:0:0:
171,191,112487,2,0,P|221:175|248:100,1,132.00000402832,14|10,0:0|0:0,0:0:0:0:
206,12,113344,1,10,0:0:0:0:
362,39,113859,6,0,L|457:27,1,88.000002685547,14|14,0:0|3:2,0:0:0:0:
465,132,114544,2,0,L|370:145,1,88.000002685547,14|14,0:0|3:2,0:0:0:0:
313,227,115230,2,0,P|255:214|203:116,1,176.000005371094,14|10,0:0|0:0,0:0:0:0:
199,11,116259,1,2,0:0:0:0:
94,28,116602,6,0,L|108:125,1,88.000002685547,14|10,0:0|0:0,0:0:0:0:
46,202,117287,2,0,L|32:299,1,88.000002685547,10|2,0:0|3:2,0:0:0:0:
52,334,117802,1,2,0:0:0:0:
152,301,118144,2,0,L|288:314,1,132.00000402832,2|10,0:0|0:0,0:0:0:0:
379,328,119002,1,10,3:2:0:0:
356,223,119344,6,0,B|437:197|437:197|476:233,2,132.00000402832,14|14|10,0:0|0:0|0:0,0:0:0:0:
256,261,120716,5,10,0:0:0:0:
256,261,122087,5,14,0:0:0:0:
256,192,132373,6,0,L|164:192,1,80,10|2,0:0|0:0,0:0:0:0:
106,128,133059,6,0,P|121:94|164:71,1,80,14|2,1:2|1:2,0:0:0:0:
241,37,133744,1,2,1:2:0:0:
315,97,134087,1,2,1:2:0:0:
401,54,134430,6,0,L|411:146,1,80,2|2,1:2|1:2,0:0:0:0:
426,228,135116,1,2,1:2:0:0:
333,203,135459,1,2,1:2:0:0:
267,273,135802,6,0,L|184:286,1,80,10|10,3:2|0:0,0:0:0:0:
93,300,136487,2,0,P|63:270|55:235,1,80,14|0,0:0|0:0,0:0:0:0:
74,194,137002,2,0,P|107:185|141:106,1,120,14|0,0:0|0:0,0:0:0:0:
103,24,137859,2,0,L|186:8,1,80,2|2,0:0|1:2,0:0:0:0:
266,56,138544,5,14,0:0:0:0:
231,145,138887,1,10,0:0:0:0:
295,217,139230,2,0,L|288:303,1,80,10|10,0:0|0:0,0:0:0:0:
385,302,139916,2,0,L|391:216,1,80,10|10,0:0|0:0,0:0:0:0:
400,131,140602,1,10,0:0:0:0:
314,174,140944,1,10,0:0:0:0:
227,132,141287,6,0,L|236:10,2,120,14|14|14,0:0|0:0|0:0,0:0:0:0:
202,173,142487,5,14,0:0:0:0:
202,173,144030,5,10,0:0:0:0:
302,318,149516,6,0,L|287:236,1,80,2|2,3:2|3:2,0:0:0:0:
209,190,150202,2,0,L|224:106,1,80,2|2,3:2|3:2,0:0:0:0:
239,19,150887,1,2,3:2:0:0:
333,41,151230,1,2,3:2:0:0:
381,124,151573,1,2,3:2:0:0:
475,145,151916,1,2,3:2:0:0:
456,241,152259,6,0,L|472:327,1,80,2|2,3:2|3:2,0:0:0:0:
376,339,152944,2,0,L|360:254,1,80,2|2,3:2|3:2,0:0:0:0:
347,170,153630,5,10,0:0:0:0:
347,170,155002,6,0,P|316:134|277:125,1,80,14|2,1:2|1:2,0:0:0:0:
190,111,155687,2,0,L|180:46,2,60,2|2|2,1:2|1:2|1:2,0:0:0:0:
173,157,156373,2,0,L|96:182,1,80,2|2,1:2|1:2,0:0:0:0:
103,276,157059,2,0,L|180:301,1,80,2|2,1:2|1:2,0:0:0:0:
242,372,157744,6,0,P|292:363|335:266,1,160,2|2,1:2|1:2,0:0:0:0:
294,185,158773,1,2,1:2:0:0:
389,191,159116,2,0,L|479:176,1,80,2|2,1:2|1:2,0:0:0:0:
487,83,159802,2,0,L|461:-2,1,80,2|10,1:2|1:2,0:0:0:0:
367,26,160487,6,0,P|329:50|301:85,1,80,6|2,1:2|1:2,0:0:0:0:
226,122,161173,2,0,P|182:107|147:82,1,80,2|2,1:2|1:2,0:0:0:0:
91,21,161859,2,0,L|11:34,1,80,2|2,1:2|1:2,0:0:0:0:
18,130,162544,2,0,L|97:143,1,80,2|2,1:2|1:2,0:0:0:0:
154,219,163230,5,10,3:2:0:0:
289,169,163744,1,10,3:2:0:0:
370,291,164259,1,10,3:2:0:0:
458,253,164602,5,14,0:0:0:0:
458,253,165973,5,10,0:0:0:0:
402,163,166316,2,0,L|413:74,2,88.000002685547,6|10|2,1:2|0:0|1:2,0:0:0:0:
306,212,167344,2,0,P|251:201|233:90,1,176.000005371094,10|10,0:0|0:0,0:0:0:0:
291,11,168373,1,2,1:2:0:0:
183,13,168716,6,0,P|148:29|98:63,1,88.000002685547,10|0,0:0|1:0,0:0:0:0:
47,138,169402,2,0,P|81:152|131:188,1,88.000002685547,10|2,0:0|1:2,0:0:0:0:
190,253,170087,2,0,L|106:283,1,88.000002685547,10|2,3:2|1:2,0:0:0:0:
182,356,170773,2,0,L|266:326,1,88.000002685547,10|2,3:2|1:2,0:0:0:0:
368,346,171459,5,10,0:0:0:0:
392,244,171802,2,0,L|363:149,2,88.000002685547,6|10|2,1:2|0:0|1:2,0:0:0:0:
463,167,172830,2,0,B|473:85|473:85|464:34|402:37,1,176.000005371094,10|10,0:0|0:0,0:0:0:0:
317,97,173859,1,2,1:2:0:0:
222,51,174202,6,0,L|128:66,1,88.000002685547,10|2,0:0|1:2,0:0:0:0:
79,150,174887,2,0,L|173:166,1,88.000002685547,8|2,0:0|1:2,0:0:0:0:
229,244,175573,5,14,0:0:0:0:
322,192,175916,1,10,0:0:0:0:
400,264,176259,2,0,L|467:251,2,58.6666684570313,14|10|10,0:0|0:0|0:0,0:0:0:0:
351,338,176944,5,14,0:0:0:0:
260,282,177287,1,6,1:2:0:0:
185,353,177630,2,0,P|127:330|120:258,1,132.00000402832,10|2,0:0|0:0,0:0:0:0:
130,216,178316,2,0,L|110:131,1,88.000002685547,10|2,0:0|1:2,0:0:0:0:
189,60,179002,2,0,L|209:145,1,88.000002685547,10|2,0:0|1:2,0:0:0:0:
238,247,179687,6,0,P|304:206|410:204,1,176.000005371094,10|10,0:0|0:0,0:0:0:0:
501,231,180716,1,2,1:2:0:0:
461,133,181059,2,0,L|477:43,1,88.000002685547,10|2,0:0|1:2,0:0:0:0:
370,29,181744,2,0,L|355:119,1,88.000002685547,10|2,0:0|1:2,0:0:0:0:
338,213,182430,5,10,0:0:0:0:
235,182,182773,1,6,1:2:0:0:
261,338,183287,2,0,L|353:322,2,88.000002685547,2|2|2,0:0|0:0|0:0,0:0:0:0:
164,290,184316,1,2,0:0:0:0:
67,334,184659,2,0,L|18:255,1,88.000002685547,2|2,0:0|3:2,0:0:0:0:
19,206,185173,6,0,L|32:109,1,88.000002685547,14|14,0:0|0:0,0:0:0:0:
132,88,185859,2,0,L|144:185,1,88.000002685547,14|14,0:0|0:0,0:0:0:0:
159,279,186544,5,14,0:0:0:0:
159,279,187916,6,2,P|205:262|252:258,1,88.000002685547,14|2,0:0|1:2,0:1:0:0:
308,280,188516,2,2,L|386:264,1,66.0000020141602,10|10,0:0|0:0,0:1:0:0:
470,140,189287,2,2,P|458:94|428:56,1,88.000002685547,10|2,0:0|1:2,0:1:0:0:
369,42,189887,2,2,L|258:58,1,110.000003356934,10|10,0:0|0:0,0:1:0:0:
155,41,190659,6,2,L|175:137,1,88.000002685547,10|2,0:0|1:2,0:1:0:0:
187,192,191259,2,2,L|110:214,1,66.0000020141602,10|10,0:0|0:0,0:1:0:0:
257,294,192030,2,2,L|351:266,1,88.000002685547,10|2,0:0|1:2,0:1:0:0:
406,251,192630,2,2,L|416:184,1,66.0000020141602,10|10,0:0|0:0,0:1:0:0:
435,28,193402,6,2,P|399:35|352:69,1,88.000002685547,14|2,0:0|1:2,0:1:0:0:
315,117,194002,2,2,L|242:129,1,66.0000020141602,10|10,0:0|0:0,0:1:0:0:
94,156,194773,2,2,P|101:193|136:239,1,88.000002685547,10|2,0:0|1:2,0:1:0:0:
184,276,195373,2,2,L|195:350,1,66.0000020141602,10|10,0:0|0:0,0:1:0:0:
298,355,195973,6,2,B|375:334|375:334|402:205,1,198.000006042481,14|10,0:0|0:0,0:1:0:0:
409,149,197002,2,0,L|389:52,1,88.000002685547,10|14,0:0|0:0,0:0:0:0:
127,40,198202,2,2,L|56:49,2,58.6666684570313,14|10|10,0:0|0:0|0:0,0:1:0:0:
191,101,198887,5,14,0:0:0:0:
256,339,200259,5,14,0:0:0:0:
321,101,201630,5,14,0:0:0:0:
231,44,201973,1,2,0:0:0:0:
173,131,202316,1,0,1:0:0:0:
80,80,202659,6,2,B|28:88|28:88|40:174,2,132.00000402832,14|14|2,0:0|0:0|1:2,0:1:0:0:
185,69,204030,1,2,0:0:0:0:
163,172,204373,5,10,0:0:0:0:
357,295,205059,2,0,P|414:278|425:205,1,132.00000402832,2|2,1:2|0:0,0:0:0:0:
395,112,205916,1,14,0:0:0:0:
248,171,206430,2,0,L|152:160,1,88.000002685547,2|10,1:2|0:0,0:0:0:0:
55,148,207116,5,14,0:0:0:0:
84,250,207458,1,10,0:0:0:0:
188,223,207802,1,10,0:0:0:0:
216,325,208144,2,0,L|297:310,1,66.0000020141602,10|14,0:0|0:0,0:0:0:0:
16,17,209859,5,14,0:0:0:0:
256,192,209944,12,2,220830,0:0:0:0:
256,192,220916,12,2,229059,0:0:0:0:
256,192,230430,6,0,L|256:318,1,120,10|10,0:0|0:0,0:0:0:0:
256,352,231116,2,0,L|343:352,1,80,10|14,0:0|0:0,0:0:0:0:
