osu file format v14

[General]
AudioFilename: audio.mp3
AudioLeadIn: 0
PreviewTime: 54675
Countdown: 0
SampleSet: Normal
StackLeniency: 0.2
Mode: 0
LetterboxInBreaks: 0
WidescreenStoryboard: 0

[Editor]
DistanceSpacing: 1.6
BeatDivisor: 4
GridSize: 4
TimelineZoom: 1.500006

[Metadata]
Title:Calling
TitleUnicode:Calling
Artist:Zekk
ArtistUnicode:Zekk
Creator:NeilPerry
Version:Reiji's Insane
Source:
Tags:Future Bass Abstract Dubstep Drumstep wub den0saur winber1 komore regou hotdog mirash pandahero reiji-rj
BeatmapID:1436998
BeatmapSetID:673878

[Difficulty]
HPDrainRate:6
CircleSize:4
OverallDifficulty:7
ApproachRate:8
SliderMultiplier:1.40000000596046
SliderTickRate:1

[Events]
//Background and Video events
0,0,"zekk2.jpg",0,0
//Break Periods
2,77542,81925
//Storyboard Layer 0 (Background)
//Storyboard Layer 1 (Fail)
//Storyboard Layer 2 (Pass)
//Storyboard Layer 3 (Foreground)
//Storyboard Sound Samples

[TimingPoints]
2676,333.333333333333,4,2,1,25,1,0
13342,-200,4,2,0,25,0,0
16009,-200,4,2,0,25,0,0
16675,-200,4,2,0,20,0,0
16759,-200,4,2,0,25,0,0
17675,-200,4,2,0,20,0,0
18092,-200,4,2,0,25,0,0
18675,-200,4,2,0,30,0,0
22009,-200,4,2,4,30,0,0
22092,-200,4,2,0,30,0,0
22675,-200,4,2,0,20,0,0
23009,-200,4,2,0,25,0,0
23342,-200,4,2,0,30,0,0
23675,-200,4,2,0,35,0,0
24009,-83.3333333333333,4,2,0,40,0,0
24342,-133.333333333333,4,2,0,40,0,0
24675,-133.333333333333,4,2,4,50,0,0
24759,-133.333333333333,4,2,0,40,0,0
26009,-133.333333333333,4,2,4,50,0,0
26092,-133.333333333333,4,2,0,40,0,0
27342,-133.333333333333,4,2,4,50,0,0
27425,-133.333333333333,4,2,0,40,0,0
28675,-133.333333333333,4,2,4,50,0,0
28759,-133.333333333333,4,2,0,40,0,0
30009,-133.333333333333,4,2,4,50,0,0
30092,-133.333333333333,4,2,0,40,0,0
31342,-133.333333333333,4,2,4,50,0,0
31425,-133.333333333333,4,2,0,40,0,0
32675,-133.333333333333,4,2,4,50,0,0
32759,-133.333333333333,4,2,0,40,0,0
34009,-133.333333333333,4,2,4,50,0,0
34092,-133.333333333333,4,2,0,40,0,0
34675,-111.111111111111,4,2,0,50,0,0
35342,-111.111111111111,4,2,4,50,0,0
35425,-111.111111111111,4,2,0,50,0,0
36675,-111.111111111111,4,2,4,50,0,0
36759,-111.111111111111,4,2,0,50,0,0
38009,-111.111111111111,4,2,4,50,0,0
38092,-111.111111111111,4,2,0,50,0,0
39342,-111.111111111111,4,2,4,50,0,0
39425,-111.111111111111,4,2,0,70,0,0
40009,-111.111111111111,4,2,0,50,0,0
40675,-111.111111111111,4,2,4,50,0,0
40759,-111.111111111111,4,2,0,50,0,0
42009,-111.111111111111,4,2,4,50,0,0
42092,-111.111111111111,4,2,0,50,0,0
43342,-111.111111111111,4,2,4,50,0,0
43425,-111.111111111111,4,2,0,50,0,0
45009,-200,4,2,0,50,0,0
45342,-100,4,2,0,50,0,0
45675,-100,4,2,0,60,0,0
45759,-100,4,2,4,60,0,0
45925,-100,4,2,0,60,0,0
46092,-100,4,2,4,60,0,0
46259,-100,4,2,0,60,0,0
46425,-100,4,2,4,60,0,0
46592,-100,4,2,0,60,0,0
46759,-100,4,2,4,60,0,0
46925,-100,4,2,0,60,0,0
47092,-100,4,2,4,60,0,0
47342,-100,4,2,0,60,0,0
47425,-100,4,2,4,60,0,0
47592,-100,4,2,0,60,0,0
47759,-100,4,2,4,60,0,0
48009,-100,4,2,0,60,0,0
48092,-100,4,2,4,60,0,0
48259,-100,4,2,0,60,0,0
48425,-100,4,2,4,60,0,0
48592,-100,4,2,0,60,0,0
48759,-100,4,2,4,60,0,0
48925,-100,4,2,0,60,0,0
49092,-100,4,2,4,60,0,0
49259,-100,4,2,0,60,0,0
49425,-100,4,2,4,60,0,0
49592,-100,4,2,0,60,0,0
49759,-100,4,2,4,60,0,0
50009,-100,4,2,0,60,0,0
50092,-100,4,2,4,60,0,0
50259,-100,4,2,0,60,0,0
50425,-100,4,2,4,60,0,0
50675,-100,4,2,0,70,0,0
51342,-100,4,2,0,65,0,0
52009,-100,4,2,0,60,0,0
52675,-100,4,2,0,55,0,0
53342,-100,4,1,0,50,0,0
53842,-100,4,1,0,45,0,0
54342,-100,4,1,0,40,0,0
55675,-100,4,2,4,80,0,0
56009,-100,4,1,0,80,0,1
56675,-100,4,1,70,80,0,1
56759,-100,4,1,0,80,0,1
58009,-100,4,1,70,80,0,1
58092,-100,4,1,0,80,0,1
59342,-100,4,1,70,80,0,1
59425,-100,4,1,0,80,0,1
59842,-100,4,1,70,80,0,1
59925,-100,4,1,0,80,0,1
60675,-100,4,1,70,80,0,1
60759,-100,4,1,0,80,0,1
62009,-100,4,1,70,80,0,1
62092,-100,4,1,0,80,0,1
63342,-100,4,1,70,80,0,1
63425,-100,4,1,0,80,0,1
64675,-100,4,1,70,80,0,1
64759,-100,4,1,0,80,0,1
66009,-100,4,1,70,80,0,1
66092,-100,4,1,0,80,0,1
66675,-100,4,1,0,80,0,0
67009,-100,4,1,0,80,0,1
67342,-100,4,1,70,80,0,1
67425,-100,4,1,0,80,0,1
68675,-100,4,1,70,80,0,1
68759,-100,4,1,0,80,0,1
70009,-100,4,1,70,80,0,1
70092,-100,4,1,0,80,0,1
71342,-100,4,1,70,80,0,1
71425,-100,4,1,0,80,0,1
72675,-100,4,1,70,80,0,1
72759,-100,4,1,0,80,0,1
74009,-100,4,1,70,80,0,1
74092,-100,4,1,0,80,0,1
75009,-100,4,1,70,80,0,1
75092,-100,4,1,0,80,0,1
75509,-100,4,1,70,80,0,1
75592,-100,4,1,0,80,0,1
76009,-100,4,2,0,80,0,0
77342,-100,4,1,0,80,0,0
82675,-200,4,2,1,40,0,0
86675,-133.333333333333,4,2,1,50,0,0
87675,-133.333333333333,4,1,0,60,0,0
88009,-100,4,2,0,70,0,0
88342,-100,4,2,0,70,0,0
88425,-100,4,2,4,70,0,0
88592,-100,4,2,0,70,0,0
88759,-100,4,2,4,70,0,0
88925,-100,4,2,0,70,0,0
89092,-100,4,2,4,70,0,0
89259,-100,4,2,0,70,0,0
89425,-100,4,2,4,70,0,0
89592,-100,4,2,0,70,0,0
89759,-100,4,2,4,70,0,0
90009,-100,4,2,0,70,0,0
90092,-100,4,2,4,70,0,0
90259,-100,4,2,0,70,0,0
90425,-100,4,2,4,70,0,0
90675,-100,4,2,0,70,0,0
90759,-100,4,2,4,70,0,0
90925,-100,4,2,0,70,0,0
91092,-100,4,2,4,70,0,0
91259,-100,4,2,0,70,0,0
91425,-100,4,2,4,70,0,0
91592,-100,4,2,0,70,0,0
91759,-100,4,2,4,70,0,0
91925,-100,4,2,0,70,0,0
92092,-100,4,2,4,70,0,0
92259,-100,4,2,0,70,0,0
92425,-100,4,2,4,70,0,0
92675,-100,4,2,0,70,0,0
92759,-100,4,2,4,70,0,0
92925,-100,4,2,0,70,0,0
93092,-100,4,2,4,70,0,0
93342,-100,4,2,0,70,0,0
94009,-100,4,2,0,65,0,0
94675,-100,4,2,0,60,0,0
95342,-100,4,2,0,55,0,0
96009,-100,4,1,0,50,0,0
97009,-100,4,1,0,45,0,0
98342,-100,4,2,1,70,0,0
98675,-100,4,1,0,80,0,1
118675,-100,4,1,0,80,0,0

[Colours]
Combo1 : 72,168,255
Combo2 : 255,98,98
Combo3 : 89,255,214
Combo4 : 239,48,96

[HitObjects]
144,72,13342,6,0,P|120:76|72:80,1,70.000000298023,4|0,1:0|0:0,0:0:0:0:
148,160,13842,2,0,P|172:156|220:152,1,70.000000298023,2|0,0:0|0:0,0:0:0:0:
292,188,14342,2,0,L|288:224,1,35.0000001490115,2|0,0:0|0:0,0:0:0:0:
288,222,14675,2,0,L|360:220,1,70.000000298023
436,240,15175,1,0,0:0:0:0:
376,296,15342,1,0,0:0:0:0:
452,320,15509,1,0,0:0:0:0:
452,320,16009,6,0,P|392:312|304:308,1,140.000000596046,4|0,2:0|1:0,0:0:0:0:
312,307,17009,1,0,0:0:0:0:
244,224,17175,1,0,0:0:0:0:
344,176,17342,2,0,P|357:143|359:109,1,70.000000298023,2|0,0:0|1:0,0:0:0:0:
244,224,18009,2,0,P|230:256|228:290,1,70.000000298023,0|2,1:0|0:0,0:0:0:0:
228,290,18425,1,0,0:0:0:0:
228,290,18509,1,0,0:0:0:0:
336,336,18675,6,0,L|412:328,1,70.000000298023,0|0,1:0|0:0,0:0:0:0:
468,252,19175,1,0,0:0:0:0:
400,176,19342,2,0,L|324:172,1,70.000000298023,0|0,1:0|0:0,0:0:0:0:
330,172,20009,2,0,L|319:102,1,70.000000298023,2|0,0:0|0:0,0:0:0:0:
252,60,20509,1,2,0:0:0:0:
252,60,20592,1,0,0:0:0:0:
252,60,20675,2,0,L|212:48,1,35.0000001490115,0|2,1:0|0:0,0:0:0:0:
40,112,21342,6,0,P|93:97|133:69,1,105.000000447034,0|0,1:0|1:0,0:0:0:0:
133,68,22009,1,8,0:0:0:0:
316,56,22342,1,0,1:0:0:0:
316,56,22675,5,8,1:0:0:0:
304,136,22842,1,0,1:0:0:0:
380,232,23009,5,0,1:0:0:0:
392,152,23176,1,0,1:0:0:0:
216,120,23342,5,0,1:0:0:0:
304,136,23509,1,0,1:0:0:0:
468,248,23675,5,0,1:0:0:0:
380,232,23842,1,0,1:0:0:0:
248,304,24009,6,0,P|192:332|124:336,1,125.999996691227,4|0,0:0|0:0,0:0:0:0:
40,332,24342,6,0,L|24:276,1,52.5000022262334,2|0,0:0|0:0,0:0:0:0:
136,160,24675,2,0,L|128:220,1,52.5000022262334,8|0,0:0|0:0,0:0:0:0:
184,296,25009,1,0,1:0:0:0:
284,260,25175,1,0,0:0:0:0:
284,260,25259,1,0,0:0:0:0:
284,260,25342,6,0,L|352:280,1,52.5000022262334,0|0,0:0|1:0,0:0:0:0:
436,340,25675,2,0,L|380:352,1,52.5000022262334,2|0,0:0|0:0,0:0:0:0:
232,352,26009,1,8,0:0:0:0:
108,320,26175,1,8,0:3:0:0:
196,228,26342,1,0,1:0:0:0:
196,228,26675,6,0,P|243:218|300:216,2,105.000004452467,0|2|8,1:0|0:0|0:0,0:0:0:0:
96,192,27509,1,0,0:0:0:0:
196,228,27675,2,0,L|208:280,1,52.5000022262334,2|0,0:0|1:0,0:0:0:0:
96,192,28009,2,0,L|109:141,1,52.5000022262334
176,60,28342,1,0,1:0:0:0:
260,120,28509,5,0,0:0:0:0:
260,120,28592,1,0,0:0:0:0:
260,120,28675,1,8,0:0:0:0:
312,28,28842,1,8,0:3:0:0:
412,64,29009,1,4,0:0:0:0:
468,268,29342,5,0,1:0:0:0:
468,268,29675,2,0,L|456:319,1,52.5000022262334,2|0,0:0|0:0,0:0:0:0:
352,336,30009,2,0,L|228:328,2,105.000004452467,8|2|0,0:0|0:0|0:0,0:0:0:0:
456,320,30842,1,0,1:0:0:0:
384,240,31009,2,0,P|368:216|360:184,1,52.5000022262334,2|0,0:0|0:0,0:0:0:0:
400,96,31342,2,0,L|452:84,1,52.5000022262334,8|0,0:0|0:0,0:0:0:0:
308,44,31675,2,0,L|244:32,1,52.5000022262334,2|0,0:0|0:0,0:0:0:0:
156,64,32009,6,0,B|148:100|148:100|180:180,1,105.000004452467,0|2,1:0|0:0,0:0:0:0:
96,256,32509,1,0,0:0:0:0:
96,256,32675,2,0,B|104:228|104:228|84:176,2,78.7500033393501,8|8|0,0:0|0:3|1:0,0:0:0:0:
44,348,33342,5,0,0:0:0:0:
96,256,33509,1,2,0:0:0:0:
188,304,33675,1,0,1:0:0:0:
236,212,34009,5,8,0:0:0:0:
236,212,34342,1,2,0:0:0:0:
236,212,34675,6,0,L|336:224,1,94.49999751842,4|0,0:0|0:0,0:0:0:0:
329,223,35009,2,0,L|384:180,1,62.9999983456133,2|0,0:0|0:0,0:0:0:0:
448,80,35342,2,0,L|508:96,1,62.9999983456133,12|0,0:0|0:0,0:0:0:0:
328,76,35675,2,0,P|276:52|200:52,1,125.999996691227,2|0,0:0|0:0,0:0:0:0:
48,128,36175,1,0,1:0:0:0:
48,128,36342,2,0,L|64:272,2,125.999996691227,2|12|0,0:0|0:0|1:0,0:0:0:0:
188,336,37342,6,0,L|285:323,1,94.49999751842,0|0,1:0|0:0,0:0:0:0:
368,288,37675,2,0,L|442:302,1,62.9999983456133,2|0,0:0|0:0,0:0:0:0:
340,176,38009,2,0,L|276:164,1,62.9999983456133,12|0,0:0|0:0,0:0:0:0:
429,299,38342,2,0,L|491:287,1,62.9999983456133,2|0,0:0|1:0,0:0:0:0:
278,164,38675,2,0,L|208:176,1,62.9999983456133,2|0,0:0|0:0,0:0:0:0:
100,220,39009,2,0,P|80:172|76:124,1,94.49999751842,0|0,1:0|0:0,0:0:0:0:
75,130,39342,1,12,0:0:0:0:
168,48,39509,1,0,1:0:0:0:
280,104,39675,2,0,P|328:96|376:72,1,94.49999751842,0|0,1:0|0:0,0:0:0:0:
369,76,40009,6,0,L|357:208,1,125.999996691227,4|2,1:0|0:0,0:0:0:0:
392,316,40509,1,0,0:0:0:0:
357,201,40675,2,0,L|417:185,1,62.9999983456133,12|0,0:0|0:0,0:0:0:0:
272,276,41009,2,0,L|208:256,1,62.9999983456133,2|0,0:0|0:0,0:0:0:0:
116,312,41342,5,0,1:0:0:0:
116,312,41425,1,0,1:0:0:0:
116,312,41509,1,0,1:0:0:0:
211,257,41675,1,2,0:0:0:0:
100,200,41842,1,0,1:0:0:0:
216,140,42009,1,12,0:0:0:0:
84,84,42175,1,0,1:0:0:0:
220,24,42342,1,2,0:0:0:0:
228,24,42425,1,0,1:0:0:0:
236,24,42509,1,0,1:0:0:0:
244,24,42592,1,0,1:0:0:0:
252,24,42675,6,0,L|316:44,1,62.9999983456133,0|0,1:0|0:0,0:0:0:0:
468,104,43009,2,0,L|404:112,1,62.9999983456133,0|0,1:0|0:0,0:0:0:0:
288,180,43342,2,0,L|352:200,1,62.9999983456133,12|0,0:0|0:0,0:0:0:0:
348,198,43592,1,0,1:0:0:0:
348,198,43675,1,0,1:0:0:0:
456,284,43842,1,0,0:0:0:0:
456,284,44009,5,0,1:0:0:0:
320,300,44175,1,0,1:0:0:0:
184,316,44342,1,2,0:0:0:0:
196,328,44675,5,0,1:0:0:0:
332,312,44842,1,0,1:0:0:0:
468,296,45009,2,0,P|476:260|480:220,1,70.000000298023,4|6,1:0|0:0,0:0:0:0:
479,227,45675,5,0,1:0:0:0:
396,216,45842,1,0,0:0:0:0:
408,132,46008,1,0,1:0:0:0:
492,144,46175,1,0,0:0:0:0:
479,227,46342,1,0,1:0:0:0:
320,252,46509,6,0,L|244:240,1,70.000000298023,0|0,0:0|1:0,0:0:0:0:
248,156,46842,2,0,L|328:168,1,70.000000298023,0|0,0:0|1:0,0:0:0:0:
396,216,47175,2,0,L|408:260,2,35.0000001490115,0|0|0,0:0|0:0|1:0,0:0:0:0:
484,148,47509,1,0,0:0:0:0:
404,72,47675,2,0,L|392:32,4,35.0000001490115,0|0|0|0|0,1:0|0:0|0:0|0:0|1:0,0:0:0:0:
316,136,48175,6,0,L|296:216,1,70.000000298023,0|0,0:0|1:0,0:0:0:0:
224,336,48509,2,0,L|196:260,1,70.000000298023,0|0,0:0|1:0,0:0:0:0:
132,144,48842,2,0,L|112:224,1,70.000000298023,0|0,0:0|1:0,0:0:0:0:
40,280,49176,2,0,L|12:204,1,70.000000298023,0|0,0:0|1:0,0:0:0:0:
124,344,49509,5,0,0:0:0:0:
199,270,49675,1,0,1:0:0:0:
300,320,49842,2,0,L|324:364,2,35.0000001490115,0|0|0,0:0|0:0|1:0,0:0:0:0:
360,240,50175,1,0,0:0:0:0:
456,280,50342,2,0,L|476:316,3,35.0000001490115
460,328,50675,5,0,1:0:0:0:
368,320,50842,1,0,1:0:0:0:
276,308,51009,1,0,1:0:0:0:
188,296,51175,1,0,1:0:0:0:
80,320,51342,5,0,1:0:0:0:
188,296,51509,1,0,1:0:0:0:
164,188,51675,1,0,1:0:0:0:
56,216,51842,1,0,1:0:0:0:
188,296,52009,5,0,1:0:0:0:
260,220,52175,1,0,1:0:0:0:
244,120,52342,1,0,1:0:0:0:
144,84,52509,1,0,1:0:0:0:
164,188,52675,5,0,1:0:0:0:
244,120,52842,1,0,1:0:0:0:
144,84,53009,1,0,1:0:0:0:
68,156,53175,1,0,1:0:0:0:
260,220,53342,6,0,L|296:216,11,35.0000001490115
344,284,54342,6,0,L|320:288,6,17.5000000745057
312,300,54675,1,4,0:0:0:0:
256,192,54759,12,0,55675,0:0:0:0:
56,92,56009,6,0,L|160:72,1,105.000000447034,4|0,0:0|2:0,0:0:0:0:
224,136,56342,2,0,L|252:200,1,70.000000298023,4|0,0:2|0:0,0:0:0:0:
336,260,56675,1,8,0:0:0:0:
252,200,56842,1,2,0:2:0:0:
348,160,57009,2,0,L|424:148,1,70.000000298023,0|0,2:0|2:0,0:0:0:0:
344,268,57342,5,0,2:0:0:0:
344,268,57425,1,0,2:0:0:0:
344,268,57509,2,0,L|260:284,1,70.000000298023,4|0,0:0|2:0,0:0:0:0:
160,316,57842,1,0,0:0:0:0:
224,144,58009,2,0,L|184:204,1,70.000000298023,8|2,0:0|0:2,0:0:0:0:
185,202,58259,1,0,2:0:0:0:
185,202,58342,1,2,0:2:0:0:
160,316,58509,1,0,0:2:0:0:
52,236,58675,2,0,P|28:188|32:124,1,105.000000447034,0|0,2:2|0:0,0:0:0:0:
68,56,59009,6,0,L|144:44,1,70.000000298023,4|2,0:0|2:0,0:0:0:0:
264,124,59342,2,0,L|196:136,1,70.000000298023,8|0,0:0|0:0,0:0:0:0:
368,168,59675,2,0,L|404:108,1,70.000000298023,0|8,2:0|0:0,0:0:0:0:
195,136,60009,6,0,L|159:196,1,70.000000298023,2|0,2:0|0:0,0:0:0:0:
158,196,60259,1,0,2:0:0:0:
158,196,60342,1,0,2:0:0:0:
72,256,60509,1,0,0:0:0:0:
168,292,60675,1,8,0:0:0:0:
84,356,60842,1,0,0:0:0:0:
84,356,60925,1,0,0:0:0:0:
84,356,61009,1,0,0:0:0:0:
184,384,61175,1,0,0:0:0:0:
364,328,61342,6,0,B|392:300|392:300|384:228,1,105.000000447034,4|0,0:0|2:0,0:0:0:0:
320,168,61675,2,0,L|248:176,1,70.000000298023,4|0,0:2|2:0,0:0:0:0:
148,152,62009,1,8,0:0:0:0:
184,252,62175,1,2,0:2:0:0:
250,175,62342,1,0,2:0:0:0:
148,152,62509,2,0,L|40:164,1,105.000000447034,2|0,2:0|0:0,0:0:0:0:
43,163,62842,6,0,L|23:246,1,70.000000298023,4|0,0:0|2:0,0:0:0:0:
160,328,63175,1,0,0:0:0:0:
250,175,63342,2,0,L|270:107,1,70.000000298023,8|2,0:0|0:2,0:0:0:0:
269,107,63592,1,0,0:0:0:0:
269,107,63675,1,2,0:2:0:0:
376,156,63842,1,0,0:0:0:0:
484,204,64009,1,0,0:0:0:0:
484,204,64342,6,0,L|416:228,1,70.000000298023,0|2,0:0|0:2,0:0:0:0:
264,116,64675,2,0,L|336:140,1,70.000000298023,8|0,0:0|0:0,0:0:0:0:
456,36,65009,2,0,L|389:58,1,70.000000298023,0|2,2:0|0:2,0:0:0:0:
260,104,65342,6,0,P|208:104|152:128,1,105.000000447034,4|0,0:2|2:0,0:0:0:0:
164,136,65675,2,0,L|81:121,1,70.000000298023,4|0,0:2|2:0,0:0:0:0:
136,252,66009,1,8,0:0:0:0:
156,256,66092,1,0,0:0:0:0:
176,260,66175,1,0,0:0:0:0:
196,264,66259,1,0,0:0:0:0:
216,268,66342,1,2,2:0:0:0:
428,224,66509,1,0,2:0:0:0:
260,184,66675,5,2,0:0:0:0:
260,184,67009,2,0,P|240:132|236:80,1,105.000000447034,4|0,0:0|2:0,0:0:0:0:
235,83,67342,1,8,0:0:0:0:
328,56,67509,1,0,0:0:0:0:
356,148,67675,1,2,0:2:0:0:
448,116,67842,1,0,2:0:0:0:
448,116,68175,5,4,0:0:0:0:
412,272,68342,2,0,L|492:256,1,70.000000298023,0|0,2:0|0:0,0:0:0:0:
348,188,68675,2,0,L|280:200,1,70.000000298023,8|2,0:0|0:2,0:0:0:0:
279,200,68925,1,0,0:0:0:0:
279,200,69009,1,2,0:2:0:0:
200,288,69175,1,0,0:0:0:0:
120,200,69342,2,0,P|100:248|104:308,1,105.000000447034
112,312,69675,6,0,L|43:300,1,70.000000298023,4|0,0:0|2:0,0:0:0:0:
148,88,70009,1,8,0:0:0:0:
264,112,70175,1,2,0:2:0:0:
236,228,70342,1,2,0:2:0:0:
120,200,70509,1,0,0:0:0:0:
44,120,70675,6,0,L|8:56,1,70.000000298023,0|4,0:0|0:0,0:0:0:0:
148,88,71009,2,0,L|184:148,1,70.000000298023,2|0,2:0|0:0,0:0:0:0:
258,220,71342,1,8,0:0:0:0:
362,196,71509,1,0,0:0:0:0:
362,196,71592,1,0,0:0:0:0:
362,196,71675,1,0,0:0:0:0:
282,128,71842,1,0,0:0:0:0:
184,148,72009,6,0,L|78:164,1,105.000004452467,0|0,0:0|2:0,0:0:0:0:
74,176,72342,1,2,0:2:0:0:
70,188,72425,1,2,0:2:0:0:
66,200,72509,1,2,0:2:0:0:
62,212,72592,1,2,0:2:0:0:
58,224,72675,1,8,0:0:0:0:
154,260,72842,1,4,0:0:0:0:
66,316,73009,1,0,0:0:0:0:
162,352,73175,2,0,L|270:344,1,105.000000447034,2|0,2:0|2:0,0:0:0:0:
266,344,73509,1,0,0:0:0:0:
384,264,73675,6,0,L|292:272,1,70.000000298023,0|0,2:0|0:0,0:0:0:0:
216,232,74009,2,0,P|200:192|196:156,1,70.000000298023,8|2,0:0|0:2,0:0:0:0:
196,165,74259,1,0,0:0:0:0:
196,165,74342,1,2,0:2:0:0:
228,64,74509,1,0,0:0:0:0:
320,112,74675,6,0,L|428:76,1,105.000000447034,4|0,0:0|0:0,0:0:0:0:
419,78,75009,1,8,0:0:0:0:
228,64,75175,2,0,L|120:28,1,105.000000447034,4|0,0:0|0:0,0:0:0:0:
128,30,75509,1,8,0:0:0:0:
64,112,75675,2,0,L|28:120,4,35.0000001490115,0|0|0|0|4,0:0|0:0|0:0|0:0|1:0,0:0:0:0:
256,192,76092,12,0,77009,1:0:0:0:
256,192,77342,5,4,1:0:0:0:
68,100,82675,6,0,L|176:88,1,105.000000447034
180,80,83342,2,0,L|216:144,1,70.000000298023
304,196,84009,1,2,0:0:0:0:
316,92,84342,1,0,0:0:0:0:
400,156,84675,1,0,0:0:0:0:
400,156,85342,6,0,L|368:260,1,105.000000447034
376,268,86009,2,0,L|296:264,1,70.000000298023
104,292,86675,5,0,0:0:0:0:
192,276,86842,1,0,0:0:0:0:
176,188,87009,1,0,0:0:0:0:
88,204,87175,1,0,0:0:0:0:
104,292,87342,5,0,0:0:0:0:
104,304,87425,1,0,0:0:0:0:
104,316,87509,1,0,0:0:0:0:
228,272,87675,1,0,0:0:0:0:
348,316,87842,1,0,0:0:0:0:
460,272,88009,1,6,0:0:0:0:
460,272,88342,5,0,1:0:0:0:
376,188,88509,2,0,L|300:176,1,70.000000298023,0|0,0:0|1:0,0:0:0:0:
208,184,88842,1,0,0:0:0:0:
132,120,89009,1,0,1:0:0:0:
48,172,89175,2,0,P|49:208|56:248,1,70.000000298023,0|0,0:0|1:0,0:0:0:0:
72,340,89509,1,0,0:0:0:0:
148,280,89675,1,0,1:0:0:0:
54,241,89842,6,0,L|9:236,2,35.0000001490115,0|0|0,0:0|0:0|1:0,0:0:0:0:
148,280,90176,1,0,0:0:0:0:
220,212,90342,2,0,L|256:216,4,35.0000001490115,0|0|0|0|0,1:0|0:0|0:0|0:0|1:0,0:0:0:0:
136,160,90842,6,0,P|117:129|112:96,1,70.000000298023,0|0,0:0|1:0,0:0:0:0:
264,128,91175,2,0,P|282:158|288:192,1,70.000000298023,0|0,0:0|1:0,0:0:0:0:
216,312,91509,2,0,P|197:281|192:248,1,70.000000298023,0|0,0:0|1:0,0:0:0:0:
344,280,91842,2,0,P|362:310|368:344,1,70.000000298023,0|0,0:0|1:0,0:0:0:0:
276,232,92176,5,0,0:0:0:0:
360,200,92342,1,0,1:0:0:0:
424,268,92509,2,0,L|476:260,2,35.0000001490115,0|0|0,0:0|0:0|1:0,0:0:0:0:
360,200,92842,1,0,0:0:0:0:
296,136,93009,2,0,L|252:144,3,35.0000001490115
252,156,93342,5,0,1:0:0:0:
168,144,93509,1,0,1:0:0:0:
156,228,93676,1,0,1:0:0:0:
240,244,93842,1,0,1:0:0:0:
168,144,94009,5,0,1:0:0:0:
60,172,94176,1,0,1:0:0:0:
88,280,94342,1,0,1:0:0:0:
196,252,94509,1,0,1:0:0:0:
168,144,94676,5,0,1:0:0:0:
228,76,94842,1,0,1:0:0:0:
260,160,95009,1,0,1:0:0:0:
320,92,95176,1,0,1:0:0:0:
356,176,95342,5,0,1:0:0:0:
404,236,95509,1,0,1:0:0:0:
452,296,95676,1,0,1:0:0:0:
500,356,95842,1,0,1:0:0:0:
360,324,96009,6,0,L|312:332,11,35.0000001490115
386,238,97009,6,0,L|403:235,6,17.5000000745057
416,248,97342,1,4,0:0:0:0:
264,200,97509,1,4,0:2:0:0:
264,200,97842,1,0,0:0:0:0:
376,116,98009,1,4,0:0:0:0:
376,116,98092,1,0,0:0:0:0:
376,116,98175,1,0,0:0:0:0:
244,68,98342,1,0,1:0:0:0:
244,68,98675,6,2,P|188:60|144:40,1,105.000000447034,6|0,0:0|2:0,0:0:0:0:
144,40,99009,2,0,L|39:51,1,105.000000447034,2|0,0:0|0:0,0:0:0:0:
39,51,99342,1,4,0:2:0:0:
0,164,99509,1,2,0:0:0:0:
116,140,99675,1,0,0:0:0:0:
80,248,99842,6,2,P|76:300|94:349,1,105.000000447034,2|0,0:0|2:0,0:0:0:0:
84,344,100175,2,2,L|224:336,1,140.000000596046
344,244,100675,2,0,L|324:312,1,70.000000298023,4|2,0:2|0:0,0:0:0:0:
244,192,101009,1,0,0:0:0:0:
340,128,101175,6,2,L|456:148,1,105.000000447034,2|0,0:0|2:0,0:0:0:0:
464,216,101509,2,0,L|484:220,4,17.5000000745057,0|0|0|0|2,0:0|0:0|0:0|0:0|0:0,0:0:0:0:
344,244,101842,1,0,2:0:0:0:
344,244,102009,2,0,L|272:232,1,70.000000298023,4|2,0:2|0:0,0:0:0:0:
144,332,102342,2,0,L|184:272,1,70.000000298023,0|2,0:0|0:0,0:0:0:0:
208,172,102675,5,0,0:0:0:0:
208,172,102842,2,0,L|68:148,1,140.000000596046,2|2,0:0|0:0,0:0:0:0:
216,72,103342,2,0,L|284:84,1,70.000000298023,4|2,0:2|0:0,0:0:0:0:
284,84,103592,1,0,0:0:0:0:
284,84,103675,1,0,0:0:0:0:
348,184,103842,1,0,0:0:0:0:
445,213,104009,6,0,P|441:159|420:106,1,105.000000447034,6|0,0:0|2:0,0:0:0:0:
348,184,104342,2,0,P|324:232|316:288,1,105.000000447034,2|0,0:0|0:0,0:0:0:0:
316,282,104675,1,4,0:2:0:0:
468,336,104842,1,2,0:0:0:0:
316,282,105009,1,0,2:0:0:0:
468,336,105175,5,2,2:1:0:0:
172,324,105509,2,0,L|28:336,1,140.000000596046,2|2,0:0|0:0,0:0:0:0:
72,224,106009,2,0,L|60:156,1,70.000000298023,4|2,0:2|0:0,0:0:0:0:
144,68,106342,1,0,0:0:0:0:
144,68,106509,2,0,L|184:64,2,35.0000001490115,2|0|0,0:0|0:0|0:0,0:0:0:0:
392,108,107009,5,0,0:0:0:0:
404,212,107175,1,0,0:0:0:0:
308,168,107342,1,4,0:2:0:0:
392,108,107509,2,0,L|461:98,1,70.000000298023
316,176,107842,1,0,0:0:0:0:
316,176,107925,1,0,0:0:0:0:
316,176,108009,6,2,L|208:164,1,105.000000447034,2|0,0:0|2:0,0:0:0:0:
132,140,108342,2,0,P|120:192|120:244,1,105.000000447034,2|0,0:0|2:0,0:0:0:0:
120,320,108675,2,2,L|192:312,1,70.000000298023,0|0,0:0|0:0,0:0:0:0:
189,312,108925,1,0,0:0:0:0:
189,312,109009,1,2,0:0:0:0:
316,328,109175,1,0,2:0:0:0:
440,336,109342,5,6,2:0:0:0:
440,336,109675,2,0,P|456:284|448:232,1,105.000000447034,6|0,0:0|2:0,0:0:0:0:
452,220,110009,2,0,L|376:228,1,70.000000298023,4|2,0:2|0:0,0:0:0:0:
280,236,110342,1,0,0:0:0:0:
184,184,110509,6,2,B|152:180|152:180|84:204,1,105.000000447034,2|0,0:0|2:0,0:0:0:0:
76,192,110842,2,0,L|89:332,1,140.000000596046,2|2,0:0|0:0,0:0:0:0:
272,336,111342,2,0,L|204:324,1,70.000000298023,4|2,0:2|0:0,0:0:0:0:
304,240,111675,1,0,0:0:0:0:
304,240,111842,6,0,L|416:260,1,105.000000447034,2|0,0:0|2:0,0:0:0:0:
468,304,112175,2,0,L|460:336,4,17.5000000745057,0|0|0|0|2,0:0|0:0|0:0|0:0|0:0,0:0:0:0:
424,156,112509,1,0,0:0:0:0:
424,156,112675,2,0,L|440:80,1,70.000000298023,4|2,0:2|0:0,0:0:0:0:
316,36,113009,1,0,0:0:0:0:
192,88,113175,6,0,L|52:64,2,140.000000596046,2|2|2,0:0|0:0|0:0,0:0:0:0:
284,144,114009,2,0,L|368:136,1,70.000000298023,4|2,0:2|0:0,0:0:0:0:
353,137,114259,1,0,0:0:0:0:
353,137,114342,1,0,0:0:0:0:
444,220,114509,1,0,0:0:0:0:
464,112,114675,5,2,0:0:0:0:
464,112,115342,2,0,L|444:212,1,70.000000298023,4|2,0:2|0:0,0:0:0:0:
384,272,115675,1,0,0:0:0:0:
268,240,115842,2,2,P|224:224|156:228,1,105.000000447034,2|0,0:0|2:0,0:0:0:0:
84,252,116175,2,0,B|56:208|56:208|64:120,1,140.000000596046,2|2,0:0|0:0,0:0:0:0:
217,40,116675,2,0,L|148:48,1,70.000000298023,4|2,0:2|0:0,0:0:0:0:
232,152,117009,2,0,L|305:143,1,70.000000298023,0|2,0:0|0:0,0:0:0:0:
420,224,117342,5,4,0:0:0:0:
364,360,117592,1,0,0:0:0:0:
364,360,117675,1,0,0:0:0:0:
292,284,117842,1,4,0:0:0:0:
492,300,118092,1,0,0:0:0:0:
492,300,118175,1,0,0:0:0:0:
308,136,118342,5,0,0:0:0:0:
284,132,118425,1,0,0:0:0:0:
260,128,118509,1,0,0:0:0:0:
236,124,118592,1,0,0:0:0:0:
212,120,118675,1,4,0:0:0:0:
256,192,118759,12,0,119675,0:0:0:0:
256,192,120009,5,4,0:0:0:0:
