osu file format v14

[General]
AudioFilename: audio.mp3
AudioLeadIn: 0
PreviewTime: 54675
Countdown: 0
SampleSet: Soft
StackLeniency: 0.2
Mode: 0
LetterboxInBreaks: 0
WidescreenStoryboard: 0

[Editor]
DistanceSpacing: 0.5
BeatDivisor: 8
GridSize: 32
TimelineZoom: 2.900005

[Metadata]
Title:Calling
TitleUnicode:Calling
Artist:Zekk
ArtistUnicode:Zekk
Creator:NeilPerry
Version:Regou's Extra
Source:
Tags:Future Bass Abstract Dubstep Drumstep wub den0saur winber1 komore regou hotdog mirash pandahero reiji-rj
BeatmapID:1430822
BeatmapSetID:673878

[Difficulty]
HPDrainRate:6
CircleSize:4
OverallDifficulty:8.5
ApproachRate:9.4
SliderMultiplier:2.79999990463257
SliderTickRate:1

[Events]
//Background and Video events
0,0,"zekk2.jpg",0,0
//Break Periods
2,77542,82135
//Storyboard Layer 0 (Background)
//Storyboard Layer 1 (Fail)
//Storyboard Layer 2 (Pass)
//Storyboard Layer 3 (Foreground)
//Storyboard Sound Samples

[TimingPoints]
2676,333.333333333333,4,2,3,30,1,0
13342,-250,4,2,3,30,0,0
23009,-100,4,2,1,40,0,0
23175,-100,4,2,1,50,0,0
23342,-200,4,2,1,60,0,0
23425,-200,4,2,1,5,0,0
23509,-200,4,2,1,60,0,0
23592,-200,4,2,1,5,0,0
23675,-200,4,2,1,70,0,0
23759,-200,4,2,1,5,0,0
23842,-200,4,2,1,70,0,0
23925,-200,4,2,1,5,0,0
24009,-200,4,2,1,60,0,0
24675,-200,4,2,4,60,0,0
25009,-200,4,2,3,60,0,0
25509,-200,4,2,1,60,0,0
26009,-200,4,2,4,60,0,0
26175,-200,4,2,3,60,0,0
26675,-200,4,2,4,60,0,0
28842,-200,4,2,3,60,0,0
29009,-200,4,2,2,60,0,0
29342,-200,4,2,4,60,0,0
30342,-200,4,2,3,60,0,0
31342,-200,4,2,4,60,0,0
31509,-200,4,2,3,60,0,0
32009,-200,4,2,4,60,0,0
33175,-200,4,2,1,60,0,0
33342,-200,4,2,3,60,0,0
33675,-200,4,2,4,60,0,0
34175,-200,4,2,3,60,0,0
34675,-200,4,2,2,60,0,0
35342,-200,4,2,4,60,0,0
35675,-200,4,2,3,60,0,0
36175,-200,4,2,2,60,0,0
36675,-200,4,2,4,60,0,0
36842,-200,4,2,3,60,0,0
37342,-200,4,2,1,60,0,0
37842,-200,4,2,3,60,0,0
38009,-200,4,2,4,60,0,0
39509,-100,4,2,2,60,0,0
40009,-200,4,2,4,60,0,0
42175,-111.111111111111,4,2,1,60,0,0
42675,-200,4,2,1,60,0,0
43342,-100,4,2,1,60,0,0
44175,-200,4,2,1,60,0,0
44342,-200,4,1,0,60,0,0
44675,-200,4,2,2,60,0,0
45342,-100,4,2,3,70,0,0
45675,-133.333333333333,4,2,1,70,0,0
48009,-133.333333333333,4,2,1,70,0,0
50342,-100,4,2,1,70,0,0
53342,-100,4,1,0,30,0,0
53675,-100,4,1,0,45,0,0
54009,-100,4,1,0,60,0,0
54342,-100,4,1,0,70,0,0
54675,-1000,4,2,2,70,0,0
55175,-100,4,2,2,70,0,0
55717,-100,4,2,0,70,0,0
56009,-43.4782608695652,4,2,1,80,0,1
56675,-500,4,2,1,80,0,1
57509,-43.4782608695652,4,2,1,80,0,1
58842,-500,4,2,1,80,0,1
59009,-43.4782608695652,4,2,1,80,0,1
59342,-500,4,2,1,80,0,1
60175,-43.4782608695652,4,2,1,80,0,1
62009,-500,4,2,1,80,0,1
62842,-43.4782608695652,4,2,1,80,0,1
64342,-500,4,2,1,80,0,1
65342,-43.4782608695652,4,2,1,80,0,1
67342,-500,4,2,1,80,0,1
68175,-43.4782608695652,4,2,1,80,0,1
69509,-500,4,2,1,80,0,1
69675,-43.4782608695652,4,2,1,80,0,1
70009,-500,4,2,1,80,0,1
70842,-43.4782608695652,4,2,1,80,0,1
71675,-500,4,2,1,80,0,1
73509,-43.4782608695652,4,2,1,80,0,1
76342,-500,4,2,1,80,0,1
77009,-43.4782608695652,4,2,1,80,0,1
77342,-43.4782608695652,4,2,1,70,0,0
77675,-200,4,2,1,70,0,0
82675,-200,4,2,1,30,0,0
86675,-200,4,2,1,60,0,0
87342,-161.290322580645,4,2,1,80,0,0
88009,-161.290322580645,4,2,3,30,0,0
88342,-133.333333333333,4,2,1,70,0,0
90342,-100,4,2,1,70,0,0
90675,-133.333333333333,4,2,1,70,0,0
91842,-200,4,2,1,70,0,0
92509,-100,4,2,1,70,0,0
96009,-100,4,1,0,30,0,0
96342,-100,4,1,0,45,0,0
96675,-100,4,1,0,60,0,0
97009,-100,4,1,0,70,0,0
97342,-1000,4,2,3,70,0,0
98342,-43.4782608695652,4,2,1,70,0,0
98675,-66.6666666666667,4,2,1,80,0,1
100175,-66.6666666666667,4,2,1,80,0,1
100842,-43.4782608695652,4,2,1,80,0,1
101509,-500,4,2,1,80,0,1
101675,-66.6666666666667,4,2,1,80,0,1
103509,-43.4782608695652,4,2,1,80,0,1
104009,-66.6666666666667,4,2,1,80,0,1
105175,-500,4,2,1,80,0,1
105509,-43.4782608695652,4,2,1,80,0,1
106675,-66.6666666666667,4,2,1,80,0,1
107342,-43.4782608695652,4,2,1,80,0,1
108009,-66.6666666666667,4,2,1,80,0,1
109175,-200,4,2,1,80,0,1
109675,-66.6666666666667,4,2,1,80,0,1
110509,-500,4,2,1,80,0,1
110842,-66.6666666666667,4,2,1,80,0,1
111009,-500,4,2,1,80,0,1
111175,-66.6666666666667,4,2,1,80,0,1
111509,-43.4782608695652,4,2,1,80,0,1
112175,-500,4,2,1,80,0,1
112342,-43.4782608695652,4,2,1,80,0,1
113509,-43.4782608695652,4,2,1,80,0,1
114675,-500,4,2,1,80,0,1
115342,-66.6666666666667,4,2,1,80,0,1
116675,-43.4782608695652,4,2,1,80,0,1
120009,-100,4,2,1,70,0,0

[Colours]
Combo1 : 255,255,81
Combo2 : 168,168,168
Combo3 : 113,120,138
Combo4 : 205,37,87
Combo5 : 226,152,69
Combo6 : 36,184,255

[HitObjects]
18,154,13342,6,0,P|15:99|6:34,2,111.999996185303,0|0|0,1:3|0:0|3:0,0:0:0:0:
86,215,14175,2,0,P|147:220|211:240,1,111.999996185303,0|0,0:0|0:0,0:0:0:0:
195,233,14675,1,0,0:0:0:0:
381,49,15009,6,0,P|342:55|299:57,1,55.9999980926514,0|0,0:0|0:0,0:0:0:0:
326,56,15259,1,0,0:0:0:0:
326,56,15342,1,0,3:0:0:0:
236,19,15509,2,0,P|227:76|237:139,1,111.999996185303,0|0,0:0|0:0,0:0:0:0:
289,210,16009,70,0,P|375:203|478:298,1,223.999992370606,0|0,0:0|3:0,0:0:0:0:
367,362,17009,5,0,0:0:0:0:
367,362,17175,2,0,P|286:376|211:333,1,167.999994277954,0|0,0:0|0:0,0:0:0:0:
201,247,17842,1,0,0:0:0:0:
122,292,18009,2,0,P|65:278|12:310,1,111.999996185303,0|0,3:0|0:0,0:0:0:0:
19,301,18425,1,0,0:0:0:0:
19,301,18509,1,0,0:0:0:0:
43,163,18675,70,0,P|35:113|28:65,2,83.9999971389771,0|0|0,0:0|0:0|0:0,0:0:0:0:
135,104,19342,2,0,P|127:165|126:219,1,111.999996185303,0|0,3:0|0:0,0:0:0:0:
304,37,20009,5,0,0:0:0:0:
304,37,20175,2,0,P|364:47|426:61,1,111.999996185303,0|0,0:0|0:0,0:0:0:0:
497,80,20592,1,0,0:0:0:0:
497,80,20675,2,0,L|505:129,3,27.9999990463257,0|0|0|0,3:0|0:0|0:0|0:0,0:0:0:0:
427,137,21009,2,0,L|435:186,3,27.9999990463257,0|0|0|0,0:0|0:0|0:0|0:0,0:0:0:0:
348,182,21342,70,0,P|361:287|364:370,1,167.999994277954,0|0,0:0|0:0,0:0:0:0:
363,349,22009,2,0,P|433:356|477:323,1,111.999996185303,0|0,3:0|0:0,0:0:0:0:
221,349,22675,5,8,3:3:0:0:
221,349,22842,1,0,3:0:0:0:
221,349,23009,1,0,3:0:0:0:
221,349,23175,1,0,3:0:0:0:
221,349,23342,70,0,L|230:297,1,34.9999988079071,0|0,3:0|0:0,0:0:0:0:
221,349,23509,2,0,L|206:315,1,34.9999988079071,0|0,3:0|0:0,0:0:0:0:
221,349,23675,2,0,L|186:332,1,34.9999988079071,8|0,3:2|0:0,0:0:0:0:
221,349,23842,2,0,L|184:365,1,34.9999988079071,8|0,3:2|0:0,0:0:0:0:
98,358,24009,54,0,P|87:285|70:193,2,139.999995231629,4|0|8,1:0|0:0|0:0,0:0:0:0:
0,275,24842,1,0,0:0:0:0:
0,275,25009,2,0,P|3:317|4:369,1,69.9999976158143,0|0,1:0|0:0,0:0:0:0:
120,142,25342,6,0,P|123:101|123:68,1,69.9999976158143,0|0,0:0|1:0,0:0:0:0:
75,219,25675,2,0,P|119:181|204:197,1,139.999995231629,0|8,0:0|0:0,0:0:0:0:
259,251,26175,2,0,P|296:258|332:247,1,69.9999976158143,0|0,1:0|1:0,0:0:0:0:
286,174,26509,1,0,0:0:0:0:
488,331,26675,70,0,P|500:259|507:171,2,139.999995231629,0|0|8,1:0|0:0|0:0,0:0:0:0:
411,237,27509,1,0,0:0:0:0:
411,237,27675,2,0,P|411:289|406:327,1,69.9999976158143,0|0,0:0|1:0,0:0:0:0:
415,150,28009,6,0,B|328:137|364:174|273:159,1,139.999995231629,0|0,0:0|1:0,0:0:0:0:
170,42,28509,1,0,0:0:0:0:
170,42,28675,2,0,P|201:68|214:100,1,69.9999976158143,8|0,0:0|1:0,0:0:0:0:
175,246,29009,2,0,P|182:205|202:178,1,69.9999976158143,12|0,0:0|0:0,0:0:0:0:
301,368,29342,69,0,1:0:0:0:
301,368,29675,2,0,P|318:297|345:216,2,139.999995231629,0|8|0,0:0|0:0|1:0,0:0:0:0:
221,327,30509,2,0,P|179:335|151:349,1,69.9999976158143,0|0,0:0|0:0,0:0:0:0:
12,199,30842,5,0,1:0:0:0:
12,199,31009,2,0,P|63:259|133:254,1,139.999995231629,0|8,0:0|0:0,0:0:0:0:
169,197,31509,1,0,1:0:0:0:
169,197,31675,2,0,P|209:201|241:213,1,69.9999976158143,0|0,0:0|1:0,0:0:0:0:
424,263,32009,69,0,1:0:0:0:
424,263,32342,2,0,P|412:192|415:103,2,139.999995231629,0|8|0,0:0|0:0|0:0,0:0:0:0:
451,343,33175,1,0,1:0:0:0:
372,323,33342,2,0,P|333:333|302:355,1,69.9999976158143,0|0,1:0|1:0,0:0:0:0:
308,349,33675,1,0,1:0:0:0:
223,36,34009,5,8,0:0:0:0:
139,45,34175,1,0,1:0:0:0:
56,56,34342,2,0,P|62:99|68:140,1,69.9999976158143,0|0,1:0|0:0,0:0:0:0:
4,223,34675,70,0,P|66:211|127:269,1,139.999995231629,12|0,1:2|0:0,0:0:0:0:
190,207,35175,1,0,0:0:0:0:
190,207,35342,2,0,P|230:205|261:198,1,69.9999976158143,8|0,0:0|0:0,0:0:0:0:
200,288,35675,2,0,P|192:328|191:364,1,69.9999976158143,0|0,1:0|0:0,0:0:0:0:
347,179,36009,5,0,0:0:0:0:
347,179,36175,1,0,1:0:0:0:
347,179,36342,2,0,P|357:108|364:14,1,139.999995231629,0|8,0:0|0:0,0:0:0:0:
433,204,36842,1,0,1:0:0:0:
433,204,37009,2,0,P|475:227|511:237,1,69.9999976158143,0|0,1:0|0:0,0:0:0:0:
261,147,37342,70,0,P|199:130|112:167,1,139.999995231629,0|0,1:0|0:0,0:0:0:0:
58,205,37842,1,0,1:0:0:0:
58,205,38009,2,0,P|56:249|41:288,1,69.9999976158143,8|0,0:0|0:0,0:0:0:0:
52,121,38342,2,0,P|44:84|44:45,1,69.9999976158143,0|0,0:0|1:0,0:0:0:0:
162,295,38675,5,0,0:0:0:0:
162,295,38842,1,0,0:0:0:0:
162,295,39009,2,0,L|314:311,1,139.999995231629,0|8,1:0|0:0,0:0:0:0:
505,350,39509,70,0,P|459:345|414:331,1,69.9999976158143,8|0,0:0|0:0,0:0:0:0:
305,233,39675,1,8,0:0:0:0:
305,233,39759,1,0,0:0:0:0:
305,233,39842,1,0,3:0:0:0:
305,233,39925,1,0,3:0:0:0:
305,233,40009,6,0,P|291:159|278:78,1,139.999995231629,0|0,1:0|0:0,0:0:0:0:
380,193,40509,1,0,0:0:0:0:
380,193,40675,2,0,P|390:147|400:114,1,69.9999976158143,8|0,0:0|0:0,0:0:0:0:
443,249,41009,2,0,P|462:217|483:187,1,69.9999976158143,0|0,0:0|0:0,0:0:0:0:
219,32,41342,69,0,3:0:0:0:
219,32,41425,1,0,3:0:0:0:
219,32,41509,2,0,P|218:73|223:115,1,69.9999976158143,0|0,1:0|0:0,0:0:0:0:
170,253,41842,2,0,P|171:212|166:170,1,69.9999976158143,0|0,1:0|0:0,0:0:0:0:
250,371,42175,6,0,P|251:336|254:306,1,62.9999959316255,0|0,1:0|0:0,0:0:0:0:
0,304,42342,1,0,3:0:0:0:
0,304,42425,1,0,3:0:0:0:
0,304,42509,1,0,3:0:0:0:
0,304,42592,1,0,3:0:0:0:
0,304,42675,70,0,P|40:312|83:331,1,69.9999976158143,0|0,1:0|0:0,0:0:0:0:
23,174,43009,2,0,P|51:209|62:241,1,69.9999976158143,0|0,1:0|0:0,0:0:0:0:
305,372,43342,6,0,P|266:310|292:219,1,139.999995231629,0|0,1:0|0:0,0:0:0:0:
187,219,43592,2,0,P|209:139|275:93,1,139.999995231629,0|0,1:0|0:0,0:0:0:0:
201,31,43842,2,0,P|236:9|268:5,1,69.9999976158143,0|0,1:0|0:0,0:0:0:0:
416,310,44009,70,0,L|424:232,1,69.9999976158143,0|0,1:0|0:0,0:0:0:0:
431,152,44175,2,0,L|435:105,5,34.9999988079071,0|0|0|0|0|0,1:0|0:0|0:0|0:0|0:0|0:0,0:0:0:0:
439,257,44675,5,0,1:0:0:0:
439,257,44759,1,0,3:0:0:0:
439,257,44842,1,0,1:0:0:0:
439,257,44925,1,0,3:0:0:0:
439,257,45009,2,0,P|372:226|291:232,1,139.999995231629,8|0,0:0|1:0,0:0:0:0:
215,331,45675,70,0,P|216:357|230:400,1,52.5000002145768,4|0,1:0|0:0,0:0:0:0:
198,315,45842,2,0,P|192:333|188:389,1,52.5000002145768,0|0,0:0|0:0,0:0:0:0:
50,291,46009,6,0,P|49:317|35:360,1,52.5000002145768,0|0,1:0|0:0,0:0:0:0:
67,275,46176,2,0,P|73:293|77:349,1,52.5000002145768,0|0,0:0|0:0,0:0:0:0:
162,175,46342,70,0,P|163:201|177:244,1,52.5000002145768,0|0,1:0|0:0,0:0:0:0:
145,159,46509,2,0,P|139:177|135:233,1,52.5000002145768,0|0,0:0|0:0,0:0:0:0:
16,73,46675,6,0,L|79:63,1,52.5000002145768,0|0,1:0|0:0,0:0:0:0:
35,49,46842,2,0,L|98:39,1,52.5000002145768,0|0,0:0|0:0,0:0:0:0:
158,79,47009,70,0,L|221:69,1,52.5000002145768,0|0,1:0|0:0,0:0:0:0:
177,55,47176,2,0,L|240:45,1,52.5000002145768,0|0,0:0|0:0,0:0:0:0:
314,77,47342,5,0,1:0:0:0:
314,77,47425,1,0,0:0:0:0:
314,77,47509,2,0,L|376:70,1,52.5000002145768
325,153,47675,2,0,L|393:146,1,52.5000002145768,0|0,1:0|0:0,0:0:0:0:
336,232,47842,2,0,L|402:224,1,52.5000002145768,0|0,2:0|0:0,0:0:0:0:
478,252,48009,70,0,P|484:191|494:133,1,105.000000429154,0|0,1:0|0:0,0:0:0:0:
370,306,48342,6,0,P|372:349|377:371,1,52.5000002145768,0|0,1:0|0:0,0:0:0:0:
347,323,48509,2,0,P|353:360|361:381,1,52.5000002145768,0|0,0:0|0:0,0:0:0:0:
241,339,48675,70,0,P|243:296|248:274,1,52.5000002145768,0|0,1:0|0:0,0:0:0:0:
218,323,48842,2,0,P|224:286|232:265,1,52.5000002145768,0|0,0:0|0:0,0:0:0:0:
105,307,49009,6,0,P|107:350|112:372,1,52.5000002145768,0|0,1:0|0:0,0:0:0:0:
82,323,49176,2,0,P|88:360|96:381,1,52.5000002145768,0|0,0:0|0:0,0:0:0:0:
162,50,49342,69,0,1:0:0:0:
0,187,49509,1,0,0:0:0:0:
18,34,49675,5,0,1:0:0:0:
138,209,49842,1,0,0:0:0:0:
85,96,50009,69,0,1:0:0:0:
85,96,50092,1,0,0:0:0:0:
85,96,50175,2,0,P|80:131|86:164,1,52.5000002145768,8|0,0:0|0:0,0:0:0:0:
297,253,50342,2,0,B|179:224|219:314|89:286,1,209.999992847443,8|0,1:2|0:0,0:0:0:0:
13,265,50675,5,8,1:3:0:0:
4,351,50842,1,0,0:0:0:0:
98,287,51009,69,0,3:0:0:0:
103,366,51175,1,0,3:0:0:0:
499,265,51342,5,0,3:0:0:0:
508,351,51509,1,0,3:0:0:0:
414,287,51676,69,0,3:0:0:0:
409,366,51842,1,0,3:0:0:0:
198,30,52009,5,0,3:0:0:0:
349,290,52175,1,0,3:0:0:0:
314,30,52342,69,0,3:0:0:0:
159,290,52509,1,0,3:0:0:0:
179,105,52675,5,0,3:0:0:0:
368,368,52842,1,0,3:0:0:0:
333,104,53009,69,0,3:0:0:0:
140,368,53175,1,0,3:0:0:0:
256,169,53342,21,0,0:0:0:0:
256,175,53425,1,0,0:0:0:0:
256,182,53509,1,0,0:0:0:0:
256,188,53592,1,0,0:0:0:0:
256,194,53675,1,0,0:0:0:0:
256,201,53759,1,0,0:0:0:0:
256,207,53842,1,0,0:0:0:0:
256,213,53925,1,0,0:0:0:0:
256,220,54009,1,0,0:0:0:0:
256,226,54092,1,0,0:0:0:0:
256,232,54175,1,0,0:0:0:0:
256,239,54259,1,0,0:0:0:0:
256,245,54342,1,0,0:0:0:0:
256,251,54425,1,0,0:0:0:0:
256,258,54509,1,0,0:0:0:0:
256,264,54592,1,0,0:0:0:0:
256,271,54675,6,0,L|257:309,1,34.9999988079071,0|0,1:0|2:0,0:0:0:0:
311,372,55175,70,0,P|245:347|160:344,1,139.999995231629,2|0,0:1|0:0,0:0:0:0:
80,359,55425,1,0,0:0:0:0:
59,377,55509,2,0,P|32:364|34:313,1,69.9999976158143
118,233,55675,2,0,L|113:280,1,34.9999988079071,0|0,0:0|2:0,0:0:0:0:
78,40,56009,22,0,B|88:29|84:-6|103:-16|122:-7|130:7|131:21|112:45|89:56|72:71|0:64|-57:149|-47:227|-2:272|89:315|171:295|208:206|228:135|203:66|129:66|96:162,1,643.999990348816,6|0,1:0|1:0,0:0:0:0:
167,367,56509,2,2,P|229:345|179:268,1,160.999997587204,0|0,3:0|3:0,0:0:0:0:
95,162,56675,6,0,L|111:161,1,13.9999995231629,8|0,3:2|0:0,0:0:0:0:
129,229,56842,2,0,L|145:223,1,13.9999995231629,0|0,1:0|0:0,0:0:0:0:
202,270,57009,2,0,L|206:253,1,13.9999995231629
279,282,57175,2,0,L|281:265,2,13.9999995231629,0|0|0,0:0|0:0|3:0,0:0:0:0:
494,201,57509,70,0,P|477:277|469:363,1,160.999997587204,0|0,1:0|0:0,0:0:0:0:
315,5,57675,2,0,P|377:146|381:326,1,321.999995174408,0|0,0:0|1:0,0:0:0:0:
393,319,57925,1,0,0:0:0:0:
393,319,58009,2,0,P|409:242|418:157,1,160.999997587204,8|0,0:0|0:0,0:0:0:0:
17,40,58175,6,0,P|1:132|0:213,1,160.999997587204,2|0,3:1|0:0,0:0:0:0:
149,339,58342,2,0,P|125:263|112:184,1,160.999997587204,2|0,3:1|0:0,0:0:0:0:
241,239,58509,2,0,P|287:319|339:382,1,160.999997587204,2|0,1:0|0:0,0:0:0:0:
329,372,58675,1,0,0:0:0:0:
473,97,58842,38,0,L|476:87,2,6.99999976158143,0|0|0,1:0|0:0|3:0,0:0:0:0:
347,23,59009,22,0,B|437:52|516:166|467:300|406:331|305:262|325:182|436:105,1,482.999992761612,4|0,1:0|0:0,0:0:0:0:
473,97,59342,6,0,L|490:97,1,13.9999995231629,8|0,0:0|0:0,0:0:0:0:
314,99,59509,2,0,L|330:99,1,13.9999995231629,0|0,1:0|0:0,0:0:0:0:
148,117,59675,69,0,0:0:0:0:
155,124,59759,1,0,0:0:0:0:
155,124,59842,1,0,1:2:0:0:
2,94,60009,2,0,L|19:94,1,13.9999995231629,0|0,3:0|0:0,0:0:0:0:
123,208,60175,6,0,B|214:203|271:143|218:33|150:30|41:121|52:259|116:329,1,482.999992761612,0|0,1:0|0:0,0:0:0:0:
22,350,60509,2,0,B|108:347|73:373|199:368,1,160.999997587204,0|0,1:0|0:0,0:0:0:0:
367,279,60675,69,8,0:0:0:0:
342,312,60759,1,0,0:0:0:0:
302,322,60842,1,0,3:0:0:0:
260,313,60925,1,0,3:0:0:0:
295,245,61009,6,0,P|276:183|325:89,1,160.999997587204,0|0,3:0|0:0,0:0:0:0:
185,52,61175,2,0,P|242:82|274:183,1,160.999997587204,0|0,3:0|0:0,0:0:0:0:
427,315,61342,70,0,B|500:349|583:316|589:257|528:166|446:169|393:244|400:314|324:351|246:306,1,482.999992761612,0|0,1:0|0:0,0:0:0:0:
89,250,61675,2,0,B|27:257|-9:220|15:157|68:151|125:154|170:171|218:259|228:305,1,321.999995174408,6|0,1:0|0:0,0:0:0:0:
267,320,61925,1,0,0:0:0:0:
267,320,62009,6,0,L|274:337,1,13.9999995231629,8|0,0:0|0:0,0:0:0:0:
204,252,62175,2,0,L|208:270,1,13.9999995231629,0|0,1:0|0:0,0:0:0:0:
188,170,62342,2,0,L|194:183,1,13.9999995231629
199,81,62509,2,0,L|201:98,2,13.9999995231629
9,211,62842,70,0,P|17:137|11:40,1,160.999997587204,0|0,1:0|0:0,0:0:0:0:
179,380,63009,2,0,P|119:293|132:55,1,321.999995174408,0|0,0:0|1:0,0:0:0:0:
118,83,63259,1,0,0:0:0:0:
123,89,63342,2,0,P|115:163|121:260,1,160.999997587204,8|0,0:0|0:0,0:0:0:0:
491,47,63509,6,0,P|507:139|508:220,1,160.999997587204,2|0,3:1|0:0,0:0:0:0:
361,346,63676,2,0,P|385:270|398:191,1,160.999997587204,2|0,3:1|0:0,0:0:0:0:
267,246,63843,2,0,P|221:326|169:389,1,160.999997587204,2|0,1:0|0:0,0:0:0:0:
4,29,64008,69,0,1:0:0:0:
8,28,64091,1,0,3:0:0:0:
11,27,64175,1,0,3:0:0:0:
15,26,64258,1,0,3:0:0:0:
93,12,64342,6,0,L|109:13,1,13.9999995231629,0|0,1:0|3:0,0:0:0:0:
195,141,64509,2,0,L|211:141,1,13.9999995231629,0|0,1:0|0:0,0:0:0:0:
164,57,64675,70,0,L|175:70,1,13.9999995231629,12|0,0:0|0:0,0:0:0:0:
148,215,64842,2,0,L|159:227,1,13.9999995231629,0|0,1:0|0:0,0:0:0:0:
111,128,65009,6,0,L|119:140,1,13.9999995231629
92,278,65176,2,0,L|102:293,1,13.9999995231629,0|0,3:0|3:0,0:0:0:0:
277,364,65342,70,0,B|399:391|468:322|425:248|375:215|273:246|345:409|68:346,1,482.999992761612,0|0,1:0|3:0,0:0:0:0:
0,59,65675,2,0,P|24:118|39:230,1,160.999997587204,0|0,1:0|3:0,0:0:0:0:
92,278,65842,2,0,P|116:208|116:107,1,160.999997587204,0|0,3:0|3:0,0:0:0:0:
166,1,66008,2,0,P|190:60|205:172,1,160.999997587204,0|0,1:0|0:0,0:0:0:0:
265,218,66175,2,0,P|289:148|289:47,1,160.999997587204,0|0,1:0|0:0,0:0:0:0:
376,186,66342,5,0,0:0:0:0:
382,187,66425,1,0,0:0:0:0:
388,188,66509,1,0,0:0:0:0:
394,189,66592,1,0,0:0:0:0:
400,191,66675,1,0,0:0:0:0:
404,192,66759,1,0,0:0:0:0:
82,113,67009,70,0,B|96:125|113:124|129:108|148:65|142:25|55:-18|13:14|-36:53|-59:117|-20:201|42:218|76:178|132:189|147:269|90:366,1,482.999992761612,6|0,1:0|0:0,0:0:0:0:
45,274,67342,6,0,L|42:289,1,13.9999995231629,8|0,0:0|0:0,0:0:0:0:
117,310,67509,2,0,L|118:328,1,13.9999995231629,0|0,1:0|0:0,0:0:0:0:
192,285,67675,2,0,L|199:299,1,13.9999995231629,0|0,3:0|0:0,0:0:0:0:
227,218,67842,2,0,L|241:224,2,13.9999995231629,0|0|0,3:0|0:0|1:0,0:0:0:0:
413,383,68175,70,0,P|391:326|368:222,1,160.999997587204,0|0,1:0|0:0,0:0:0:0:
470,7,68342,2,0,P|438:161|482:330,1,321.999995174408,0|0,0:0|1:0,0:0:0:0:
484,325,68592,1,0,0:0:0:0:
483,325,68675,2,0,P|466:246|439:171,1,160.999997587204,8|0,0:0|0:0,0:0:0:0:
159,52,68842,6,0,P|79:93|-43:110,1,160.999997587204,2|0,3:1|0:0,0:0:0:0:
66,273,69009,2,0,P|124:217|166:149,1,160.999997587204,2|0,3:1|0:0,0:0:0:0:
233,219,69175,2,0,P|230:299|207:376,1,160.999997587204,2|0,1:0|0:0,0:0:0:0:
207,376,69342,1,2,0:0:0:0:
333,100,69509,38,0,L|332:94,2,6.99999976158143,0|0|0,1:0|0:0|3:0,0:0:0:0:
437,70,69675,22,0,B|290:136|323:331|352:363|449:358|481:337|506:269|455:211,1,482.999992761612,4|0,1:0|0:0,0:0:0:0:
181,212,70009,6,0,L|184:227,1,13.9999995231629,2|0,1:0|0:0,0:0:0:0:
181,267,70175,2,0,L|187:250,1,13.9999995231629,2|0,1:0|0:0,0:0:0:0:
209,226,70342,2,0,L|196:234,1,13.9999995231629,2|0,0:1|0:0,0:0:0:0:
164,241,70509,2,0,L|179:243,1,13.9999995231629,2|0,0:1|0:0,0:0:0:0:
209,258,70675,2,0,L|196:250,1,13.9999995231629
117,110,70842,70,0,B|127:219|6:233|-54:152|-32:60|91:25|180:61|229:96|256:150,1,482.999992761612,0|0,1:0|3:0,0:0:0:0:
166,361,71175,2,0,P|243:365|298:310,1,160.999997587204,0|0,1:0|3:0,0:0:0:0:
9,257,71342,5,12,0:0:0:0:
7,286,71425,1,0,0:0:0:0:
36,277,71509,1,0,3:0:0:0:
34,306,71592,1,0,3:0:0:0:
110,301,71675,70,0,L|125:295,1,13.9999995231629,0|0,3:0|0:0,0:0:0:0:
117,110,71842,2,0,L|134:105,1,13.9999995231629,0|0,3:0|0:0,0:0:0:0:
118,206,72009,1,0,1:0:0:0:
298,308,72342,54,2,L|296:323,3,13.9999995231629,0|0|0|0,0:0|0:0|0:0|0:0,0:0:0:0:
413,214,72675,38,0,L|427:210,1,13.9999995231629,12|0,0:0|0:0,0:0:0:0:
376,283,72842,2,0,L|382:297,1,13.9999995231629,0|0,1:0|0:0,0:0:0:0:
298,308,73009,2,0,L|296:327,1,13.9999995231629
219,299,73175,2,0,L|208:311,2,13.9999995231629
133,26,73509,70,0,P|138:110|150:196,1,160.999997587204,0|0,1:0|0:0,0:0:0:0:
3,370,73675,2,0,P|52:266|23:37,1,321.999995174408,0|0,0:0|1:0,0:0:0:0:
36,64,73925,1,0,0:0:0:0:
43,72,74009,2,0,P|48:156|60:242,1,160.999997587204,8|0,0:0|0:0,0:0:0:0:
399,15,74175,6,0,P|343:45|242:44,1,160.999997587204,2|0,3:1|0:0,0:0:0:0:
305,199,74342,2,0,P|378:168|429:107,1,160.999997587204,2|0,3:1|0:0,0:0:0:0:
504,169,74509,2,0,P|483:246|429:304,1,160.999997587204,2|0,1:0|0:0,0:0:0:0:
473,373,74675,69,0,1:0:0:0:
349,359,74842,1,0,3:0:0:0:
355,360,74925,1,0,1:0:0:0:
361,361,75009,1,12,0:0:0:0:
22,370,75175,5,0,1:0:0:0:
157,360,75342,1,0,3:0:0:0:
151,361,75425,1,0,1:0:0:0:
145,362,75509,1,8,0:0:0:0:
256,362,75675,37,0,0:0:0:0:
256,355,75759,1,0,0:0:0:0:
257,349,75842,1,0,3:0:0:0:
257,343,75925,1,0,3:0:0:0:
257,337,76009,1,0,1:0:0:0:
248,14,76175,22,0,B|233:106|274:84|253:180,1,160.999997587204,0|0,0:0|0:0,0:0:0:0:
255,253,76342,70,0,L|255:271,7,13.9999995231629
255,260,77009,22,0,B|113:181|111:18|247:-50|327:-21|357:95|320:168,1,482.999992761612,0|0,1:0|3:0,0:0:0:0:
257,337,77342,69,8,1:2:0:0:
161,319,82675,54,0,P|96:324|17:349,2,139.999995231629,0|0|0,0:0|0:0|0:0,0:0:0:0:
147,236,83509,2,0,P|152:197|152:141,1,69.9999976158143,0|0,0:0|0:0,0:0:0:0:
238,363,83842,6,0,P|299:319|377:328,1,139.999995231629,0|0,0:0|0:0,0:0:0:0:
361,321,84259,1,0,0:0:0:0:
361,321,84342,1,0,0:0:0:0:
359,231,84509,2,0,L|350:185,2,34.9999988079071,0|0|0,0:0|0:0|0:0,0:0:0:0:
441,277,84842,2,0,L|482:285,2,34.9999988079071,0|0|0,0:0|0:0|0:0,0:0:0:0:
317,21,85175,70,0,P|270:89|244:238,1,209.999992847443,0|0,0:0|0:0,0:0:0:0:
165,162,85842,1,0,0:0:0:0:
147,245,86009,2,0,P|90:236|34:229,2,104.999996423721,0|0|0,0:0|0:0|0:0,0:0:0:0:
228,346,86675,6,0,P|245:347|262:354,1,34.9999988079071,8|0,0:3|0:0,0:0:0:0:
229,345,86842,2,0,P|226:362|222:380,1,34.9999988079071
228,345,87009,2,0,P|211:343|195:337,1,34.9999988079071
228,345,87175,2,0,P|233:328|239:311,1,34.9999988079071
150,245,87342,69,0,0:0:0:0:
150,245,87425,1,0,0:0:0:0:
150,245,87509,2,0,P|172:227|196:221,1,43.3999968000032,0|0,0:0|0:0,0:0:0:0:
193,89,87675,2,0,P|220:92|242:104,1,43.3999968000032,8|0,0:0|0:0,0:0:0:0:
354,26,87842,2,0,P|371:48|378:72,1,43.3999968000032,8|0,0:0|0:0,0:0:0:0:
510,99,88009,5,0,1:0:0:0:
468,374,88342,38,0,P|470:341|476:309,1,52.5000002145768,4|0,1:0|0:0,0:0:0:0:
449,352,88509,2,0,P|450:324|459:290,1,52.5000002145768,0|0,0:0|0:0,0:0:0:0:
333,319,88675,6,0,P|331:286|325:254,1,52.5000002145768,0|0,1:0|0:0,0:0:0:0:
352,297,88842,2,0,P|351:269|342:235,1,52.5000002145768,0|0,0:0|0:0,0:0:0:0:
437,216,89009,70,0,P|439:183|445:151,1,52.5000002145768,0|0,1:0|0:0,0:0:0:0:
418,194,89176,2,0,P|419:166|428:132,1,52.5000002145768,0|0,0:0|0:0,0:0:0:0:
496,73,89342,6,0,L|433:63,1,52.5000002145768,0|0,1:0|0:0,0:0:0:0:
477,49,89509,2,0,L|414:39,1,52.5000002145768,0|0,0:0|0:0,0:0:0:0:
351,82,89675,70,0,L|288:72,1,52.5000002145768,0|0,1:0|0:0,0:0:0:0:
332,58,89842,2,0,L|269:48,1,52.5000002145768,0|0,0:0|0:0,0:0:0:0:
198,77,90009,5,0,1:0:0:0:
198,77,90092,1,0,0:0:0:0:
198,77,90176,2,0,L|136:70,1,52.5000002145768,0|0,0:0|0:0,0:0:0:0:
0,185,90342,70,2,P|85:172|215:175,1,209.999992847443,0|0,1:0|0:0,0:0:0:0:
208,175,90675,2,0,P|217:248|231:301,1,105.000000429154,0|0,1:0|0:0,0:0:0:0:
478,239,91009,6,0,P|492:207|495:181,1,52.5000002145768,0|0,1:0|0:0,0:0:0:0:
472,215,91175,2,0,P|473:185|462:154,1,52.5000002145768,0|0,0:0|0:0,0:0:0:0:
419,332,91342,70,0,P|439:360|460:375,1,52.5000002145768,0|0,1:0|0:0,0:0:0:0:
442,338,91508,2,0,P|467:353|499:359,1,52.5000002145768,0|0,0:0|0:0,0:0:0:0:
379,232,91675,6,0,P|344:235|320:246,1,52.5000002145768,0|0,1:0|0:0,0:0:0:0:
138,376,91842,70,0,P|132:326|130:300,1,69.9999976158143,0|0,0:0|1:0,0:0:0:0:
358,8,92175,2,0,P|364:58|366:84,1,69.9999976158143,0|0,0:0|1:0,0:0:0:0:
259,353,92509,5,0,0:0:0:0:
259,353,92592,1,0,0:0:0:0:
259,353,92675,2,0,P|256:308|250:264,1,69.9999976158143,0|0,1:0|0:0,0:0:0:0:
249,49,92842,2,0,P|251:93|258:138,1,69.9999976158143,8|0,0:0|0:0,0:0:0:0:
469,380,93009,2,0,P|424:334|328:317,1,139.999995231629,8|0,1:2|0:0,0:0:0:0:
64,351,93259,69,0,0:0:0:0:
64,351,93342,1,8,1:3:0:0:
21,277,93509,1,0,3:0:0:0:
116,273,93675,5,0,3:0:0:0:
91,190,93842,1,0,3:0:0:0:
448,351,94009,69,0,3:0:0:0:
491,277,94176,1,0,3:0:0:0:
402,271,94342,5,0,3:0:0:0:
421,190,94509,1,0,3:0:0:0:
180,367,94675,69,0,3:0:0:0:
346,92,94842,1,0,3:0:0:0:
332,367,95009,5,0,3:0:0:0:
160,91,95175,1,0,3:0:0:0:
170,287,95342,69,0,3:0:0:0:
356,13,95509,1,0,3:0:0:0:
342,287,95675,5,0,3:0:0:0:
160,13,95842,1,0,3:0:0:0:
256,215,96009,69,0,0:0:0:0:
256,209,96092,1,0,0:0:0:0:
256,202,96176,1,0,0:0:0:0:
256,196,96259,1,0,0:0:0:0:
256,190,96342,1,0,0:0:0:0:
256,183,96426,1,0,0:0:0:0:
256,177,96509,1,0,0:0:0:0:
256,171,96592,1,0,0:0:0:0:
256,164,96676,1,0,0:0:0:0:
256,158,96759,1,0,0:0:0:0:
256,152,96842,1,0,0:0:0:0:
256,145,96926,1,0,0:0:0:0:
256,139,97009,1,0,0:0:0:0:
256,133,97092,1,0,0:0:0:0:
256,126,97176,1,0,0:0:0:0:
256,120,97259,1,0,0:0:0:0:
253,47,97342,22,0,P|253:30|251:12,1,34.9999988079071,0|0,1:0|0:0,0:0:0:0:
262,42,97842,6,0,P|264:27|262:6,1,34.9999988079071,0|0,1:0|3:0,0:0:0:0:
256,126,98342,6,0,P|249:239|231:373,1,241.499996380806,0|0,1:0|0:0,0:0:0:0:
223,375,98509,2,0,P|210:377|229:348,1,80.499998793602,0|0,0:0|0:0,0:0:0:0:
366,54,98675,6,0,B|370:9|428:-32|485:6|510:79|471:132|406:161|406:161|346:189|351:264,2,420.000001716614,0|0|12,1:0|1:0|0:0,0:0:0:0:
406,351,99509,1,0,1:0:0:0:
406,351,99592,1,0,0:0:0:0:
411,353,99675,2,0,P|457:336|456:287,1,105.000000429154,0|0,3:0|3:0,0:0:0:0:
335,61,99842,69,0,3:0:0:0:
351,58,99925,1,0,3:0:0:0:
366,54,100009,1,0,3:0:0:0:
235,378,100175,6,0,B|226:282|206:164|206:164|226:214|256:284,1,315.000001287461,0|0,1:0|0:0,0:0:0:0:
398,319,100509,2,0,B|419:356|419:356|332:320,1,105.000000429154,0|0,1:0|0:0,0:0:0:0:
151,292,100675,2,0,P|192:260|244:255,1,105.000000429154,12|0,0:0|0:0,0:0:0:0:
17,348,100842,70,0,P|15:265|-2:136,1,160.999997587204,0|0,3:0|0:0,0:0:0:0:
23,119,101009,2,0,P|41:208|50:282,1,160.999997587204,0|0,3:0|0:0,0:0:0:0:
69,194,101175,2,0,P|54:112|25:31,1,160.999997587204,0|0,1:0|0:0,0:0:0:0:
28,38,101342,1,0,0:0:0:0:
245,249,101509,54,0,L|246:243,2,6.99999976158143,0|0|0,1:0|0:0|3:0,0:0:0:0:
158,290,101675,38,2,B|342:258|266:353|491:313,1,315.000001287461,0|0,1:0|0:0,0:0:0:0:
197,129,102009,2,0,P|257:164|308:169,1,105.000000429154,12|0,0:0|0:0,0:0:0:0:
344,105,102175,1,0,1:0:0:0:
352,97,102259,1,0,0:0:0:0:
434,140,102342,70,0,P|429:86|424:11,1,105.000000429154,0|0,3:0|3:0,0:0:0:0:
370,202,102509,2,0,P|366:254|364:307,1,105.000000429154,8|0,0:0|0:0,0:0:0:0:
364,307,102675,1,0,3:0:0:0:
0,78,102842,6,2,B|32:23|32:23|99:75|129:166|62:264,1,315.000001287461,0|0,1:0|0:0,0:0:0:0:
65,364,103175,2,0,P|13:349|15:303,1,105.000000429154,0|0,1:0|0:0,0:0:0:0:
177,213,103342,2,0,B|226:228|226:228|209:296,1,105.000000429154,8|0,0:0|0:0,0:0:0:0:
208,119,103509,69,0,3:0:0:0:
208,119,103592,1,0,3:0:0:0:
208,119,103675,2,0,P|203:198|214:290,1,160.999997587204,0|0,3:0|0:0,0:0:0:0:
182,373,103842,2,0,P|184:288|172:190,1,160.999997587204,0|0,3:0|0:0,0:0:0:0:
429,363,104009,6,0,B|479:383|552:333|567:280|504:225|423:246|387:299|387:299|353:352|274:331,2,420.000001716614,0|0|12,1:0|1:0|0:0,0:0:0:0:
343,109,104842,1,0,1:0:0:0:
343,109,104925,1,0,0:0:0:0:
343,109,105009,2,0,B|390:128|390:128|379:184,1,105.000000429154,0|0,3:0|0:0,0:0:0:0:
479,133,105175,38,2,L|484:174,1,41.9999985694886,0|0,0:0|0:0,0:0:0:0:
288,334,105509,22,0,B|391:290|380:180|380:180|307:193|190:243|162:376,1,482.999992761612,0|0,1:0|0:0,0:0:0:0:
10,342,105842,2,0,B|81:353|81:353|118:228,1,160.999997587204,0|0,1:0|0:0,0:0:0:0:
163,3,106009,1,12,0:0:0:0:
1,188,106175,6,0,P|69:169|173:150,1,160.999997587204,0|0,3:0|0:0,0:0:0:0:
238,124,106342,2,0,P|158:118|79:130,1,160.999997587204,0|0,3:0|0:0,0:0:0:0:
165,84,106509,2,0,P|246:100|322:133,1,160.999997587204,0|0,1:0|0:0,0:0:0:0:
490,357,106675,69,0,1:0:0:0:
489,349,106759,1,0,0:0:0:0:
487,342,106842,1,0,0:0:0:0:
486,333,106925,1,0,0:0:0:0:
427,262,107009,5,0,3:0:0:0:
426,255,107093,1,0,3:0:0:0:
425,249,107175,2,0,L|408:130,1,105.000000429154,0|0,1:0|0:0,0:0:0:0:
95,280,107342,70,2,B|-15:256|-15:256|207:282,1,321.999995174408,12|0,0:0|1:0,0:0:0:0:
397,369,107592,2,2,B|386:326|342:288|280:286|280:286|267:350|209:379|136:358,1,321.999995174408,0|0,0:0|0:0,0:0:0:0:
75,182,107842,2,0,B|119:142|119:142|18:150,1,160.999997587204,0|0,3:0|0:0,0:0:0:0:
115,37,108009,5,0,1:0:0:0:
123,39,108092,1,0,0:0:0:0:
130,41,108175,1,0,0:0:0:0:
136,42,108259,1,0,0:0:0:0:
203,94,108342,69,0,1:0:0:0:
211,96,108425,1,0,0:0:0:0:
218,98,108508,1,0,0:0:0:0:
224,99,108592,1,0,0:0:0:0:
292,149,108676,5,0,1:0:0:0:
300,151,108759,1,0,0:0:0:0:
307,153,108842,1,0,1:0:0:0:
313,154,108926,1,0,0:0:0:0:
318,64,109009,69,2,0:0:0:0:
166,200,109175,1,2,0:0:0:0:
182,248,109259,1,2,0:0:0:0:
225,234,109342,1,2,0:0:0:0:
210,186,109425,1,2,0:0:0:0:
476,230,109675,6,0,B|451:193|459:118|459:118|437:218|420:246,1,210.000000858307,0|0,1:0|3:0,0:0:0:0:
374,287,109925,1,0,3:0:0:0:
371,294,110009,2,0,B|333:252|333:252|361:174,1,105.000000429154,12|0,0:0|0:0,0:0:0:0:
512,323,110175,2,2,B|326:278|399:403|172:330,1,315.000001287461,0|0,1:0|0:0,0:0:0:0:
92,155,110509,38,0,L|133:165,1,41.9999985694886
169,196,110842,22,0,P|158:124|155:54,1,105.000000429154,0|0,1:0|0:0,0:0:0:0:
109,28,111009,2,0,L|114:22,2,6.99999976158143
0,256,111175,6,0,P|11:199|13:103,1,105.000000429154,0|0,1:0|0:0,0:0:0:0:
92,259,111342,2,0,P|102:322|118:378,1,105.000000429154,12|0,0:0|0:0,0:0:0:0:
216,0,111509,70,0,P|286:48|301:162,1,160.999997587204,0|0,3:0|0:0,0:0:0:0:
385,189,111675,2,0,P|414:115|392:40,1,160.999997587204,0|0,3:0|0:0,0:0:0:0:
512,120,111842,6,0,B|488:296|448:184|440:376,1,241.499996380806,0|0,1:0|0:0,0:0:0:0:
448,356,112009,1,0,0:0:0:0:
39,77,112175,38,0,L|36:68,2,6.99999976158143,0|0|0,1:0|0:0|3:0,0:0:0:0:
20,214,112342,22,2,B|-9:152|8:64|119:26|209:127|222:227|112:379,1,482.999992761612,0|0,1:0|0:0,0:0:0:0:
112,361,112675,1,12,0:0:0:0:
264,20,112842,6,0,P|264:114|288:216,1,160.999997587204,0|0,1:0|0:0,0:0:0:0:
334,251,113009,2,0,P|310:178|303:90,1,160.999997587204,0|0,0:0|0:0,0:0:0:0:
494,384,113175,70,0,B|442:300|456:90|456:90|446:232|420:299,1,482.999992761612,0|0,1:0|0:0,0:0:0:0:
167,270,113509,6,2,B|129:386|0:400|20:311|111:294|157:317|157:317|230:342|309:300|346:234,1,482.999992761612,0|0,1:0|0:0,0:0:0:0:
92,80,113842,2,0,P|53:155|109:227,1,160.999997587204,0|0,1:0|0:0,0:0:0:0:
186,179,114009,2,0,P|166:106|69:86,1,160.999997587204,12|0,0:0|0:0,0:0:0:0:
231,358,114175,69,0,3:0:0:0:
245,350,114259,1,0,3:0:0:0:
258,343,114342,2,0,P|328:356|423:384,1,160.999997587204,0|0,1:0|0:0,0:0:0:0:
333,250,114509,2,0,P|403:263|498:291,1,160.999997587204,0|0,1:0|0:0,0:0:0:0:
413,56,114675,54,0,L|416:41,1,13.9999995231629,2|0,1:2|0:0,0:0:0:0:
397,131,114842,2,0,L|379:127,1,13.9999995231629,2|0,0:0|0:0,0:0:0:0:
469,150,115009,2,0,L|466:167,1,13.9999995231629,2|0,0:0|0:0,0:0:0:0:
485,75,115176,2,0,L|500:77,1,13.9999995231629,2|0,0:0|0:0,0:0:0:0:
133,20,115342,38,0,P|160:103|171:167,1,105.000000429154,12|0,0:0|0:0,0:0:0:0:
265,87,115509,1,0,1:0:0:0:
265,87,115592,1,0,0:0:0:0:
265,87,115675,2,0,L|251:228,1,105.000000429154,0|0,0:0|0:0,0:0:0:0:
96,317,115842,70,2,B|43:338|-11:293|-11:293|45:216|124:208|173:252|203:290|192:367,2,420.000001716614,0|0|0,0:0|1:0|1:0,0:0:0:0:
243,30,116675,6,0,P|247:113|257:211,1,160.999997587204,12|0,0:0|0:0,0:0:0:0:
164,0,116842,2,0,P|159:74|157:163,1,160.999997587204,0|0,3:0|0:0,0:0:0:0:
425,162,117008,70,0,P|421:245|411:343,1,160.999997587204,0|0,3:0|0:0,0:0:0:0:
504,132,117175,2,0,P|509:206|511:295,1,160.999997587204,0|0,1:0|0:0,0:0:0:0:
407,21,117342,5,0,1:0:0:0:
441,30,117425,1,0,0:0:0:0:
448,62,117509,1,0,0:0:0:0:
414,78,117592,1,0,1:0:0:0:
390,52,117675,1,12,0:0:0:0:
152,150,117842,69,0,1:0:0:0:
124,157,117925,1,0,0:0:0:0:
118,182,118009,1,0,0:0:0:0:
145,195,118092,1,0,1:0:0:0:
165,174,118175,1,8,0:0:0:0:
286,296,118342,5,0,0:0:0:0:
308,301,118425,1,0,3:0:0:0:
313,323,118509,1,0,0:0:0:0:
290,334,118592,1,0,3:0:0:0:
274,316,118675,1,0,1:0:0:0:
256,192,118842,12,0,119509,0:0:0:0:
494,45,119675,69,0,1:0:0:0:
417,298,119842,1,0,3:0:0:0:
473,281,119925,1,0,3:0:0:0:
458,337,120009,1,8,1:2:0:0:
