osu file format v14

[General]
AudioFilename: audio.mp3
AudioLeadIn: 0
PreviewTime: 54675
Countdown: 0
SampleSet: Soft
StackLeniency: 0.7
Mode: 0
LetterboxInBreaks: 0
WidescreenStoryboard: 0

[Editor]
Bookmarks: 22675
DistanceSpacing: 0.5
BeatDivisor: 4
GridSize: 8
TimelineZoom: 1.1

[Metadata]
Title:Calling
TitleUnicode:Calling
Artist:Zekk
ArtistUnicode:Zekk
Creator:NeilPerry
Version:Mirash's Another
Source:
Tags:Future Bass Abstract Dubstep Drumstep wub den0saur winber1 komore regou hotdog mirash pandahero reiji-rj
BeatmapID:1427700
BeatmapSetID:673878

[Difficulty]
HPDrainRate:7
CircleSize:4
OverallDifficulty:8
ApproachRate:8
SliderMultiplier:1.6
SliderTickRate:1

[Events]
//Background and Video events
0,0,"zekk2.jpg",0,0
//Break Periods
2,77342,81925
//Storyboard Layer 0 (Background)
//Storyboard Layer 1 (Fail)
//Storyboard Layer 2 (Pass)
//Storyboard Layer 3 (Foreground)
//Storyboard Sound Samples

[TimingPoints]
2676,333.333333333333,4,2,69,70,1,0
22675,-100,4,2,69,50,0,0
23009,-100,4,2,69,55,0,0
23175,-100,4,2,69,60,0,0
23342,-100,4,2,69,65,0,0
23509,-100,4,2,69,70,0,0
24009,-100,4,2,69,50,0,0
45342,-83.3333333333333,4,3,69,70,0,0
50675,-83.3333333333333,4,2,69,70,0,0
56009,-71.4285714285714,4,2,70,70,0,0
66342,-71.4285714285714,4,2,70,40,0,0
66675,-71.4285714285714,4,2,70,70,0,0
86509,-71.4285714285714,4,2,70,8,0,0
86675,-71.4285714285714,4,2,70,70,0,0
88009,-83.3333333333333,4,3,69,70,0,0
93342,-83.3333333333333,4,2,69,70,0,0
98675,-62.5,4,2,70,70,0,0
99009,-71.4285714285714,4,2,70,70,0,0
104009,-62.5,4,2,70,70,0,0
104342,-71.4285714285714,4,2,70,70,0,0
105175,-62.5,4,2,70,70,0,0
105509,-71.4285714285714,4,2,70,70,0,0
107675,-71.4285714285714,4,2,70,50,0,0
108009,-62.5,4,2,70,70,0,0
109342,-71.4285714285714,4,2,70,70,0,0
112842,-62.5,4,2,70,70,0,0
112925,-62.5,4,2,70,100,0,0
113009,-62.5,4,2,70,70,0,0
113175,-71.4285714285714,4,2,70,70,0,0
113259,-71.4285714285714,4,2,70,100,0,0
113342,-71.4285714285714,4,2,70,70,0,0
113509,-62.5,4,2,70,70,0,0
113592,-62.5,4,2,70,100,0,0
113675,-62.5,4,2,70,70,0,0
113842,-71.4285714285714,4,2,70,70,0,0
115842,-62.5,4,2,70,70,0,0
116175,-71.4285714285714,4,2,70,70,0,0
118342,-71.4285714285714,4,2,70,60,0,0

[Colours]
Combo1 : 205,37,87
Combo2 : 0,128,128
Combo3 : 234,188,6
Combo4 : 15,177,255

[HitObjects]
441,324,22675,6,0,P|372:310|325:312,1,80,0|0,3:0|3:0,3:0:0:0:
283,369,23009,1,0,3:0:0:0:
289,329,23175,1,0,3:0:0:0:
208,212,23342,1,0,3:0:0:0:
197,291,23509,1,0,3:0:0:0:
306,196,23675,1,8,0:1:0:0:
320,100,23842,1,8,0:1:0:0:
256,51,24009,6,0,B|173:52|200:100|102:88,1,160,4|0,0:0|0:0,0:0:0:0:
25,75,24509,1,2,0:0:0:0:
131,249,24675,2,0,B|187:278|187:278|296:256,1,160,8|0,1:2|0:0,0:0:0:0:
353,294,25175,1,2,0:0:0:0:
187,186,25342,2,0,P|132:169|92:168,2,80,0|2|0,0:0|1:2|0:0,0:0:0:0:
92,322,25842,1,2,0:0:0:0:
166,350,26009,2,0,P|220:340|253:341,1,80,8|0,1:2|0:0,0:0:0:0:
320,366,26342,2,0,P|322:295|293:189,1,160,0|4,1:0|0:0,0:0:0:0:
301,208,27009,5,0,0:0:0:0:
376,183,27175,1,2,0:0:0:0:
449,150,27342,2,0,B|353:131|376:184|287:166,1,160,8|0,1:2|0:0,0:0:0:0:
240,107,27842,1,2,1:2:0:0:
209,225,28009,2,0,P|185:273|202:347,1,120,0|2,0:0|0:0,0:0:0:0:
195,336,28342,2,0,L|280:310,1,80,0|2,1:0|0:0,0:0:0:0:
94,289,28675,2,0,L|2:271,1,80,8|2,1:2|0:0,0:0:0:0:
156,148,29009,2,0,L|282:110,1,120,0|0,1:0|0:0,0:0:0:0:
293,80,29342,6,0,B|349:91|349:91|388:128|388:128|452:137,2,160,4|0|8,0:0|0:0|1:2,0:0:0:0:
222,41,30175,1,2,0:0:0:0:
146,68,30342,2,0,P|99:67|62:57,1,80,0|0,1:0|0:0,0:0:0:0:
24,289,30675,6,0,L|71:377,1,80,0|2,0:0|1:0,0:0:0:0:
153,226,31009,2,0,L|64:215,1,80,0|2,0:0|0:0,0:0:0:0:
144,369,31342,2,0,L|193:286,1,80,8|2,1:2|0:0,0:0:0:0:
382,237,31675,6,0,P|317:218|217:251,1,160,0|4,1:0|0:0,0:0:0:0:
229,241,32342,1,0,1:0:0:0:
229,241,32675,1,8,1:2:0:0:
295,311,32925,5,0,1:0:0:0:
295,311,33009,1,2,0:0:0:0:
297,186,33175,1,0,1:0:0:0:
172,184,33342,1,0,0:0:0:0:
170,309,33509,1,0,0:0:0:0:
107,358,33675,6,0,P|91:313|94:260,1,80,0|2,1:0|0:0,0:0:0:0:
360,124,34009,2,0,P|376:169|373:222,1,80,8|2,1:2|0:0,0:0:0:0:
235,243,34342,1,0,1:0:0:0:
14,184,34675,5,4,1:0:0:0:
14,184,35009,2,0,P|49:175|100:175,1,80,2|0,0:0|0:0,0:0:0:0:
223,330,35342,2,0,P|162:349|122:352,1,80,8|0,1:2|0:0,0:0:0:0:
0,364,35675,2,0,P|-5:320|2:280,1,80,0|2,1:0|0:0,0:0:0:0:
239,145,36009,2,0,P|244:189|237:229,1,80,0|2,0:0|1:2,0:0:0:0:
106,288,36342,2,0,B|99:192|145:227|136:116,1,160,0|8,0:0|1:2,0:0:0:0:
76,81,36842,1,2,0:0:0:0:
294,82,37009,1,0,1:0:0:0:
294,82,37342,5,0,1:0:0:0:
294,82,37675,2,0,P|355:86|385:79,1,80,0|2,1:0|0:0,0:0:0:0:
201,144,38009,2,0,P|271:159|305:157,1,80,8|0,1:2|0:0,0:0:0:0:
418,206,38342,2,0,P|368:217|322:220,1,80,0|2,0:0|1:2,0:0:0:0:
512,280,38675,2,0,P|460:287|427:286,1,80,0|2,0:0|0:0,0:0:0:0:
191,302,39009,1,0,1:0:0:0:
266,261,39175,1,0,0:0:0:0:
112,347,39342,5,2,0:0:0:0:
235,379,39509,1,10,1:0:0:0:
144,220,39675,2,0,P|201:186|242:169,1,80,8|2,1:0|0:0,0:0:0:0:
293,192,40009,6,0,P|295:123|219:70,2,160,0|0|8,1:0|0:0|1:2,0:0:0:0:
293,192,41009,1,2,0:0:0:0:
457,199,41342,1,0,3:0:0:0:
457,199,41425,1,0,3:2:0:0:
457,199,41509,2,0,L|376:207,1,80,0|2,1:0|0:0,0:0:0:0:
329,271,41842,2,0,L|221:287,1,80,0|2,1:0|0:0,0:0:0:0:
189,335,42175,1,2,1:2:0:0:
82,306,42342,5,0,3:0:0:0:
89,302,42425,1,0,3:0:0:0:
96,300,42509,1,0,3:0:0:0:
103,300,42592,1,0,3:0:0:0:
110,300,42675,2,0,B|101:202|149:231|141:145,2,160,4|0|0,0:0|1:0|1:0,0:0:0:0:
236,175,43592,5,0,1:0:0:0:
236,175,43675,1,8,1:2:0:0:
314,156,43842,1,0,1:0:0:0:
161,55,44009,1,0,1:0:0:0:
69,82,44175,1,0,1:0:0:0:
134,38,44342,5,0,3:0:0:0:
141,34,44425,1,0,3:0:0:0:
148,31,44508,1,0,3:0:0:0:
155,28,44592,1,0,3:0:0:0:
163,26,44675,1,0,1:0:0:0:
171,24,44758,1,0,3:0:0:0:
179,22,44842,1,0,1:0:0:0:
187,21,44925,1,0,3:0:0:0:
195,20,45009,2,2,L|292:33,1,80,0|0,0:0|0:0,0:0:0:0:
195,20,45342,6,2,P|175:73|184:160,1,143.999995605469,4|0,0:0|0:0,0:1:0:0:
183,158,45675,2,0,L|265:151,1,47.9999985351563,0|0,1:0|0:0,0:0:0:0:
319,182,45842,1,0,0:0:0:0:
304,200,45925,1,0,0:0:0:0:
292,221,46009,1,0,1:0:0:0:
284,243,46092,1,0,1:0:0:0:
277,266,46175,2,0,P|271:297|274:319,1,47.9999985351563
101,332,46342,5,0,1:0:0:0:
124,327,46425,1,0,0:0:0:0:
148,325,46509,1,0,0:0:0:0:
171,327,46592,1,0,0:0:0:0:
194,333,46675,2,0,P|247:338|293:336,1,95.9999970703126,0|0,1:0|0:0,0:0:0:0:
81,247,47009,2,0,P|130:244|178:248,1,95.9999970703126,8|0,0:3|0:0,0:0:0:0:
407,302,47342,5,0,1:0:0:0:
398,279,47425,1,0,0:0:0:0:
414,260,47509,1,0,1:0:0:0:
407,236,47592,1,0,0:0:0:0:
425,221,47675,1,0,1:0:0:0:
417,197,47759,1,0,1:0:0:0:
434,180,47842,2,0,P|439:145|435:123,1,47.9999985351563,0|0,0:0|1:0,0:0:0:0:
332,208,48009,2,0,P|326:270|331:330,1,95.9999970703126,0|0,1:0|0:0,0:0:0:0:
256,114,48342,2,0,P|248:168|248:227,1,95.9999970703126,4|0,0:0|0:0,0:0:0:0:
350,97,48675,5,0,1:0:0:0:
357,91,48758,1,0,0:0:0:0:
365,86,48841,1,0,1:0:0:0:
374,81,48925,1,0,1:0:0:0:
383,77,49008,1,0,0:0:0:0:
392,74,49092,1,0,1:0:0:0:
401,71,49175,2,0,P|440:62|455:60,1,47.9999985351563,0|0,1:0|0:0,0:0:0:0:
286,34,49342,2,0,P|202:40|139:30,1,143.999995605469,8|0,0:0|0:0,0:0:0:0:
104,3,49675,2,0,B|122:50|122:50|108:102,1,95.9999970703126,2|0,0:0|0:0,0:0:0:0:
75,201,49925,5,0,1:0:0:0:
75,201,50009,2,0,B|86:177|86:177|119:157,1,47.9999985351563,0|0,0:0|1:0,0:0:0:0:
183,142,50175,2,0,B|210:141|210:141|235:151,1,47.9999985351563,0|0,1:0|0:0,0:0:0:0:
289,200,50342,2,0,B|306:243|306:243|285:298,1,95.9999970703126,0|0,1:0|1:0,0:0:0:0:
298,122,50675,6,2,B|384:112|350:161|455:148,1,143.999995605469,4|0,0:0|0:0,0:1:0:0:
462,180,51009,1,8,0:0:0:0:
420,282,51175,1,2,0:0:0:0:
318,324,51342,1,8,0:0:0:0:
216,281,51509,1,2,0:0:0:0:
173,180,51675,1,8,0:0:0:0:
216,78,51842,1,8,0:0:0:0:
318,35,52009,1,2,0:0:0:0:
420,78,52175,1,8,0:0:0:0:
322,212,52342,6,0,L|310:280,1,47.9999985351563,0|0,1:0|0:0,0:0:0:0:
309,224,52509,2,0,L|297:292,1,47.9999985351563,0|0,1:0|0:0,0:0:0:0:
296,236,52675,2,0,L|284:304,1,47.9999985351563,0|0,1:0|0:0,0:0:0:0:
283,248,52842,2,0,L|271:316,1,47.9999985351563,0|0,1:0|0:0,0:0:0:0:
298,131,53009,5,0,1:0:0:0:
322,128,53092,1,0,0:0:0:0:
345,137,53175,1,0,1:0:0:0:
361,155,53259,1,0,0:0:0:0:
356,183,53342,5,0,1:0:0:0:
358,193,53425,1,0,1:0:0:0:
361,202,53508,1,0,1:0:0:0:
363,211,53592,1,0,0:0:0:0:
365,221,53675,1,0,1:0:0:0:
367,230,53758,1,0,0:0:0:0:
370,239,53842,1,0,1:0:0:0:
372,249,53925,1,0,0:0:0:0:
374,258,54008,1,0,1:0:0:0:
377,267,54092,1,0,1:0:0:0:
379,277,54175,1,0,1:0:0:0:
381,286,54259,1,0,0:0:0:0:
383,294,54342,2,0,L|391:317,6,23.9999992675781,2|0|2|0|2|0|2,0:2|0:0|0:0|0:0|0:0|0:0|0:0,0:0:0:0:
374,295,54675,6,0,B|327:307|327:307|298:347,1,95.9999970703126,4|0,1:0|0:0,0:0:0:0:
206,372,55009,1,0,1:0:0:0:
206,372,55092,1,2,0:0:0:0:
206,372,55175,1,0,1:0:0:0:
127,316,55342,1,4,0:3:0:0:
131,292,55425,1,0,1:0:0:0:
135,268,55509,1,4,0:3:0:0:
139,244,55592,1,0,1:0:0:0:
143,220,55675,1,4,0:3:0:0:
394,73,56009,6,0,B|299:70|336:123|233:116,1,167.999994873047,4|0,1:0|0:0,0:0:0:0:
214,134,56342,2,0,P|150:130|98:99,1,111.999996582031,0|0,1:0|0:0,0:0:0:0:
127,19,56675,2,0,P|195:21|240:47,1,111.999996582031,8|0,1:0|1:0,0:0:0:0:
277,195,57009,1,2,0:0:0:0:
269,270,57175,1,4,0:0:0:0:
269,270,57342,6,0,L|347:269,1,55.9999982910157,4|0,0:0|0:0,0:0:0:0:
236,340,57509,2,0,L|161:335,1,55.9999982910157,0|0,1:0|0:0,0:0:0:0:
367,211,57675,2,0,P|406:220|478:252,1,111.999996582031,0|0,0:0|1:0,0:0:0:0:
471,248,57925,1,0,0:0:0:0:
471,248,58009,2,0,P|452:334|426:385,1,111.999996582031,8|0,1:0|1:0,0:0:0:0:
415,363,58259,1,0,0:0:0:0:
387,361,58342,1,0,1:0:0:0:
359,356,58425,1,0,0:0:0:0:
332,346,58509,1,0,1:0:0:0:
252,369,58675,6,0,P|247:313|261:242,1,111.999996582031,0|0,0:0|1:0,0:0:0:0:
276,247,58925,2,0,L|239:216,1,27.9999991455078,0|0,1:0|1:0,0:0:0:0:
297,239,59009,2,0,P|313:177|304:110,1,111.999996582031,8|0,1:0|0:0,0:0:0:0:
124,103,59342,2,0,P|172:105|243:104,1,111.999996582031,8|0,1:0|0:0,0:0:0:0:
29,187,59675,2,0,P|87:185|155:188,1,111.999996582031,2|8,0:0|1:0,0:0:0:0:
165,201,60009,6,2,P|181:280|2:253,1,335.999989746094,4|0,0:0|1:0,0:1:0:0:
168,117,60675,2,0,B|223:108|223:108|289:125,1,111.999996582031,8|0,1:0|1:0,0:0:0:0:
277,122,60925,1,8,1:0:0:0:
277,122,61009,2,0,B|333:134|333:134|386:127,1,111.999996582031,0|8,1:0|1:0,0:0:0:0:
432,32,61342,6,0,P|413:95|461:274,1,223.999993164063,4|0,1:0|1:0,0:0:0:0:
485,346,61842,2,0,L|364:329,1,111.999996582031,2|8,0:0|1:0,0:0:0:0:
264,305,62175,1,0,1:0:0:0:
164,357,62342,1,2,0:0:0:0:
170,244,62509,1,4,0:0:0:0:
170,244,62675,6,0,P|174:177|167:128,1,111.999996582031,4|0,0:2|1:0,0:0:0:0:
379,148,63009,1,2,0:0:0:0:
367,258,63175,1,0,1:0:0:0:
276,191,63342,2,0,P|275:130|278:75,1,111.999996582031,8|0,1:0|1:0,0:0:0:0:
222,23,63675,5,0,1:0:0:0:
111,43,63842,1,0,1:0:0:0:
9,89,64009,2,0,B|-6:209|67:179|44:321,1,223.999993164063,4|0,0:1|1:0,0:0:0:0:
46,305,64425,1,0,3:0:0:0:
46,305,64509,1,0,1:0:0:0:
46,305,64592,1,0,3:0:0:0:
46,305,64675,2,0,P|124:301|165:290,1,111.999996582031,8|0,1:0|0:0,0:0:0:0:
291,223,65009,2,0,P|354:227|432:256,1,111.999996582031,2|0,0:0|1:0,0:0:0:0:
422,314,65259,5,0,1:0:0:0:
422,314,65342,2,0,B|437:258|437:258|497:215,1,111.999996582031,8|4,1:0|0:0,0:0:0:0:
379,118,65675,2,0,B|323:135|323:135|255:109,1,111.999996582031,0|4,1:0|0:0,0:0:0:0:
227,269,66009,1,0,1:0:0:0:
282,358,66175,1,0,1:0:0:0:
211,293,66342,5,0,3:0:0:0:
205,283,66425,1,0,3:0:0:0:
199,272,66509,1,0,3:0:0:0:
193,262,66592,1,0,3:0:0:0:
186,252,66675,2,0,P|181:192|199:118,1,111.999996582031,4|0,0:0|0:0,0:0:0:0:
347,253,67009,2,0,P|348:192|337:140,1,111.999996582031,0|0,1:0|0:0,0:0:0:0:
261,51,67342,5,8,1:0:0:0:
266,191,67509,1,0,1:0:0:0:
271,331,67675,1,0,0:0:0:0:
350,314,67842,1,2,0:0:0:0:
350,314,67925,1,0,1:0:0:0:
350,314,68009,1,0,0:0:0:0:
194,349,68175,6,0,P|131:342|85:303,1,111.999996582031,0|0,1:0|0:0,0:0:0:0:
30,152,68509,2,0,P|99:157|161:201,1,111.999996582031,0|8,1:0|1:0,0:0:0:0:
218,248,68842,2,0,P|249:238|273:223,1,55.9999982910157,0|0,1:0|0:0,0:0:0:0:
229,257,69009,2,0,P|260:247|284:232,1,55.9999982910157,0|0,1:0|0:0,0:0:0:0:
240,266,69175,2,0,P|271:256|295:241,1,55.9999982910157,0|0,1:0|0:0,0:0:0:0:
336,185,69342,6,0,P|415:175|469:212,1,111.999996582031,4|0,0:0|1:0,0:0:0:0:
442,187,69592,1,0,1:0:0:0:
442,187,69675,2,0,P|453:251|433:299,1,111.999996582031,8|0,1:0|0:0,0:0:0:0:
336,346,70009,5,8,1:0:0:0:
224,337,70175,1,0,1:0:0:0:
112,329,70342,1,0,1:0:0:0:
0,321,70509,1,0,1:0:0:0:
52,263,70675,6,0,B|52:202|81:221|76:136,1,111.999996582031,4|0,0:1|1:0,0:0:0:0:
87,158,70925,1,0,3:0:0:0:
96,161,71009,1,0,3:0:0:0:
106,165,71092,1,0,3:0:0:0:
115,169,71175,1,0,1:0:0:0:
224,145,71342,1,8,1:0:0:0:
333,120,71509,1,0,1:0:0:0:
329,130,71592,1,0,1:0:0:0:
325,139,71675,1,8,1:0:0:0:
436,123,71842,1,8,1:0:0:0:
391,190,72009,6,0,P|371:264|484:366,1,223.999993164063,4|2,1:0|3:0,0:0:0:0:
476,340,72425,1,2,3:0:0:0:
470,312,72509,1,2,3:0:0:0:
303,326,72675,1,8,1:0:0:0:
191,335,72842,1,0,1:0:0:0:
133,278,73009,6,0,B|123:225|123:225|139:164,1,111.999996582031,4|0,0:0|0:0,0:0:0:0:
111,95,73342,2,0,L|-13:100,1,111.999996582031,2|0,0:0|1:0,0:0:0:0:
194,107,73675,1,2,0:0:0:0:
253,168,73842,2,0,B|262:220|262:220|247:282,1,111.999996582031,0|8,1:0|1:0,0:0:0:0:
280,97,74175,2,0,L|349:92,1,55.9999982910157,0|0,1:0|0:0,0:0:0:0:
271,89,74342,2,0,L|340:84,1,55.9999982910157,0|0,1:0|0:0,0:0:0:0:
262,81,74509,2,0,L|331:76,1,55.9999982910157,0|0,1:0|0:0,0:0:0:0:
399,151,74675,5,12,1:0:0:0:
258,259,74925,1,0,1:0:0:0:
258,259,75008,1,8,1:0:0:0:
193,203,75175,2,0,L|114:207,1,55.9999982910157,0|2,1:0|0:0,0:0:0:0:
82,266,75342,1,4,0:0:0:0:
70,133,75509,2,0,L|146:131,1,55.9999982910157,8|0,1:0|0:0,0:0:0:0:
240,135,75675,1,0,3:0:0:0:
249,141,75759,1,0,3:0:0:0:
258,147,75842,1,0,3:0:0:0:
267,153,75925,1,0,3:0:0:0:
276,159,76009,1,4,1:0:0:0:
256,192,82675,12,0,86509,0:0:0:0:
306,277,86675,5,0,1:0:0:0:
210,218,86842,1,8,1:0:0:0:
206,107,87009,5,8,1:0:0:0:
302,166,87176,1,0,1:0:0:0:
222,299,87342,5,0,3:0:0:0:
212,304,87425,1,8,3:1:0:0:
202,309,87509,1,8,3:1:0:0:
114,159,87675,5,0,1:0:0:0:
210,218,87842,1,0,1:0:0:0:
328,153,88009,6,2,B|240:153|270:189|174:189,1,143.999995605469,4|0,0:1|0:0,0:1:0:0:
190,188,88342,2,0,L|183:137,1,47.9999985351563,0|0,1:0|0:0,0:0:0:0:
296,34,88509,1,0,0:0:0:0:
319,39,88592,1,0,1:0:0:0:
342,44,88675,1,0,1:0:0:0:
365,49,88759,1,0,1:0:0:0:
387,57,88842,2,0,L|397:135,1,47.9999985351563,0|0,1:0|0:0,0:0:0:0:
495,244,89009,5,0,1:0:0:0:
471,249,89092,1,0,1:0:0:0:
451,263,89175,1,0,1:0:0:0:
439,283,89259,1,0,0:0:0:0:
435,306,89342,2,0,P|382:306|322:311,1,95.9999970703126,0|0,1:0|0:0,0:0:0:0:
235,235,89675,2,0,P|287:226|344:221,1,95.9999970703126,8|0,0:3|0:0,0:0:0:0:
187,324,90009,5,0,1:0:0:0:
170,306,90092,1,0,0:0:0:0:
153,289,90175,1,0,1:0:0:0:
133,273,90259,1,0,0:0:0:0:
112,263,90342,1,0,1:0:0:0:
88,253,90425,1,0,1:0:0:0:
64,246,90509,2,0,P|72:224|90:205,1,47.9999985351563,0|0,1:0|0:0,0:0:0:0:
233,140,90675,2,0,P|185:141|140:124,1,95.9999970703126,0|0,1:0|0:0,0:0:0:0:
26,26,91009,2,0,P|43:74|53:142,1,95.9999970703126,4|0,0:0|0:0,0:0:0:0:
207,46,91342,5,0,1:0:0:0:
216,48,91425,1,0,0:0:0:0:
225,50,91508,1,0,1:0:0:0:
234,52,91592,1,0,1:0:0:0:
243,54,91675,1,0,0:0:0:0:
252,56,91758,1,0,1:0:0:0:
261,59,91842,2,0,P|296:67|322:67,1,47.9999985351563,0|0,1:0|0:0,0:0:0:0:
452,42,92009,2,0,B|423:73|423:73|420:195,1,143.999995605469,8|0,0:0|0:0,0:0:0:0:
420,174,92342,2,0,B|421:227|421:227|460:264,1,95.9999970703126,2|0,0:0|0:0,0:0:0:0:
426,334,92592,5,0,1:0:0:0:
426,334,92675,2,0,B|397:318|373:308,1,47.9999985351563,0|0,0:0|1:0,0:0:0:0:
304,299,92842,2,0,P|271:304|244:317,1,47.9999985351563,0|0,1:0|0:0,0:0:0:0:
197,357,93009,2,0,P|142:363|81:346,1,95.9999970703126,0|0,1:0|1:0,0:0:0:0:
186,282,93342,6,2,B|193:192|142:226|153:115,1,143.999995605469,4|0,0:0|0:0,0:1:0:0:
122,119,93675,1,8,0:0:0:0:
190,82,93842,1,2,0:0:0:0:
268,12,94009,1,8,0:0:0:0:
300,81,94175,1,2,0:0:0:0:
293,212,94342,5,8,0:0:0:0:
237,153,94509,1,8,0:0:0:0:
178,300,94675,1,2,0:0:0:0:
254,290,94842,1,8,0:0:0:0:
152,160,95009,1,2,0:0:0:0:
128,232,95175,1,8,0:0:0:0:
346,287,95342,5,0,1:0:0:0:
346,287,95509,1,0,1:0:0:0:
403,220,95675,1,0,1:0:0:0:
412,217,95759,1,0,0:0:0:0:
421,214,95842,1,0,1:0:0:0:
430,212,95925,1,0,0:0:0:0:
455,182,96009,5,0,1:0:0:0:
422,162,96092,1,0,1:0:0:0:
384,155,96175,1,0,1:0:0:0:
346,165,96259,1,0,0:0:0:0:
311,181,96342,1,0,1:0:0:0:
272,185,96425,1,0,0:0:0:0:
237,166,96509,1,0,1:0:0:0:
203,147,96592,1,0,0:0:0:0:
164,149,96675,1,0,1:0:0:0:
129,165,96759,1,0,1:0:0:0:
101,191,96842,1,0,1:0:0:0:
62,192,96925,1,0,0:0:0:0:
26,177,97009,2,0,L|18:139,6,23.9999992675781,2|0|2|0|2|0|2,0:0|0:0|0:0|0:0|0:0|0:0|0:0,0:0:0:0:
11,190,97342,6,0,B|11:237|11:237|62:304,1,95.9999970703126,4|0,1:0|0:0,0:0:0:0:
135,293,97675,1,0,1:0:0:0:
135,293,97759,1,2,0:0:0:0:
135,293,97842,2,0,B|185:280|185:280|235:294,1,95.9999970703126,0|0,1:0|0:0,0:0:0:0:
315,331,98175,1,0,1:0:0:0:
315,331,98259,1,8,1:0:0:0:
315,331,98342,2,0,B|365:318|365:318|415:332,1,95.9999970703126,0|0,1:0|0:0,0:0:0:0:
445,194,98675,6,2,P|373:162|232:240,1,192,4|0,1:0|0:0,1:0:0:0:
268,192,99009,2,2,P|240:227|234:321,1,111.999996582031,6|0,1:0|0:1,1:2:0:0:
38,152,99342,6,0,L|168:144,1,111.999996582031,8|2,1:0|1:2,0:0:0:0:
149,145,99592,1,2,0:1:0:0:
149,145,99675,2,0,L|146:66,1,55.9999982910157,0|0,0:2|0:0,0:0:0:0:
146,89,99842,2,0,L|225:87,1,55.9999982910157,2|0,0:1|0:0,0:0:0:0:
201,87,100009,2,2,L|351:85,1,111.999996582031,0|2,0:0|1:0,0:1:0:0:
492,94,100509,5,0,1:0:0:0:
419,55,100675,2,0,L|406:154,1,55.9999982910157,8|0,1:0|0:0,0:0:0:0:
352,162,100842,1,0,1:0:0:0:
392,239,101009,1,0,1:0:0:0:
432,316,101175,2,2,B|349:313|349:313|260:352,1,167.999994873047,0|0,1:0|0:0,1:2:0:0:
203,312,101509,5,8,1:0:0:0:
203,312,101592,1,0,0:0:0:0:
203,312,101675,2,0,P|179:246|199:178,1,111.999996582031,14|0,1:0|0:0,0:0:0:0:
373,133,102009,2,0,P|397:199|377:267,1,111.999996582031,10|0,1:0|1:0,0:0:0:0:
306,266,102259,5,0,0:0:0:0:
300,238,102342,1,0,1:0:0:0:
295,210,102425,1,0,0:0:0:0:
288,182,102509,1,8,1:0:0:0:
282,154,102592,1,0,0:0:0:0:
260,142,102675,6,2,B|141:145,1,111.999996582031,0|0,1:0|1:0,0:1:0:0:
149,145,102925,1,2,1:0:0:0:
149,145,103009,2,0,L|149:216,1,55.9999982910157,2|0,0:1|0:0,0:0:0:0:
207,251,103175,2,0,L|209:327,1,55.9999982910157,2|0,1:0|0:0,0:0:0:0:
26,340,103342,6,2,L|36:215,1,111.999996582031,8|0,1:0|1:0,0:1:0:0:
34,228,103592,1,0,1:0:0:0:
34,228,103675,1,4,1:2:0:0:
49,139,103842,1,4,1:2:0:0:
65,49,104009,6,2,P|162:27|249:98,1,192,4|0,1:0|0:0,1:0:0:0:
235,74,104342,2,2,P|259:129|252:206,1,111.999996582031,6|0,1:0|0:1,1:2:0:0:
467,89,104675,2,0,B|417:70|417:70|357:78,1,111.999996582031,8|2,1:0|1:2,0:0:0:0:
359,77,104925,1,2,0:1:0:0:
359,77,105009,2,0,L|368:153,1,55.9999982910157,2|0,0:0|0:0,0:0:0:0:
336,167,105175,6,2,B|386:186|386:186|383:339,1,192,2|0,0:1|0:0,0:0:0:0:
383,324,105509,2,0,B|380:375|380:375|314:386,1,111.999996582031,2|0,1:0|0:0,0:0:0:0:
99,301,105842,6,0,P|126:283|156:277,1,55.9999982910157,2|0,1:0|0:0,0:0:0:0:
232,305,106009,2,0,P|245:339|248:367,1,55.9999982910157,10|0,1:0|0:0,0:0:0:0:
161,367,106175,2,0,P|97:374|21:346,1,111.999996582031,2|0,1:0|1:0,0:0:0:0:
215,226,106509,1,0,1:0:0:0:
359,251,106675,6,2,P|315:149|175:161,1,223.999993164063,0|0,1:0|1:0,1:2:0:0:
187,147,107092,1,0,0:0:0:0:
160,157,107175,1,0,1:0:0:0:
139,172,107259,1,0,0:0:0:0:
139,172,107342,2,0,P|107:190|90:201,1,55.9999982910157,8|0,1:0|0:0,0:0:0:0:
40,143,107509,2,0,P|73:123|93:112,1,55.9999982910157,0|0,1:0|0:0,0:0:0:0:
181,41,107675,5,0,3:0:0:0:
192,42,107759,1,0,3:0:0:0:
202,44,107842,1,0,3:0:0:0:
212,46,107925,1,0,3:0:0:0:
223,48,108009,2,0,B|310:63|310:63|364:104|364:104|475:119,1,256,4|4,1:0|1:0,0:0:0:0:
463,117,108675,5,0,1:0:0:0:
254,190,108842,1,0,1:0:0:0:
224,317,109009,5,2,3:3:0:0:
302,288,109175,1,2,3:3:0:0:
303,275,109259,1,2,3:3:0:0:
304,262,109342,2,2,B|204:254|241:308|127:298,1,167.999994873047,4|0,1:0|0:0,1:0:0:0:
100,328,109675,2,2,B|111:292|111:292|91:194,1,111.999996582031,2|0,1:0|0:1,1:2:0:0:
254,190,110009,5,10,1:0:0:0:
368,203,110175,1,2,0:0:0:0:
435,161,110342,1,2,0:0:0:0:
316,30,110509,1,0,0:0:0:0:
316,30,110592,2,0,B|305:66|305:66|325:164,1,111.999996582031,2|0,0:1|0:0,0:0:0:0:
232,125,110842,6,2,L|211:305,1,167.999994873047,2|0,1:0|0:0,1:2:0:0:
279,330,111175,2,2,L|289:256,1,55.9999982910157,2|0,1:0|0:0,1:2:0:0:
368,203,111342,2,0,L|355:317,1,111.999996582031,10|0,1:0|1:0,0:0:0:0:
406,363,111675,1,4,1:2:0:0:
212,365,111842,2,2,L|31:344,1,167.999994873047,4|0,1:2|0:0,0:1:0:0:
20,272,112175,5,8,1:0:0:0:
20,272,112259,1,0,1:0:0:0:
24,275,112342,2,0,P|12:210|39:141,1,111.999996582031,14|0,1:0|0:0,0:0:0:0:
94,143,112675,1,8,1:0:0:0:
253,185,112842,6,2,P|324:179|379:63,1,192,4|0,1:0|0:0,1:0:0:0:
319,45,113175,6,2,L|142:69,1,167.999994873047,6|0,1:0|0:1,1:2:0:0:
181,142,113509,6,2,B|160:204|160:204|204:342,1,192,4|0,1:0|0:0,1:0:0:0:
266,360,113842,5,0,1:0:0:0:
370,318,114009,1,8,1:0:0:0:
473,276,114175,1,0,1:0:0:0:
469,286,114259,1,0,1:0:0:0:
466,296,114342,1,8,1:0:0:0:
435,188,114509,1,8,1:0:0:0:
407,79,114675,5,4,0:0:0:0:
386,97,114842,1,4,0:0:0:0:
286,66,115009,5,2,0:0:0:0:
330,5,115176,1,4,0:0:0:0:
185,0,115342,5,8,1:0:0:0:
146,92,115509,2,0,P|152:144|186:209,1,111.999996582031,2|0,1:0|0:0,0:0:0:0:
59,294,115842,6,2,P|135:309|267:276,1,192,4|0,1:0|0:0,1:0:0:0:
245,286,116175,2,2,P|298:259|333:221,1,111.999996582031,6|2,1:0|1:2,1:2:0:0:
408,220,116509,1,2,1:0:0:0:
475,106,116675,2,2,L|486:226,1,111.999996582031,8|0,1:0|1:0,0:1:0:0:
389,115,117009,1,4,1:2:0:0:
277,122,117175,1,4,1:2:0:0:
222,173,117342,5,14,1:0:0:0:
77,113,117592,1,2,1:0:0:0:
77,113,117675,1,8,1:0:0:0:
153,78,117842,5,6,1:0:0:0:
162,235,118092,1,0,1:0:0:0:
162,235,118175,1,10,1:0:0:0:
74,221,118342,5,0,1:0:0:0:
77,231,118425,1,8,3:0:0:0:
80,241,118509,1,0,1:0:0:0:
83,251,118592,1,8,3:0:0:0:
86,261,118675,1,0,1:0:0:0:
146,310,120009,5,4,0:1:0:0:
