osu file format v14

[General]
AudioFilename: audio.mp3
AudioLeadIn: 0
PreviewTime: 54675
Countdown: 0
SampleSet: Soft
StackLeniency: 0.2
Mode: 0
LetterboxInBreaks: 0
WidescreenStoryboard: 0

[Editor]
Bookmarks: 22675,61175,91842
DistanceSpacing: 0.2
BeatDivisor: 4
GridSize: 4
TimelineZoom: 1.700006

[Metadata]
Title:Calling
TitleUnicode:Calling
Artist:Zekk
ArtistUnicode:Zekk
Creator:NeilPerry
Version:Komore's Extra
Source:
Tags:Future Bass Abstract Dubstep Drumstep wub den0saur winber1 komore regou hotdog mirash pandahero reiji-rj
BeatmapID:1432320
BeatmapSetID:673878

[Difficulty]
HPDrainRate:6.3
CircleSize:4.3
OverallDifficulty:8.4
ApproachRate:9.4
SliderMultiplier:1.6
SliderTickRate:1

[Events]
//Background and Video events
0,0,"zekk2.jpg",0,0
//Break Periods
2,77542,82135
//Storyboard Layer 0 (Background)
//Storyboard Layer 1 (Fail)
//Storyboard Layer 2 (Pass)
//Storyboard Layer 3 (Foreground)
//Storyboard Sound Samples

[TimingPoints]
2676,333.333333333333,4,2,3,30,1,0
22342,-111.111111111111,4,2,1,40,0,0
23342,-111.111111111111,4,2,1,50,0,0
23675,-111.111111111111,4,2,2,70,0,0
24009,-111.111111111111,4,2,4,60,0,0
25009,-111.111111111111,4,2,3,60,0,0
25509,-111.111111111111,4,2,1,60,0,0
26009,-111.111111111111,4,2,4,60,0,0
26175,-111.111111111111,4,2,3,60,0,0
26675,-111.111111111111,4,2,4,60,0,0
28842,-111.111111111111,4,2,3,60,0,0
29009,-111.111111111111,4,2,2,60,0,0
29342,-111.111111111111,4,2,4,60,0,0
30342,-111.111111111111,4,2,3,60,0,0
31342,-111.111111111111,4,2,4,60,0,0
31509,-111.111111111111,4,2,3,60,0,0
32009,-111.111111111111,4,2,4,60,0,0
32925,-111.111111111111,4,2,3,60,0,0
33175,-111.111111111111,4,2,1,60,0,0
33342,-111.111111111111,4,2,3,60,0,0
33675,-111.111111111111,4,2,4,60,0,0
34175,-111.111111111111,4,2,3,60,0,0
34675,-100,4,2,2,60,0,0
35342,-83.3333333333333,4,2,4,60,0,0
35675,-100,4,2,3,60,0,0
36175,-100,4,2,2,60,0,0
36675,-83.3333333333333,4,2,4,60,0,0
36842,-83.3333333333333,4,2,3,60,0,0
37009,-100,4,2,3,60,0,0
37342,-100,4,2,1,60,0,0
37842,-100,4,2,3,60,0,0
38009,-83.3333333333333,4,2,4,60,0,0
38342,-100,4,2,4,60,0,0
39509,-83.3333333333333,4,2,2,60,0,0
40009,-100,4,2,4,60,0,0
40675,-83.3333333333333,4,2,4,60,0,0
41009,-100,4,2,4,60,0,0
42675,-90.9090909090909,4,2,4,60,0,0
44342,-90.9090909090909,4,1,0,60,0,0
44675,-90.9090909090909,4,2,4,60,0,0
45009,-90.9090909090909,4,2,2,60,0,0
45342,-200,4,2,3,70,0,0
45675,-83.3333333333333,4,2,1,70,0,0
50175,-83.3333333333333,4,2,2,70,0,0
53342,-83.3333333333333,4,1,0,30,0,0
53675,-83.3333333333333,4,1,0,45,0,0
54009,-83.3333333333333,4,1,0,60,0,0
54342,-83.3333333333333,4,1,0,70,0,0
54675,-83.3333333333333,4,2,2,70,0,0
55675,-200,4,2,1,70,0,0
56009,-66.6666666666667,4,2,1,80,0,0
57175,-76.9230769230769,4,2,1,80,0,0
57509,-66.6666666666667,4,2,1,80,0,0
62509,-76.9230769230769,4,2,1,80,0,0
62842,-66.6666666666667,4,2,1,80,0,0
66675,-100,4,2,1,80,0,0
67009,-66.6666666666667,4,2,1,80,0,0
67842,-76.9230769230769,4,2,1,80,0,0
68175,-66.6666666666667,4,2,1,80,0,0
72342,-83.3333333333333,4,2,1,80,0,0
72675,-66.6666666666667,4,2,1,80,0,0
73009,-80,4,2,1,80,0,0
73509,-66.6666666666667,4,2,1,80,0,0
77342,-66.6666666666667,4,2,2,80,0,0
82675,-66.6666666666667,4,2,1,50,0,0
84009,-66.6666666666667,4,2,1,60,0,0
86592,-66.6666666666667,4,2,1,5,0,0
86675,-66.6666666666667,4,2,1,60,0,0
87675,-66.6666666666667,4,2,2,80,0,0
88009,-200,4,2,3,30,0,0
88342,-83.3333333333333,4,2,1,70,0,0
92842,-83.3333333333333,4,2,2,70,0,0
96009,-83.3333333333333,4,1,0,30,0,0
96342,-83.3333333333333,4,1,0,45,0,0
96675,-83.3333333333333,4,1,0,60,0,0
97009,-83.3333333333333,4,1,0,70,0,0
97342,-83.3333333333333,4,2,2,70,0,0
98342,-133.333333333333,4,2,1,70,0,0
98675,-66.6666666666667,4,2,1,80,0,0
99009,-58.8235294117647,4,2,1,80,0,0
100175,-66.6666666666667,4,2,1,80,0,0
100675,-58.8235294117647,4,2,1,80,0,0
101509,-66.6666666666667,4,2,1,80,0,0
102009,-58.8235294117647,4,2,1,80,0,0
104009,-66.6666666666667,4,2,1,80,0,0
104342,-58.8235294117647,4,2,1,80,0,0
105175,-100,4,2,1,80,0,0
105509,-66.6666666666667,4,2,1,80,0,0
106009,-58.8235294117647,4,2,1,80,0,0
108009,-52.6315789473684,4,2,1,80,0,0
109175,-66.6666666666667,4,2,1,80,0,0
112842,-58.8235294117647,4,2,1,80,0,0
114675,-133.333333333333,4,2,1,80,0,0
115342,-66.6666666666667,4,2,1,80,0,0
116675,-58.8235294117647,4,2,1,80,0,0
120009,-58.8235294117647,4,2,2,80,0,0

[Colours]
Combo1 : 242,187,204
Combo2 : 188,252,233
Combo3 : 254,244,207
Combo4 : 193,235,255

[HitObjects]
250,246,22675,5,8,3:3:0:0:
274,233,22842,5,0,3:0:0:0:
234,226,23009,5,0,3:0:0:0:
257,282,23175,5,0,3:0:0:0:
312,227,23342,5,0,3:0:0:0:
206,271,23509,5,0,3:0:0:0:
310,339,23675,5,8,3:2:0:0:
267,152,23842,1,8,3:2:0:0:
105,289,24009,6,0,P|145:253|200:267,1,107.999996704102,4|0,1:0|0:0,0:0:0:0:
206,271,24342,2,0,L|277:262,1,71.9999978027344,0|0,0:0|0:0,0:0:0:0:
402,334,24675,6,0,B|390:334|377:347|377:347|392:269,1,107.999996704102,8|0,0:0|0:0,0:0:0:0:
401,255,25009,2,0,P|395:219|389:183,1,71.9999978027344,0|0,1:0|0:0,0:0:0:0:
280,129,25342,5,0,0:0:0:0:
269,121,25509,2,0,B|193:115|212:163|133:156,1,143.999995605469,0|0,1:0|0:0,0:0:0:0:
133,155,26009,6,0,B|142:120|142:120|132:84,1,71.9999978027344,8|0,0:0|1:0,0:0:0:0:
35,173,26342,2,0,B|26:208|26:208|35:242,1,71.9999978027344,0|0,1:0|0:0,0:0:0:0:
184,327,26675,6,0,B|225:314|225:314|250:320|250:320|287:309,1,107.999996704102,0|0,1:0|0:0,0:0:0:0:
302,303,27009,2,0,P|314:336|314:372,1,71.9999978027344,0|0,0:0|0:0,0:0:0:0:
195,227,27342,6,0,B|181:202|181:202|202:93,1,107.999996704102,8|0,0:0|0:0,0:0:0:0:
200,107,27675,2,0,P|167:112|116:121,1,71.9999978027344,0|0,0:0|1:0,0:0:0:0:
289,40,28009,6,0,P|348:66|395:37,1,107.999996704102,0|0,0:0|0:0,0:0:0:0:
400,46,28342,2,0,P|392:80|384:112,1,71.9999978027344,0|0,1:0|0:0,0:0:0:0:
502,253,28675,6,0,P|472:235|437:232,1,71.9999978027344,8|0,0:0|1:0,0:0:0:0:
373,306,29009,2,0,L|377:327,6,17.9999994506836,12|0|0|0|0|0|0,0:0|0:0|0:0|0:0|0:0|0:0|0:0,0:0:0:0:
358,342,29342,6,0,B|313:318|313:318|259:336,1,107.999996704102,0|0,1:0|0:0,0:0:0:0:
247,347,29675,2,0,P|211:344|175:342,1,71.9999978027344,0|0,0:0|0:0,0:0:0:0:
82,261,30009,6,0,L|86:323,1,35.9999989013672,8|0,0:0|0:0,0:0:0:0:
66,262,30175,2,0,L|70:324,1,35.9999989013672,0|0,0:0|0:0,0:0:0:0:
51,263,30342,2,0,L|55:325,1,35.9999989013672,0|0,1:0|0:0,0:0:0:0:
35,264,30508,2,0,L|39:326,1,35.9999989013672,0|0,0:0|0:0,0:0:0:0:
91,182,30675,6,0,B|126:175|126:175|165:199,1,71.9999978027344,0|0,0:0|1:0,0:0:0:0:
142,289,31009,2,0,B|107:296|107:296|68:272,1,71.9999978027344,0|0,0:0|0:0,0:0:0:0:
229,252,31342,6,0,L|325:271,1,71.9999978027344,8|0,0:0|1:0,0:0:0:0:
471,303,31675,2,0,L|401:290,1,71.9999978027344,0|0,0:0|1:0,0:0:0:0:
349,187,32009,6,0,B|361:187|374:200|374:200|358:122,1,107.999996704102,0|0,1:0|0:0,0:0:0:0:
370,113,32342,2,0,P|416:111|456:146,1,71.9999978027344,0|0,0:0|0:0,0:0:0:0:
304,38,32675,2,0,P|271:52|236:47,1,71.9999978027344,8|0,0:0|0:0,0:0:0:0:
225,41,32925,1,0,1:0:0:0:
235,33,33009,2,0,L|226:118,1,71.9999978027344,0|0,0:0|1:0,0:0:0:0:
143,239,33342,5,0,1:0:0:0:
126,146,33509,1,0,1:0:0:0:
109,54,33675,1,0,1:0:0:0:
320,204,34009,6,0,B|361:191|361:191|386:197|386:197|423:186,1,107.999996704102,8|0,0:0|0:0,0:0:0:0:
438,180,34343,2,0,P|450:213|450:249,1,71.9999978027344,0|0,1:0|0:0,0:0:0:0:
328,370,34675,6,0,P|282:335|224:343,1,120,12|0,1:2|0:0,0:0:0:0:
212,353,35009,2,0,L|128:343,1,80,0|0,0:0|0:0,0:0:0:0:
36,243,35342,2,0,P|32:281|60:256,1,95.9999970703126,8|0,0:0|0:0,0:0:0:0:
174,132,35675,6,0,P|167:92|157:53,1,80,0|0,1:0|0:0,0:0:0:0:
300,186,36009,2,0,P|306:146|316:107,1,80,0|0,0:0|1:0,0:0:0:0:
174,233,36342,2,0,B|127:224|127:224|105:235|105:235|58:227,1,120,0|0,0:0|0:0,0:0:0:0:
49,217,36675,2,0,B|34:170|34:170|59:117,1,95.9999970703126,8|0,0:0|1:0,0:0:0:0:
62,113,36925,1,0,0:0:0:0:
70,98,37009,2,0,P|30:109|-11:114,1,80,0|0,1:0|0:0,0:0:0:0:
191,23,37342,6,0,B|210:100|210:100|184:132,1,120,0|0,1:0|0:0,0:0:0:0:
172,144,37675,2,0,P|133:136|93:133,1,80,0|0,0:0|1:0,0:0:0:0:
273,229,38009,2,0,B|296:194|296:194|276:123,1,95.9999970703126,8|0,0:0|0:0,0:0:0:0:
202,341,38342,6,0,P|242:332|281:342,1,80,0|0,0:0|1:0,0:0:0:0:
136,242,38675,2,0,L|38:257,1,80,0|0,0:0|0:0,0:0:0:0:
239,131,39009,2,0,B|231:176|231:176|243:205|243:205|235:248,1,120,0|0,1:0|0:0,0:0:0:0:
226,260,39342,1,8,0:0:0:0:
141,90,39509,6,0,P|148:114|150:144,1,47.9999985351563,8|0,0:0|0:0,0:0:0:0:
78,197,39675,1,8,0:0:0:0:
69,201,39759,1,0,0:0:0:0:
59,202,39842,1,0,3:0:0:0:
50,197,39925,1,0,3:0:0:0:
43,190,40009,6,0,B|96:160|96:160|153:188,1,120,0|0,1:0|0:0,0:0:0:0:
160,196,40342,2,0,P|199:188|238:184,1,80,0|0,0:0|0:0,0:0:0:0:
352,93,40675,2,0,P|323:118|327:80,1,95.9999970703126,8|0,0:0|0:0,0:0:0:0:
214,9,41009,2,0,B|201:47|201:47|215:103,1,80,0|0,0:0|0:0,0:0:0:0:
101,152,41342,5,0,3:0:0:0:
73,157,41425,1,0,3:0:0:0:
45,162,41509,2,0,P|82:132|138:139,1,80,0|0,1:0|0:0,0:0:0:0:
182,279,41842,2,0,P|145:309|89:302,1,80,0|0,1:0|0:0,0:0:0:0:
113,222,42175,5,0,1:0:0:0:
292,148,42342,1,0,3:0:0:0:
335,129,42425,1,0,3:0:0:0:
378,150,42509,1,0,3:0:0:0:
421,130,42592,1,0,3:0:0:0:
462,153,42675,6,0,B|478:195|478:195|467:236,1,88.000002685547,0|0,1:0|0:0,0:0:0:0:
327,109,43009,2,0,B|316:68|316:68|332:26,1,88.000002685547,0|0,1:0|0:0,0:0:0:0:
213,179,43342,5,0,1:0:0:0:
184,174,43425,1,0,0:0:0:0:
395,250,43592,5,0,1:0:0:0:
423,245,43675,2,0,L|503:228,1,44.0000013427735,0|0,0:0|0:0,0:0:0:0:
363,316,43842,2,0,L|281:302,1,44.0000013427735,0|0,1:0|0:0,0:0:0:0:
209,362,44009,5,0,1:0:0:0:
79,341,44176,1,0,1:0:0:0:
162,239,44343,1,0,0:0:0:0:
162,239,44675,5,0,1:0:0:0:
143,134,44842,1,0,1:0:0:0:
127,29,45009,1,8,0:0:0:0:
326,171,45342,6,0,L|385:161,1,60,0|0,1:0|0:0,0:0:0:0:
413,182,45675,6,0,P|424:202|427:226,1,47.9999985351563,4|0,1:0|0:0,0:0:0:0:
485,287,45842,2,0,P|477:309|461:326,1,47.9999985351563,0|0,0:0|0:0,0:0:0:0:
383,371,46009,5,0,1:0:0:0:
360,346,46092,1,0,0:0:0:0:
329,333,46175,1,0,0:0:0:0:
295,333,46259,1,0,0:0:0:0:
265,348,46342,1,0,1:0:0:0:
237,367,46425,1,0,0:0:0:0:
204,376,46509,1,0,0:0:0:0:
171,366,46592,1,0,0:0:0:0:
141,348,46675,6,0,L|146:301,3,47.9999985351563,0|0|0|0,1:0|0:0|0:0|0:0,0:0:0:0:
51,250,47009,2,0,L|56:297,3,47.9999985351563,0|0|0|0,1:0|0:0|0:0|0:0,0:0:0:0:
139,205,47342,5,0,1:0:0:0:
175,182,47425,1,0,0:0:0:0:
187,140,47509,1,0,0:0:0:0:
167,101,47592,1,0,0:0:0:0:
128,82,47675,5,0,1:0:0:0:
118,83,47759,1,0,0:0:0:0:
108,85,47842,1,0,0:0:0:0:
98,87,47925,1,0,0:0:0:0:
88,90,48009,6,0,P|65:86|41:82,1,47.9999985351563,0|0,1:0|0:0,0:0:0:0:
151,175,48175,2,0,P|174:171|198:167,1,47.9999985351563,0|0,0:0|0:0,0:0:0:0:
51,250,48342,6,0,P|47:220|38:193,3,47.9999985351563,0|0|0|0,1:0|0:0|0:0|0:0,0:0:0:0:
110,316,48675,5,0,1:0:0:0:
148,310,48759,1,0,0:0:0:0:
185,304,48842,1,0,0:0:0:0:
223,299,48925,1,0,0:0:0:0:
261,293,49009,2,0,L|252:246,1,47.9999985351563,0|0,1:0|0:0,0:0:0:0:
350,316,49175,2,0,L|344:365,1,47.9999985351563,0|0,0:0|0:0,0:0:0:0:
448,290,49342,5,0,1:0:0:0:
477,252,49425,1,0,0:0:0:0:
471,203,49509,1,0,0:0:0:0:
438,168,49592,1,0,0:0:0:0:
395,146,49675,1,0,1:0:0:0:
373,102,49759,1,0,0:0:0:0:
394,59,49842,1,0,0:0:0:0:
441,52,49925,1,0,0:0:0:0:
477,83,50009,6,0,L|469:152,3,47.9999985351563,0|0|8|0,1:0|0:0|0:0|0:0,0:0:0:0:
398,174,50342,1,8,1:2:0:0:
345,166,50425,1,0,0:0:0:0:
292,158,50509,1,0,0:0:0:0:
239,150,50592,1,0,0:0:0:0:
186,142,50675,5,8,1:3:0:0:
214,374,50842,1,0,0:0:0:0:
326,142,51009,5,0,3:0:0:0:
298,374,51176,1,0,3:0:0:0:
165,73,51342,5,0,3:0:0:0:
216,381,51509,1,0,3:0:0:0:
341,73,51675,5,0,3:0:0:0:
296,381,51842,1,0,3:0:0:0:
111,292,52009,5,0,3:0:0:0:
346,254,52175,1,0,3:0:0:0:
140,158,52342,5,0,3:0:0:0:
278,194,52509,1,0,3:0:0:0:
237,59,52675,5,0,3:0:0:0:
315,112,52842,1,0,3:0:0:0:
379,34,53009,5,0,3:0:0:0:
387,66,53175,1,0,3:0:0:0:
471,223,53342,5,0,0:0:0:0:
461,219,53425,1,0,0:0:0:0:
451,217,53509,2,0,P|455:240|459:264,1,47.9999985351563,0|0,0:0|0:0,0:0:0:0:
268,148,53675,5,0,0:0:0:0:
278,144,53758,1,0,0:0:0:0:
288,142,53842,2,0,P|283:165|279:189,1,47.9999985351563,0|0,0:0|0:0,0:0:0:0:
424,75,54009,6,0,L|486:83,1,47.9999985351563,0|0,0:0|0:0,0:0:0:0:
429,49,54175,2,0,L|491:57,1,47.9999985351563,0|0,0:0|0:0,0:0:0:0:
284,215,54342,6,0,L|222:223,1,47.9999985351563,0|0,0:0|0:0,0:0:0:0:
279,189,54508,2,0,L|239:193,2,23.9999992675781,0|0|0,0:0|0:0|0:0,0:0:0:0:
415,341,54675,5,0,1:0:0:0:
325,64,54842,1,0,0:0:0:0:
334,64,54925,1,0,0:0:0:0:
329,72,55009,1,0,0:0:0:0:
320,67,55092,1,0,0:0:0:0:
323,58,55175,1,0,0:0:0:0:
484,220,55342,5,0,3:0:0:0:
436,212,55425,1,0,3:0:0:0:
388,205,55509,1,0,0:0:0:0:
340,198,55592,1,0,3:0:0:0:
279,189,55675,6,0,L|324:196,1,40,0|0,3:0|0:0,0:0:0:0:
19,327,56009,6,0,B|89:315|89:315|124:341|124:341|196:329,1,180.000006866455,6|0,1:0|0:0,0:0:0:0:
98,164,56342,2,0,B|74:219|74:219|94:275,1,120.000004577637,0|0,1:0|3:0,0:0:0:0:
165,219,56592,1,0,3:0:0:0:
179,202,56675,6,0,P|228:212|257:228,1,60.0000022888184,8|0,3:2|0:0,0:0:0:0:
346,119,56842,2,0,P|317:129|288:132,1,60.0000022888184,0|0,1:0|0:0,0:0:0:0:
207,78,57009,5,0,0:0:0:0:
324,286,57175,2,0,P|327:260|334:235,2,51.999997619629,0|0|0,0:0|0:0|3:0,0:0:0:0:
485,172,57509,5,0,1:0:0:0:
476,164,57592,1,0,0:0:0:0:
465,157,57675,2,0,L|478:103,6,30.0000011444092,0|0|0|0|0|0|0,0:0|0:0|0:0|0:0|1:0|0:0|0:0,0:0:0:0:
441,265,58009,1,8,0:0:0:0:
239,75,58175,6,0,P|247:103|251:134,1,60.0000022888184,2|0,3:1|0:0,0:0:0:0:
163,265,58342,2,0,P|183:243|208:225,1,60.0000022888184,2|0,3:1|0:0,0:0:0:0:
365,235,58509,2,0,P|337:230|308:216,1,60.0000022888184,2|0,1:0|0:0,0:0:0:0:
271,330,58675,5,0,0:0:0:0:
117,202,58842,2,0,L|72:209,3,30.0000011444092,0|0|0|0,1:0|0:0|3:0|3:0,0:0:0:0:
137,178,59009,6,0,B|160:188|175:205|175:205|151:66,1,180.000006866455,4|0,1:0|0:0,0:0:0:0:
250,16,59342,2,0,P|241:44|238:73,1,60.0000022888184,8|0,0:0|0:0,0:0:0:0:
376,153,59509,2,0,P|385:124|387:94,1,60.0000022888184,0|0,1:0|0:0,0:0:0:0:
274,193,59675,6,0,P|288:222|296:266,1,60.0000022888184,0|0,0:0|0:0,0:0:0:0:
481,166,59842,2,0,P|467:195|459:239,1,60.0000022888184,0|0,1:2|0:0,0:0:0:0:
385,371,60009,5,0,3:0:0:0:
211,286,60175,2,0,L|152:293,1,60.0000022888184,0|0,1:0|0:0,0:0:0:0:
84,246,60342,5,0,0:0:0:0:
87,216,60425,1,0,0:0:0:0:
90,185,60509,1,0,1:0:0:0:
93,155,60592,1,0,0:0:0:0:
76,130,60675,5,8,0:0:0:0:
121,147,60759,1,0,0:0:0:0:
165,129,60842,1,0,3:0:0:0:
191,89,60925,1,0,3:0:0:0:
176,42,61009,1,0,3:0:0:0:
285,213,61175,5,0,3:0:0:0:
292,222,61259,1,0,0:0:0:0:
299,231,61342,2,0,B|419:203|419:203|395:225|397:273,1,180.000006866455,0|0,1:0|0:0,0:0:0:0:
506,156,61675,2,0,P|434:159|410:94,1,120.000004577637,6|0,1:0|0:0,0:0:0:0:
375,50,61925,1,0,0:0:0:0:
394,37,62009,6,0,P|423:35|453:28,1,60.0000022888184,8|0,0:0|0:0,0:0:0:0:
329,127,62175,2,0,P|299:120|269:118,1,60.0000022888184,0|0,1:0|0:0,0:0:0:0:
409,219,62342,5,0,0:0:0:0:
259,384,62509,2,0,P|257:358|250:333,2,51.999997619629
54,230,62842,5,0,1:0:0:0:
51,218,62925,1,0,0:0:0:0:
45,206,63009,2,0,P|75:208|104:215,1,60.0000022888184,0|0,0:0|0:0,0:0:0:0:
195,113,63175,2,0,P|168:121|136:123,1,60.0000022888184,0|0,1:0|0:0,0:0:0:0:
54,66,63342,1,8,0:0:0:0:
198,224,63509,6,0,L|188:299,1,60.0000022888184,2|0,3:1|0:0,0:0:0:0:
306,226,63675,2,0,L|296:301,1,60.0000022888184,2|0,3:1|0:0,0:0:0:0:
416,228,63842,2,0,L|406:303,1,60.0000022888184,2|0,1:0|0:0,0:0:0:0:
242,366,64009,5,0,1:0:0:0:
390,281,64175,1,0,3:0:0:0:
408,287,64259,1,0,3:0:0:0:
426,294,64342,5,0,1:0:0:0:
471,279,64425,1,0,3:0:0:0:
487,233,64509,1,0,1:0:0:0:
472,187,64592,1,0,0:0:0:0:
431,161,64675,6,0,B|415:167|406:177|406:177|436:46,1,120.000004577637,12|0,0:0|1:0,0:0:0:0:
362,28,64925,1,0,0:0:0:0:
343,40,65009,6,0,B|354:70|354:70|352:98,1,60.0000022888184,0|0,0:0|0:0,0:0:0:0:
230,177,65175,2,0,B|219:147|219:147|220:118,1,60.0000022888184,0|0,3:0|3:0,0:0:0:0:
372,277,65342,5,0,1:0:0:0:
382,291,65425,1,0,3:0:0:0:
392,305,65509,2,0,P|421:299|450:293,1,60.0000022888184,0|0,3:0|3:0,0:0:0:0:
230,177,65675,5,0,1:0:0:0:
220,163,65758,1,0,3:0:0:0:
210,149,65842,2,0,P|180:154|151:160,1,60.0000022888184,0|0,3:0|3:0,0:0:0:0:
374,58,66009,5,0,1:0:0:0:
362,116,66092,1,0,0:0:0:0:
350,174,66175,1,0,1:0:0:0:
453,150,66342,5,0,0:0:0:0:
471,144,66509,5,0,0:0:0:0:
488,137,66675,6,0,P|484:118|480:99,2,40,0|0|8,0:0|0:0|0:3,0:0:0:0:
365,275,67009,6,0,B|321:266|321:266|296:281|296:281|243:273,1,120.000004577637,6|0,1:0|0:0,0:0:0:0:
184,219,67259,1,0,0:0:0:0:
168,202,67342,6,0,P|172:175|185:144,1,60.0000022888184,8|0,0:0|0:0,0:0:0:0:
70,269,67509,2,0,P|74:296|87:327,1,60.0000022888184,0|0,1:0|0:0,0:0:0:0:
191,366,67675,5,0,3:0:0:0:
65,190,67842,2,0,L|11:196,2,51.999997619629,0|0|0,3:0|0:0|1:0,0:0:0:0:
214,91,68175,5,0,1:0:0:0:
226,90,68259,1,0,0:0:0:0:
237,89,68342,2,0,P|227:117|222:146,1,60.0000022888184,0|0,0:0|0:0,0:0:0:0:
381,270,68509,2,0,P|390:241|395:212,1,60.0000022888184,0|0,1:0|0:0,0:0:0:0:
296,207,68675,1,8,0:0:0:0:
367,379,68842,6,0,P|415:361|451:366,1,60.0000022888184,2|0,3:1|0:0,0:0:0:0:
256,335,69009,2,0,L|256:263,1,60.0000022888184,2|0,3:1|0:0,0:0:0:0:
144,378,69175,2,0,P|118:365|89:360,1,60.0000022888184,2|0,1:0|0:0,0:0:0:0:
31,248,69342,5,2,0:0:0:0:
176,104,69509,2,0,P|182:118|185:143,3,30.0000011444092,0|0|0|0,1:0|0:0|3:0|3:0,0:0:0:0:
167,163,69675,2,0,B|237:151|237:151|272:177|272:177|344:165,1,180.000006866455,4|0,1:0|0:0,0:0:0:0:
425,122,70009,6,0,L|415:203,1,60.0000022888184,2|0,1:0|0:0,0:0:0:0:
497,349,70175,2,0,L|504:289,1,60.0000022888184,2|0,1:0|0:0,0:0:0:0:
312,279,70342,6,0,P|284:268|254:271,1,60.0000022888184,2|0,0:1|0:0,0:0:0:0:
139,369,70509,2,0,P|168:372|196:361,1,60.0000022888184,2|0,0:1|0:0,0:0:0:0:
153,270,70675,1,0,0:0:0:0:
404,359,70842,6,0,B|381:369|366:386|366:386|390:247,1,180.000006866455,0|0,1:0|3:0,0:0:0:0:
505,189,71175,2,0,P|474:199|432:187,1,60.0000022888184,0|0,1:0|3:0,0:0:0:0:
361,151,71342,5,12,0:0:0:0:
325,118,71425,1,0,0:0:0:0:
326,69,71509,1,0,3:0:0:0:
360,36,71592,1,0,3:0:0:0:
407,38,71675,5,0,3:0:0:0:
287,218,71842,1,0,3:0:0:0:
183,169,72009,5,0,1:0:0:0:
171,171,72092,1,0,0:0:0:0:
159,173,72175,1,0,0:0:0:0:
147,175,72259,1,0,0:0:0:0:
135,177,72342,6,0,B|129:152|129:152|137:108,1,47.9999985351563
149,58,72509,2,0,B|155:81|155:81|150:104,1,47.9999985351563
0,211,72675,6,0,P|47:189|84:192,1,60.0000022888184,12|0,0:0|0:0,0:0:0:0:
162,251,72842,1,0,1:0:0:0:
307,217,73009,6,0,B|205:179|205:179|171:191|156:215|162:257,1,200,0|0,0:0|0:0,0:0:0:0:
287,94,73509,1,0,1:0:0:0:
297,100,73592,1,0,0:0:0:0:
306,106,73675,2,0,L|340:95,6,30.0000011444092,0|0|0|0|0|0|0,0:0|0:0|0:0|0:0|1:0|0:0|0:0,0:0:0:0:
183,40,74009,1,8,0:0:0:0:
6,258,74175,6,0,P|31:241|60:238,1,60.0000022888184,2|0,3:1|0:0,0:0:0:0:
151,132,74342,2,0,P|152:161|140:188,1,60.0000022888184,2|0,3:1|0:0,0:0:0:0:
194,320,74509,2,0,P|167:306|149:282,1,60.0000022888184,2|0,1:0|0:0,0:0:0:0:
45,107,74675,5,0,1:0:0:0:
82,324,74842,2,0,P|32:324|9:311,1,60.0000022888184,0|0,3:0|1:0,0:0:0:0:
60,238,75009,1,12,0:0:0:0:
198,384,75175,5,0,1:0:0:0:
141,189,75342,2,0,P|191:189|214:202,1,60.0000022888184,0|0,3:0|1:0,0:0:0:0:
163,275,75509,1,8,0:0:0:0:
335,294,75675,6,0,P|365:296|394:304,1,60.0000022888184,0|0,0:0|0:0,0:0:0:0:
475,276,75842,2,0,P|445:278|416:286,1,60.0000022888184,0|0,3:0|3:0,0:0:0:0:
379,185,76009,5,0,1:0:0:0:
379,185,77009,6,0,B|358:131|400:77|400:77|378:106|346:111,1,180.000006866455,0|0,1:0|3:0,0:0:0:0:
331,31,77342,1,8,1:2:0:0:
256,192,82675,12,0,86509,0:0:0:0:
199,334,86675,5,8,0:3:0:0:
226,180,86842,5,0,0:0:0:0:
345,280,87009,5,0,0:0:0:0:
256,266,87175,5,0,0:0:0:0:
357,178,87342,5,0,0:0:0:0:
368,181,87426,1,0,0:0:0:0:
379,184,87509,1,0,0:0:0:0:
296,376,87675,5,8,0:0:0:0:
226,180,87842,1,8,0:0:0:0:
114,300,88009,6,0,P|143:294|172:288,1,60,0|0,1:0|0:0,0:0:0:0:
199,303,88342,6,0,P|191:325|188:353,1,47.9999985351563,4|0,1:0|0:0,0:0:0:0:
297,268,88509,2,0,P|295:247|285:221,1,47.9999985351563
355,363,88675,5,0,1:0:0:0:
390,377,88759,1,0,0:0:0:0:
428,374,88842,1,0,0:0:0:0:
458,351,88925,1,0,0:0:0:0:
476,316,89009,1,0,1:0:0:0:
466,278,89092,1,0,0:0:0:0:
443,246,89175,1,0,0:0:0:0:
407,230,89259,1,0,0:0:0:0:
368,227,89342,6,0,P|370:203|373:179,3,47.9999985351563,0|0|0|0,1:0|0:0|0:0|0:0,0:0:0:0:
262,113,89675,2,0,P|265:136|267:160,3,47.9999985351563,0|0|0|0,1:0|0:0|0:0|0:0,0:0:0:0:
178,220,90009,5,0,1:0:0:0:
148,188,90092,1,0,0:0:0:0:
106,178,90175,1,0,0:0:0:0:
64,191,90259,1,0,0:0:0:0:
34,222,90342,5,0,1:0:0:0:
35,231,90425,1,0,0:0:0:0:
36,240,90509,1,0,0:0:0:0:
37,249,90592,1,0,0:0:0:0:
38,258,90675,6,0,L|102:245,1,47.9999985351563,0|0,1:0|0:0,0:0:0:0:
169,329,90842,2,0,L|121:338,1,47.9999985351563,0|0,0:0|0:0,0:0:0:0:
178,220,91009,5,0,1:0:0:0:
201,195,91092,1,0,0:0:0:0:
232,182,91175,1,0,0:0:0:0:
266,182,91259,1,0,0:0:0:0:
296,197,91342,1,0,1:0:0:0:
324,216,91425,1,0,0:0:0:0:
357,225,91509,1,0,0:0:0:0:
390,215,91592,1,0,0:0:0:0:
420,196,91675,6,0,P|417:173|412:149,1,47.9999985351563,0|0,1:0|0:0,0:0:0:0:
508,237,91842,2,0,P|503:260|500:284,1,47.9999985351563,0|0,0:0|0:0,0:0:0:0:
423,343,92009,5,0,1:0:0:0:
393,319,92092,1,0,0:0:0:0:
355,310,92175,1,0,0:0:0:0:
316,314,92259,1,0,0:0:0:0:
282,332,92342,6,0,L|206:324,3,47.9999985351563,0|0|0|0,1:0|0:0|0:0|0:0,0:0:0:0:
150,371,92675,6,0,P|148:347|145:323,1,47.9999985351563,0|0,1:0|0:0,0:0:0:0:
76,265,92842,1,8,0:0:0:0:
52,229,92925,1,0,0:0:0:0:
58,185,93009,1,8,1:2:0:0:
94,161,93092,1,0,0:0:0:0:
136,163,93175,2,0,P|159:159|183:156,1,47.9999985351563,0|0,0:0|0:0,0:0:0:0:
386,329,93342,5,8,1:3:0:0:
308,139,93509,1,0,3:0:0:0:
409,20,93675,5,0,3:0:0:0:
487,210,93842,1,0,3:0:0:0:
220,232,94009,5,0,3:0:0:0:
465,116,94175,1,0,3:0:0:0:
291,310,94342,5,0,3:0:0:0:
46,194,94508,1,0,3:0:0:0:
187,27,94675,5,0,3:0:0:0:
129,232,94842,1,0,3:0:0:0:
272,75,95009,5,0,3:0:0:0:
137,220,95175,1,0,3:0:0:0:
321,161,95342,5,0,3:0:0:0:
145,208,95509,1,0,3:0:0:0:
311,263,95675,5,0,3:0:0:0:
153,196,95842,1,0,3:0:0:0:
337,58,96009,5,0,0:0:0:0:
355,52,96092,1,0,0:0:0:0:
373,47,96175,2,0,P|388:85|389:115,1,47.9999985351563,0|0,0:0|0:0,0:0:0:0:
175,58,96342,5,0,0:0:0:0:
157,52,96425,1,0,0:0:0:0:
139,47,96508,2,0,P|124:85|123:115,1,47.9999985351563,0|0,0:0|0:0,0:0:0:0:
386,245,96675,5,0,0:0:0:0:
404,240,96759,1,0,0:0:0:0:
422,236,96842,2,0,L|405:325,1,47.9999985351563,0|0,0:0|0:0,0:0:0:0:
126,245,97009,5,0,0:0:0:0:
108,240,97093,1,0,0:0:0:0:
90,236,97175,2,0,L|98:277,2,23.9999992675781,0|0|0,0:0|0:0|0:0,0:0:0:0:
421,383,97342,5,0,1:0:0:0:
341,139,97509,2,0,P|374:149|397:170,1,47.9999985351563,0|0,0:0|0:0,0:0:0:0:
319,323,97675,2,0,P|286:313|263:292,1,47.9999985351563,0|0,0:0|0:0,0:0:0:0:
331,232,97842,5,0,1:0:0:0:
167,86,98009,2,0,L|174:146,1,47.9999985351563,0|0,3:0|3:0,0:0:0:0:
327,86,98175,2,0,L|320:146,1,47.9999985351563,0|0,0:0|3:0,0:0:0:0:
256,367,98342,6,0,B|284:353|284:353|333:368,1,60.0000022888184,0|0,1:0|0:0,0:0:0:0:
512,204,98675,6,0,B|442:192|442:192|407:218|407:218|335:206,1,180.000006866455,0|0,1:0|0:0,0:0:0:0:
270,153,99009,6,0,P|291:67|358:134,1,204.000003890991,0|0,1:0|0:0,0:0:0:0:
342,207,99342,5,12,0:0:0:0:
149,98,99509,2,0,L|74:112,1,68.0000012969971,0|0,1:0|0:0,0:0:0:0:
40,196,99675,1,0,3:0:0:0:
67,235,99759,1,0,3:0:0:0:
112,248,99842,1,0,3:0:0:0:
158,239,99925,1,0,3:0:0:0:
191,204,100009,1,0,3:0:0:0:
351,140,100175,6,0,B|250:134|297:201|190:204,1,180.000006866455,0|0,1:0|0:0,0:0:0:0:
184,58,100509,2,0,P|197:84|204:113,1,60.0000022888184,0|0,1:0|0:0,0:0:0:0:
90,360,100675,5,12,0:0:0:0:
103,237,100842,1,0,3:0:0:0:
116,115,101009,1,0,3:0:0:0:
248,251,101175,6,0,B|382:272|382:272|347:288|333:318,1,204.000003890991,0|0,1:0|0:0,0:0:0:0:
416,357,101509,2,0,L|469:352,3,30.0000011444092,0|0|0|0,1:0|0:0|3:0|3:0,0:0:0:0:
480,324,101675,6,0,P|477:248|386:257,1,180.000006866455,0|0,1:0|0:0,0:0:0:0:
333,318,102009,5,12,0:0:0:0:
115,217,102175,2,0,P|148:217|183:204,1,68.0000012969971,0|0,1:0|0:0,0:0:0:0:
244,82,102342,5,0,3:0:0:0:
253,128,102425,1,0,3:0:0:0:
259,175,102509,1,8,0:0:0:0:
265,221,102592,1,0,0:0:0:0:
272,267,102675,1,0,3:0:0:0:
451,171,102842,6,0,B|398:125|398:125|335:148,1,136.000002593994,0|0,1:0|0:0,0:0:0:0:
374,287,103092,1,0,0:0:0:0:
374,287,103175,2,0,P|378:244|387:200,1,68.0000012969971,0|0,1:0|0:0,0:0:0:0:
221,90,103342,6,0,L|229:172,1,68.0000012969971,8|0,0:0|0:0,0:0:0:0:
247,375,103509,1,0,3:0:0:0:
243,327,103592,1,0,3:0:0:0:
239,279,103675,5,0,3:0:0:0:
476,351,103842,2,0,P|435:337|393:342,1,68.0000012969971,0|0,3:0|0:0,0:0:0:0:
323,379,104009,6,0,B|334:313|334:313|316:281|316:281|331:192,1,180.000006866455,0|0,1:0|0:0,0:0:0:0:
436,144,104342,6,0,B|379:131|341:165|341:165|323:114|266:104,1,204.000003890991,0|0,1:0|0:0,0:0:0:0:
195,149,104675,6,0,P|208:181|211:219,1,68.0000012969971,12|0,0:0|0:0,0:0:0:0:
51,330,104842,2,0,P|40:302|36:261,1,68.0000012969971,0|0,1:0|0:0,0:0:0:0:
131,275,105008,1,0,3:0:0:0:
254,354,105175,6,0,B|301:350|301:350|322:362|322:362|377:358,1,120,0|0,0:0|0:0,0:0:0:0:
460,266,105509,6,0,P|465:231|455:208,1,60.0000022888184,0|0,1:0|0:0,0:0:0:0:
376,173,105675,2,0,L|333:183,6,30.0000011444092,0|0|0|0|0|0|0,0:0|0:0|0:0|0:0|1:0|0:0|0:0,0:0:0:0:
512,128,106009,6,0,P|479:119|446:111,1,68.0000012969971,12|0,0:0|0:0,0:0:0:0:
207,71,106175,5,0,3:0:0:0:
370,4,106342,1,0,3:0:0:0:
346,179,106509,1,0,1:0:0:0:
306,84,106675,5,0,1:0:0:0:
315,84,106758,1,0,0:0:0:0:
310,92,106842,1,0,0:0:0:0:
301,87,106925,1,0,0:0:0:0:
303,78,107009,6,0,L|315:162,1,68.0000012969971,0|0,3:0|3:0,0:0:0:0:
336,311,107175,1,0,1:0:0:0:
159,251,107342,6,0,P|202:238|254:251,1,68.0000012969971,12|0,0:0|0:0,0:0:0:0:
336,311,107509,1,0,1:0:0:0:
495,213,107675,6,0,P|450:210|402:234,1,68.0000012969971,0|0,0:0|0:0,0:0:0:0:
336,311,107842,1,0,3:0:0:0:
340,337,107925,1,0,3:0:0:0:
346,363,108009,6,0,P|353:292|362:257,1,75.9999979705811,0|0,1:0|0:0,0:0:0:0:
215,135,108175,2,0,P|208:206|199:241,1,75.9999979705811,0|0,0:0|0:0,0:0:0:0:
101,349,108342,6,0,B|137:331|137:331|203:357,1,75.9999979705811,0|0,1:0|0:0,0:0:0:0:
353,287,108509,2,0,B|317:269|317:269|251:295,1,75.9999979705811,0|0,0:0|0:0,0:0:0:0:
45,187,108675,5,0,1:0:0:0:
38,156,108759,1,0,0:0:0:0:
86,106,108842,5,0,1:0:0:0:
79,75,108926,1,0,0:0:0:0:
20,39,109009,6,0,B|112:27|71:80|164:63,1,151.999995941162,2|2,0:0|0:0,0:0:0:0:
182,58,109259,1,2,0:0:0:0:
190,42,109342,1,2,0:0:0:0:
188,24,109425,1,0,0:0:0:0:
172,14,109509,1,0,0:0:0:0:
245,273,109675,6,0,P|304:265|364:259,1,120.000004577637,0|0,1:0|3:0,0:0:0:0:
435,202,109925,1,0,3:0:0:0:
444,222,110009,6,0,B|454:252|454:252|444:291,1,60.0000022888184,12|0,0:0|0:0,0:0:0:0:
310,167,110175,2,0,B|302:139|302:139|312:109,1,60.0000022888184,0|0,1:0|0:0,0:0:0:0:
431,49,110342,1,0,0:0:0:0:
200,146,110509,6,0,B|89:121|89:121|53:142|69:191,1,180.000006866455,0|0,0:0|0:0,0:0:0:0:
116,252,110842,1,0,1:0:0:0:
125,267,110925,1,0,0:0:0:0:
135,282,111009,2,0,L|180:272,6,30.0000011444092,0|0|0|0|0|0|0,0:0|0:0|0:0|0:0|1:0|0:0|0:0,0:0:0:0:
259,229,111342,6,0,L|274:308,1,60.0000022888184,12|0,0:0|0:0,0:0:0:0:
393,354,111509,2,0,L|378:275,1,60.0000022888184,0|0,3:0|0:0,0:0:0:0:
484,207,111675,2,0,L|499:286,1,60.0000022888184,0|0,3:0|0:0,0:0:0:0:
295,368,111842,6,0,B|173:341|173:341|205:362|209:393,1,180.000006866455,0|0,1:0|0:0,0:0:0:0:
99,340,112175,2,0,L|108:298,3,30.0000011444092,0|0|0|0,1:0|0:0|3:0|3:0,0:0:0:0:
134,281,112342,6,0,P|131:252|124:223,1,60.0000022888184,0|0,1:0|0:0,0:0:0:0:
19,106,112509,1,0,0:0:0:0:
219,210,112675,6,0,P|248:206|278:207,1,60.0000022888184,12|0,0:0|0:0,0:0:0:0:
408,283,112842,2,0,B|377:293|360:322|360:322|392:162,1,204.000003890991,0|0,1:0|0:0,0:0:0:0:
490,122,113175,6,0,B|433:109|395:143|395:143|377:92|320:82,1,204.000003890991,0|0,1:0|0:0,0:0:0:0:
141,211,113509,6,0,B|198:201|216:150|216:150|254:184|311:171,1,204.000003890991,0|0,1:0|0:0,0:0:0:0:
119,57,113842,6,0,P|130:89|134:122,1,68.0000012969971,0|0,1:0|0:0,0:0:0:0:
19,328,114009,5,12,0:0:0:0:
44,113,114175,1,0,3:0:0:0:
39,160,114259,1,0,3:0:0:0:
33,207,114342,1,0,1:0:0:0:
225,371,114509,6,0,P|220:329|205:301,1,68.0000012969971,0|0,1:0|0:0,0:0:0:0:
350,189,114675,6,0,L|344:231,1,30.0000011444092,2|0,1:2|0:0,0:0:0:0:
368,191,114842,2,0,L|362:233,1,30.0000011444092,2|0,0:0|0:0,0:0:0:0:
383,191,115009,2,0,L|377:233,1,30.0000011444092,2|0,0:0|0:0,0:0:0:0:
401,193,115176,2,0,L|395:235,1,30.0000011444092,2|0,0:0|0:0,0:0:0:0:
269,79,115342,6,0,P|235:80|184:74,1,60.0000022888184,12|0,0:0|0:0,0:0:0:0:
100,202,115509,1,0,1:0:0:0:
100,202,115592,1,0,0:0:0:0:
100,202,115675,2,0,P|133:200|184:206,1,60.0000022888184,0|0,0:0|0:0,0:0:0:0:
305,334,115842,6,0,B|375:322|375:322|410:348|410:348|482:336,1,180.000006866455,0|0,0:0|0:0,0:0:0:0:
353,147,116175,2,0,B|323:200|323:200|347:289,1,120.000004577637,0|0,1:0|0:0,0:0:0:0:
503,224,116509,2,0,P|474:218|444:213,1,60.0000022888184,0|0,1:0|0:0,0:0:0:0:
257,62,116675,6,0,P|271:90|275:140,1,68.0000012969971,12|0,0:0|0:0,0:0:0:0:
183,337,116842,1,0,3:0:0:0:
444,213,117009,1,0,3:0:0:0:
146,90,117175,1,0,1:0:0:0:
125,86,117259,1,0,0:0:0:0:
104,83,117342,6,0,B|75:150|75:150|91:210,1,136.000002593994,0|0,1:0|0:0,0:0:0:0:
228,158,117592,1,0,1:0:0:0:
227,158,117675,2,0,P|193:156|159:154,1,68.0000012969971,12|0,0:0|0:0,0:0:0:0:
273,302,117842,6,0,B|359:291|325:338|411:329,1,136.000002593994,0|0,1:0|0:0,0:0:0:0:
421,197,118092,1,0,1:0:0:0:
408,186,118175,2,0,P|389:214|387:248,1,68.0000012969971,8|0,0:0|0:0,0:0:0:0:
508,79,118342,5,0,0:0:0:0:
466,113,118425,1,0,3:0:0:0:
411,113,118509,1,0,0:0:0:0:
366,81,118592,1,0,3:0:0:0:
352,28,118675,1,0,1:0:0:0:
131,308,119675,6,0,P|109:242|172:301,1,204.000003890991,0|0,1:0|3:0,0:0:0:0:
121,209,120009,1,8,1:2:0:0:
