osu file format v14

[General]
AudioFilename: audio.mp3
AudioLeadIn: 0
PreviewTime: 54675
Countdown: 0
SampleSet: Soft
StackLeniency: 0.3
Mode: 0
LetterboxInBreaks: 0
WidescreenStoryboard: 0

[Editor]
DistanceSpacing: 1
BeatDivisor: 4
GridSize: 32
TimelineZoom: 3.800005

[Metadata]
Title:Calling
TitleUnicode:Calling
Artist:Zekk
ArtistUnicode:Zekk
Creator:NeilPerry
Version:Hard
Source:
Tags:Future Bass Abstract Dubstep Drumstep wub den0saur winber1 komore regou hotdog mirash pandahero reiji-rj
BeatmapID:1427699
BeatmapSetID:673878

[Difficulty]
HPDrainRate:4
CircleSize:3.8
OverallDifficulty:6
ApproachRate:7.5
SliderMultiplier:1.4
SliderTickRate:1

[Events]
//Background and Video events
0,0,"zekk2.jpg",0,0
//Break Periods
2,77541,81850
//Storyboard Layer 0 (Background)
//Storyboard Layer 1 (Fail)
//Storyboard Layer 2 (Pass)
//Storyboard Layer 3 (Foreground)
//Storyboard Sound Samples

[TimingPoints]
2676,333.333333333333,4,2,3,30,1,0
13342,-125,4,2,3,30,0,0
14009,-125,4,2,1,30,0,0
22342,-125,4,2,1,40,0,0
23342,-125,4,2,1,50,0,0
23675,-125,4,2,2,70,0,0
24009,-100,4,2,4,60,0,0
25009,-100,4,2,3,60,0,0
25509,-100,4,2,1,60,0,0
26009,-100,4,2,4,60,0,0
26175,-100,4,2,3,60,0,0
26675,-100,4,2,4,60,0,0
28842,-100,4,2,3,60,0,0
29009,-100,4,2,2,60,0,0
29342,-100,4,2,4,60,0,0
30342,-100,4,2,3,60,0,0
31342,-100,4,2,4,60,0,0
31509,-100,4,2,3,60,0,0
32009,-100,4,2,4,60,0,0
32925,-100,4,2,3,60,0,0
33175,-100,4,2,1,60,0,0
33342,-100,4,2,3,60,0,0
33675,-100,4,2,4,60,0,0
34175,-100,4,2,3,60,0,0
34675,-100,4,2,2,60,0,0
35342,-100,4,2,4,60,0,0
35675,-100,4,2,3,60,0,0
36175,-100,4,2,2,60,0,0
36675,-100,4,2,4,60,0,0
36842,-100,4,2,3,60,0,0
37342,-100,4,2,1,60,0,0
37842,-100,4,2,3,60,0,0
38009,-100,4,2,4,60,0,0
39342,-100,4,2,4,60,0,0
39509,-100,4,2,2,60,0,0
40009,-100,4,2,4,60,0,0
45009,-100,4,2,2,60,0,0
45342,-100,4,2,3,70,0,0
45675,-100,4,2,1,70,0,0
50175,-100,4,2,2,70,0,0
53342,-100,4,1,0,30,0,0
53675,-100,4,1,0,45,0,0
54009,-100,4,1,0,60,0,0
54342,-100,4,1,0,70,0,0
54675,-100,4,2,2,70,0,0
56009,-83.3333333333333,4,2,1,80,0,1
76009,-83.3333333333333,4,2,1,80,0,0
77009,-83.3333333333333,4,2,1,80,0,1
77342,-83.3333333333333,4,2,2,80,0,0
82675,-100,4,2,1,50,0,0
84009,-100,4,2,1,60,0,0
86342,-100,4,2,1,5,0,0
86675,-100,4,2,1,60,0,0
87675,-100,4,2,2,80,0,0
88009,-100,4,2,3,30,0,0
88342,-100,4,2,1,70,0,0
92842,-100,4,2,2,70,0,0
96009,-100,4,1,0,30,0,0
96342,-100,4,1,0,45,0,0
96675,-100,4,1,0,60,0,0
97009,-100,4,1,0,70,0,0
97342,-100,4,2,2,70,0,0
98675,-83.3333333333333,4,2,1,80,0,1
118675,-83.3333333333333,4,2,1,80,0,0
119675,-83.3333333333333,4,2,1,80,0,1
120009,-83.3333333333333,4,2,2,80,0,0

[Colours]
Combo1 : 255,255,81
Combo2 : 168,168,168
Combo3 : 113,120,138
Combo4 : 205,37,87
Combo5 : 226,152,69
Combo6 : 36,184,255

[HitObjects]
482,161,13342,6,0,B|356:133|386:225|258:197,1,224,0|0,1:3|3:0,0:0:0:0:
168,78,14342,1,0,0:0:0:0:
168,78,14675,1,0,0:0:0:0:
135,231,15009,1,0,0:0:0:0:
135,231,15342,2,0,L|162:354,1,112,0|0,3:0|0:0,0:0:0:0:
316,336,16009,6,0,P|404:342|496:359,1,168,0|0,0:0|0:0,0:0:0:0:
485,277,16675,1,0,3:0:0:0:
386,154,17009,2,0,L|399:283,1,112,0|0,0:0|0:0,0:0:0:0:
281,159,17675,2,0,L|270:76,1,56,0|0,0:0|0:0,0:0:0:0:
216,49,18009,1,0,3:0:0:0:
216,49,18175,1,0,0:0:0:0:
138,38,18342,2,0,L|90:34,2,28,0|0|0,0:0|0:0|0:0,0:0:0:0:
168,110,18675,70,0,L|190:279,1,168,0|0,0:0|0:0,0:0:0:0:
160,349,19342,1,0,3:0:0:0:
315,365,19675,2,0,P|261:356|186:352,1,112,0|0,0:0|0:0,0:0:0:0:
103,231,20342,1,0,0:0:0:0:
68,160,20509,2,0,L|53:116,2,28,0|0|0,0:0|0:0|3:0,0:0:0:0:
146,163,20842,2,0,L|176:128,4,28,0|0|0|0|0,0:0|0:0|0:0|0:0|0:0,0:0:0:0:
119,237,21342,6,0,B|189:274|208:215|290:251,1,168,0|0,0:0|0:0,0:0:0:0:
345,296,22009,1,0,3:0:0:0:
438,170,22342,1,0,0:0:0:0:
281,164,22675,70,0,P|257:160|212:161,3,56,8|0|0|0,3:3|3:0|3:0|3:0,0:0:0:0:
168,105,23342,1,0,3:0:0:0:
168,105,23509,1,0,3:0:0:0:
235,65,23675,53,8,3:2:0:0:
313,66,23842,1,8,3:2:0:0:
381,101,24009,6,0,P|384:170|388:262,1,140,4|0,1:0|0:0,0:0:0:0:
415,320,24509,1,0,0:0:0:0:
333,301,24675,2,0,L|247:318,1,70,8|0,0:0|0:0,0:0:0:0:
221,241,25009,2,0,L|307:224,1,70,0|0,1:0|0:0,0:0:0:0:
300,143,25342,70,0,L|304:69,1,70,0|0,0:0|1:0,0:0:0:0:
225,42,25675,2,0,L|221:116,1,70,0|0,0:0|0:0,0:0:0:0:
141,141,26009,1,8,0:0:0:0:
58,157,26175,1,0,1:0:0:0:
48,240,26342,2,0,L|44:314,1,70,0|0,1:0|0:0,0:0:0:0:
127,322,26675,6,0,B|203:313|186:365|280:347,1,140,0|0,1:0|0:0,0:0:0:0:
333,307,27175,1,0,0:0:0:0:
323,223,27342,2,0,L|311:149,1,70,8|0,0:0|0:0,0:0:0:0:
387,117,27675,2,0,L|399:191,1,70,0|0,0:0|1:0,0:0:0:0:
424,266,28009,70,0,L|501:275,1,70,0|0,0:0|0:0,0:0:0:0:
506,357,28342,2,0,L|429:348,1,70,0|0,1:0|0:0,0:0:0:0:
356,321,28675,1,8,0:0:0:0:
272,331,28842,1,0,1:0:0:0:
188,340,29009,2,0,L|105:351,1,70,12|0,0:0|0:0,0:0:0:0:
96,268,29342,6,0,P|75:191|52:126,1,140,0|0,1:0|0:0,0:0:0:0:
67,50,29842,1,0,0:0:0:0:
150,59,30009,2,0,P|187:87|133:161,1,140,8|0,0:0|1:0,0:0:0:0:
300,239,30675,70,0,L|209:234,1,70,0|0,0:0|1:0,0:0:0:0:
195,312,31009,2,0,L|286:317,1,70,0|0,0:0|0:0,0:0:0:0:
348,309,31342,1,8,0:0:0:0:
416,259,31509,1,0,1:0:0:0:
459,187,31675,2,0,L|474:100,1,70,0|0,0:0|1:0,0:0:0:0:
386,120,32009,6,0,P|353:116|307:130,1,70,0|0,1:0|0:0,0:0:0:0:
294,205,32342,2,0,P|260:213|225:209,1,70,0|0,0:0|0:0,0:0:0:0:
166,149,32675,2,0,P|143:179|154:249,1,105,8|0,0:0|1:0,0:0:0:0:
249,320,33175,1,0,1:0:0:0:
328,291,33342,69,0,1:0:0:0:
328,291,33509,1,0,1:0:0:0:
328,291,33675,2,0,L|428:301,1,70,0|0,1:0|0:0,0:0:0:0:
470,254,34009,2,0,P|476:218|493:159,1,70,8|0,0:0|1:0,0:0:0:0:
403,162,34342,2,0,P|397:126|380:67,1,70,0|0,1:0|0:0,0:0:0:0:
306,111,34675,6,0,B|224:109|257:150|143:129,1,140,12|0,1:2|0:0,0:0:0:0:
104,80,35175,1,0,0:0:0:0:
98,164,35342,2,0,P|106:213|119:238,1,70,8|0,0:0|0:0,0:0:0:0:
46,280,35675,2,0,P|38:329|25:354,1,70,0|0,1:0|0:0,0:0:0:0:
112,364,36009,70,0,L|187:376,1,70,0|0,0:0|1:0,0:0:0:0:
229,305,36342,2,0,L|154:293,1,70,0|0,0:0|0:0,0:0:0:0:
109,226,36675,1,8,0:0:0:0:
60,157,36842,1,0,1:0:0:0:
142,142,37009,2,0,P|169:156|189:195,1,70,0|0,1:0|0:0,0:0:0:0:
259,233,37342,6,0,P|322:250|411:224,1,140,0|0,1:0|0:0,0:0:0:0:
436,161,37842,1,0,1:0:0:0:
444,77,38009,2,0,L|451:1,1,70,8|0,0:0|0:0,0:0:0:0:
366,13,38342,2,0,L|359:89,1,70,0|0,0:0|1:0,0:0:0:0:
305,147,38675,70,0,L|224:158,1,70,0|0,0:0|0:0,0:0:0:0:
240,240,39009,2,0,L|321:229,1,70,0|0,1:0|0:0,0:0:0:0:
384,192,39342,1,8,0:0:0:0:
383,276,39509,1,8,0:0:0:0:
381,359,39675,2,0,L|331:372,3,35,8|0|0|0,0:0|0:0|3:0|3:0,0:0:0:0:
388,357,40009,6,0,P|410:288|471:225,1,140,0|0,1:0|0:0,0:0:0:0:
457,153,40509,1,0,0:0:0:0:
382,114,40675,2,0,P|346:109|310:133,1,70,8|0,0:0|0:0,0:0:0:0:
251,177,41009,2,0,P|220:192|186:187,1,70,0|0,0:0|0:0,0:0:0:0:
125,129,41342,70,0,L|100:90,2,35,0|0|0,3:0|3:0|1:0,0:0:0:0:
103,210,41675,1,0,0:0:0:0:
42,269,41842,2,0,P|21:298|19:343,1,70,0|0,1:0|0:0,0:0:0:0:
92,368,42175,1,0,1:0:0:0:
176,364,42342,2,0,L|222:360,3,35,0|0|0|0,3:0|3:0|3:0|3:0,0:0:0:0:
173,343,42675,6,0,P|163:302|143:264,1,70,0|0,1:0|0:0,0:0:0:0:
234,259,43009,2,0,P|244:218|264:180,1,70,0|0,1:0|0:0,0:0:0:0:
194,134,43342,2,0,L|178:89,3,35,0|0|0|0,1:0|0:0|0:0|1:0,0:0:0:0:
162,137,43675,2,0,L|178:178,3,35,0|0|0|0,0:0|0:0|1:0|0:0,0:0:0:0:
138,146,44009,69,0,1:0:0:0:
54,139,44175,1,0,1:0:0:0:
31,58,44342,2,0,L|11:-3,3,35,0|0|0|0,0:0|0:0|0:0|0:0,0:0:0:0:
61,33,44675,2,0,L|80:94,3,35,0|0|0|0,1:0|3:0|1:0|3:0,0:0:0:0:
100,36,45009,1,8,0:0:0:0:
237,64,45342,6,0,P|248:104|222:178,1,105,0|0,1:0|0:0,0:0:0:0:
218,195,45675,2,0,L|129:192,1,70,4|0,1:0|0:0,0:0:0:0:
121,272,46009,2,0,L|210:275,1,70,0|0,1:0|0:0,0:0:0:0:
275,278,46342,2,0,L|262:374,1,70,0|0,1:0|0:0,0:0:0:0:
348,335,46675,70,0,L|361:239,1,70,0|0,1:0|0:0,0:0:0:0:
410,199,47009,1,0,1:0:0:0:
327,185,47175,2,0,L|276:176,4,35,0|0|0|0|0,0:0|0:0|1:0|0:0|0:0,0:0:0:0:
377,117,47675,1,0,1:0:0:0:
413,41,47842,1,0,0:0:0:0:
328,46,48009,6,0,L|254:56,1,70,0|0,1:0|0:0,0:0:0:0:
174,53,48342,2,0,L|100:63,1,70,0|0,1:0|0:0,0:0:0:0:
87,144,48675,2,0,L|161:134,1,70,0|0,1:0|0:0,0:0:0:0:
240,145,49009,2,0,L|314:135,1,70,0|0,1:0|0:0,0:0:0:0:
388,107,49342,70,0,B|398:191|353:179|376:267,1,140,0|0,1:0|1:0,0:0:0:0:
418,313,49842,2,0,P|433:300|453:265,4,35,0|0|0|0|8,0:0|0:0|1:0|0:0|0:0,0:0:0:0:
335,328,50342,1,8,1:2:0:0:
251,334,50509,1,0,0:0:0:0:
167,339,50675,6,0,L|71:345,1,70,8|0,1:3|0:0,0:0:0:0:
44,275,51009,2,0,L|9:192,1,70,0|0,3:0|3:0,0:0:0:0:
91,172,51342,2,0,L|116:72,3,70,0|0|0|0,3:0|3:0|3:0|3:0,0:0:0:0:
181,62,52009,70,0,L|263:45,1,70,0|0,3:0|3:0,0:0:0:0:
308,108,52342,2,0,L|376:122,1,70,0|0,3:0|3:0,0:0:0:0:
460,114,52675,2,0,L|443:202,3,70,0|0|0|0,3:0|3:0|3:0|3:0,0:0:0:0:
386,242,53342,6,0,L|396:284,3,35,0|0|0|0,0:0|0:0|0:0|0:0,0:0:0:0:
361,250,53675,2,0,L|351:208,3,35,0|0|0|0,0:0|0:0|0:0|0:0,0:0:0:0:
336,255,54009,2,0,L|346:297,3,35,0|0|0|0,0:0|0:0|0:0|0:0,0:0:0:0:
312,261,54342,2,0,L|302:219,3,35,0|0|0|0,0:0|0:0|0:0|0:0,0:0:0:0:
289,266,54675,69,0,1:0:0:0:
132,73,56009,54,0,P|175:71|222:84,1,83.9999974365235,6|0,1:0|0:0,0:0:0:0:
297,68,56342,2,0,L|285:182,1,83.9999974365235,0|0,1:0|3:0,0:0:0:0:
227,209,56675,1,8,3:2:0:0:
227,209,56842,1,0,1:0:0:0:
143,221,57009,1,0,0:0:0:0:
61,241,57175,1,0,0:0:0:0:
214,310,57509,6,0,P|259:311|318:324,1,83.9999974365235,0|0,1:0|0:0,0:0:0:0:
371,357,57842,2,0,L|391:250,1,83.9999974365235,0|8,1:0|0:0,0:0:0:0:
343,202,58175,1,2,3:1:0:0:
427,206,58342,1,2,3:1:0:0:
511,206,58509,1,2,3:1:0:0:
471,131,58675,69,0,0:0:0:0:
338,27,59009,2,0,P|332:65|327:127,2,83.9999974365235,4|0|8,1:0|0:0|0:0,0:0:0:0:
249,36,59509,2,0,L|141:52,1,83.9999974365235,0|0,1:0|0:0,0:0:0:0:
85,23,59842,1,0,1:2:0:0:
85,23,60009,5,0,3:0:0:0:
104,104,60175,2,0,P|110:145|116:195,1,83.9999974365235,0|0,1:0|0:0,0:0:0:0:
115,271,60509,1,0,1:0:0:0:
103,353,60675,2,0,L|43:366,4,41.9999987182618,8|0|0|0|0,0:0|0:0|3:0|3:0|3:0,0:0:0:0:
181,323,61175,1,0,3:0:0:0:
264,333,61342,70,0,P|305:336|364:347,1,83.9999974365235,0|0,1:0|0:0,0:0:0:0:
426,372,61675,2,0,L|440:260,1,83.9999974365235,6|0,1:0|0:0,0:0:0:0:
376,228,62009,1,8,0:0:0:0:
376,228,62175,1,0,1:0:0:0:
449,186,62342,1,0,0:0:0:0:
481,108,62509,1,0,0:0:0:0:
313,114,62842,6,0,P|269:115|212:124,1,83.9999974365235,0|0,1:0|0:0,0:0:0:0:
145,115,63175,2,0,P|152:153|159:224,1,83.9999974365235,0|8,1:0|0:0,0:0:0:0:
175,280,63509,1,2,3:1:0:0:
257,294,63675,1,2,3:1:0:0:
340,304,63842,1,2,3:1:0:0:
402,360,64009,69,0,1:0:0:0:
442,135,64342,2,0,L|458:23,2,83.9999974365235,0|0|12,1:0|1:0|0:0,0:0:0:0:
472,213,64842,2,0,P|428:210|377:216,1,83.9999974365235,0|0,1:0|0:0,0:0:0:0:
323,160,65175,1,0,3:0:0:0:
291,82,65342,6,0,L|268:25,3,41.9999987182618,0|0|0|0,1:0|3:0|3:0|3:0,0:0:0:0:
267,84,65675,2,0,L|218:46,3,41.9999987182618,0|0|0|0,1:0|3:0|3:0|3:0,0:0:0:0:
247,98,66009,2,0,L|186:89,3,41.9999987182618,0|0|0|0,1:0|0:0|1:0|0:0,0:0:0:0:
231,124,66342,1,0,0:0:0:0:
485,343,67009,70,0,P|484:296|475:238,1,83.9999974365235,6|0,1:0|0:0,0:0:0:0:
429,191,67342,1,8,0:0:0:0:
429,191,67509,1,0,1:0:0:0:
347,209,67675,1,0,3:0:0:0:
275,253,67842,1,0,3:0:0:0:
254,86,68175,6,0,P|212:88|160:95,1,83.9999974365235,0|0,1:0|0:0,0:0:0:0:
90,65,68509,2,0,P|95:104|103:174,1,83.9999974365235,0|8,1:0|0:0,0:0:0:0:
36,202,68842,1,2,3:1:0:0:
114,232,69009,1,2,3:1:0:0:
194,254,69175,1,2,3:1:0:0:
231,329,69342,69,2,0:0:0:0:
383,218,69675,2,0,L|484:214,1,83.9999974365235,4|0,1:0|0:0,0:0:0:0:
449,131,70009,2,0,P|458:90|475:17,1,83.9999974365235,2|2,1:0|1:0,0:0:0:0:
383,44,70342,1,2,0:1:0:0:
360,125,70509,1,2,0:1:0:0:
296,179,70675,5,6,0:1:0:0:
213,161,70842,2,0,L|222:244,1,83.9999974365235,0|0,1:0|3:0,0:0:0:0:
138,256,71175,2,0,L|128:172,2,83.9999974365235,0|12|0,1:0|0:0|0:0,0:0:0:0:
110,335,71675,2,0,P|149:343|199:306,1,83.9999974365235,0|0,3:0|1:0,0:0:0:0:
253,271,72009,70,0,B|355:259|314:310|439:288,1,167.999994873047,0|0,1:0|0:0,0:0:0:0:
481,136,72675,1,12,0:0:0:0:
481,136,72842,1,0,1:0:0:0:
396,131,73009,1,0,0:0:0:0:
315,153,73175,1,0,0:0:0:0:
147,142,73509,6,0,P|154:178|165:238,1,83.9999974365235,0|0,1:0|0:0,0:0:0:0:
143,306,73842,2,0,P|185:307|248:319,1,83.9999974365235,0|8,1:0|0:0,0:0:0:0:
299,354,74175,1,2,3:1:0:0:
367,305,74342,1,2,3:1:0:0:
387,223,74509,1,2,3:1:0:0:
306,246,74675,69,0,1:0:0:0:
280,165,74842,2,0,L|266:106,2,41.9999987182618,0|0|12,3:0|1:0|0:0,0:0:0:0:
201,198,75175,5,0,1:0:0:0:
191,114,75342,2,0,L|205:55,2,41.9999987182618,0|0|8,3:0|1:0|0:0,0:0:0:0:
125,166,75675,2,0,L|70:184,4,41.9999987182618,0|0|0|0|0,0:0|0:0|3:0|3:0|1:0,0:0:0:0:
163,145,77009,69,0,1:0:0:0:
157,228,77175,2,0,L|151:295,2,41.9999987182618,0|0|8,3:0|3:0|1:2,0:0:0:0:
256,192,82675,12,0,86342,0:0:0:0:
264,117,86675,54,0,L|281:25,2,70,8|0|0,0:3|0:0|0:0,0:0:0:0:
245,199,87175,1,0,0:0:0:0:
182,142,87342,2,0,L|100:162,1,70,0|0,0:0|0:0,0:0:0:0:
87,238,87675,1,8,0:0:0:0:
170,248,87842,1,8,0:0:0:0:
249,275,88009,54,0,P|253:328|306:351,1,105,0|0,1:0|0:0,0:0:0:0:
328,349,88342,2,0,L|417:360,1,70,4|0,1:0|0:0,0:0:0:0:
429,279,88675,2,0,L|340:268,1,70,0|0,1:0|0:0,0:0:0:0:
315,198,89009,2,0,L|303:113,1,70,0|0,1:0|0:0,0:0:0:0:
381,92,89342,6,0,L|393:177,1,70,0|0,1:0|0:0,0:0:0:0:
460,208,89675,1,0,1:0:0:0:
437,289,89842,2,0,L|426:322,4,35,0|0|0|0|0,0:0|0:0|1:0|0:0|0:0,0:0:0:0:
353,280,90342,1,0,1:0:0:0:
271,301,90509,1,0,0:0:0:0:
188,317,90675,70,0,P|157:324|101:346,1,70,0|0,1:0|0:0,0:0:0:0:
99,254,91009,2,0,P|130:247|186:225,1,70,0|0,1:0|0:0,0:0:0:0:
204,159,91342,2,0,P|235:166|291:188,1,70,0|0,1:0|0:0,0:0:0:0:
300,99,91675,2,0,P|269:92|213:70,1,70,0|0,1:0|0:0,0:0:0:0:
149,91,92009,6,0,B|70:89|102:126|10:123,1,140,0|0,1:0|1:0,0:0:0:0:
19,207,92509,2,0,P|25:224|30:260,4,35,0|0|0|0|8,0:0|0:0|1:0|0:0|0:0,0:0:0:0:
103,209,93009,1,8,1:2:0:0:
180,240,93175,1,0,0:0:0:0:
257,273,93342,70,0,L|346:305,1,70,8|0,1:3|3:0,0:0:0:0:
392,343,93675,2,0,P|400:312|418:260,1,70,0|0,3:0|3:0,0:0:0:0:
467,212,94009,2,0,P|459:181|441:129,3,70,0|0|0|0,3:0|3:0|3:0|3:0,0:0:0:0:
363,140,94675,6,0,P|331:143|285:148,1,70,0|0,3:0|3:0,0:0:0:0:
217,109,95009,2,0,L|187:26,1,70,0|0,3:0|3:0,0:0:0:0:
109,50,95342,2,0,L|138:132,3,70,0|0|0|0,3:0|3:0|3:0|3:0,0:0:0:0:
147,198,96009,70,0,L|189:205,3,35,0|0|0|0,0:0|0:0|0:0|0:0,0:0:0:0:
144,224,96342,2,0,L|101:216,3,35,0|0|0|0,0:0|0:0|0:0|0:0,0:0:0:0:
139,249,96676,2,0,L|181:256,3,35,0|0|0|0,0:0|0:0|0:0|0:0,0:0:0:0:
135,273,97009,2,0,L|92:265,3,35,0|0|0|0,0:0|0:0|0:0|0:0,0:0:0:0:
131,296,97342,5,0,1:0:0:0:
448,223,98675,38,0,L|468:125,1,83.9999974365235,0|0,1:0|0:0,0:0:0:0:
384,113,99009,2,0,L|404:15,1,83.9999974365235,0|0,1:0|0:0,0:0:0:0:
317,16,99342,2,0,P|281:16|254:65,1,83.9999974365235,12|0,0:0|1:0,0:0:0:0:
297,123,99675,2,0,L|305:169,4,41.9999987182618,0|0|0|0|0,3:0|3:0|3:0|3:0|3:0,0:0:0:0:
212,127,100175,6,0,B|116:117|146:181|28:160,1,167.999994873047,0|0,1:0|1:0,0:0:0:0:
27,83,100675,1,12,0:0:0:0:
93,31,100842,1,0,3:0:0:0:
93,31,101009,1,0,3:0:0:0:
93,31,101175,1,0,1:0:0:0:
38,190,101509,69,0,1:0:0:0:
83,260,101675,2,0,B|183:249|139:291|258:279,1,167.999994873047,0|12,1:0|0:0,0:0:0:0:
325,311,102175,1,0,1:0:0:0:
306,229,102342,2,0,P|289:216|261:204,2,41.9999987182618,0|0|8,3:0|3:0|0:0,0:0:0:0:
386,254,102675,5,0,3:0:0:0:
428,181,102842,2,0,L|464:77,1,83.9999974365235,0|0,1:0|0:0,0:0:0:0:
371,100,103175,2,0,L|335:-4,1,83.9999974365235,0|8,1:0|0:0,0:0:0:0:
258,20,103509,2,0,L|278:71,2,41.9999987182618,0|0|0,3:0|3:0|3:0,0:0:0:0:
173,17,103842,1,0,3:0:0:0:
137,93,104009,70,0,L|153:175,1,83.9999974365235,0|0,1:0|0:0,0:0:0:0:
73,203,104343,2,0,L|89:285,1,83.9999974365235,0|0,1:0|0:0,0:0:0:0:
106,367,104675,1,12,0:0:0:0:
169,311,104842,2,0,P|202:319|261:339,2,83.9999974365235,0|0|0,1:0|3:0|0:0,0:0:0:0:
53,188,105509,6,0,B|67:148|50:107|50:107|33:70|52:24,1,167.999994873047,0|0,1:0|1:0,0:0:0:0:
125,66,106009,1,12,0:0:0:0:
205,89,106175,1,0,3:0:0:0:
205,89,106342,1,0,3:0:0:0:
205,89,106509,2,0,L|291:92,1,83.9999974365235,0|0,1:0|1:0,0:0:0:0:
453,57,107009,70,0,L|367:54,2,83.9999974365235,0|0|12,3:0|1:0|0:0,0:0:0:0:
487,133,107509,1,0,1:0:0:0:
488,216,107675,2,0,P|464:253|422:276,1,83.9999974365235
403,193,108009,6,0,P|378:192|352:203,3,41.9999987182618,0|0|0|0,1:0|0:0|0:0|0:0,0:0:0:0:
398,177,108342,2,0,P|376:163|348:160,3,41.9999987182618,0|0|0|0,1:0|0:0|0:0|0:0,0:0:0:0:
402,161,108675,2,0,P|393:136|384:78,2,83.9999974365235,0|0|0,1:0|1:0|0:0,0:0:0:0:
101,276,109675,70,0,B|201:257|166:329|289:289,1,167.999994873047,0|12,1:0|0:0,0:0:0:0:
314,230,110175,2,0,P|286:209|226:223,2,83.9999974365235,0|0|0,1:0|0:0|0:0,0:0:0:0:
439,342,110842,6,0,P|357:309|246:331,1,167.999994873047,0|0,1:0|1:0,0:0:0:0:
195,326,111342,1,12,0:0:0:0:
117,362,111509,1,0,3:0:0:0:
117,362,111675,1,0,3:0:0:0:
117,362,111842,1,0,1:0:0:0:
58,204,112175,69,0,1:0:0:0:
140,185,112342,2,0,B|154:145|137:104|137:104|120:67|139:21,1,167.999994873047,0|12,1:0|0:0,0:0:0:0:
221,34,112842,2,0,P|283:47|302:73,1,83.9999974365235,0|0,1:0|0:0,0:0:0:0:
360,113,113175,2,0,P|327:138|285:139,1,83.9999974365235,0|0,1:0|0:0,0:0:0:0:
235,207,113509,6,0,P|222:269|196:288,1,83.9999974365235,0|0,1:0|0:0,0:0:0:0:
156,346,113842,2,0,P|130:313|129:271,1,83.9999974365235,0|12,1:0|0:0,0:0:0:0:
154,191,114175,2,0,L|129:133,2,41.9999987182618,0|0|0,3:0|3:0|1:0,0:0:0:0:
72,215,114509,1,0,1:0:0:0:
35,290,114675,1,2,1:2:0:0:
35,290,115342,69,12,0:0:0:0:
117,307,115509,2,0,P|153:319|201:360,2,83.9999974365235,0|0|0,1:0|0:0|0:0,0:0:0:0:
72,145,116175,6,0,L|93:242,1,83.9999974365235,0|0,1:0|0:0,0:0:0:0:
173,238,116509,2,0,P|212:239|283:251,2,83.9999974365235,0|12|0,1:0|0:0|3:0,0:0:0:0:
157,155,117009,1,0,3:0:0:0:
135,74,117175,1,0,1:0:0:0:
206,29,117342,70,0,P|255:46|268:89,2,83.9999974365235,0|0|12,1:0|0:0|0:0,0:0:0:0:
131,67,117842,2,0,P|82:84|69:127,2,83.9999974365235,0|0|8,1:0|0:0|0:0,0:0:0:0:
192,124,118342,2,0,L|185:193,4,41.9999987182618,0|0|0|0|0,0:0|3:0|0:0|3:0|1:0,0:0:0:0:
368,324,119675,5,0,1:0:0:0:
373,239,119842,2,0,L|379:174,2,41.9999987182618,0|0|8,3:0|3:0|1:2,0:0:0:0:
