osu file format v14

[General]
AudioFilename: audio.mp3
AudioLeadIn: 0
PreviewTime: 54675
Countdown: 0
SampleSet: Soft
StackLeniency: 0.4
Mode: 0
LetterboxInBreaks: 0
WidescreenStoryboard: 0

[Editor]
DistanceSpacing: 1
BeatDivisor: 2
GridSize: 32
TimelineZoom: 1.300006

[Metadata]
Title:Calling
TitleUnicode:Calling
Artist:Zekk
ArtistUnicode:Zekk
Creator:NeilPerry
Version:Easy
Source:
Tags:Future Bass Abstract Dubstep Drumstep wub den0saur winber1 komore regou hotdog mirash pandahero reiji-rj
BeatmapID:1426984
BeatmapSetID:673878

[Difficulty]
HPDrainRate:2
CircleSize:3
OverallDifficulty:2
ApproachRate:3
SliderMultiplier:0.849999999999999
SliderTickRate:1

[Events]
//Background and Video events
0,0,"zekk2.jpg",0,0
//Break Periods
2,77542,81235
//Storyboard Layer 0 (Background)
//Storyboard Layer 1 (Fail)
//Storyboard Layer 2 (Pass)
//Storyboard Layer 3 (Foreground)
//Storyboard Sound Samples

[TimingPoints]
2676,333.333333333333,4,2,3,30,1,0
14009,-100,4,2,1,30,0,0
22342,-100,4,2,1,40,0,0
24009,-100,4,2,4,60,0,0
25009,-100,4,2,3,60,0,0
26009,-100,4,2,4,60,0,0
30342,-100,4,2,3,60,0,0
31342,-100,4,2,4,60,0,0
32925,-100,4,2,3,60,0,0
33675,-100,4,2,4,60,0,0
34175,-100,4,2,3,60,0,0
34675,-100,4,2,2,60,0,0
35342,-100,4,2,4,60,0,0
35675,-100,4,2,3,60,0,0
36675,-100,4,2,4,60,0,0
37342,-100,4,2,1,60,0,0
38009,-100,4,2,4,60,0,0
45342,-100,4,2,3,70,0,0
45675,-100,4,2,1,70,0,0
50175,-100,4,2,2,70,0,0
55675,-100,4,2,1,70,0,0
56009,-100,4,2,1,80,0,1
76009,-100,4,2,1,80,0,0
77009,-100,4,2,1,80,0,1
77342,-100,4,2,2,80,0,0
82675,-100,4,2,1,50,0,0
84009,-100,4,2,1,60,0,0
86675,-100,4,2,1,60,0,0
88342,-100,4,2,1,70,0,0
92842,-100,4,2,2,70,0,0
98675,-100,4,2,1,80,0,1
118675,-100,4,2,1,80,0,0
119675,-100,4,2,1,80,0,1
120009,-100,4,2,2,80,0,0

[Colours]
Combo1 : 255,255,81
Combo2 : 168,168,168
Combo3 : 113,120,138
Combo4 : 205,37,87
Combo5 : 226,152,69
Combo6 : 36,184,255

[HitObjects]
92,128,13342,6,0,B|189:111|164:173|272:140,1,170,0|0,1:3|3:0,0:0:0:0:
320,87,14342,1,0,0:0:0:0:
375,151,14675,2,0,P|367:215|357:337,1,170,0|0,0:0|3:0,0:0:0:0:
190,289,16009,6,0,B|93:272|118:334|10:301,1,170,0|0,0:0|3:0,0:0:0:0:
14,220,17009,1,0,0:0:0:0:
92,188,17342,2,0,P|97:101|110:5,1,170,0|0,0:0|3:0,0:0:0:0:
194,165,18675,70,0,B|291:148|266:210|374:177,1,170,0|0,0:0|3:0,0:0:0:0:
441,158,19675,1,0,0:0:0:0:
457,74,20009,2,0,P|379:46|314:121,1,170,0|0,0:0|3:0,0:0:0:0:
373,258,21342,6,0,P|428:181|369:115,1,170,0|0,0:0|3:0,0:0:0:0:
331,183,22342,2,0,P|291:188|245:180,1,84.9999999999999
52,255,24009,38,0,P|141:259|249:287,1,170,4|8,1:0|0:0,0:0:0:0:
301,302,25009,1,0,1:0:0:0:
292,217,25342,2,0,P|302:111|314:37,1,170,0|8,0:0|0:0,0:0:0:0:
397,195,26675,6,0,P|448:164|369:114,1,170,0|8,1:0|0:0,0:0:0:0:
309,130,27675,1,0,0:0:0:0:
233,168,28009,2,0,P|147:174|16:178,1,170,0|8,0:0|0:0,0:0:0:0:
194,285,29342,70,0,P|278:289|397:302,1,170,0|8,1:0|0:0,0:0:0:0:
443,325,30342,1,0,1:0:0:0:
432,240,30675,2,0,P|422:161|423:62,1,170,0|8,0:0|0:0,0:0:0:0:
297,186,32009,6,0,B|198:171|226:230|93:209,1,170,0|8,1:0|0:0,0:0:0:0:
50,187,33009,1,0,0:0:0:0:
144,327,33675,1,0,1:0:0:0:
225,302,34009,2,0,P|227:246|232:183,1,84.9999999999999,8|0,0:0|1:0,0:0:0:0:
228,132,34675,70,0,B|328:105|304:184|430:145,1,170,12|8,1:2|0:0,0:0:0:0:
455,98,35675,1,0,1:0:0:0:
476,180,36009,2,0,P|441:241|339:228,1,170,0|8,0:0|0:0,0:0:0:0:
252,98,37342,6,0,P|263:184|266:315,1,170,0|8,1:0|0:0,0:0:0:0:
229,343,38342,1,0,0:0:0:0:
164,288,38675,2,0,P|94:283|27:352,1,170,0|8,0:0|0:0,0:0:0:0:
197,363,40009,70,0,P|267:357|400:351,1,170,0|8,1:0|0:0,0:0:0:0:
450,338,41009,1,0,0:0:0:0:
425,256,41342,2,0,B|405:206|405:206|437:56,1,170,0|0,3:0|0:0,0:0:0:0:
277,17,42675,6,0,B|297:67|297:67|265:217,1,170,0|0,1:0|1:0,0:0:0:0:
238,258,43675,1,0,0:0:0:0:
70,286,44342,1,0,0:0:0:0:
116,356,44675,2,0,P|163:360|320:345,1,170,0|0,1:0|1:0,0:0:0:0:
369,364,45675,70,0,L|385:153,1,170,4|0,1:0|1:0,0:0:0:0:
431,125,46675,2,0,P|343:118|300:197,1,170,0|0,1:0|1:0,0:0:0:0:
273,259,47675,1,0,1:0:0:0:
208,203,48009,6,0,P|129:210|28:222,1,170,0|0,1:0|1:0,0:0:0:0:
40,305,49009,1,0,0:0:0:0:
124,296,49342,2,0,P|203:289|304:277,1,170,0|0,1:0|1:0,0:0:0:0:
424,170,50675,70,0,P|370:133|290:184,2,170,8|0|0,1:3|3:0|3:0,0:0:0:0:
500,321,52675,1,0,3:0:0:0:
338,266,53342,2,0,P|212:269|71:286,1,255
2,303,54675,1,0,1:0:0:0:
280,108,56009,54,0,P|279:191|267:299,1,170,6|8,1:0|3:2,0:0:0:0:
260,362,57009,1,0,0:0:0:0:
148,300,57509,2,0,P|114:306|44:343,2,84.9999999999999,0|0|0,1:0|1:0|3:0,0:0:0:0:
161,173,58675,5,0,0:0:0:0:
211,241,59009,2,0,P|294:246|414:263,1,170,4|0,1:0|0:0,0:0:0:0:
493,198,60175,2,0,P|500:163|489:104,2,84.9999999999999,0|0|0,1:0|1:0|3:0,0:0:0:0:
390,121,61342,70,0,P|308:125|196:137,1,170,0|8,1:0|0:0,0:0:0:0:
135,141,62342,1,0,0:0:0:0:
68,249,62842,2,0,P|66:293|61:342,2,84.9999999999999,0|0|0,1:0|1:0|3:0,0:0:0:0:
194,233,64009,5,0,1:0:0:0:
265,280,64342,2,0,B|362:273|318:332|461:305,1,170,0|0,1:0|0:0,0:0:0:0:
467,234,65342,2,0,B|476:206|476:206|471:116,2,84.9999999999999,0|0|0,1:0|1:0|1:0,0:0:0:0:
212,206,67009,70,0,P|127:203|19:224,1,170,6|0,1:0|3:0,0:0:0:0:
106,105,68175,2,0,P|109:77|199:72,2,127.5,0|8|0,1:0|0:0|1:0,0:0:0:0:
228,139,69675,5,4,1:0:0:0:
233,223,70009,2,0,L|242:380,1,127.5,2|0,1:0|0:1,0:0:0:0:
324,360,70842,2,0,L|422:370,2,84.9999999999999,0|0|0,1:0|1:0|3:0,0:0:0:0:
317,232,72009,69,0,1:0:0:0:
405,87,72675,2,0,B|286:68|315:156|179:122,1,212.5,12|0,0:0|1:0,0:0:0:0:
132,78,73842,1,0,1:0:0:0:
55,40,74175,2,0,P|48:105|92:153,1,127.5,2|0,3:1|1:0,0:0:0:0:
153,202,75009,6,0,P|146:274|138:344,2,127.5,12|8|0,0:0|0:0|1:0,0:0:0:0:
375,327,77009,2,0,P|416:333|468:341,1,84.9999999999999,0|8,1:0|1:2,0:0:0:0:
256,192,82675,12,8,86675,0:3:0:0:
176,189,88342,6,0,P|258:193|371:212,1,170,4|0,1:0|1:0,0:0:0:0:
412,153,89342,2,0,P|430:224|358:290,1,170,0|0,1:0|1:0,0:0:0:0:
283,295,90342,1,0,1:0:0:0:
198,302,90675,6,0,L|15:315,1,170,0|0,1:0|1:0,0:0:0:0:
16,229,91675,1,0,0:0:0:0:
101,224,92009,2,0,L|284:211,1,170,0|0,1:0|1:0,0:0:0:0:
421,290,93342,70,0,P|461:260|428:150,2,170,8|0|0,1:3|3:0|3:0,0:0:0:0:
276,199,95342,1,0,3:0:0:0:
122,277,96009,2,0,B|262:231|244:353|388:292,1,255
442,263,97342,1,0,1:0:0:0:
178,48,98675,54,0,L|64:66,1,84.9999999999999,0|0,1:0|1:0,0:0:0:0:
9,75,99342,1,12,0:0:0:0:
212,134,100175,2,0,L|301:140,2,84.9999999999999,0|0|0,1:0|1:0|3:0,0:0:0:0:
142,81,101175,2,0,P|113:146|151:195,1,127.5,0|0,1:0|1:0,0:0:0:0:
218,223,102009,6,0,P|260:228|381:234,1,127.5,12|8,0:0|0:0,0:0:0:0:
429,234,102842,1,0,1:0:0:0:
462,155,103175,2,0,P|436:103|359:130,1,127.5,0|0,1:0|3:0,0:0:0:0:
300,151,104009,70,0,P|261:146|196:140,1,84.9999999999999,0|0,1:0|1:0,0:0:0:0:
130,138,104675,1,12,0:0:0:0:
303,260,105509,2,0,P|313:297|291:355,2,84.9999999999999,0|0|0,1:0|1:0|3:0,0:0:0:0:
229,302,106509,2,0,L|89:308,1,127.5,0|0,1:0|3:0,0:0:0:0:
101,222,107342,6,0,L|205:217,1,84.9999999999999,12|0,0:0|0:0,0:0:0:0:
260,177,108009,2,0,B|265:147|265:147|250:74,2,84.9999999999999,0|0|0,1:0|1:0|1:0,0:0:0:0:
472,317,109675,70,0,B|485:279|485:279|481:176,1,127.5,0|0,1:0|1:0,0:0:0:0:
353,303,110842,2,0,L|252:310,2,84.9999999999999,0|0|0,1:0|1:0|3:0,0:0:0:0:
396,229,111842,1,0,1:0:0:0:
420,103,112342,5,0,1:0:0:0:
335,106,112675,2,0,L|185:113,1,127.5,12|0,0:0|1:0,0:0:0:0:
162,39,113509,2,0,P|134:59|123:126,2,84.9999999999999,0|0|0,1:0|1:0|3:0,0:0:0:0:
289,30,114675,69,2,1:2:0:0:
407,152,115342,2,0,P|411:215|415:279,1,127.5,12|0,0:0|0:0,0:0:0:0:
437,361,116175,2,0,P|491:322|495:289,2,84.9999999999999,0|0|0,1:0|1:0|3:0,0:0:0:0:
322,303,117342,6,0,P|274:316|179:276,2,127.5,0|12|0,1:0|0:0|0:0,0:0:0:0:
353,223,118675,1,0,1:0:0:0:
120,118,119675,2,0,L|107:28,1,84.9999999999999,0|8,1:0|1:2,0:0:0:0:
