osu file format v14

[General]
AudioFilename: audio.mp3
AudioLeadIn: 0
PreviewTime: 54756
Countdown: 0
SampleSet: Soft
StackLeniency: 0.7
Mode: 2
LetterboxInBreaks: 0
WidescreenStoryboard: 0

[Editor]
Bookmarks: 13506
DistanceSpacing: 2.8
BeatDivisor: 4
GridSize: 32
TimelineZoom: 3.199999

[Metadata]
Title:Calling
TitleUnicode:Calling
Artist:Zekk
ArtistUnicode:Zekk
Creator:Jemzuu
Version:Ultra
Source:osu!
Tags:ajamez spectator afb alienflybot autofanboy denosaur den0saur featured artist fa electronic instrumental Future Bass Dubstep Drumstep drum and n bass dnb wub cyberpunk city
BeatmapID:2589936
BeatmapSetID:1246000

[Difficulty]
HPDrainRate:6
CircleSize:4.2
OverallDifficulty:9.6
ApproachRate:9.6
SliderMultiplier:2
SliderTickRate:2

[Events]
//Background and Video events
0,0,"calling.jpg",0,0
//Break Periods
2,77706,82314
//Storyboard Layer 0 (Background)
//Storyboard Layer 1 (Fail)
//Storyboard Layer 2 (Pass)
//Storyboard Layer 3 (Foreground)
//Storyboard Layer 4 (Overlay)
//Storyboard Sound Samples

[TimingPoints]
173,333.333333333333,4,2,3,30,1,0
13506,-111.111111111111,4,2,3,30,0,0
14089,-111.111111111111,4,2,3,5,0,0
14173,-111.111111111111,4,2,1,30,0,0
15256,-111.111111111111,4,2,1,5,0,0
15339,-111.111111111111,4,2,1,30,0,0
17089,-111.111111111111,4,2,1,5,0,0
17173,-111.111111111111,4,2,1,30,0,0
17756,-111.111111111111,4,2,1,5,0,0
17839,-111.111111111111,4,2,1,30,0,0
18089,-111.111111111111,4,2,1,5,0,0
18173,-111.111111111111,4,2,1,30,0,0
18423,-111.111111111111,4,2,1,5,0,0
18506,-111.111111111111,4,2,1,30,0,0
19256,-111.111111111111,4,2,1,5,0,0
19339,-111.111111111111,4,2,1,30,0,0
19756,-111.111111111111,4,2,1,5,0,0
19839,-111.111111111111,4,2,1,30,0,0
20089,-111.111111111111,4,2,1,5,0,0
20173,-111.111111111111,4,2,1,30,0,0
20423,-111.111111111111,4,2,1,5,0,0
20506,-111.111111111111,4,2,1,30,0,0
21756,-111.111111111111,4,2,1,5,0,0
21839,-111.111111111111,4,2,1,30,0,0
22423,-111.111111111111,4,2,1,5,0,0
22506,-111.111111111111,4,2,1,40,0,0
22839,-100,4,2,1,40,0,0
23506,-100,4,2,1,50,0,0
23839,-100,4,2,2,70,0,0
24173,-100,4,2,4,60,0,0
25173,-100,4,2,3,60,0,0
25673,-100,4,2,1,60,0,0
26173,-100,4,2,4,60,0,0
26339,-100,4,2,3,60,0,0
26839,-100,4,2,4,60,0,0
29006,-100,4,2,3,60,0,0
29173,-100,4,2,2,60,0,0
29506,-100,4,2,4,60,0,0
30506,-100,4,2,3,60,0,0
31506,-100,4,2,4,60,0,0
31673,-100,4,2,3,60,0,0
32173,-100,4,2,4,60,0,0
33089,-100,4,2,3,60,0,0
33339,-100,4,2,1,60,0,0
33506,-100,4,2,3,60,0,0
33839,-100,4,2,4,60,0,0
34339,-100,4,2,3,60,0,0
34839,-100,4,2,2,60,0,0
35506,-100,4,2,4,60,0,0
35839,-100,4,2,3,60,0,0
36339,-100,4,2,2,60,0,0
36839,-100,4,2,4,60,0,0
37006,-100,4,2,3,60,0,0
37506,-100,4,2,1,60,0,0
38006,-100,4,2,3,60,0,0
38173,-100,4,2,4,60,0,0
39673,-100,4,2,2,60,0,0
40173,-100,4,2,4,60,0,0
44506,-100,4,1,0,60,0,0
44839,-100,4,2,4,60,0,0
45173,-100,4,2,2,60,0,0
45506,-76.9230769230769,4,2,3,70,0,0
45839,-86.9565217391304,4,2,1,70,0,0
50339,-86.9565217391304,4,2,2,70,0,0
53506,-86.9565217391304,4,1,0,30,0,0
53839,-86.9565217391304,4,1,0,45,0,0
54173,-86.9565217391304,4,1,0,60,0,0
54506,-86.9565217391304,4,1,0,70,0,0
54839,-86.9565217391304,4,2,2,70,0,0
55839,-86.9565217391304,4,2,1,70,0,0
56172,-80,4,2,1,80,0,1
56506,-66.6666666666667,4,2,1,80,0,1
56839,-80,4,2,1,80,0,1
57798,-80,4,2,1,5,0,1
57839,-80,4,2,1,80,0,1
58506,-80,4,2,2,80,0,1
58839,-80,4,2,1,80,0,1
59173,-80,4,2,2,80,0,1
60006,-80,4,2,1,80,0,1
61464,-80,4,2,1,5,0,1
61506,-80,4,2,1,80,0,1
63131,-80,4,2,1,5,0,1
63173,-80,4,2,1,80,0,1
63839,-80,4,2,2,80,0,1
64173,-80,4,2,1,80,0,1
66506,-80,4,1,0,50,0,0
67172,-80,4,2,1,80,0,1
68464,-80,4,2,1,5,0,1
68506,-80,4,2,1,80,0,1
69173,-80,4,2,2,80,0,1
69506,-80,4,2,1,80,0,1
73798,-80,4,2,1,5,0,1
73839,-80,4,2,1,80,0,1
74506,-80,4,2,2,80,0,1
74839,-80,4,2,1,80,0,1
76172,-100,4,2,1,80,0,0
77506,-100,4,2,2,80,0,1
77589,-100,4,2,2,80,0,0
82839,-100,4,2,1,50,0,0
84173,-100,4,2,1,60,0,0
86756,-100,4,2,1,5,0,0
86839,-100,4,2,1,60,0,0
87839,-100,4,2,2,80,0,0
88173,-100,4,2,3,30,0,0
88506,-86.9565217391304,4,2,1,70,0,0
93006,-86.9565217391304,4,2,2,70,0,0
96173,-86.9565217391304,4,1,0,30,0,0
96506,-86.9565217391304,4,1,0,45,0,0
96839,-86.9565217391304,4,1,0,60,0,0
97173,-86.9565217391304,4,1,0,70,0,0
97506,-86.9565217391304,4,2,2,70,0,0
98506,-86.9565217391304,4,2,1,70,0,0
98839,-76.9230769230769,4,2,1,80,0,1
99173,-66.6666666666667,4,2,1,80,0,1
99506,-76.9230769230769,4,2,1,80,0,1
103839,-36.3636363636364,4,2,1,80,0,1
104006,-76.9230769230769,4,2,1,80,0,1
104506,-66.6666666666667,4,2,1,80,0,1
104839,-76.9230769230769,4,2,1,80,0,1
109172,-76.9230769230769,4,2,1,80,0,0
109839,-76.9230769230769,4,2,1,80,0,1
118839,-71.4285714285714,4,2,1,80,0,0
120172,-100,4,2,2,80,0,1
120256,-100,4,2,2,80,0,0

[Colours]
Combo1 : 255,155,205
Combo2 : 74,165,255
Combo3 : 128,255,255
Combo4 : 155,155,255

[HitObjects]
440,346,13506,6,0,P|458:279|374:209,1,179.999994506836,0|0,1:3|0:0,0:0:0:0:
129,169,14173,2,0,L|31:163,2,89.9999972534181,0|0|0,3:0|0:0|0:0,0:0:0:0:
395,32,14839,2,0,L|208:56,1,179.999994506836,0|0,0:0|0:0,0:0:0:0:
219,143,15339,1,0,0:0:0:0:
263,146,15422,1,0,0:0:0:0:
308,150,15505,1,0,3:0:0:0:
462,118,15673,2,0,L|470:305,1,179.999994506836
290,335,16173,5,0,0:0:0:0:
290,335,16339,2,0,L|288:132,1,179.999994506836,0|0,0:0|0:0,0:0:0:0:
113,83,16839,2,0,L|320:57,1,179.999994506836,0|0,3:0|0:0,0:0:0:0:
291,179,17339,1,0,0:0:0:0:
113,91,17506,6,0,L|110:301,1,179.999994506836,0|0,0:0|0:0,0:0:0:0:
110,270,18006,1,0,0:0:0:0:
251,328,18173,2,0,L|150:333,1,89.9999972534181,0|0,3:0|0:0,0:0:0:0:
329,239,18506,1,0,0:0:0:0:
374,239,18589,1,0,0:0:0:0:
419,239,18672,1,0,0:0:0:0:
154,362,18839,6,0,P|124:283|223:202,1,224.999993133545,0|0,0:0|0:0,0:0:0:0:
276,199,19339,1,0,0:0:0:0:
115,174,19506,2,0,L|101:73,1,89.9999972534181,0|0,3:0|0:0,0:0:0:0:
262,100,19839,2,0,L|270:1,1,89.9999972534181,0|0,0:0|0:0,0:0:0:0:
441,205,20173,6,0,L|224:223,1,179.999994506836,0|0,0:0|0:0,0:0:0:0:
219,232,20589,1,0,0:0:0:0:
203,272,20672,1,0,0:0:0:0:
223,310,20755,1,0,0:0:0:0:
266,319,20839,2,0,L|383:321,1,89.9999972534181,0|0,3:0|0:0,0:0:0:0:
216,353,21173,1,0,0:0:0:0:
360,370,21339,1,0,0:0:0:0:
108,313,21506,6,0,P|97:244|197:182,1,179.999994506836,0|0,0:0|0:0,0:0:0:0:
288,173,22006,1,0,0:0:0:0:
123,101,22173,2,0,L|20:91,1,89.9999972534181,0|0,3:0|0:0,0:0:0:0:
195,10,22506,2,0,L|85:17,1,89.9999972534181,0|0,0:0|0:0,0:0:0:0:
365,50,22839,5,8,3:3:0:0:
438,80,23006,1,0,3:0:0:0:
328,122,23173,1,0,3:0:0:0:
454,165,23339,1,0,3:0:0:0:
294,199,23506,1,0,3:0:0:0:
470,252,23673,1,0,3:0:0:0:
221,242,23839,1,8,3:2:0:0:
488,343,24006,1,8,3:2:0:0:
163,298,24173,6,0,P|145:233|267:162,1,200,4|0,1:0|0:0,0:0:0:0:
104,117,24673,1,0,0:0:0:0:
250,70,24839,2,0,L|356:64,1,100,8|0,0:0|0:0,0:0:0:0:
175,22,25173,2,0,P|164:83|254:134,1,150,0|0,1:0|0:0,0:0:0:0:
287,139,25506,5,0,0:0:0:0:
149,212,25673,1,0,1:0:0:0:
312,243,25839,2,0,L|318:354,1,100,0|0,0:0|0:0,0:0:0:0:
59,363,26173,1,8,0:0:0:0:
200,343,26339,1,0,1:0:0:0:
51,273,26506,2,0,L|50:158,1,100,0|0,1:0|0:0,0:0:0:0:
297,34,26839,6,0,L|91:66,1,200,0|0,1:0|0:0,0:0:0:0:
210,110,27339,1,0,0:0:0:0:
345,126,27506,2,0,L|357:247,1,100,8|0,0:0|0:0,0:0:0:0:
197,230,27839,2,0,L|188:339,1,100,0|0,0:0|1:0,0:0:0:0:
335,356,28173,5,0,0:0:0:0:
217,367,28339,1,0,0:0:0:0:
93,362,28506,2,0,L|86:248,1,100,0|0,1:0|0:0,0:0:0:0:
316,161,28839,2,0,L|200:161,1,100,8|0,0:0|1:0,0:0:0:0:
472,226,29173,6,0,P|481:161|410:91,1,150,12|0,0:0|0:0,0:0:0:0:
259,62,29506,6,0,L|39:117,1,200,0|0,1:0|0:0,0:0:0:0:
119,146,29923,1,0,0:0:0:0:
176,154,30006,1,0,0:0:0:0:
26,195,30173,2,0,L|21:298,1,100,8|0,0:0|0:0,0:0:0:0:
177,258,30506,2,0,L|193:375,1,100,0|0,1:0|0:0,0:0:0:0:
428,273,30839,5,0,0:0:0:0:
293,237,31006,1,0,1:0:0:0:
434,186,31173,2,0,L|437:57,1,100,0|0,0:0|0:0,0:0:0:0:
286,43,31506,2,0,L|169:51,1,100,8|0,0:0|1:0,0:0:0:0:
340,134,31839,2,0,L|453:142,1,100,0|0,0:0|1:0,0:0:0:0:
185,320,32173,6,0,L|175:200,1,100,0|0,1:0|0:0,0:0:0:0:
342,133,32506,2,0,L|185:108,1,150,0|0,0:0|0:0,0:0:0:0:
193,109,32839,2,0,L|318:98,1,100,8|0,0:0|0:0,0:0:0:0:
98,169,33089,2,0,L|85:-24,1,150,0|0,1:0|1:0,0:0:0:0:
344,195,33506,5,0,1:0:0:0:
208,230,33673,1,0,1:0:0:0:
351,284,33839,2,0,L|489:282,1,100,0|0,1:0|0:0,0:0:0:0:
195,366,34173,1,8,0:0:0:0:
329,366,34339,1,0,1:0:0:0:
474,351,34506,2,0,L|474:223,1,100,0|0,1:0|0:0,0:0:0:0:
194,273,34839,6,0,P|186:216|266:155,1,150,12|0,1:2|0:0,0:0:0:0:
307,151,35173,2,0,L|415:149,1,100,0|0,0:0|0:0,0:0:0:0:
163,291,35506,2,0,L|153:186,1,100,8|0,0:0|0:0,0:0:0:0:
305,186,35839,2,0,L|316:70,1,100,0|0,1:0|0:0,0:0:0:0:
156,50,36173,5,0,0:0:0:0:
290,35,36339,1,0,1:0:0:0:
134,97,36506,2,0,L|76:94,2,50,0|0|0,0:0|0:0|0:0,0:0:0:0:
386,278,36839,1,8,0:0:0:0:
252,328,37006,1,0,1:0:0:0:
101,345,37173,2,0,L|94:231,1,100,0|0,1:0|0:0,0:0:0:0:
368,37,37506,6,0,P|385:103|276:176,1,200,0|0,1:0|0:0,0:0:0:0:
428,219,38006,1,0,1:0:0:0:
282,284,38173,2,0,L|172:282,1,100,8|0,0:0|0:0,0:0:0:0:
343,351,38506,1,0,0:0:0:0:
87,364,38673,1,0,1:0:0:0:
227,343,38839,6,0,L|228:216,1,100
375,216,39173,2,0,L|379:100,1,100,0|0,1:0|0:0,0:0:0:0:
231,84,39506,1,8,0:0:0:0:
392,21,39673,2,0,L|321:18,1,50,8|0,0:0|0:0,0:0:0:0:
136,159,39839,2,0,L|190:168,1,50,8|0,0:0|0:0,0:0:0:0:
260,197,40006,2,0,L|351:188,1,50,0|0,3:0|3:0,0:0:0:0:
107,321,40173,6,0,P|41:299|64:171,1,200,0|0,1:0|0:0,0:0:0:0:
161,151,40673,1,0,0:0:0:0:
305,147,40839,2,0,L|334:94,2,50,8|0|0,0:0|0:0|0:0,0:0:0:0:
152,42,41173,2,0,L|263:31,1,100,0|0,0:0|0:0,0:0:0:0:
408,65,41506,2,0,L|340:79,1,50,0|0,3:0|3:0,0:0:0:0:
161,151,41673,6,0,L|150:279,1,100,0|0,1:0|0:0,0:0:0:0:
392,182,42006,2,0,L|408:308,1,100,0|0,1:0|0:0,0:0:0:0:
346,299,42256,1,0,0:0:0:0:
266,337,42339,2,0,L|328:343,1,50,0|0,1:0|0:0,0:0:0:0:
496,93,42506,2,0,L|434:85,1,50,0|0,3:0|3:0,0:0:0:0:
272,55,42673,2,0,L|358:62,1,50,0|0,3:0|3:0,0:0:0:0:
144,270,42839,5,0,1:0:0:0:
141,149,43006,1,0,0:0:0:0:
267,176,43173,1,0,1:0:0:0:
138,269,43339,1,0,0:0:0:0:
371,327,43506,6,0,L|399:280,2,50,0|0|0,1:0|0:0|0:0,0:0:0:0:
171,360,43756,2,0,L|80:363,2,50,0|0|0,1:0|0:0|0:0,0:0:0:0:
369,111,44006,2,0,L|292:108,1,50,0|0,1:0|0:0,0:0:0:0:
93,42,44173,5,0,1:0:0:0:
221,25,44339,1,0,1:0:0:0:
361,32,44506,1,0,0:0:0:0:
389,70,44589,1,0,0:0:0:0:
374,116,44672,1,0,0:0:0:0:
328,130,44756,1,0,0:0:0:0:
129,199,44839,2,0,L|226:204,1,50,0|0,1:0|3:0,0:0:0:0:
383,308,45006,2,0,L|452:302,1,50,0|0,1:0|3:0,0:0:0:0:
212,358,45173,2,0,P|180:295|259:238,1,150,8|0,0:0|0:0,0:0:0:0:
305,215,45506,6,0,L|483:301,1,194.999991073609,0|0,1:0|0:0,0:0:0:0:
272,116,45839,6,0,L|197:106,1,57.5000010967255,4|0,1:0|0:0,0:0:0:0:
277,80,46006,2,0,L|353:69,1,57.5000010967255
262,48,46173,2,0,L|182:39,1,57.5000010967255,0|0,1:0|0:0,0:0:0:0:
279,31,46339,2,0,L|346:15,1,57.5000010967255,0|0,0:0|0:0,0:0:0:0:
143,105,46506,2,0,L|136:190,1,57.5000010967255,0|0,1:0|0:0,0:0:0:0:
217,168,46673,2,0,L|232:259,1,57.5000010967255
30,230,46839,6,0,L|20:308,1,57.5000010967255,0|0,1:0|0:0,0:0:0:0:
107,286,47006,2,0,L|109:353,1,57.5000010967255
197,302,47173,2,0,L|203:374,1,57.5000010967255,0|0,1:0|0:0,0:0:0:0:
112,307,47339,2,0,L|90:389,1,57.5000010967255,0|0,0:0|0:0,0:0:0:0:
277,339,47506,2,0,L|345:331,1,57.5000010967255,0|0,1:0|0:0,0:0:0:0:
258,282,47673,2,0,L|339:273,1,57.5000010967255
475,206,47839,2,0,L|431:155,1,57.5000010967255,0|0,1:0|0:0,0:0:0:0:
265,78,48006,2,0,L|171:80,1,57.5000010967255,0|0,0:0|0:0,0:0:0:0:
395,43,48173,6,0,L|401:108,1,57.5000010967255,0|0,1:0|0:0,0:0:0:0:
334,123,48339,2,0,L|245:132,1,57.5000010967255,0|0,0:0|0:0,0:0:0:0:
355,183,48506,2,0,L|343:250,1,57.5000010967255,0|0,1:0|0:0,0:0:0:0:
265,257,48673,2,0,L|177:256,1,57.5000010967255
390,320,48839,6,0,L|325:374,1,57.5000010967255,0|0,1:0|0:0,0:0:0:0:
272,363,49006,2,0,L|183:366,1,57.5000010967255,0|0,0:0|0:0,0:0:0:0:
388,227,49173,2,0,L|315:260,1,57.5000010967255,0|0,1:0|0:0,0:0:0:0:
168,189,49339,2,0,L|65:185,1,57.5000010967255,0|0,0:0|0:0,0:0:0:0:
335,165,49506,6,0,L|350:87,1,57.5000010967255,0|0,1:0|0:0,0:0:0:0:
258,115,49673,2,0,L|258:46,1,57.5000010967255
168,81,49840,2,0,L|154:12,1,57.5000010967255,0|0,1:0|0:0,0:0:0:0:
246,74,50006,2,0,L|268:-8,1,57.5000010967255
69,33,50173,2,0,L|152:33,1,57.5000010967255,0|0,1:0|0:0,0:0:0:0:
340,179,50339,2,0,L|404:172,1,57.5000010967255,8|0,0:0|0:0,0:0:0:0:
202,202,50506,5,8,1:2:0:0:
173,250,50589,1,0,0:0:0:0:
202,202,50672,1,0,0:0:0:0:
258,307,50756,1,0,0:0:0:0:
24,133,50839,6,0,L|168:118,1,115.000002193451,8|0,1:3|0:0,0:0:0:0:
296,29,51173,2,0,L|178:19,1,115.000002193451,0|0,3:0|3:0,0:0:0:0:
414,103,51506,2,0,L|424:242,1,115.000002193451,0|0,3:0|3:0,0:0:0:0:
258,283,51839,2,0,L|393:298,1,115.000002193451,0|0,3:0|3:0,0:0:0:0:
113,351,52173,5,0,3:0:0:0:
114,236,52339,1,0,3:0:0:0:
261,171,52506,1,0,3:0:0:0:
109,126,52673,1,0,3:0:0:0:
358,79,52839,1,0,3:0:0:0:
203,57,53006,1,0,3:0:0:0:
472,125,53173,1,0,3:0:0:0:
200,171,53339,1,0,3:0:0:0:
317,181,53506,6,0,L|385:108,2,57.5000010967255
238,186,53756,1,0,0:0:0:0:
345,251,53839,2,0,L|407:219,2,57.5000010967255,0|0|0,0:0|0:0|0:0,0:0:0:0:
244,231,54089,1,0,0:0:0:0:
385,314,54173,2,0,L|455:305,2,57.5000010967255,0|0|0,0:0|0:0|0:0,0:0:0:0:
245,284,54423,1,0,0:0:0:0:
434,376,54506,2,0,L|493:374,2,57.5000010967255
245,331,54756,1,0,0:0:0:0:
50,321,54839,5,0,1:0:0:0:
176,275,55006,2,0,L|186:199,1,57.5000010967255,0|0,0:0|0:0,0:0:0:0:
102,209,55173,2,0,L|94:141,1,57.5000010967255,0|0,0:0|0:0,0:0:0:0:
295,95,55339,1,0,0:0:0:0:
168,25,55506,6,0,L|230:21,1,57.5000010967255,0|0,3:0|3:0,0:0:0:0:
378,33,55756,1,0,3:0:0:0:
154,142,55839,2,0,L|0:158,1,115.000002193451,0|0,3:0|0:0,0:0:0:0:
299,109,56173,6,0,P|310:196|204:224,1,187.5,4|0,1:0|0:0,0:0:0:0:
460,179,56506,6,0,P|459:253|315:316,1,225.000008583069,0|0,1:0|3:0,0:0:0:0:
140,344,56839,2,0,L|65:344,1,62.5,8|0,3:2|0:0,0:0:0:0:
265,276,57006,2,0,L|269:204,1,62.5,0|0,1:0|0:0,0:0:0:0:
201,198,57173,2,0,L|106:175,1,62.5
207,155,57339,2,0,L|327:148,1,62.5
77,234,57506,2,0,L|67:141,1,62.5,0|0,3:0|0:0,0:0:0:0:
281,56,57673,6,0,L|135:48,1,125,0|0,1:0|0:0,0:0:0:0:
122,50,57881,1,0,0:0:0:0:
156,49,57923,1,0,0:0:0:0:
368,200,58006,2,0,L|208:211,1,125,0|8,1:0|0:0,0:0:0:0:
184,217,58256,1,0,0:0:0:0:
362,294,58339,6,0,L|444:291,1,62.5,2|0,3:1|0:0,0:0:0:0:
245,132,58506,2,0,L|307:136,1,62.5,2|0,3:1|0:0,0:0:0:0:
126,68,58673,2,0,L|188:63,1,62.5,2|0,1:0|0:0,0:0:0:0:
353,55,58839,6,0,L|355:186,1,125,0|0,0:0|1:0,0:0:0:0:
112,346,59089,2,0,L|80:345,1,31.25,0|0,3:0|3:0,0:0:0:0:
40,338,59173,6,0,P|88:261|184:236,1,187.5,4|0,1:0|0:0,0:0:0:0:
370,226,59506,1,8,0:0:0:0:
114,91,59673,2,0,L|259:51,1,125,0|0,1:0|0:0,0:0:0:0:
172,42,59923,1,0,0:0:0:0:
349,89,60006,1,0,1:2:0:0:
232,152,60173,2,0,L|318:176,1,62.5,0|0,3:0|0:0,0:0:0:0:
469,307,60339,6,0,L|320:278,1,125,0|0,1:0|0:0,0:0:0:0:
410,257,60589,1,0,0:0:0:0:
222,348,60673,2,0,L|293:320,1,62.5,0|0,1:0|0:0,0:0:0:0:
346,283,60839,2,0,L|254:260,1,62.5,8|0,0:0|0:0,0:0:0:0:
108,241,61006,1,0,3:0:0:0:
249,191,61089,1,0,3:0:0:0:
392,170,61173,2,0,L|327:160,1,62.5,0|0,3:0|0:0,0:0:0:0:
121,50,61339,2,0,L|220:41,1,62.5,0|0,3:0|0:0,0:0:0:0:
406,117,61506,6,0,P|430:191|336:254,1,187.5,0|0,1:0|0:0,0:0:0:0:
132,287,61839,6,0,P|183:352|302:357,1,187.5,4|0,1:0|0:0,0:0:0:0:
75,336,62173,2,0,L|61:265,1,62.5,8|0,0:0|0:0,0:0:0:0:
257,201,62339,2,0,L|188:173,1,62.5,0|0,1:0|0:0,0:0:0:0:
131,172,62506,1,0,0:0:0:0:
257,68,62673,2,0,L|277:148,3,62.5
55,28,63006,6,0,L|189:56,1,125,0|0,1:0|0:0,0:0:0:0:
115,80,63256,1,0,0:0:0:0:
278,161,63339,2,0,L|146:180,1,125,0|8,1:0|0:0,0:0:0:0:
222,199,63589,1,0,0:0:0:0:
61,366,63673,6,0,L|44:300,1,62.5,2|0,3:1|0:0,0:0:0:0:
234,260,63840,2,0,L|236:186,1,62.5,2|0,3:1|0:0,0:0:0:0:
417,178,64007,2,0,L|427:113,1,62.5,2|0,1:0|0:0,0:0:0:0:
228,51,64173,6,0,L|382:25,1,125,0|0,0:0|0:0,0:0:0:0:
410,33,64423,1,0,0:0:0:0:
233,172,64506,2,0,L|123:188,1,62.5,0|0,1:0|3:0,0:0:0:0:
368,284,64673,2,0,L|295:288,1,62.5,0|0,1:0|0:0,0:0:0:0:
113,349,64839,2,0,L|22:346,1,62.5,12|0,0:0|0:0,0:0:0:0:
241,286,65006,5,0,1:0:0:0:
122,269,65173,2,0,L|114:183,1,62.5
255,153,65339,1,0,3:0:0:0:
396,145,65423,1,0,3:0:0:0:
197,125,65506,6,0,L|123:45,2,62.5,0|0|0,1:0|3:0|3:0,0:0:0:0:
273,132,65756,1,0,3:0:0:0:
176,195,65839,2,0,L|109:158,2,62.5,0|0|0,1:0|3:0|3:0,0:0:0:0:
270,182,66089,1,0,3:0:0:0:
129,258,66173,2,0,L|48:248,2,62.5,0|0|0,1:0|0:0|1:0,0:0:0:0:
314,283,66423,1,0,0:0:0:0:
109,345,66506,5,8,0:3:0:0:
49,334,66589,1,0,0:0:0:0:
23,280,66672,1,0,0:0:0:0:
52,227,66755,1,0,0:0:0:0:
221,174,66839,2,0,L|310:167,2,62.5,0|0|0,0:0|0:0|0:0,0:0:0:0:
473,55,67173,6,0,P|428:141|319:145,1,187.5,4|0,1:0|0:0,0:0:0:0:
162,40,67506,2,0,L|243:40,1,62.5,8|0,0:0|0:0,0:0:0:0:
414,143,67673,2,0,L|422:216,1,62.5,0|0,1:0|0:0,0:0:0:0:
349,244,67839,2,0,L|439:267,1,62.5,0|0,3:0|0:0,0:0:0:0:
479,300,68006,2,0,L|416:316,1,62.5,0|0,3:0|0:0,0:0:0:0:
249,352,68173,2,0,L|145:342,1,62.5,0|0,1:0|0:0,0:0:0:0:
380,348,68339,6,0,P|382:276|327:245,1,125,0|0,1:0|0:0,0:0:0:0:
311,238,68548,1,0,0:0:0:0:
275,235,68589,1,0,0:0:0:0:
76,103,68673,2,0,L|236:114,1,125,0|8,1:0|0:0,0:0:0:0:
258,122,68923,1,0,0:0:0:0:
88,269,69006,6,0,L|21:204,1,62.5,2|0,3:1|0:0,0:0:0:0:
215,177,69173,2,0,L|126:154,1,62.5,2|0,3:1|0:0,0:0:0:0:
335,66,69340,2,0,L|268:66,1,62.5,2|0,1:0|0:0,0:0:0:0:
99,86,69506,6,0,L|101:217,1,125,2|0,0:0|1:0,0:0:0:0:
326,342,69756,2,0,L|358:341,1,31.25,0|0,3:0|3:0,0:0:0:0:
398,334,69839,6,0,P|350:257|258:235,1,187.5,4|0,1:0|0:0,0:0:0:0:
457,85,70173,2,0,L|465:185,1,62.5,2|0,1:0|0:0,0:0:0:0:
269,162,70340,2,0,L|268:240,1,62.5,2|0,1:0|0:0,0:0:0:0:
73,255,70507,2,0,L|67:333,1,62.5,2|0,0:1|0:0,0:0:0:0:
260,356,70673,2,0,L|185:321,1,62.5,2|0,0:1|0:0,0:0:0:0:
141,344,70839,2,0,L|134:257,1,62.5
323,211,71006,6,0,L|173:209,1,125,4|0,1:0|3:0,0:0:0:0:
264,180,71256,1,0,3:0:0:0:
105,98,71339,2,0,L|32:92,1,62.5,0|0,1:0|3:0,0:0:0:0:
223,22,71506,2,0,L|300:25,1,62.5,12|0,0:0|0:0,0:0:0:0:
220,62,71673,2,0,L|138:61,1,62.5,0|0,3:0|3:0,0:0:0:0:
345,128,71839,2,0,L|425:132,1,62.5,0|0,3:0|0:0,0:0:0:0:
207,251,72006,2,0,L|301:257,1,62.5,0|0,3:0|0:0,0:0:0:0:
465,284,72173,6,0,L|484:219,3,62.5,0|0|0|0,1:0|0:0|0:0|0:0,0:0:0:0:
420,196,72506,2,0,L|398:194,1,15.625,0|0,0:0|0:0,0:0:0:0:
458,136,72589,2,0,L|480:131,1,15.625
413,82,72673,2,0,L|395:80,1,15.625,0|0,0:0|0:0,0:0:0:0:
453,29,72756,2,0,L|479:25,1,15.625,0|0,0:0|0:0,0:0:0:0:
281,32,72839,6,0,L|174:39,1,62.5,12|0,0:0|0:0,0:0:0:0:
400,179,73006,2,0,L|266:149,1,125,0|0,1:0|0:0,0:0:0:0:
139,251,73339,2,0,P|174:187|318:163,1,187.5
78,165,73673,6,0,L|58:86,1,62.5,0|0,1:0|0:0,0:0:0:0:
253,127,73839,2,0,L|266:56,1,62.5
66,36,74006,2,0,L|214:47,1,125,0|8,1:0|0:0,0:0:0:0:
124,75,74256,1,0,0:0:0:0:
297,265,74339,6,0,L|379:262,1,62.5,2|0,3:1|0:0,0:0:0:0:
178,173,74506,2,0,L|240:177,1,62.5,2|0,3:1|0:0,0:0:0:0:
58,103,74673,2,0,L|120:98,1,62.5,2|0,1:0|0:0,0:0:0:0:
311,40,74839,6,0,L|172:64,1,125,0|0,1:0|3:0,0:0:0:0:
254,92,75089,1,0,1:0:0:0:
451,128,75173,1,12,0:0:0:0:
210,264,75339,2,0,L|359:267,1,125,0|0,1:0|3:0,0:0:0:0:
269,302,75589,1,0,1:0:0:0:
60,336,75673,1,8,0:0:0:0:
175,250,75839,2,0,L|91:250,1,62.5
277,182,76006,1,0,3:0:0:0:
442,177,76089,1,0,3:0:0:0:
272,66,76172,5,0,1:0:0:0:
212,62,76256,1,0,0:0:0:0:
151,69,76339,1,0,0:0:0:0:
105,94,76422,1,0,0:0:0:0:
71,131,76506,1,0,0:0:0:0:
50,176,76589,1,0,0:0:0:0:
44,226,76672,1,0,0:0:0:0:
55,275,76756,1,0,0:0:0:0:
80,318,76839,1,0,0:0:0:0:
118,351,76922,1,0,0:0:0:0:
164,371,77006,1,0,0:0:0:0:
215,377,77089,1,0,0:0:0:0:
453,231,77173,5,0,1:0:0:0:
191,150,77339,2,0,L|108:148,1,50,0|0,3:0|3:0,0:0:0:0:
394,78,77506,5,8,1:2:0:0:
256,192,82839,12,0,86673,0:0:0:0:
187,202,86839,5,8,0:3:0:0:
60,174,87006,1,0,0:0:0:0:
224,105,87173,1,0,0:0:0:0:
91,72,87339,1,0,0:0:0:0:
257,28,87506,5,0,0:0:0:0:
306,27,87589,1,0,0:0:0:0:
356,27,87672,1,0,0:0:0:0:
208,107,87839,1,8,0:0:0:0:
460,155,88006,1,8,0:0:0:0:
187,203,88173,6,0,L|181:358,1,150,0|0,1:0|0:0,0:0:0:0:
402,357,88506,6,0,L|493:355,1,57.5000010967255,4|0,1:0|0:0,0:0:0:0:
376,328,88673,2,0,L|370:258,1,57.5000010967255
287,264,88839,2,0,L|279:200,1,57.5000010967255,0|0,1:0|0:0,0:0:0:0:
368,195,89006,2,0,L|375:115,1,57.5000010967255
186,129,89173,2,0,L|212:59,1,57.5000010967255,0|0,1:0|0:0,0:0:0:0:
286,75,89339,2,0,L|318:14,1,57.5000010967255
105,252,89506,6,0,L|195:203,1,57.5000010967255,0|0,1:0|0:0,0:0:0:0:
232,212,89673,2,0,L|239:114,1,57.5000010967255
154,141,89839,2,0,L|217:129,1,57.5000010967255,0|0,1:0|0:0,0:0:0:0:
290,130,90006,2,0,L|307:36,1,57.5000010967255
116,38,90173,2,0,L|18:49,1,57.5000010967255,0|0,1:0|0:0,0:0:0:0:
131,79,90339,2,0,L|49:86,1,57.5000010967255
255,204,90506,2,0,L|324:206,1,57.5000010967255,0|0,1:0|0:0,0:0:0:0:
252,237,90673,2,0,L|174:246,1,57.5000010967255
383,356,90839,6,0,L|453:340,1,57.5000010967255,0|0,1:0|0:0,0:0:0:0:
368,317,91006,2,0,L|296:311,1,57.5000010967255,0|0,0:0|0:0,0:0:0:0:
387,282,91173,2,0,L|394:207,1,57.5000010967255,0|0,1:0|0:0,0:0:0:0:
317,213,91339,2,0,L|308:137,1,57.5000010967255,0|0,0:0|0:0,0:0:0:0:
107,151,91506,6,0,L|120:76,1,57.5000010967255,0|0,1:0|0:0,0:0:0:0:
197,78,91673,2,0,L|210:12,1,57.5000010967255,0|0,0:0|0:0,0:0:0:0:
31,243,91839,2,0,L|112:246,1,57.5000010967255,0|0,1:0|0:0,0:0:0:0:
159,314,92006,2,0,L|78:319,1,57.5000010967255,0|0,0:0|0:0,0:0:0:0:
287,356,92173,6,0,L|358:340,1,57.5000010967255,0|0,1:0|0:0,0:0:0:0:
270,317,92339,2,0,L|260:232,1,57.5000010967255
335,238,92506,2,0,L|402:233,1,57.5000010967255,0|0,1:0|0:0,0:0:0:0:
221,152,92673,2,0,L|313:148,1,57.5000010967255
455,153,92839,2,0,L|457:68,1,57.5000010967255,0|0,1:0|0:0,0:0:0:0:
272,40,93006,2,0,L|185:31,1,57.5000010967255,8|0,0:0|0:0,0:0:0:0:
429,150,93173,5,8,1:2:0:0:
457,96,93256,1,0,0:0:0:0:
429,150,93339,1,0,0:0:0:0:
372,168,93422,1,0,0:0:0:0:
131,262,93506,5,8,1:3:0:0:
276,281,93673,1,0,3:0:0:0:
133,357,93839,1,0,3:0:0:0:
127,237,94006,1,0,3:0:0:0:
359,151,94173,1,0,3:0:0:0:
215,95,94339,1,0,3:0:0:0:
351,60,94506,1,0,3:0:0:0:
489,48,94673,1,0,3:0:0:0:
255,219,94839,5,0,3:0:0:0:
394,212,95006,1,0,3:0:0:0:
154,318,95173,1,0,3:0:0:0:
297,316,95340,1,0,3:0:0:0:
50,355,95506,1,0,3:0:0:0:
318,356,95673,1,0,3:0:0:0:
181,342,95839,1,0,3:0:0:0:
421,260,96006,1,0,3:0:0:0:
184,227,96173,6,0,L|116:300,2,57.5000010967255,0|0|0,0:0|0:0|0:0,0:0:0:0:
263,222,96423,1,0,0:0:0:0:
156,157,96506,2,0,L|94:189,2,57.5000010967255,0|0|0,0:0|0:0|0:0,0:0:0:0:
257,177,96756,1,0,0:0:0:0:
116,94,96840,2,0,L|46:103,2,57.5000010967255,0|0|0,0:0|0:0|0:0,0:0:0:0:
256,124,97090,1,0,0:0:0:0:
67,32,97173,2,0,L|8:34,2,57.5000010967255,0|0|0,0:0|0:0|0:0,0:0:0:0:
258,76,97423,1,0,0:0:0:0:
453,89,97506,5,0,1:0:0:0:
337,183,97673,2,0,L|252:209,1,57.5000010967255
340,221,97839,2,0,L|408:242,1,57.5000010967255,0|0,0:0|0:0,0:0:0:0:
225,294,98006,1,0,1:0:0:0:
342,342,98173,2,0,L|253:349,1,57.5000010967255,0|0,3:0|3:0,0:0:0:0:
160,347,98423,1,0,3:0:0:0:
391,124,98506,2,0,L|530:113,1,115.000002193451,0|0,1:0|0:0,0:0:0:0:
203,251,98839,6,0,P|223:179|348:146,1,194.999991073609,4|0,1:0|0:0,0:0:0:0:
115,176,99173,6,0,P|152:96|295:70,1,225.000008583069,0|0,1:0|0:0,0:0:0:0:
72,43,99506,2,0,L|63:117,1,64.9999970245363,12|0,0:0|0:0,0:0:0:0:
231,230,99673,2,0,L|151:244,1,64.9999970245363,0|0,1:0|0:0,0:0:0:0:
234,301,99839,2,0,L|334:313,1,64.9999970245363,0|0,3:0|3:0,0:0:0:0:
112,187,100006,2,0,L|38:182,2,64.9999970245363,0|0|0,3:0|3:0|3:0,0:0:0:0:
374,58,100339,6,0,P|327:139|204:161,1,194.999991073609,0|0,1:0|0:0,0:0:0:0:
415,220,100673,2,0,L|487:200,1,64.9999970245363,0|0,1:0|0:0,0:0:0:0:
313,353,100839,1,12,0:0:0:0:
434,357,101006,2,0,L|440:287,1,64.9999970245363,0|0,3:0|0:0,0:0:0:0:
270,276,101173,2,0,L|266:203,1,64.9999970245363,0|0,3:0|0:0,0:0:0:0:
98,284,101339,6,0,L|209:203,1,129.999994049073,0|0,1:0|0:0,0:0:0:0:
262,203,101589,1,0,0:0:0:0:
75,134,101673,1,0,1:0:0:0:
262,203,101756,2,0,L|307:205,1,32.4999985122681,0|0,3:0|3:0,0:0:0:0:
333,204,101839,6,0,P|342:122|239:75,1,194.999991073609,0|0,1:0|0:0,0:0:0:0:
55,116,102173,1,12,0:0:0:0:
301,122,102339,2,0,L|195:227,1,129.999994049073,0|0,1:0|3:0,0:0:0:0:
145,224,102589,1,0,3:0:0:0:
350,290,102673,1,8,0:0:0:0:
219,318,102839,1,0,3:0:0:0:
482,353,103006,6,0,L|490:212,1,129.999994049073,0|0,1:0|0:0,0:0:0:0:
427,207,103256,1,0,0:0:0:0:
247,115,103339,2,0,L|329:98,1,64.9999970245363,0|0,1:0|0:0,0:0:0:0:
478,63,103506,1,8,0:0:0:0:
212,60,103673,2,0,L|286:35,1,64.9999970245363,0|0,3:0|3:0,0:0:0:0:
341,83,103839,6,0,L|46:119,1,275.000002622604,0|0,3:0|3:0,0:0:0:0:
140,139,104089,1,0,0:0:0:0:
345,186,104173,6,0,P|315:251|180:267,1,194.999991073609,0|0,1:0|0:0,0:0:0:0:
444,310,104506,6,0,P|400:224|221:201,1,225.000008583069,0|0,1:0|0:0,0:0:0:0:
108,308,104839,2,0,L|33:312,1,64.9999970245363,12|0,0:0|0:0,0:0:0:0:
236,116,105006,2,0,L|310:109,1,64.9999970245363,0|0,1:0|0:0,0:0:0:0:
91,207,105173,1,0,3:0:0:0:
323,281,105339,2,0,L|196:229,1,129.999994049073
268,228,105589,1,0,0:0:0:0:
92,353,105673,6,0,P|58:270|165:230,1,194.999991073609,0|0,1:0|0:0,0:0:0:0:
317,114,106006,2,0,L|231:109,1,64.9999970245363,0|0,1:0|0:0,0:0:0:0:
80,140,106173,2,0,L|73:72,1,64.9999970245363,12|0,0:0|0:0,0:0:0:0:
235,135,106339,2,0,L|170:102,1,64.9999970245363,0|0,3:0|0:0,0:0:0:0:
342,241,106506,2,0,L|261:266,1,64.9999970245363,0|0,3:0|0:0,0:0:0:0:
445,339,106673,2,0,L|331:351,1,64.9999970245363,0|0,1:0|0:0,0:0:0:0:
223,374,106839,6,0,L|214:241,1,129.999994049073,0|0,1:0|0:0,0:0:0:0:
279,225,107089,1,0,0:0:0:0:
104,128,107173,2,0,L|26:120,1,64.9999970245363,0|0,3:0|3:0,0:0:0:0:
226,46,107339,2,0,L|308:45,1,64.9999970245363,0|0,1:0|0:0,0:0:0:0:
94,209,107506,2,0,L|166:216,1,64.9999970245363,12|0,0:0|0:0,0:0:0:0:
346,308,107673,6,0,L|430:304,1,64.9999970245363,0|0,1:0|0:0,0:0:0:0:
337,279,107839,2,0,L|426:277,1,64.9999970245363,0|0,0:0|0:0,0:0:0:0:
246,246,108006,1,0,3:0:0:0:
90,246,108089,1,0,3:0:0:0:
289,63,108173,6,0,L|357:-12,2,64.9999970245363,0|0|0,1:0|0:0|0:0,0:0:0:0:
210,68,108423,1,0,0:0:0:0:
308,138,108506,2,0,L|373:100,2,64.9999970245363,0|0|0,1:0|0:0|0:0,0:0:0:0:
220,114,108756,1,0,0:0:0:0:
370,195,108840,2,0,L|445:185,2,64.9999970245363,0|0|0,1:0|0:0|1:0,0:0:0:0:
217,166,109090,1,0,0:0:0:0:
420,147,109173,5,2,0:0:0:0:
357,152,109256,1,2,0:0:0:0:
328,207,109339,1,2,0:0:0:0:
357,261,109422,1,2,0:0:0:0:
419,267,109506,2,0,L|492:260,2,64.9999970245363,2|0|0,0:0|0:0|0:0,0:0:0:0:
140,304,109839,6,0,L|267:238,1,129.999994049073,0|0,1:0|3:0,0:0:0:0:
323,235,110089,1,0,3:0:0:0:
125,155,110173,2,0,L|30:151,1,64.9999970245363,12|0,0:0|0:0,0:0:0:0:
272,18,110339,2,0,L|285:87,1,64.9999970245363,0|0,1:0|0:0,0:0:0:0:
203,92,110506,2,0,L|193:169,1,64.9999970245363
281,178,110673,2,0,L|89:251,1,194.999991073609,0|0,0:0|0:0,0:0:0:0:
352,359,111006,6,0,L|321:224,1,129.999994049073,0|0,1:0|0:0,0:0:0:0:
288,223,111214,1,0,0:0:0:0:
251,221,111256,1,0,0:0:0:0:
425,138,111339,2,0,L|434:236,1,64.9999970245363,0|0,1:0|0:0,0:0:0:0:
267,55,111506,6,0,L|363:47,1,64.9999970245363,12|0,0:0|0:0,0:0:0:0:
174,129,111673,2,0,L|261:134,1,64.9999970245363,0|0,3:0|0:0,0:0:0:0:
83,222,111839,2,0,L|16:239,1,64.9999970245363,0|0,3:0|0:0,0:0:0:0:
217,220,112006,6,0,P|300:264|267:363,1,194.999991073609,8|0,1:2|0:0,0:0:0:0:
104,355,112339,1,0,1:0:0:0:
283,350,112423,2,0,L|325:353,1,32.4999985122681,0|0,3:0|3:0,0:0:0:0:
359,357,112506,6,0,P|324:275|212:237,1,194.999991073609,0|0,1:0|0:0,0:0:0:0:
407,152,112839,2,0,L|474:146,1,64.9999970245363,12|0,0:0|0:0,0:0:0:0:
287,84,113006,2,0,L|199:78,1,64.9999970245363,0|0,1:0|0:0,0:0:0:0:
291,50,113173,2,0,L|372:40,1,64.9999970245363
152,40,113339,6,0,P|150:118|276:156,1,194.999991073609,0|0,1:0|0:0,0:0:0:0:
33,304,113673,2,0,P|57:227|181:199,1,194.999991073609,0|0,1:0|0:0,0:0:0:0:
357,213,114006,1,0,1:0:0:0:
108,339,114173,6,0,L|85:193,1,129.999994049073,12|0,0:0|3:0,0:0:0:0:
157,191,114423,1,0,3:0:0:0:
349,64,114506,2,0,L|248:60,1,64.9999970245363,0|0,1:0|0:0,0:0:0:0:
86,168,114673,2,0,L|14:181,1,64.9999970245363,0|0,1:0|0:0,0:0:0:0:
235,161,114839,6,0,L|236:197,1,32.4999985122681,2|0,1:2|0:0,0:0:0:0:
311,221,115006,2,0,L|315:265,1,32.4999985122681,2|0,0:0|0:0,0:0:0:0:
396,272,115173,2,0,L|402:325,1,32.4999985122681,2|0,0:0|0:0,0:0:0:0:
484,325,115339,2,0,L|492:360,1,32.4999985122681,2|0,0:0|0:0,0:0:0:0:
260,354,115506,6,0,L|167:352,1,64.9999970245363,12|0,0:0|0:0,0:0:0:0:
374,146,115673,2,0,L|451:137,2,64.9999970245363,0|0|0,1:0|0:0|0:0,0:0:0:0:
236,104,116006,2,0,P|267:174|390:197,1,194.999991073609
145,286,116339,6,0,P|57:263|59:162,1,194.999991073609,0|0,1:0|0:0,0:0:0:0:
265,102,116673,1,0,1:0:0:0:
41,34,116839,2,0,L|118:48,1,64.9999970245363,12|0,0:0|0:0,0:0:0:0:
265,102,117006,1,0,3:0:0:0:
104,45,117089,2,0,L|71:58,1,32.4999985122681
40,82,117173,2,0,L|116:106,1,64.9999970245363,0|0,3:0|0:0,0:0:0:0:
270,275,117339,2,0,L|205:282,1,64.9999970245363,0|0,1:0|0:0,0:0:0:0:
376,347,117506,6,0,L|445:324,2,64.9999970245363,0|0|0,1:0|0:0|0:0,0:0:0:0:
232,187,117756,1,0,1:0:0:0:
376,347,117839,1,12,0:0:0:0:
150,65,118006,2,0,L|112:143,2,64.9999970245363,0|0|0,1:0|0:0|0:0,0:0:0:0:
293,32,118256,1,0,1:0:0:0:
150,65,118339,2,0,L|285:117,1,129.999994049073,8|0,0:0|0:0,0:0:0:0:
272,142,118589,1,0,3:0:0:0:
78,237,118673,1,0,0:0:0:0:
270,333,118756,1,0,3:0:0:0:
464,339,118839,5,0,1:0:0:0:
474,270,118922,1,0,0:0:0:0:
459,202,119005,1,0,0:0:0:0:
421,144,119088,1,0,0:0:0:0:
365,103,119172,1,0,0:0:0:0:
297,85,119255,1,0,0:0:0:0:
228,92,119338,1,0,0:0:0:0:
166,123,119422,1,0,0:0:0:0:
119,174,119505,1,0,0:0:0:0:
93,238,119588,1,0,0:0:0:0:
91,308,119672,1,0,0:0:0:0:
115,374,119755,1,0,0:0:0:0:
380,161,119839,5,0,1:0:0:0:
89,79,120006,1,0,3:0:0:0:
236,43,120089,1,0,3:0:0:0:
386,36,120173,1,8,1:2:0:0:
