osu file format v14

[General]
AudioFilename: audio.mp3
AudioLeadIn: 0
PreviewTime: 54756
Countdown: 0
SampleSet: Soft
StackLeniency: 0.7
Mode: 2
LetterboxInBreaks: 0
WidescreenStoryboard: 1

[Editor]
Bookmarks: 13506
DistanceSpacing: 2.8
BeatDivisor: 4
GridSize: 32
TimelineZoom: 3.199999

[Metadata]
Title:Calling
TitleUnicode:Calling
Artist:Zekk
ArtistUnicode:Zekk
Creator:Jemzuu
Version:Salad
Source:osu!
Tags:ajamez spectator afb alienflybot autofanboy denosaur den0saur featured artist fa electronic instrumental Future Bass Dubstep Drumstep drum and n bass dnb wub cyberpunk city
BeatmapID:2594407
BeatmapSetID:1246000

[Difficulty]
HPDrainRate:4
CircleSize:3
OverallDifficulty:7.2
ApproachRate:7.2
SliderMultiplier:1.4
SliderTickRate:1

[Events]
//Background and Video events
0,0,"calling.jpg",0,0
//Break Periods
2,77706,81969
//Storyboard Layer 0 (Background)
//Storyboard Layer 1 (Fail)
//Storyboard Layer 2 (Pass)
//Storyboard Layer 3 (Foreground)
//Storyboard Layer 4 (Overlay)
//Storyboard Sound Samples

[TimingPoints]
173,333.333333333333,4,2,3,30,1,0
13506,-100,4,2,3,30,0,0
14089,-100,4,2,3,5,0,0
14173,-100,4,2,1,30,0,0
15256,-100,4,2,1,5,0,0
15339,-100,4,2,1,30,0,0
17089,-100,4,2,1,5,0,0
17173,-100,4,2,1,30,0,0
17756,-100,4,2,1,5,0,0
17839,-100,4,2,1,30,0,0
18089,-100,4,2,1,5,0,0
18173,-100,4,2,1,30,0,0
18423,-100,4,2,1,5,0,0
18506,-100,4,2,1,30,0,0
19256,-100,4,2,1,5,0,0
19339,-100,4,2,1,30,0,0
19756,-100,4,2,1,5,0,0
19839,-100,4,2,1,30,0,0
20089,-100,4,2,1,5,0,0
20173,-100,4,2,1,30,0,0
20423,-100,4,2,1,5,0,0
20506,-100,4,2,1,30,0,0
21756,-100,4,2,1,5,0,0
21839,-100,4,2,1,30,0,0
22423,-100,4,2,1,5,0,0
22506,-100,4,2,1,40,0,0
22839,-100,4,2,1,40,0,0
23506,-100,4,2,1,50,0,0
23839,-100,4,2,2,70,0,0
24173,-100,4,2,4,60,0,0
25173,-100,4,2,3,60,0,0
25673,-100,4,2,1,60,0,0
26173,-100,4,2,4,60,0,0
26339,-100,4,2,3,60,0,0
26839,-100,4,2,4,60,0,0
29006,-100,4,2,3,60,0,0
29173,-100,4,2,2,60,0,0
29506,-100,4,2,4,60,0,0
30506,-100,4,2,3,60,0,0
31506,-100,4,2,4,60,0,0
31673,-100,4,2,3,60,0,0
32173,-100,4,2,4,60,0,0
33089,-100,4,2,3,60,0,0
33339,-100,4,2,1,60,0,0
33506,-100,4,2,3,60,0,0
33839,-100,4,2,4,60,0,0
34339,-100,4,2,3,60,0,0
34839,-100,4,2,2,60,0,0
35506,-100,4,2,4,60,0,0
35839,-100,4,2,3,60,0,0
36339,-100,4,2,2,60,0,0
36839,-100,4,2,4,60,0,0
37006,-100,4,2,3,60,0,0
37506,-100,4,2,1,60,0,0
38006,-100,4,2,3,60,0,0
38173,-100,4,2,4,60,0,0
39673,-100,4,2,2,60,0,0
40173,-100,4,2,4,60,0,0
44506,-100,4,1,0,60,0,0
44839,-100,4,2,4,60,0,0
45173,-100,4,2,2,60,0,0
45839,-100,4,2,1,70,0,0
50339,-100,4,2,2,70,0,0
53506,-100,4,1,0,30,0,0
53839,-100,4,1,0,45,0,0
54173,-100,4,1,0,60,0,0
54506,-100,4,1,0,70,0,0
54839,-100,4,2,2,70,0,0
55839,-100,4,2,1,70,0,0
56172,-86.9565217391304,4,2,1,80,0,1
56839,-86.9565217391304,4,2,1,80,0,1
57798,-86.9565217391304,4,2,1,5,0,1
57839,-86.9565217391304,4,2,1,80,0,1
58506,-86.9565217391304,4,2,2,80,0,1
58839,-86.9565217391304,4,2,1,80,0,1
59173,-86.9565217391304,4,2,2,80,0,1
60006,-86.9565217391304,4,2,1,80,0,1
61464,-86.9565217391304,4,2,1,5,0,1
61506,-86.9565217391304,4,2,1,80,0,1
63131,-86.9565217391304,4,2,1,5,0,1
63173,-86.9565217391304,4,2,1,80,0,1
63839,-86.9565217391304,4,2,2,80,0,1
64173,-86.9565217391304,4,2,1,80,0,1
66506,-86.9565217391304,4,1,0,50,0,0
67172,-86.9565217391304,4,2,1,80,0,1
68464,-86.9565217391304,4,2,1,5,0,1
68506,-86.9565217391304,4,2,1,80,0,1
69173,-86.9565217391304,4,2,2,80,0,1
69506,-86.9565217391304,4,2,1,80,0,1
73798,-86.9565217391304,4,2,1,5,0,1
73839,-86.9565217391304,4,2,1,80,0,1
74506,-86.9565217391304,4,2,2,80,0,1
74839,-86.9565217391304,4,2,1,80,0,1
76172,-100,4,2,1,80,0,0
77506,-100,4,2,2,80,0,1
77589,-100,4,2,2,80,0,0
82839,-100,4,2,1,50,0,0
84173,-100,4,2,1,60,0,0
86756,-100,4,2,1,5,0,0
86839,-100,4,2,1,60,0,0
87839,-100,4,2,2,80,0,0
88173,-100,4,2,3,30,0,0
88506,-86.9565217391304,4,2,1,70,0,0
93006,-86.9565217391304,4,2,2,70,0,0
96173,-86.9565217391304,4,1,0,30,0,0
96506,-86.9565217391304,4,1,0,45,0,0
96839,-86.9565217391304,4,1,0,60,0,0
97173,-86.9565217391304,4,1,0,70,0,0
97506,-86.9565217391304,4,2,2,70,0,0
98506,-86.9565217391304,4,2,1,70,0,0
98839,-83.3333333333333,4,2,1,80,0,1
99506,-83.3333333333333,4,2,1,80,0,1
103839,-83.3333333333333,4,2,1,80,0,1
104006,-83.3333333333333,4,2,1,80,0,1
104839,-83.3333333333333,4,2,1,80,0,1
109172,-83.3333333333333,4,2,1,80,0,0
109839,-83.3333333333333,4,2,1,80,0,1
118839,-83.3333333333333,4,2,1,80,0,0
120172,-100,4,2,2,80,0,1
120256,-100,4,2,2,80,0,0

[Colours]
Combo1 : 255,155,205
Combo2 : 74,165,255
Combo3 : 128,255,255
Combo4 : 155,155,255

[HitObjects]
441,341,13506,6,0,L|434:194,1,140,0|0,1:3|0:0,0:0:0:0:
282,146,14172,2,0,L|134:133,1,140,0|0,3:0|0:0,0:0:0:0:
314,76,14839,6,0,P|335:141|287:200,1,140
224,227,15339,1,0,0:0:0:0:
148,240,15506,1,0,3:0:0:0:
228,269,15672,2,0,L|375:244,1,140,0|0,0:0|0:0,0:0:0:0:
278,327,16172,6,0,P|134:323|61:198,1,280,0|0,0:0|3:0,0:0:0:0:
217,189,17172,2,0,L|263:115,2,70,0|0|0,0:0|0:0|0:0,0:0:0:0:
57,130,17839,1,0,0:0:0:0:
228,84,18172,2,0,L|388:75,1,140,0|0,3:0|0:0,0:0:0:0:
296,126,18672,1,0,0:0:0:0:
133,156,18839,6,0,P|109:214|223:302,1,210,0|0,0:0|0:0,0:0:0:0:
279,337,19506,2,0,L|127:355,1,140,0|0,3:0|0:0,0:0:0:0:
292,237,20172,6,0,L|438:231,1,140
357,201,20672,1,0,0:0:0:0:
271,183,20839,2,0,L|183:194,2,70,0|0|0,3:0|0:0|0:0,0:0:0:0:
446,32,21506,6,0,P|471:103|401:139,1,140,0|0,0:0|0:0,0:0:0:0:
357,158,22006,1,0,0:0:0:0:
281,176,22172,1,0,3:0:0:0:
432,246,22506,1,0,0:0:0:0:
158,349,22839,5,8,3:3:0:0:
92,329,23005,1,0,3:0:0:0:
65,267,23172,1,0,3:0:0:0:
94,206,23339,1,0,3:0:0:0:
160,189,23506,2,0,L|257:177,1,70,0|0,3:0|3:0,0:0:0:0:
62,105,23839,2,0,L|52:26,1,70,8|8,3:2|3:2,0:0:0:0:
227,24,24172,6,0,L|383:54,2,140,4|0|8,1:0|0:0|0:0,0:0:0:0:
70,50,25172,1,0,1:0:0:0:
234,144,25506,2,0,L|376:154,1,140,0|0,0:0|0:0,0:0:0:0:
205,289,26172,2,0,L|102:284,2,70,8|0|0,0:0|1:0|1:0,0:0:0:0:
481,344,26839,6,0,P|484:288|412:232,1,140,0|0,1:0|0:0,0:0:0:0:
276,180,27506,1,8,0:0:0:0:
428,122,27839,1,0,0:0:0:0:
266,79,28172,2,0,L|97:71,1,140,0|0,0:0|1:0,0:0:0:0:
284,25,28839,2,0,L|195:28,1,70,8|0,0:0|1:0,0:0:0:0:
43,94,29172,5,12,0:0:0:0:
59,206,29506,2,0,L|213:222,1,140,0|0,1:0|0:0,0:0:0:0:
25,367,30172,2,0,L|192:348,1,140,8|0,0:0|1:0,0:0:0:0:
325,310,30839,2,0,L|373:236,2,70,0|0|0,0:0|1:0|0:0,0:0:0:0:
158,260,31506,2,0,L|151:116,1,140,8|0,0:0|0:0,0:0:0:0:
425,26,32172,6,0,L|286:60,1,140,0|0,1:0|0:0,0:0:0:0:
300,167,32839,2,0,L|428:168,2,105,8|0|0,0:0|1:0|1:0,0:0:0:0:
232,178,33505,5,0,1:0:0:0:
196,235,33672,1,0,1:0:0:0:
214,301,33838,1,0,1:0:0:0:
372,338,34172,2,0,L|471:341,2,70,8|0|0,0:0|1:0|1:0,0:0:0:0:
89,354,34839,6,0,P|69:301|133:235,1,140,12|0,1:2|0:0,0:0:0:0:
187,234,35339,1,0,0:0:0:0:
265,175,35506,2,0,L|107:158,1,140,8|0,0:0|1:0,0:0:0:0:
292,75,36172,6,0,L|332:8,2,70,0|0|0,0:0|1:0|0:0,0:0:0:0:
116,102,36839,2,0,L|195:135,1,70,8|0,0:0|1:0,0:0:0:0:
259,152,37172,1,0,1:0:0:0:
81,336,37506,6,0,L|62:192,1,140,0|0,1:0|0:0,0:0:0:0:
137,174,38006,1,0,1:0:0:0:
215,157,38172,2,0,L|369:134,1,140,8|0,0:0|0:0,0:0:0:0:
280,114,38672,1,0,1:0:0:0:
204,112,38839,5,0,0:0:0:0:
374,52,39172,2,0,P|394:95|348:183,1,140,0|8,1:0|0:0,0:0:0:0:
188,211,39672,2,0,L|101:199,1,70,8|8,0:0|0:0,0:0:0:0:
188,211,40006,1,0,3:0:0:0:
351,353,40172,6,0,P|421:309|418:239,1,140,0|0,1:0|0:0,0:0:0:0:
251,257,40839,2,0,L|366:160,1,140,8|0,0:0|0:0,0:0:0:0:
182,56,41506,6,0,L|130:48,1,35,0|0,3:0|3:0,0:0:0:0:
106,47,41672,2,0,L|91:199,1,140,0|0,1:0|1:0,0:0:0:0:
265,228,42339,2,0,L|276:318,1,70,0|0,1:0|3:0,0:0:0:0:
237,320,42589,1,0,3:0:0:0:
200,328,42672,1,0,3:0:0:0:
38,338,42839,5,0,1:0:0:0:
31,269,43005,1,0,0:0:0:0:
70,213,43172,1,0,1:0:0:0:
137,197,43338,1,0,0:0:0:0:
217,193,43506,2,0,L|100:152,2,105,0|0|0,1:0|1:0|1:0,0:0:0:0:
295,200,44172,6,0,L|366:159,2,70,0|0|0,1:0|1:0|0:0,0:0:0:0:
129,294,44839,2,0,L|230:309,1,70,0|0,1:0|1:0,0:0:0:0:
274,305,45172,2,0,L|421:281,1,140,8|0,0:0|1:0,0:0:0:0:
111,349,45839,6,0,L|102:192,1,140,4|0,1:0|1:0,0:0:0:0:
175,182,46339,1,0,0:0:0:0:
248,169,46506,1,0,1:0:0:0:
78,82,46839,2,0,L|233:69,1,140,0|0,1:0|1:0,0:0:0:0:
53,213,47506,2,0,L|21:148,2,70,0|0|0,1:0|0:0|1:0,0:0:0:0:
336,160,48172,6,0,P|298:200|200:227,1,140,0|0,1:0|1:0,0:0:0:0:
390,308,48839,2,0,L|397:157,1,140,0|0,1:0|1:0,0:0:0:0:
320,149,49339,1,0,0:0:0:0:
237,135,49506,6,0,L|402:107,1,140,0|0,1:0|1:0,0:0:0:0:
216,47,50172,1,0,1:0:0:0:
146,42,50338,1,8,0:0:0:0:
76,37,50505,1,8,1:2:0:0:
351,60,50839,5,8,1:3:0:0:
417,73,51005,1,0,0:0:0:0:
446,133,51172,1,0,3:0:0:0:
416,194,51338,1,0,0:0:0:0:
349,205,51506,2,0,L|199:220,1,140,0|0,3:0|3:0,0:0:0:0:
374,169,52172,5,0,3:0:0:0:
308,187,52338,1,0,3:0:0:0:
283,249,52505,1,0,3:0:0:0:
317,308,52671,1,0,0:0:0:0:
384,316,52839,2,0,L|469:311,2,70,0|0|0,3:0|3:0|3:0,0:0:0:0:
106,332,53506,6,0,L|72:292,2,35,0|0|0,0:0|0:0|0:0,0:0:0:0:
181,278,53839,2,0,L|254:265,1,70
325,230,54172,6,0,L|354:182,2,35
248,196,54506,2,0,L|161:199,1,70
338,331,54839,5,0,1:0:0:0:
412,350,55006,2,0,P|434:300|387:217,1,140
320,195,55506,2,0,L|259:199,1,35,0|0,3:0|3:0,0:0:0:0:
363,127,55756,2,0,L|423:118,1,35,0|0,3:0|3:0,0:0:0:0:
86,279,56172,6,0,P|20:229|70:168,1,161.000003070831,4|0,1:0|1:0,0:0:0:0:
133,142,56672,1,0,0:0:0:0:
216,113,56839,2,0,L|306:104,1,80.5000015354157,8|0,3:2|1:0,0:0:0:0:
381,120,57172,2,0,L|388:216,1,80.5000015354157,0|0,0:0|0:0,0:0:0:0:
97,378,57672,6,0,P|85:324|163:262,1,161.000003070831,0|0,1:0|1:0,0:0:0:0:
234,248,58172,1,8,0:0:0:0:
316,186,58339,2,0,L|220:176,1,80.5000015354157,2|2,3:1|3:1,0:0:0:0:
148,135,58672,2,0,L|61:150,1,80.5000015354157,2|0,1:0|0:0,0:0:0:0:
350,53,59172,6,0,P|368:109|275:171,1,161.000003070831,4|8,1:0|0:0,0:0:0:0:
215,204,59672,2,0,L|386:262,1,161.000003070831,0|0,1:0|1:2,0:0:0:0:
450,251,60172,1,0,3:0:0:0:
276,324,60339,6,0,L|132:251,2,161.000003070831,0|0|0,1:0|1:0|3:0,0:0:0:0:
360,356,61172,2,0,L|262:368,1,80.5000015354157,0|0,3:0|3:0,0:0:0:0:
101,369,61506,6,0,P|84:309|170:238,1,161.000003070831,0|4,1:0|1:0,0:0:0:0:
316,122,62172,2,0,L|223:113,1,80.5000015354157,8|0,0:0|1:0,0:0:0:0:
151,113,62506,2,0,L|143:17,1,80.5000015354157,0|0,0:0|0:0,0:0:0:0:
425,156,63006,6,0,L|294:262,2,161.000003070831,0|0|2,1:0|1:0|3:1,0:0:0:0:
350,118,63839,1,2,3:1:0:0:
272,105,64006,1,2,1:0:0:0:
190,100,64172,5,0,0:0:0:0:
353,41,64506,1,0,1:0:0:0:
394,107,64672,1,0,1:0:0:0:
370,181,64839,1,12,0:0:0:0:
297,210,65006,2,0,L|114:230,1,161.000003070831,0|0,1:0|3:0,0:0:0:0:
316,322,65506,6,0,L|443:220,2,161.000003070831,0|0|0,1:0|1:0|1:0,0:0:0:0:
241,337,66339,1,0,1:0:0:0:
159,331,66506,1,8,0:3:0:0:
242,289,66672,1,0,0:0:0:0:
282,289,66755,1,0,0:0:0:0:
322,289,66838,1,0,0:0:0:0:
47,285,67172,6,0,P|29:204|106:172,1,161.000003070831,4|8,1:0|0:0,0:0:0:0:
174,161,67672,2,0,P|203:113|132:51,1,161.000003070831,0|0,1:0|3:0,0:0:0:0:
57,52,68172,1,0,1:0:0:0:
237,232,68339,6,0,L|380:146,2,161.000003070831,0|0|2,1:0|1:0|3:1,0:0:0:0:
316,267,69172,1,2,3:1:0:0:
236,232,69339,2,0,L|145:245,1,80.5000015354157,2|2,1:0|0:0,0:0:0:0:
440,339,69839,6,0,P|445:276|439:179,1,161.000003070831,4|2,1:0|1:0,0:0:0:0:
361,148,70339,1,2,1:0:0:0:
282,104,70506,2,0,L|363:64,1,80.5000015354157,2|2,0:1|0:1,0:0:0:0:
436,62,70839,1,0,0:0:0:0:
251,244,71006,6,0,L|104:153,2,161.000003070831,4|0|0,1:0|1:0|3:0,0:0:0:0:
333,273,71839,1,0,3:0:0:0:
254,304,72006,1,0,3:0:0:0:
171,314,72172,1,0,1:0:0:0:
19,120,72506,2,0,L|121:108,1,80.5000015354157,0|0,0:0|0:0,0:0:0:0:
283,57,72839,5,12,0:0:0:0:
361,73,73006,2,0,P|396:126|318:200,1,161.000003070831,0|0,1:0|0:0,0:0:0:0:
54,352,73672,6,0,P|48:295|142:226,1,161.000003070831,0|0,1:0|1:0,0:0:0:0:
192,215,74172,1,8,0:0:0:0:
110,182,74339,2,0,L|13:177,2,80.5000015354157,2|2|2,3:1|3:1|1:0,0:0:0:0:
299,198,74839,6,0,P|314:139|223:77,1,161.000003070831,0|12,1:0|0:0,0:0:0:0:
160,63,75339,2,0,L|335:51,1,161.000003070831,0|8,1:0|0:0,0:0:0:0:
393,72,75839,1,0,0:0:0:0:
470,104,76006,1,0,3:0:0:0:
295,179,76172,5,0,1:0:0:0:
35,292,77172,2,0,L|55:212,1,70,0|0,1:0|3:0,0:0:0:0:
228,185,77506,5,8,1:2:0:0:
256,192,82839,12,0,86506,0:0:0:0:
291,57,86839,5,8,0:3:0:0:
358,69,87005,1,0,0:0:0:0:
390,129,87172,1,0,0:0:0:0:
360,190,87339,1,0,0:0:0:0:
293,205,87506,5,0,0:0:0:0:
225,222,87672,1,0,0:0:0:0:
199,284,87839,1,8,0:0:0:0:
231,343,88006,1,8,0:0:0:0:
307,352,88172,1,0,1:0:0:0:
29,364,88506,6,0,L|54:191,1,161.000003070831,4|0,1:0|1:0,0:0:0:0:
125,177,89006,1,0,0:0:0:0:
201,177,89173,1,0,1:0:0:0:
366,45,89506,6,0,L|194:96,1,161.000003070831,0|0,1:0|1:0,0:0:0:0:
387,178,90172,2,0,L|490:191,2,80.5000015354157,0|0|0,1:0|0:0|1:0,0:0:0:0:
94,352,90839,6,0,P|90:291|180:242,1,161.000003070831,0|0,1:0|1:0,0:0:0:0:
347,248,91506,2,0,P|360:186|282:122,1,161.000003070831,0|0,1:0|1:0,0:0:0:0:
213,102,92006,1,0,0:0:0:0:
127,64,92173,6,0,L|317:38,1,161.000003070831,0|0,1:0|1:0,0:0:0:0:
114,183,92839,2,0,L|25:177,2,80.5000015354157,0|8|8,1:0|0:0|1:2,0:0:0:0:
414,82,93506,5,8,1:3:0:0:
337,93,93672,1,0,3:0:0:0:
302,162,93839,1,0,3:0:0:0:
338,231,94006,1,0,3:0:0:0:
414,241,94172,2,0,P|445:182|397:87,1,161.000003070831,0|0,3:0|3:0,0:0:0:0:
227,57,94839,5,0,3:0:0:0:
303,64,95005,1,0,3:0:0:0:
340,132,95172,1,0,3:0:0:0:
302,201,95339,1,0,3:0:0:0:
228,210,95506,2,0,L|137:229,1,80.5000015354157,0|0,3:0|3:0,0:0:0:0:
236,258,95839,2,0,L|325:265,1,80.5000015354157,0|0,3:0|3:0,0:0:0:0:
145,342,96172,6,0,L|110:312,2,40.2500007677078
230,333,96506,2,0,L|308:305,1,80.5000015354157
224,253,96839,6,0,L|179:246,2,40.2500007677078
307,227,97172,2,0,L|385:193,1,80.5000015354157
201,162,97506,5,0,1:0:0:0:
121,231,97672,2,0,P|96:169|157:88,1,161.000003070831
227,68,98172,2,0,L|284:60,1,40.2500007677078,0|0,3:0|3:0,0:0:0:0:
179,155,98422,2,0,L|124:148,1,40.2500007677078,0|0,3:0|1:0,0:0:0:0:
426,199,98839,6,0,L|280:308,2,167.999994873047,4|0|12,1:0|1:0|0:0,0:0:0:0:
354,139,99672,1,0,1:0:0:0:
281,125,99839,1,0,3:0:0:0:
201,125,100006,1,0,3:0:0:0:
486,343,100339,6,0,P|483:264|421:197,1,167.999994873047,0|0,1:0|1:0,0:0:0:0:
244,235,100839,2,0,L|242:138,1,83.9999974365235,12|0,3:2|3:0,3:0:0:0:
332,143,101172,1,0,3:0:0:0:
242,151,101339,2,0,P|181:121|225:39,1,167.999994873047,0|0,1:0|1:0,0:0:0:0:
397,30,101839,6,0,P|470:46|492:140,1,167.999994873047,0|12,1:0|0:0,0:0:0:0:
410,160,102339,2,0,L|251:221,1,167.999994873047,0|8,1:0|0:0,0:0:0:0:
175,263,102839,1,0,3:0:0:0:
357,354,103006,6,0,L|499:250,2,167.999994873047,0|0|0,1:0|1:0|3:0,0:0:0:0:
280,352,103839,1,0,3:0:0:0:
358,353,104006,1,0,3:0:0:0:
176,266,104172,6,0,L|7:177,2,167.999994873047,0|0|12,1:0|1:0|0:0,0:0:0:0:
249,273,105006,1,0,1:0:0:0:
97,341,105339,1,0,0:0:0:0:
382,321,105672,6,0,P|390:252|292:190,1,167.999994873047,0|0,1:0|1:0,0:0:0:0:
232,167,106172,2,0,L|342:150,1,83.9999974365235,12|0,0:0|3:0,0:0:0:0:
390,90,106506,2,0,L|306:66,1,83.9999974365235,0|0,3:0|1:0,0:0:0:0:
228,89,106839,6,0,P|213:178|265:244,1,167.999994873047,0|0,1:0|3:0,0:0:0:0:
339,265,107339,1,0,1:0:0:0:
255,291,107506,1,12,0:0:0:0:
75,349,107672,2,0,P|31:314|85:235,1,167.999994873047,0|0,1:0|3:0,0:0:0:0:
264,171,108172,6,0,L|408:70,2,167.999994873047,0|0|0,1:0|1:0|1:0,0:0:0:0:
182,191,109006,1,0,1:0:0:0:
265,216,109172,1,2,0:0:0:0:
351,229,109339,2,0,L|380:178,2,41.9999987182618,2|2|2,0:0|0:0|0:0,0:0:0:0:
54,321,109839,6,0,P|40:268|128:193,1,167.999994873047,0|12,1:0|0:0,0:0:0:0:
193,168,110339,2,0,L|286:164,2,83.9999974365235,0|0|0,1:0|0:0|0:0,0:0:0:0:
471,311,111006,6,0,P|480:210|421:167,1,167.999994873047,0|0,1:0|1:0,0:0:0:0:
356,151,111506,1,12,0:0:0:0:
268,138,111672,2,0,L|255:51,1,83.9999974365235,0|0,3:0|3:0,0:0:0:0:
432,24,112006,2,0,P|457:78|368:153,1,167.999994873047,8|0,1:2|1:0,0:0:0:0:
205,177,112506,6,0,P|193:240|297:287,1,167.999994873047,0|12,1:0|0:0,0:0:0:0:
352,304,113006,1,0,1:0:0:0:
57,355,113339,6,0,P|38:255|89:218,1,167.999994873047,0|0,1:0|1:0,1:0:0:0:
239,136,114006,1,0,1:0:0:0:
322,126,114172,1,12,0:0:0:0:
148,64,114506,2,0,L|138:162,1,83.9999974365235,0|0,1:0|1:0,0:0:0:0:
331,65,114839,5,2,1:2:0:0:
407,92,115005,1,2,0:0:0:0:
440,167,115172,1,2,0:0:0:0:
407,242,115339,1,2,0:0:0:0:
224,312,115505,5,12,0:0:0:0:
139,332,115672,2,0,L|298:245,1,167.999994873047,0|0,1:0|0:0,0:0:0:0:
116,237,116339,2,0,P|57:224|33:115,1,167.999994873047,0|0,1:0|1:0,0:0:0:0:
98,92,116839,5,12,0:0:0:0:
171,87,117006,1,0,3:0:0:0:
98,92,117172,1,0,3:0:0:0:
25,130,117339,1,0,1:0:0:0:
214,188,117506,6,0,L|376:266,1,167.999994873047,0|12,1:0|0:0,0:0:0:0:
277,292,118006,2,0,L|108:218,1,167.999994873047,0|8,1:0|0:0,0:0:0:0:
186,168,118506,1,0,0:0:0:0:
268,150,118672,1,0,0:0:0:0:
453,157,118839,5,0,1:0:0:0:
361,324,119839,2,0,L|263:299,1,83.9999974365235,0|0,1:0|3:0,0:0:0:0:
99,305,120172,5,8,1:2:0:0:
