osu file format v14

[General]
AudioFilename: audio.mp3
AudioLeadIn: 0
PreviewTime: 54756
Countdown: 0
SampleSet: Soft
StackLeniency: 0.7
Mode: 2
LetterboxInBreaks: 0
WidescreenStoryboard: 1

[Editor]
Bookmarks: 13506
DistanceSpacing: 2.8
BeatDivisor: 4
GridSize: 32
TimelineZoom: 3.199999

[Metadata]
Title:Calling
TitleUnicode:Calling
Artist:Zekk
ArtistUnicode:Zekk
Creator:Jemzuu
Version:Rain
Source:osu!
Tags:ajamez spectator afb alienflybot autofanboy denosaur den0saur featured artist fa electronic instrumental Future Bass Dubstep Drumstep drum and n bass dnb wub cyberpunk city
BeatmapID:2591517
BeatmapSetID:1246000

[Difficulty]
HPDrainRate:6
CircleSize:3.8
OverallDifficulty:9.2
ApproachRate:9.2
SliderMultiplier:1.8
SliderTickRate:2

[Events]
//Background and Video events
0,0,"calling.jpg",0,0
//Break Periods
2,77706,82269
//Storyboard Layer 0 (Background)
//Storyboard Layer 1 (Fail)
//Storyboard Layer 2 (Pass)
//Storyboard Layer 3 (Foreground)
//Storyboard Layer 4 (Overlay)
//Storyboard Sound Samples

[TimingPoints]
173,333.333333333333,4,2,3,30,1,0
22839,-100,4,2,1,40,0,0
23506,-100,4,2,1,50,0,0
23839,-100,4,2,2,70,0,0
24173,-100,4,2,4,60,0,0
25173,-100,4,2,3,60,0,0
25673,-100,4,2,1,60,0,0
26173,-100,4,2,4,60,0,0
26339,-100,4,2,3,60,0,0
26839,-100,4,2,4,60,0,0
29006,-100,4,2,3,60,0,0
29173,-100,4,2,2,60,0,0
29506,-100,4,2,4,60,0,0
30506,-100,4,2,3,60,0,0
31506,-100,4,2,4,60,0,0
31673,-100,4,2,3,60,0,0
32173,-100,4,2,4,60,0,0
33089,-100,4,2,3,60,0,0
33339,-100,4,2,1,60,0,0
33506,-100,4,2,3,60,0,0
33839,-100,4,2,4,60,0,0
34339,-100,4,2,3,60,0,0
34839,-100,4,2,2,60,0,0
35506,-100,4,2,4,60,0,0
35839,-100,4,2,3,60,0,0
36339,-100,4,2,2,60,0,0
36839,-100,4,2,4,60,0,0
37006,-100,4,2,3,60,0,0
37506,-100,4,2,1,60,0,0
38006,-100,4,2,3,60,0,0
38173,-100,4,2,4,60,0,0
39673,-100,4,2,2,60,0,0
40173,-100,4,2,4,60,0,0
44506,-100,4,1,0,60,0,0
44839,-100,4,2,4,60,0,0
45173,-100,4,2,2,60,0,0
45506,-83.3333333333333,4,2,3,70,0,0
45839,-86.9565217391304,4,2,1,70,0,0
50339,-86.9565217391304,4,2,2,70,0,0
53506,-86.9565217391304,4,1,0,30,0,0
53839,-86.9565217391304,4,1,0,45,0,0
54173,-86.9565217391304,4,1,0,60,0,0
54506,-86.9565217391304,4,1,0,70,0,0
54839,-86.9565217391304,4,2,2,70,0,0
55839,-86.9565217391304,4,2,1,70,0,0
56172,-86.9565217391304,4,2,1,80,0,1
56839,-86.9565217391304,4,2,1,80,0,1
57798,-86.9565217391304,4,2,1,5,0,1
57839,-86.9565217391304,4,2,1,80,0,1
58506,-86.9565217391304,4,2,2,80,0,1
58839,-86.9565217391304,4,2,1,80,0,1
59173,-86.9565217391304,4,2,2,80,0,1
60006,-86.9565217391304,4,2,1,80,0,1
61464,-86.9565217391304,4,2,1,5,0,1
61506,-86.9565217391304,4,2,1,80,0,1
63131,-86.9565217391304,4,2,1,5,0,1
63173,-86.9565217391304,4,2,1,80,0,1
63839,-86.9565217391304,4,2,2,80,0,1
64173,-86.9565217391304,4,2,1,80,0,1
66506,-86.9565217391304,4,1,0,50,0,0
67172,-86.9565217391304,4,2,1,80,0,1
68464,-86.9565217391304,4,2,1,5,0,1
68506,-86.9565217391304,4,2,1,80,0,1
69173,-86.9565217391304,4,2,2,80,0,1
69506,-86.9565217391304,4,2,1,80,0,1
73798,-86.9565217391304,4,2,1,5,0,1
73839,-86.9565217391304,4,2,1,80,0,1
74506,-86.9565217391304,4,2,2,80,0,1
74839,-86.9565217391304,4,2,1,80,0,1
76172,-100,4,2,1,80,0,0
77506,-100,4,2,2,80,0,1
77589,-100,4,2,2,80,0,0
82839,-100,4,2,1,50,0,0
84173,-100,4,2,1,60,0,0
86756,-100,4,2,1,5,0,0
86839,-100,4,2,1,60,0,0
87839,-100,4,2,2,80,0,0
88173,-100,4,2,3,30,0,0
88506,-86.9565217391304,4,2,1,70,0,0
93006,-86.9565217391304,4,2,2,70,0,0
96173,-86.9565217391304,4,1,0,30,0,0
96506,-86.9565217391304,4,1,0,45,0,0
96839,-86.9565217391304,4,1,0,60,0,0
97173,-86.9565217391304,4,1,0,70,0,0
97506,-86.9565217391304,4,2,2,70,0,0
98506,-86.9565217391304,4,2,1,70,0,0
98839,-83.3333333333333,4,2,1,80,0,1
99173,-76.9230769230769,4,2,1,80,0,1
99506,-83.3333333333333,4,2,1,80,0,1
103839,-83.3333333333333,4,2,1,80,0,1
104006,-83.3333333333333,4,2,1,80,0,1
104506,-76.9230769230769,4,2,1,80,0,1
104839,-83.3333333333333,4,2,1,80,0,1
109172,-83.3333333333333,4,2,1,80,0,0
109839,-83.3333333333333,4,2,1,80,0,1
118839,-83.3333333333333,4,2,1,80,0,0
120172,-100,4,2,2,80,0,1
120256,-100,4,2,2,80,0,0

[Colours]
Combo1 : 255,155,205
Combo2 : 74,165,255
Combo3 : 128,255,255
Combo4 : 155,155,255

[HitObjects]
429,353,13506,6,0,P|447:278|340:210,1,180,0|0,1:3|0:0,0:0:0:0:
133,79,14172,1,0,3:0:0:0:
222,72,14338,1,0,0:0:0:0:
312,65,14505,1,0,0:0:0:0:
54,326,14839,6,0,P|39:248|142:182,1,180
212,163,15339,2,0,L|236:125,2,45,0|0|0,0:0|0:0|3:0,0:0:0:0:
48,74,15672,2,0,L|239:37,1,180,0|0,0:0|0:0,0:0:0:0:
401,147,16172,5,0,0:0:0:0:
381,278,16339,2,0,L|174:318,1,180,0|0,0:0|0:0,0:0:0:0:
366,363,16839,2,0,L|367:164,1,180,0|0,3:0|0:0,0:0:0:0:
244,169,17339,1,0,0:0:0:0:
101,237,17506,6,0,P|86:156|180:100,1,180,0|0,0:0|0:0,0:0:0:0:
414,50,18172,2,0,L|288:58,1,90,0|0,3:0|0:0,0:0:0:0:
198,156,18506,1,0,0:0:0:0:
242,159,18589,1,0,0:0:0:0:
287,163,18672,1,0,0:0:0:0:
51,330,18839,6,0,P|24:255|123:228,1,180,0|0,0:0|0:0,0:0:0:0:
205,209,19339,1,0,0:0:0:0:
352,314,19506,2,0,L|170:340,1,180,0|0,3:0|0:0,0:0:0:0:
452,371,20172,6,0,L|459:191,1,180
317,143,20672,2,0,L|261:144,1,45,0|0,0:0|0:0,0:0:0:0:
219,134,20839,2,0,L|314:111,1,90,0|0,3:0|0:0,0:0:0:0:
460,43,21172,2,0,L|363:34,1,90,0|0,0:0|0:0,0:0:0:0:
187,95,21506,5,0,0:0:0:0:
166,252,21672,2,0,L|365:256,1,180,0|0,0:0|0:0,0:0:0:0:
210,326,22172,2,0,L|103:334,1,90,0|0,3:0|0:0,0:0:0:0:
280,173,22506,2,0,L|378:173,1,90,0|0,0:0|0:0,0:0:0:0:
112,46,22839,5,8,3:3:0:0:
205,58,23005,1,0,3:0:0:0:
249,135,23172,1,0,3:0:0:0:
206,213,23339,1,0,3:0:0:0:
112,226,23505,1,0,3:0:0:0:
250,273,23672,1,0,3:0:0:0:
97,296,23839,1,8,3:2:0:0:
283,338,24006,1,8,3:2:0:0:
20,350,24172,6,0,P|17:258|96:205,1,180,4|0,1:0|0:0,0:0:0:0:
188,181,24672,1,0,0:0:0:0:
321,181,24839,2,0,L|333:78,1,90,8|0,0:0|0:0,0:0:0:0:
184,91,25172,2,0,L|170:0,1,90,0|0,1:0|0:0,0:0:0:0:
341,22,25506,5,0,0:0:0:0:
215,99,25672,1,0,1:0:0:0:
79,128,25839,2,0,L|68:248,1,90,0|0,0:0|0:0,0:0:0:0:
211,260,26172,1,8,0:0:0:0:
72,296,26339,1,0,1:0:0:0:
226,313,26506,2,0,L|351:325,1,90,0|0,1:0|0:0,0:0:0:0:
135,360,26839,6,0,P|115:294|197:228,1,180,0|0,1:0|0:0,0:0:0:0:
292,209,27339,1,0,0:0:0:0:
433,112,27506,2,0,L|306:91,1,90,8|0,0:0|0:0,0:0:0:0:
192,18,27839,2,0,L|318:13,1,90,0|0,0:0|1:0,0:0:0:0:
446,87,28172,6,0,L|454:191,1,90
302,207,28506,2,0,L|293:307,1,90,0|0,1:0|0:0,0:0:0:0:
463,349,28839,1,8,0:0:0:0:
343,365,29006,1,0,1:0:0:0:
101,368,29172,6,0,P|81:293|148:257,1,135,12|0,0:0|0:0,0:0:0:0:
188,233,29506,6,0,L|370:215,1,180,0|0,1:0|0:0,0:0:0:0:
319,186,29922,1,0,0:0:0:0:
264,178,30006,1,0,0:0:0:0:
89,184,30172,2,0,L|77:82,1,90,8|0,0:0|0:0,0:0:0:0:
225,94,30506,2,0,L|233:-17,1,90,0|0,1:0|0:0,0:0:0:0:
82,68,30839,6,0,L|206:90,1,90,0|0,0:0|1:0,0:0:0:0:
325,184,31172,2,0,L|216:198,1,90,0|0,0:0|0:0,0:0:0:0:
72,274,31506,1,8,0:0:0:0:
198,311,31672,1,0,1:0:0:0:
336,347,31839,2,0,L|339:237,1,90,0|0,0:0|1:0,0:0:0:0:
163,219,32172,6,0,L|152:128,1,90,0|0,1:0|0:0,0:0:0:0:
385,68,32506,2,0,L|267:60,1,90,0|0,0:0|0:0,0:0:0:0:
462,163,32839,2,0,L|286:171,1,135,8|0,0:0|1:0,0:0:0:0:
389,203,33172,2,0,L|484:207,1,90,0|0,0:0|1:0,0:0:0:0:
335,282,33506,5,0,1:0:0:0:
476,307,33672,1,0,1:0:0:0:
323,340,33839,2,0,L|201:340,1,90,0|0,1:0|0:0,0:0:0:0:
399,301,34172,2,0,L|407:202,1,90,8|0,0:0|1:0,0:0:0:0:
244,153,34506,2,0,L|355:153,1,90,0|0,1:0|0:0,0:0:0:0:
72,271,34839,6,0,P|42:188|129:150,1,180,12|0,1:2|0:0,0:0:0:0:
215,124,35339,1,0,0:0:0:0:
52,133,35506,2,0,L|41:26,1,90,8|0,0:0|0:0,0:0:0:0:
201,214,35839,2,0,L|212:104,1,90,0|0,1:0|0:0,0:0:0:0:
370,62,36172,6,0,L|254:55,1,90,0|0,0:0|1:0,0:0:0:0:
124,37,36506,2,0,L|219:26,1,90,0|0,0:0|0:0,0:0:0:0:
378,191,36839,1,8,0:0:0:0:
246,217,37006,1,0,1:0:0:0:
103,217,37172,2,0,L|105:340,1,90,0|0,1:0|0:0,0:0:0:0:
347,344,37506,6,0,P|345:291|237:238,1,180,0|0,1:0|0:0,0:0:0:0:
372,198,38006,1,0,1:0:0:0:
236,131,38172,2,0,L|129:113,1,90,8|0,0:0|0:0,0:0:0:0:
302,95,38506,2,0,L|307:-1,1,90,0|0,0:0|1:0,0:0:0:0:
126,208,38839,6,0,L|320:231,1,180,0|0,0:0|1:0,0:0:0:0:
191,277,39339,1,0,0:0:0:0:
32,274,39506,1,8,0:0:0:0:
282,360,39672,1,8,0:0:0:0:
150,368,39839,1,8,0:0:0:0:
107,358,39922,1,0,0:0:0:0:
85,320,40005,1,0,3:0:0:0:
99,279,40089,1,0,3:0:0:0:
307,244,40172,6,0,P|363:233|366:118,1,180,0|0,1:0|0:0,0:0:0:0:
265,109,40672,1,0,0:0:0:0:
427,49,40839,2,0,L|431:168,1,90,8|0,0:0|0:0,0:0:0:0:
272,163,41172,2,0,L|257:287,1,90,0|0,0:0|0:0,0:0:0:0:
411,312,41506,6,0,L|325:328,1,45,0|0,3:0|3:0,0:0:0:0:
166,353,41672,2,0,L|56:337,1,90,0|0,1:0|0:0,0:0:0:0:
243,298,42006,2,0,L|251:188,1,90,0|0,1:0|0:0,0:0:0:0:
103,174,42339,1,0,1:0:0:0:
264,109,42506,2,0,L|336:102,1,45,0|0,3:0|3:0,0:0:0:0:
249,83,42672,2,0,L|172:74,1,45,0|0,3:0|3:0,0:0:0:0:
403,36,42839,6,0,L|519:27,1,90,0|0,1:0|0:0,0:0:0:0:
332,154,43172,2,0,L|437:154,1,90,0|0,1:0|0:0,0:0:0:0:
250,258,43506,2,0,L|224:212,2,45,0|0|0,1:0|0:0|0:0,0:0:0:0:
338,284,43756,2,0,L|396:287,2,45,0|0|0,1:0|0:0|0:0,0:0:0:0:
168,347,44006,2,0,L|92:349,1,45,0|0,1:0|0:0,0:0:0:0:
285,208,44172,6,0,L|175:200,1,90,0|0,1:0|1:0,1:0:0:0:
69,181,44506,1,0,0:0:0:0:
46,143,44589,1,0,0:0:0:0:
58,101,44672,1,0,0:0:0:0:
98,82,44756,1,0,0:0:0:0:
272,55,44839,2,0,L|334:52,1,45,0|0,1:0|3:0,0:0:0:0:
268,83,45006,2,0,L|201:86,1,45,0|0,1:0|3:0,0:0:0:0:
416,129,45172,6,0,P|460:168|413:247,1,135,8|0,0:0|0:0,0:0:0:0:
371,257,45506,2,0,L|206:286,1,161.999995056153,0|0,1:0|0:0,0:0:0:0:
435,356,45839,5,4,1:0:0:0:
460,259,46005,1,0,0:0:0:0:
402,177,46172,1,0,1:0:0:0:
302,168,46338,1,0,0:0:0:0:
463,99,46506,6,0,L|485:40,2,51.7500009870529,0|0|0,1:0|0:0|0:0,0:0:0:0:
301,86,46839,2,0,L|298:33,2,51.7500009870529,0|0|0,1:0|0:0|0:0,0:0:0:0:
136,141,47172,2,0,L|63:135,2,51.7500009870529,0|0|0,1:0|0:0|0:0,0:0:0:0:
293,187,47506,5,0,1:0:0:0:
244,199,47589,1,0,0:0:0:0:
223,244,47672,1,0,0:0:0:0:
246,289,47756,1,0,0:0:0:0:
295,299,47839,2,0,L|363:293,2,51.7500009870529,0|0|0,1:0|0:0|0:0,0:0:0:0:
46,354,48172,6,0,L|22:229,1,103.500001974106,0|0,1:0|0:0,0:0:0:0:
180,181,48506,2,0,L|44:167,1,103.500001974106,0|0,1:0|0:0,0:0:0:0:
237,100,48839,5,0,1:0:0:0:
285,112,48922,1,0,0:0:0:0:
307,157,49005,1,0,0:0:0:0:
286,202,49089,1,0,0:0:0:0:
237,215,49172,2,0,L|160:212,2,51.7500009870529,0|0|0,1:0|0:0|0:0,0:0:0:0:
495,317,49506,6,0,L|371:313,1,103.500001974106,0|0,1:0|0:0,0:0:0:0:
332,308,49756,1,0,0:0:0:0:
265,313,49839,2,0,L|255:188,1,103.500001974106,0|0,1:0|0:0,0:0:0:0:
406,150,50172,6,0,L|472:136,1,51.7500009870529,0|0,1:0|0:0,0:0:0:0:
402,120,50339,2,0,L|324:120,1,51.7500009870529,8|0,0:0|0:0,0:0:0:0:
162,57,50506,2,0,L|208:109,1,51.7500009870529,8|0,1:2|0:0,0:0:0:0:
264,114,50672,2,0,L|330:116,1,51.7500009870529,0|0,0:0|0:0,0:0:0:0:
111,242,50839,6,0,L|-1:254,1,103.500001974106,8|0,1:3|0:0,0:0:0:0:
165,334,51172,2,0,L|32:342,1,103.500001974106,0|0,3:0|3:0,0:0:0:0:
215,318,51506,2,0,L|217:201,1,103.500001974106,0|0,3:0|3:0,0:0:0:0:
372,203,51839,2,0,L|381:87,1,103.500001974106,0|0,3:0|3:0,0:0:0:0:
128,42,52172,6,0,L|265:33,1,103.500001974106,0|0,3:0|3:0,0:0:0:0:
379,193,52506,2,0,L|246:201,1,103.500001974106,0|0,3:0|3:0,0:0:0:0:
443,301,52839,2,0,L|459:169,1,103.500001974106,0|0,3:0|3:0,0:0:0:0:
204,352,53172,1,0,3:0:0:0:
348,343,53339,1,0,3:0:0:0:
186,266,53506,6,0,L|165:209,1,51.7500009870529,0|0,0:0|0:0,0:0:0:0:
242,206,53672,2,0,L|261:148,1,51.7500009870529,0|0,0:0|0:0,0:0:0:0:
174,146,53839,2,0,L|125:100,1,51.7500009870529,0|0,0:0|0:0,0:0:0:0:
218,90,54006,2,0,L|279:43,1,51.7500009870529,0|0,0:0|0:0,0:0:0:0:
168,40,54172,6,0,L|102:30,1,51.7500009870529
206,17,54339,2,0,L|281:11,1,51.7500009870529,0|0,0:0|0:0,0:0:0:0:
98,123,54506,2,0,L|23:130,1,51.7500009870529,0|0,0:0|0:0,0:0:0:0:
240,218,54672,2,0,L|319:222,1,51.7500009870529,0|0,0:0|0:0,0:0:0:0:
65,282,54839,5,0,1:0:0:0:
69,366,55006,1,0,0:0:0:0:
99,324,55089,1,0,0:0:0:0:
142,295,55172,1,0,0:0:0:0:
191,281,55256,1,0,0:0:0:0:
243,283,55339,5,0,0:0:0:0:
99,209,55506,2,0,L|40:194,1,51.7500009870529,0|0,3:0|3:0,0:0:0:0:
194,123,55756,1,0,3:0:0:0:
139,117,55839,2,0,L|11:119,1,103.500001974106,0|0,3:0|0:0,0:0:0:0:
303,54,56172,6,0,P|326:123|243:175,1,155.250002961159,4|0,1:0|0:0,0:0:0:0:
70,319,56506,6,0,L|89:200,1,103.500001974106,0|0,1:0|0:0,0:0:0:0:
146,195,56756,1,0,3:0:0:0:
206,190,56839,1,8,3:2:0:0:
358,298,57006,2,0,L|224:272,1,103.500001974106,0|0,1:0|0:0,0:0:0:0:
321,263,57256,1,0,0:0:0:0:
394,260,57339,2,0,L|404:145,1,103.500001974106,0|0,0:0|3:0,0:0:0:0:
163,363,57672,6,0,L|303:341,1,103.500001974106,0|0,1:0|0:0,0:0:0:0:
207,317,57922,1,0,0:0:0:0:
142,311,58006,1,0,1:0:0:0:
299,270,58172,1,8,0:0:0:0:
73,183,58339,6,0,L|145:168,1,51.7500009870529,2|0,3:1|0:0,0:0:0:0:
191,102,58506,2,0,L|128:96,1,51.7500009870529,2|0,3:1|0:0,0:0:0:0:
72,66,58672,1,2,1:0:0:0:
224,185,58839,2,0,L|341:198,1,103.500001974106,0|0,0:0|1:0,0:0:0:0:
270,228,59089,1,0,3:0:0:0:
93,280,59172,6,0,L|26:191,1,103.500001974106,4|0,1:0|0:0,0:0:0:0:
281,333,59506,1,8,0:0:0:0:
135,358,59672,2,0,L|154:248,1,103.500001974106,0|0,1:0|0:0,0:0:0:0:
209,237,59922,1,0,0:0:0:0:
274,222,60006,1,0,1:2:0:0:
130,176,60172,1,0,3:0:0:0:
381,66,60339,6,0,L|261:57,1,103.500001974106,0|0,1:0|0:0,0:0:0:0:
222,56,60589,1,0,0:0:0:0:
292,118,60672,2,0,L|421:115,1,103.500001974106,0|8,1:0|0:0,0:0:0:0:
246,217,61006,2,0,L|315:219,1,51.7500009870529,0|0,3:0|3:0,0:0:0:0:
376,219,61172,2,0,L|408:338,1,103.500001974106,0|0,3:0|3:0,0:0:0:0:
122,353,61506,6,0,P|95:291|185:244,1,155.250002961159,0|0,1:0|0:0,0:0:0:0:
344,152,61839,6,0,L|476:131,1,103.500001974106,4|0,1:0|0:0,0:0:0:0:
392,109,62089,1,0,0:0:0:0:
336,104,62172,1,8,0:0:0:0:
185,32,62339,2,0,L|309:21,1,103.500001974106,0|0,1:0|0:0,0:0:0:0:
133,120,62672,2,0,L|22:142,1,103.500001974106,0|0,0:0|0:0,0:0:0:0:
91,240,62922,1,0,0:0:0:0:
276,317,63006,5,0,1:0:0:0:
407,327,63172,1,0,0:0:0:0:
255,358,63339,2,0,L|144:354,1,103.500001974106,0|8,1:0|0:0,0:0:0:0:
398,223,63672,2,0,L|317:216,1,51.7500009870529,2|0,3:1|0:0,0:0:0:0:
276,187,63839,2,0,L|372:171,1,51.7500009870529,2|0,3:1|0:0,0:0:0:0:
398,165,64006,1,2,1:0:0:0:
150,217,64172,6,0,L|130:94,1,103.500001974106,0|0,0:0|0:0,0:0:0:0:
281,58,64506,2,0,L|218:39,1,51.7500009870529,0|0,1:0|3:0,0:0:0:0:
167,39,64672,1,0,1:0:0:0:
417,84,64839,1,12,0:0:0:0:
270,177,65006,6,0,L|125:208,1,103.500001974106,0|0,1:0|0:0,0:0:0:0:
207,236,65255,1,0,0:0:0:0:
261,259,65338,1,0,3:0:0:0:
321,262,65422,1,0,3:0:0:0:
136,331,65506,6,0,L|62:328,1,51.7500009870529,0|0,1:0|3:0,0:0:0:0:
15,256,65672,2,0,L|83:248,1,51.7500009870529,0|0,3:0|3:0,0:0:0:0:
151,195,65839,2,0,L|212:186,1,51.7500009870529,0|0,1:0|3:0,0:0:0:0:
282,122,66006,2,0,L|217:116,1,51.7500009870529,0|0,3:0|3:0,0:0:0:0:
45,166,66172,1,0,1:0:0:0:
29,118,66255,1,0,0:0:0:0:
53,74,66338,1,0,0:0:0:0:
102,61,66421,1,0,0:0:0:0:
180,52,66506,6,0,L|64:65,1,103.500001974106,8|0,0:3|0:0,0:0:0:0:
132,91,66756,1,0,0:0:0:0:
188,110,66839,1,0,0:0:0:0:
246,116,66922,1,0,0:0:0:0:
186,110,67006,1,0,0:0:0:0:
457,147,67172,6,0,L|437:276,1,103.500001974106,4|0,1:0|0:0,0:0:0:0:
385,271,67422,1,0,0:0:0:0:
324,279,67506,1,8,0:0:0:0:
480,353,67672,2,0,L|354:354,1,103.500001974106,0|0,1:0|3:0,0:0:0:0:
323,349,67922,1,0,0:0:0:0:
269,328,68005,1,0,3:0:0:0:
326,307,68088,1,0,0:0:0:0:
388,303,68172,1,0,1:2:0:0:
143,355,68339,6,0,L|161:242,1,103.500001974106,0|0,1:0|0:0,0:0:0:0:
213,228,68589,1,0,0:0:0:0:
274,220,68672,1,0,1:0:0:0:
122,174,68839,1,8,0:0:0:0:
363,112,69006,6,0,L|298:101,1,51.7500009870529,2|0,3:1|0:0,0:0:0:0:
241,75,69172,2,0,L|167:75,1,51.7500009870529,2|0,3:1|0:0,0:0:0:0:
376,26,69339,2,0,L|483:49,2,103.500001974106,2|2|0,1:0|0:0|1:0,0:0:0:0:
318,26,69756,1,0,3:0:0:0:
134,99,69839,6,0,P|116:168|212:213,1,155.250002961159,4|0,1:0|0:0,0:0:0:0:
242,244,70172,2,0,L|159:254,1,51.7500009870529,2|0,1:0|0:0,0:0:0:0:
115,283,70339,2,0,L|190:292,1,51.7500009870529,2|0,1:0|0:0,0:0:0:0:
239,327,70506,2,0,L|143:286,1,103.500001974106,2|2,0:1|0:1,0:0:0:0:
19,273,70839,1,0,0:0:0:0:
275,351,71006,6,0,L|276:231,1,103.500001974106,4|0,1:0|3:0,0:0:0:0:
221,230,71256,1,0,3:0:0:0:
165,220,71339,1,0,1:0:0:0:
312,178,71506,1,12,0:0:0:0:
357,156,71589,1,0,0:0:0:0:
373,108,71672,1,0,3:0:0:0:
350,64,71755,1,0,0:0:0:0:
302,50,71839,2,0,L|192:52,1,103.500001974106,0|0,3:0|3:0,0:0:0:0:
380,137,72172,6,0,L|396:195,3,51.7500009870529,0|0|0|0,1:0|0:0|0:0|0:0,0:0:0:0:
325,219,72506,2,0,L|265:230,1,51.7500009870529,0|0,0:0|0:0,0:0:0:0:
347,274,72672,2,0,L|421:276,1,51.7500009870529,0|0,0:0|0:0,0:0:0:0:
214,340,72839,6,0,L|65:313,1,103.500001974106,12|0,0:0|1:0,0:0:0:0:
251,270,73172,1,0,0:0:0:0:
89,228,73339,2,0,L|79:105,1,103.500001974106,0|0,0:0|0:0,0:0:0:0:
330,42,73672,6,0,L|211:45,1,103.500001974106,0|0,1:0|0:0,0:0:0:0:
168,56,73922,1,0,0:0:0:0:
226,44,74006,1,0,1:0:0:0:
364,105,74172,1,8,0:0:0:0:
115,234,74339,6,0,L|205:245,1,51.7500009870529,2|0,3:1|0:0,0:0:0:0:
237,280,74506,2,0,L|177:290,1,51.7500009870529,2|0,3:1|0:0,0:0:0:0:
117,308,74672,1,2,1:0:0:0:
361,352,74839,6,0,L|333:242,1,103.500001974106,0|0,1:0|3:0,0:0:0:0:
280,238,75089,1,0,1:0:0:0:
223,235,75172,1,12,0:0:0:0:
474,119,75339,2,0,L|356:110,1,103.500001974106,0|0,1:0|3:0,0:0:0:0:
207,34,75589,2,0,L|276:24,1,51.7500009870529,0|8,1:0|0:0,0:0:0:0:
393,40,75839,1,0,0:0:0:0:
417,83,75922,1,0,0:0:0:0:
398,130,76005,1,0,3:0:0:0:
350,144,76088,1,0,3:0:0:0:
140,162,76172,6,0,P|75:176|65:282,1,180,0|0,1:0|0:0,0:0:0:0:
95,306,76589,1,0,0:0:0:0:
140,328,76672,1,0,0:0:0:0:
190,338,76755,1,0,0:0:0:0:
241,335,76839,2,0,L|111:354,1,90,0|0,0:0|0:0,0:0:0:0:
305,251,77172,2,0,L|414:254,1,90,0|0,1:0|3:0,0:0:0:0:
338,237,77422,1,0,3:0:0:0:
99,204,77506,5,8,1:2:0:0:
256,192,82839,12,0,86672,0:0:0:0:
246,57,86839,5,8,0:3:0:0:
197,128,87005,1,0,0:0:0:0:
231,208,87172,1,0,0:0:0:0:
316,222,87339,1,0,0:0:0:0:
176,290,87506,6,0,L|120:292,2,45
310,324,87839,1,8,0:0:0:0:
444,331,88006,1,8,0:0:0:0:
195,356,88172,2,0,P|136:341|127:251,1,135,0|0,1:0|0:0,0:0:0:0:
336,186,88506,6,0,L|458:171,1,103.500001974106,4|0,1:0|0:0,0:0:0:0:
290,118,88839,2,0,L|287:47,2,51.7500009870529,0|0|0,1:0|0:0|0:0,0:0:0:0:
134,73,89172,2,0,L|103:30,2,51.7500009870529,0|0|0,1:0|0:0|0:0,0:0:0:0:
297,169,89506,6,0,L|233:195,1,51.7500009870529,0|0,1:0|0:0,0:0:0:0:
189,199,89672,1,0,0:0:0:0:
32,299,89839,2,0,L|96:325,1,51.7500009870529,0|0,1:0|0:0,0:0:0:0:
160,324,90006,5,0,0:0:0:0:
110,318,90089,1,0,0:0:0:0:
86,275,90172,1,0,1:0:0:0:
107,230,90255,1,0,0:0:0:0:
157,222,90339,1,0,0:0:0:0:
310,129,90506,2,0,L|197:130,1,103.500001974106,0|0,1:0|0:0,0:0:0:0:
459,269,90839,6,0,L|465:149,1,103.500001974106,0|0,1:0|0:0,0:0:0:0:
311,43,91172,2,0,L|432:38,1,103.500001974106,0|0,1:0|0:0,0:0:0:0:
243,116,91506,5,0,1:0:0:0:
262,163,91589,1,0,0:0:0:0:
298,200,91672,1,0,0:0:0:0:
345,221,91755,1,0,0:0:0:0:
396,222,91839,2,0,L|458:221,2,51.7500009870529,0|0|0,1:0|0:0|0:0,0:0:0:0:
138,338,92172,5,0,1:0:0:0:
284,301,92339,2,0,L|308:251,2,51.7500009870529,0|0|0,0:0|0:0|1:0,0:0:0:0:
135,226,92672,2,0,L|66:215,1,51.7500009870529,0|0,0:0|0:0,0:0:0:0:
143,195,92839,2,0,L|210:185,1,51.7500009870529,0|0,1:0|0:0,0:0:0:0:
22,145,93006,2,0,L|12:75,1,51.7500009870529,8|0,0:0|0:0,0:0:0:0:
204,50,93172,6,0,L|388:45,1,155.250002961159,8|0,1:2|0:0,0:0:0:0:
142,270,93506,6,0,L|26:290,1,103.500001974106,8|0,1:3|3:0,0:0:0:0:
191,347,93839,2,0,L|197:235,1,103.500001974106,0|0,3:0|3:0,0:0:0:0:
349,234,94172,2,0,L|361:104,1,103.500001974106,0|0,3:0|3:0,0:0:0:0:
206,64,94506,2,0,L|343:53,1,103.500001974106,0|0,3:0|3:0,0:0:0:0:
65,169,94839,6,0,L|177:180,1,103.500001974106,0|0,3:0|3:0,0:0:0:0:
320,300,95172,2,0,L|178:308,1,103.500001974106,0|0,3:0|3:0,0:0:0:0:
372,375,95506,2,0,L|504:364,1,103.500001974106,0|0,3:0|3:0,0:0:0:0:
212,202,95839,2,0,L|94:198,1,103.500001974106,0|0,3:0|3:0,0:0:0:0:
361,257,96172,6,0,L|382:200,1,51.7500009870529,0|0,0:0|0:0,0:0:0:0:
305,197,96338,2,0,L|286:139,1,51.7500009870529,0|0,0:0|0:0,0:0:0:0:
373,137,96505,2,0,L|422:91,1,51.7500009870529,0|0,0:0|0:0,0:0:0:0:
329,81,96672,2,0,L|268:34,1,51.7500009870529,0|0,0:0|0:0,0:0:0:0:
379,31,96838,6,0,L|445:21,1,51.7500009870529
341,8,97005,2,0,L|266:2,1,51.7500009870529,0|0,0:0|0:0,0:0:0:0:
449,114,97172,2,0,L|524:121,1,51.7500009870529,0|0,0:0|0:0,0:0:0:0:
307,209,97338,2,0,L|228:213,1,51.7500009870529,0|0,0:0|0:0,0:0:0:0:
473,248,97506,5,0,1:0:0:0:
459,339,97672,1,0,0:0:0:0:
407,340,97755,1,0,0:0:0:0:
355,342,97838,1,0,0:0:0:0:
303,344,97921,1,0,0:0:0:0:
252,346,98005,5,0,1:0:0:0:
401,211,98172,2,0,L|317:205,1,51.7500009870529,0|0,3:0|3:0,0:0:0:0:
201,118,98422,1,0,3:0:0:0:
254,96,98506,2,0,L|369:85,1,103.500001974106,0|0,1:0|0:0,0:0:0:0:
78,309,98839,6,0,P|58:245|148:186,1,161.999995056153,4|0,1:0|0:0,0:0:0:0:
328,214,99172,6,0,P|341:154|241:86,1,161.999995056153,0|0,1:0|0:0,0:0:0:0:
214,76,99506,1,12,0:0:0:0:
465,318,99672,2,0,L|322:327,1,107.999996704102,0|0,1:0|3:0,0:0:0:0:
305,317,99922,1,0,3:0:0:0:
281,271,100005,1,0,3:0:0:0:
305,225,100088,1,0,0:0:0:0:
357,218,100172,1,0,3:0:0:0:
106,283,100339,6,0,L|175:163,1,107.999996704102,0|0,1:0|0:0,0:0:0:0:
306,162,100672,1,0,1:0:0:0:
57,52,100839,2,0,L|179:60,2,107.999996704102,12|0|0,0:0|3:0|3:0,0:0:0:0:
217,140,101339,6,0,P|254:189|172:267,1,161.999995056153,0|0,1:0|0:0,0:0:0:0:
147,291,101672,1,0,1:0:0:0:
86,302,101756,1,0,3:0:0:0:
267,338,101839,6,0,L|395:300,1,107.999996704102,0|0,1:0|0:0,0:0:0:0:
227,252,102172,1,12,0:0:0:0:
477,242,102339,2,0,L|430:119,1,107.999996704102,0|0,1:0|3:0,0:0:0:0:
381,126,102589,1,0,3:0:0:0:
322,129,102672,1,8,0:0:0:0:
473,63,102839,1,0,3:0:0:0:
196,240,103006,6,0,L|191:98,1,107.999996704102,0|0,1:0|0:0,0:0:0:0:
429,33,103339,2,0,L|291:28,1,107.999996704102,0|8,1:0|0:0,0:0:0:0:
166,111,103672,2,0,L|214:144,1,53.9999983520508,0|0,3:0|3:0,0:0:0:0:
274,160,103839,2,0,L|412:154,1,107.999996704102,0|0,3:0|3:0,0:0:0:0:
113,337,104172,6,0,P|56:321|58:222,1,161.999995056153,0|0,1:0|0:0,0:0:0:0:
244,233,104506,6,0,P|312:212|299:118,1,175.499991966248,0|0,1:0|0:0,0:0:0:0:
239,111,104839,1,12,0:0:0:0:
83,33,105006,2,0,L|208:33,1,107.999996704102,0|0,1:0|3:0,0:0:0:0:
27,132,105339,2,0,L|34:283,1,107.999996704102,0|0,0:0|0:0,0:0:0:0:
298,210,105672,6,0,P|274:266|158:296,1,161.999995056153,0|0,1:0|0:0,0:0:0:0:
123,316,106006,1,0,1:0:0:0:
371,345,106172,1,12,0:0:0:0:
222,233,106339,2,0,L|316:169,1,107.999996704102,0|0,3:0|3:0,0:0:0:0:
467,149,106672,1,0,1:0:0:0:
207,209,106839,6,0,L|202:84,1,107.999996704102,0|0,1:0|0:0,0:0:0:0:
265,80,107089,1,0,0:0:0:0:
335,46,107172,2,0,L|263:43,1,53.9999983520508,0|0,3:0|3:0,0:0:0:0:
108,178,107339,2,0,L|26:176,1,53.9999983520508,0|0,1:0|0:0,0:0:0:0:
245,316,107506,6,0,L|381:309,2,107.999996704102,12|0|0,0:0|1:0|0:0,0:0:0:0:
94,258,108006,2,0,L|193:260,1,53.9999983520508,0|0,3:0|3:0,0:0:0:0:
338,343,108172,6,0,L|417:341,1,53.9999983520508,0|0,1:0|0:0,0:0:0:0:
459,268,108338,2,0,L|383:260,1,53.9999983520508,0|0,0:0|0:0,0:0:0:0:
329,212,108505,2,0,L|263:203,1,53.9999983520508,0|0,1:0|0:0,0:0:0:0:
195,138,108672,2,0,L|261:130,1,53.9999983520508,0|0,0:0|0:0,0:0:0:0:
435,177,108839,5,0,1:0:0:0:
459,128,108922,1,0,0:0:0:0:
438,78,109005,1,0,0:0:0:0:
381,49,109088,1,0,0:0:0:0:
310,62,109172,6,0,L|439:74,1,107.999996704102,2|2,0:0|0:0,0:0:0:0:
361,112,109422,1,2,0:0:0:0:
303,127,109506,1,2,0:0:0:0:
243,137,109589,1,0,0:0:0:0:
306,153,109672,1,0,0:0:0:0:
45,298,109839,6,0,L|65:167,1,107.999996704102,0|0,1:0|3:0,0:0:0:0:
118,168,110089,1,0,3:0:0:0:
176,162,110172,1,12,0:0:0:0:
19,74,110339,2,0,L|146:67,1,107.999996704102,0|0,1:0|0:0,0:0:0:0:
282,101,110672,2,0,L|289:222,1,107.999996704102,0|0,0:0|0:0,0:0:0:0:
38,297,111006,6,0,L|168:308,1,107.999996704102,0|0,1:0|0:0,0:0:0:0:
88,342,111256,1,0,0:0:0:0:
25,358,111339,1,0,1:0:0:0:
285,358,111506,2,0,L|282:249,1,107.999996704102,12|0,0:0|3:0,0:0:0:0:
138,241,111839,1,0,3:0:0:0:
415,249,112006,6,0,P|411:181|309:158,1,161.999995056153,8|0,1:2|0:0,0:0:0:0:
241,85,112339,2,0,L|309:74,1,53.9999983520508,0|0,1:0|3:0,0:0:0:0:
486,76,112506,6,0,P|490:137|399:192,1,161.999995056153,0|0,1:0|0:0,0:0:0:0:
354,200,112839,1,12,0:0:0:0:
192,270,113006,2,0,L|338:275,1,107.999996704102,0|0,1:0|0:0,0:0:0:0:
240,308,113256,1,0,0:0:0:0:
175,317,113339,2,0,L|63:319,1,107.999996704102,0|0,1:0|0:0,0:0:0:0:
308,371,113672,6,0,P|313:308|214:258,1,161.999995056153,0|0,1:0|0:0,0:0:0:0:
181,256,114006,1,0,1:0:0:0:
342,156,114172,2,0,L|205:146,1,107.999996704102,12|0,0:0|3:0,0:0:0:0:
175,120,114422,1,0,3:0:0:0:
236,120,114506,1,0,1:0:0:0:
392,83,114672,1,0,1:0:0:0:
132,40,114839,5,2,1:2:0:0:
64,116,115005,1,2,0:0:0:0:
133,171,115172,1,2,0:0:0:0:
70,231,115339,1,2,0:0:0:0:
306,296,115506,1,12,0:0:0:0:
56,364,115672,6,0,L|179:344,1,107.999996704102,0|0,1:0|0:0,0:0:0:0:
310,202,116006,2,0,L|188:189,1,107.999996704102
357,98,116339,2,0,L|484:79,1,107.999996704102,0|0,1:0|0:0,0:0:0:0:
223,56,116672,1,0,1:0:0:0:
370,189,116839,6,0,L|240:229,1,107.999996704102,12|0,0:0|3:0,0:0:0:0:
127,224,117172,1,0,3:0:0:0:
369,329,117339,1,0,1:0:0:0:
114,362,117506,6,0,L|139:244,1,107.999996704102,0|0,1:0|0:0,0:0:0:0:
202,227,117756,1,0,1:0:0:0:
279,218,117839,1,12,0:0:0:0:
33,234,118006,1,0,1:0:0:0:
12,185,118089,1,0,0:0:0:0:
32,136,118172,1,0,0:0:0:0:
80,116,118255,1,0,1:0:0:0:
271,88,118339,1,8,0:0:0:0:
157,35,118506,2,0,L|220:30,1,53.9999983520508,0|0,0:0|3:0,0:0:0:0:
376,137,118672,2,0,L|446:135,1,53.9999983520508,0|0,0:0|3:0,0:0:0:0:
225,306,118839,6,0,P|149:291|197:176,1,215.999993408203,0|0,1:0|0:0,0:0:0:0:
203,135,119255,1,0,0:0:0:0:
246,103,119338,1,0,0:0:0:0:
297,86,119421,1,0,0:0:0:0:
350,86,119506,2,0,L|230:74,1,107.999996704102,0|0,0:0|0:0,0:0:0:0:
408,28,119839,2,0,L|419:153,1,107.999996704102,0|0,1:0|3:0,0:0:0:0:
357,154,120089,1,0,3:0:0:0:
119,190,120172,5,8,1:2:0:0:
