osu file format v14

[General]
AudioFilename: audio.mp3
AudioLeadIn: 0
PreviewTime: 54756
Countdown: 0
SampleSet: Soft
StackLeniency: 0.7
Mode: 2
LetterboxInBreaks: 0
WidescreenStoryboard: 1

[Editor]
Bookmarks: 13506
DistanceSpacing: 2.8
BeatDivisor: 4
GridSize: 32
TimelineZoom: 3.199999

[Metadata]
Title:Calling
TitleUnicode:Calling
Artist:Zekk
ArtistUnicode:Zekk
Creator:Jemzuu
Version:Platter
Source:osu!
Tags:ajamez spectator afb alienflybot autofanboy denosaur den0saur featured artist fa electronic instrumental Future Bass Dubstep Drumstep drum and n bass dnb wub cyberpunk city
BeatmapID:2793986
BeatmapSetID:1246000

[Difficulty]
HPDrainRate:5
CircleSize:3.4
OverallDifficulty:8.2
ApproachRate:8.2
SliderMultiplier:1.6
SliderTickRate:2

[Events]
//Background and Video events
0,0,"calling.jpg",0,0
//Break Periods
2,77706,82119
//Storyboard Layer 0 (Background)
//Storyboard Layer 1 (Fail)
//Storyboard Layer 2 (Pass)
//Storyboard Layer 3 (Foreground)
//Storyboard Layer 4 (Overlay)
//Storyboard Sound Samples

[TimingPoints]
173,333.333333333333,4,2,3,30,1,0
13506,-100,4,2,3,30,0,0
14089,-100,4,2,3,5,0,0
14173,-100,4,2,1,30,0,0
15256,-100,4,2,1,5,0,0
15339,-100,4,2,1,30,0,0
17089,-100,4,2,1,5,0,0
17173,-100,4,2,1,30,0,0
17756,-100,4,2,1,5,0,0
17839,-100,4,2,1,30,0,0
18089,-100,4,2,1,5,0,0
18173,-100,4,2,1,30,0,0
18423,-100,4,2,1,5,0,0
18506,-100,4,2,1,30,0,0
19256,-100,4,2,1,5,0,0
19339,-100,4,2,1,30,0,0
19756,-100,4,2,1,5,0,0
19839,-100,4,2,1,30,0,0
20089,-100,4,2,1,5,0,0
20173,-100,4,2,1,30,0,0
20423,-100,4,2,1,5,0,0
20506,-100,4,2,1,30,0,0
21756,-100,4,2,1,5,0,0
21839,-100,4,2,1,30,0,0
22423,-100,4,2,1,5,0,0
22506,-100,4,2,1,40,0,0
22839,-100,4,2,1,40,0,0
23506,-100,4,2,1,50,0,0
23839,-100,4,2,2,70,0,0
24173,-100,4,2,4,60,0,0
25173,-100,4,2,3,60,0,0
25673,-100,4,2,1,60,0,0
26173,-100,4,2,4,60,0,0
26339,-100,4,2,3,60,0,0
26839,-100,4,2,4,60,0,0
29006,-100,4,2,3,60,0,0
29173,-100,4,2,2,60,0,0
29506,-100,4,2,4,60,0,0
30506,-100,4,2,3,60,0,0
31506,-100,4,2,4,60,0,0
31673,-100,4,2,3,60,0,0
32173,-100,4,2,4,60,0,0
33089,-100,4,2,3,60,0,0
33339,-100,4,2,1,60,0,0
33506,-100,4,2,3,60,0,0
33839,-100,4,2,4,60,0,0
34339,-100,4,2,3,60,0,0
34839,-100,4,2,2,60,0,0
35506,-100,4,2,4,60,0,0
35839,-100,4,2,3,60,0,0
36339,-100,4,2,2,60,0,0
36839,-100,4,2,4,60,0,0
37006,-100,4,2,3,60,0,0
37506,-100,4,2,1,60,0,0
38006,-100,4,2,3,60,0,0
38173,-100,4,2,4,60,0,0
39673,-100,4,2,2,60,0,0
40173,-100,4,2,4,60,0,0
44506,-100,4,1,0,60,0,0
44839,-100,4,2,4,60,0,0
45173,-100,4,2,2,60,0,0
45506,-100,4,2,3,70,0,0
45839,-100,4,2,1,70,0,0
50339,-100,4,2,2,70,0,0
53506,-100,4,1,0,30,0,0
53839,-100,4,1,0,45,0,0
54173,-100,4,1,0,60,0,0
54506,-100,4,1,0,70,0,0
54839,-100,4,2,2,70,0,0
55839,-100,4,2,1,70,0,0
56172,-86.9565217391304,4,2,1,80,0,1
56839,-86.9565217391304,4,2,1,80,0,1
57798,-86.9565217391304,4,2,1,5,0,1
57839,-86.9565217391304,4,2,1,80,0,1
58506,-86.9565217391304,4,2,2,80,0,1
58839,-86.9565217391304,4,2,1,80,0,1
59173,-86.9565217391304,4,2,2,80,0,1
60006,-86.9565217391304,4,2,1,80,0,1
61464,-86.9565217391304,4,2,1,5,0,1
61506,-86.9565217391304,4,2,1,80,0,1
63131,-86.9565217391304,4,2,1,5,0,1
63173,-86.9565217391304,4,2,1,80,0,1
63839,-86.9565217391304,4,2,2,80,0,1
64173,-86.9565217391304,4,2,1,80,0,1
66506,-86.9565217391304,4,1,0,50,0,0
67172,-86.9565217391304,4,2,1,80,0,1
68464,-86.9565217391304,4,2,1,5,0,1
68506,-86.9565217391304,4,2,1,80,0,1
69173,-86.9565217391304,4,2,2,80,0,1
69506,-86.9565217391304,4,2,1,80,0,1
73798,-86.9565217391304,4,2,1,5,0,1
73839,-86.9565217391304,4,2,1,80,0,1
74506,-86.9565217391304,4,2,2,80,0,1
74839,-86.9565217391304,4,2,1,80,0,1
76172,-100,4,2,1,80,0,0
77506,-100,4,2,2,80,0,1
77589,-100,4,2,2,80,0,0
82839,-100,4,2,1,50,0,0
84173,-100,4,2,1,60,0,0
86756,-100,4,2,1,5,0,0
86839,-100,4,2,1,60,0,0
87839,-100,4,2,2,80,0,0
88173,-100,4,2,3,30,0,0
88506,-100,4,2,1,70,0,0
93006,-100,4,2,2,70,0,0
96173,-100,4,1,0,30,0,0
96506,-100,4,1,0,45,0,0
96839,-100,4,1,0,60,0,0
97173,-100,4,1,0,70,0,0
97506,-100,4,2,2,70,0,0
98506,-100,4,2,1,70,0,0
98839,-86.9565217391304,4,2,1,80,0,1
99506,-86.9565217391304,4,2,1,80,0,1
103839,-86.9565217391304,4,2,1,80,0,1
104006,-86.9565217391304,4,2,1,80,0,1
104839,-86.9565217391304,4,2,1,80,0,1
109172,-86.9565217391304,4,2,1,80,0,0
109839,-86.9565217391304,4,2,1,80,0,1
118839,-86.9565217391304,4,2,1,80,0,0
120172,-100,4,2,2,80,0,1
120256,-100,4,2,2,80,0,0

[Colours]
Combo1 : 255,155,205
Combo2 : 74,165,255
Combo3 : 128,255,255
Combo4 : 155,155,255

[HitObjects]
416,322,13506,6,0,P|439:252|361:201,1,160,0|0,1:3|0:0,0:0:0:0:
208,217,14172,2,0,L|165:138,2,80,0|0|0,3:0|0:0|0:0,0:0:0:0:
389,108,14839,6,0,L|205:86,1,160,0|0,0:0|0:0,0:0:0:0:
143,49,15339,2,0,L|236:30,1,80,0|0,0:0|3:0,0:0:0:0:
309,29,15672,2,0,L|319:204,1,160,0|0,0:0|0:0,0:0:0:0:
161,257,16172,6,0,P|74:242|116:109,1,240,0|0,0:0|0:0,0:0:0:0:
175,100,16839,1,0,3:0:0:0:
343,75,17172,2,0,L|435:60,1,80,0|0,0:0|0:0,0:0:0:0:
343,75,17506,6,0,L|199:172,1,160
466,175,18172,2,0,L|474:268,1,80,0|0,3:0|0:0,0:0:0:0:
383,277,18506,1,0,0:0:0:0:
343,281,18589,1,0,0:0:0:0:
303,285,18672,1,0,0:0:0:0:
139,349,18839,6,0,P|99:296|221:199,1,240,0|0,0:0|0:0,0:0:0:0:
283,189,19506,1,0,3:0:0:0:
114,140,19839,1,0,0:0:0:0:
285,81,20172,5,0,0:0:0:0:
35,42,20506,2,0,L|35:138,1,80,0|0,0:0|0:0,0:0:0:0:
75,149,20756,1,0,0:0:0:0:
117,154,20839,2,0,L|206:158,1,80,0|0,3:0|0:0,0:0:0:0:
116,189,21172,2,0,L|206:191,1,80,0|0,0:0|0:0,0:0:0:0:
363,151,21506,6,0,P|379:209|276:262,1,160,0|0,0:0|0:0,0:0:0:0:
230,280,22006,1,0,0:0:0:0:
314,268,22172,2,0,L|430:278,1,80,0|0,3:0|0:0,0:0:0:0:
244,360,22506,2,0,L|142:365,1,80,0|0,0:0|0:0,0:0:0:0:
398,368,22839,5,8,3:3:0:0:
435,301,23005,1,0,3:0:0:0:
400,233,23172,1,0,3:0:0:0:
324,225,23339,1,0,3:0:0:0:
241,235,23506,2,0,L|226:143,1,80,0|0,3:0|3:0,0:0:0:0:
392,144,23839,2,0,L|401:57,1,80,8|8,3:2|3:2,0:0:0:0:
164,40,24172,6,0,L|21:134,1,160,4|0,1:0|0:0,0:0:0:0:
116,162,24672,1,0,0:0:0:0:
205,177,24839,1,8,0:0:0:0:
25,320,25172,2,0,P|57:254|152:226,1,160,0|0,1:0|0:0,0:0:0:0:
216,225,25672,5,0,1:0:0:0:
134,222,25839,1,0,0:0:0:0:
406,335,26172,2,0,L|500:324,2,80,8|0|0,0:0|1:0|1:0,0:0:0:0:
122,373,26839,6,0,L|110:203,1,160,0|0,1:0|0:0,0:0:0:0:
191,171,27339,1,0,0:0:0:0:
279,167,27506,1,8,0:0:0:0:
102,112,27839,1,0,0:0:0:0:
20,82,28006,6,0,L|188:57,1,160,0|0,1:0|0:0,0:0:0:0:
264,120,28506,2,0,L|96:160,1,160,0|8,1:0|0:0,0:0:0:0:
191,198,29006,1,0,1:0:0:0:
424,273,29172,2,0,L|520:278,1,80,12|0,0:0|0:0,0:0:0:0:
335,351,29506,6,0,L|171:282,2,160,0|0|8,1:0|0:0|0:0,0:0:0:0:
151,378,30506,1,0,1:0:0:0:
419,298,30839,6,0,L|469:214,2,80,0|0|0,0:0|1:0|0:0,0:0:0:0:
338,315,31339,1,0,0:0:0:0:
255,302,31506,2,0,L|339:280,1,80,8|0,0:0|1:0,0:0:0:0:
420,218,31839,2,0,L|325:207,1,80,0|0,0:0|1:0,0:0:0:0:
185,226,32172,5,0,1:0:0:0:
459,339,32506,2,0,L|464:163,1,160,0|8,0:0|0:0,0:0:0:0:
332,156,33089,1,0,1:0:0:0:
464,180,33339,1,0,1:0:0:0:
306,111,33506,5,0,1:0:0:0:
227,94,33672,1,0,1:0:0:0:
149,78,33839,1,0,1:0:0:0:
437,52,34172,2,0,L|479:129,2,80,8|0|0,0:0|1:0|1:0,0:0:0:0:
27,149,34839,6,0,L|187:222,2,160,12|0|8,1:2|0:0|0:0,0:0:0:0:
199,282,35839,1,0,1:0:0:0:
378,331,36172,2,0,L|425:237,2,80,0|0|0,0:0|1:0|0:0,0:0:0:0:
99,147,36839,2,0,L|16:137,2,80,8|0|0,0:0|1:0|1:0,0:0:0:0:
392,44,37506,6,0,L|250:166,1,160,0|0,1:0|0:0,0:0:0:0:
454,148,38172,2,0,L|470:326,1,160,8|0,0:0|0:0,0:0:0:0:
386,333,38672,1,0,1:0:0:0:
294,344,38839,2,0,L|477:306,1,160,0|0,0:0|1:0,0:0:0:0:
255,234,39506,6,0,L|150:219,1,80,8|8,0:0|0:0,0:0:0:0:
330,152,39839,1,8,0:0:0:0:
369,149,39922,1,0,0:0:0:0:
409,146,40005,1,0,3:0:0:0:
241,77,40172,6,0,L|66:143,1,160,0|0,1:0|0:0,0:0:0:0:
273,173,40839,2,0,P|317:185|335:298,1,160,8|0,0:0|0:0,0:0:0:0:
66,325,41506,6,0,L|25:274,2,40,0|0|0,3:0|3:0|1:0,0:0:0:0:
143,343,41839,1,0,0:0:0:0:
290,346,42006,2,0,L|297:249,1,80,0|0,1:0|0:0,0:0:0:0:
212,243,42339,1,0,1:0:0:0:
52,232,42506,2,0,L|26:195,2,40,0|0|0,3:0|3:0|3:0,0:0:0:0:
215,138,42839,6,0,L|311:117,1,80,0|0,1:0|0:0,0:0:0:0:
215,138,43172,2,0,L|120:121,1,80,0|0,1:0|0:0,0:0:0:0:
290,226,43506,2,0,L|426:244,2,120,0|0|0,1:0|1:0|1:0,0:0:0:0:
199,171,44172,2,0,L|286:154,1,80,0|0,1:0|1:0,0:0:0:0:
439,131,44506,5,0,0:0:0:0:
475,143,44589,1,0,0:0:0:0:
490,179,44672,1,0,0:0:0:0:
474,214,44756,1,0,0:0:0:0:
437,226,44839,2,0,L|336:226,1,80,0|0,1:0|1:0,0:0:0:0:
105,364,45172,6,0,L|99:183,1,160,8|0,0:0|1:0,0:0:0:0:
431,102,45839,5,4,1:0:0:0:
448,177,46005,1,0,0:0:0:0:
403,241,46172,1,0,1:0:0:0:
326,250,46338,1,0,0:0:0:0:
410,271,46506,2,0,L|498:276,1,80,0|0,1:0|0:0,0:0:0:0:
325,368,46839,5,0,1:0:0:0:
249,352,47005,1,0,0:0:0:0:
215,282,47172,1,0,1:0:0:0:
248,213,47338,1,0,0:0:0:0:
323,196,47506,2,0,L|390:199,2,40,0|0|0,1:0|0:0|0:0,0:0:0:0:
244,171,47839,1,0,1:0:0:0:
162,164,48006,1,0,0:0:0:0:
332,93,48172,6,0,P|372:160|295:206,1,160,0|0,1:0|1:0,0:0:0:0:
243,224,48672,1,0,0:0:0:0:
78,265,48839,2,0,P|51:220|131:153,1,160,0|0,1:0|1:0,0:0:0:0:
196,140,49339,1,0,0:0:0:0:
366,84,49506,6,0,L|373:247,1,160,0|0,1:0|1:0,0:0:0:0:
285,264,50006,2,0,L|269:312,2,40,0|0|0,0:0|0:0|1:0,0:0:0:0:
373,233,50339,1,8,0:0:0:0:
489,228,50506,1,8,1:2:0:0:
181,53,50839,5,8,1:3:0:0:
255,72,51005,1,0,0:0:0:0:
287,142,51172,1,0,3:0:0:0:
251,211,51338,1,0,0:0:0:0:
175,225,51506,2,0,L|79:221,1,80,0|0,3:0|3:0,0:0:0:0:
175,225,51839,2,0,L|278:220,1,80,0|0,3:0|3:0,0:0:0:0:
89,350,52172,5,0,3:0:0:0:
47,285,52338,1,0,3:0:0:0:
78,214,52505,1,0,3:0:0:0:
153,201,52671,1,0,0:0:0:0:
240,209,52839,2,0,L|248:91,1,80,0|0,3:0|3:0,0:0:0:0:
157,129,53172,2,0,L|143:50,1,80,0|0,3:0|3:0,0:0:0:0:
315,36,53506,6,0,L|339:76,2,40,0|0|0,0:0|0:0|0:0,0:0:0:0:
232,29,53839,2,0,L|145:46,1,80,0|0,0:0|0:0,0:0:0:0:
308,135,54172,6,0,L|332:175,2,40,0|0|0,0:0|0:0|0:0,0:0:0:0:
225,128,54505,2,0,L|138:145,1,80,0|0,0:0|0:0,0:0:0:0:
404,321,54839,5,0,1:0:0:0:
486,326,55006,2,0,P|498:271|410:197,1,160,0|0,0:0|0:0,0:0:0:0:
301,191,55506,2,0,L|257:181,1,40,0|0,3:0|3:0,0:0:0:0:
352,122,55756,1,0,3:0:0:0:
392,108,55839,2,0,L|477:133,1,80,0|0,3:0|0:0,0:0:0:0:
219,273,56172,6,0,L|123:298,1,92.0000017547608,4|0,1:0|0:0,0:0:0:0:
288,368,56506,2,0,L|293:263,1,92.0000017547608,0|0,1:0|0:0,0:0:0:0:
129,207,56839,2,0,L|48:164,2,92.0000017547608,8|0|0,3:2|1:0|0:0,0:0:0:0:
215,217,57339,1,0,0:0:0:0:
129,207,57506,1,0,3:0:0:0:
387,155,57672,6,0,L|497:130,1,92.0000017547608,0|0,1:0|0:0,0:0:0:0:
316,72,58006,2,0,L|209:59,1,92.0000017547608,0|8,1:0|0:0,0:0:0:0:
390,23,58339,1,2,3:1:0:0:
390,23,58506,1,2,3:1:0:0:
390,23,58672,1,2,1:0:0:0:
297,104,58839,2,0,L|394:124,1,92.0000017547608,0|0,0:0|1:0,0:0:0:0:
132,292,59172,6,0,P|69:279|105:166,1,184.000003509522,4|8,1:0|0:0,0:0:0:0:
241,201,59672,2,0,P|304:180|283:67,1,184.000003509522,0|0,1:0|1:2,0:0:0:0:
215,66,60172,1,0,3:0:0:0:
461,39,60339,6,0,L|475:136,1,92.0000017547608,0|0,1:0|0:0,0:0:0:0:
316,158,60672,2,0,L|306:255,1,92.0000017547608,0|8,1:0|0:0,0:0:0:0:
392,288,61006,1,0,3:0:0:0:
229,354,61172,2,0,L|137:321,1,92.0000017547608,0|0,3:0|3:0,0:0:0:0:
400,202,61506,6,0,L|498:174,1,92.0000017547608,0|0,1:0|0:0,0:0:0:0:
325,148,61839,2,0,L|135:75,1,184.000003509522,4|8,1:0|0:0,0:0:0:0:
319,26,62339,2,0,L|327:129,1,92.0000017547608,0|0,1:0|0:0,0:0:0:0:
234,171,62672,2,0,L|326:191,1,92.0000017547608,0|0,0:0|0:0,0:0:0:0:
63,316,63006,6,0,L|47:194,1,92.0000017547608,0|0,1:0|0:0,0:0:0:0:
210,223,63339,2,0,L|317:244,1,92.0000017547608,0|8,1:0|0:0,0:0:0:0:
132,337,63672,1,2,3:1:0:0:
132,337,63839,1,2,3:1:0:0:
132,337,64006,1,2,1:0:0:0:
299,294,64172,6,0,P|261:245|132:218,1,184.000003509522,0|0,0:0|1:0,0:0:0:0:
62,205,64672,1,0,1:0:0:0:
229,164,64839,1,12,0:0:0:0:
312,125,65006,2,0,P|378:133|439:243,1,184.000003509522,0|0,1:0|3:0,0:0:0:0:
181,340,65506,6,0,L|164:239,1,92.0000017547608,0|0,1:0|3:0,0:0:0:0:
317,232,65839,2,0,L|322:121,1,92.0000017547608,0|0,1:0|3:0,0:0:0:0:
472,151,66172,2,0,L|485:52,1,92.0000017547608,0|0,1:0|1:0,0:0:0:0:
334,41,66506,5,8,0:3:0:0:
292,58,66589,1,0,0:0:0:0:
276,100,66672,1,0,0:0:0:0:
294,141,66755,1,0,0:0:0:0:
336,157,66839,2,0,L|428:181,1,92.0000017547608,0|0,0:0|0:0,0:0:0:0:
171,291,67172,6,0,P|103:271|132:164,1,184.000003509522,4|8,1:0|0:0,0:0:0:0:
276,100,67672,2,0,L|370:138,2,92.0000017547608,0|0|0,1:0|3:0|3:0,0:0:0:0:
189,106,68172,1,0,1:0:0:0:
447,60,68339,6,0,L|462:176,1,92.0000017547608,0|0,1:0|0:0,0:0:0:0:
300,221,68672,2,0,L|197:247,1,92.0000017547608,0|8,1:0|0:0,0:0:0:0:
380,293,69006,1,2,3:1:0:0:
380,293,69172,5,2,3:1:0:0:
380,293,69339,1,2,1:0:0:0:
290,349,69506,2,0,L|384:384,1,92.0000017547608,2|0,0:0|1:0,0:0:0:0:
111,378,69839,6,0,P|94:319|186:269,1,184.000003509522,4|2,1:0|1:0,0:0:0:0:
35,258,70339,1,2,1:0:0:0:
35,258,70506,1,2,0:1:0:0:
35,258,70672,1,2,0:1:0:0:
124,237,70839,1,0,0:0:0:0:
374,259,71006,6,0,L|375:156,1,92.0000017547608,4|0,1:0|3:0,0:0:0:0:
218,180,71339,2,0,L|204:88,1,92.0000017547608,0|12,1:0|0:0,0:0:0:0:
371,50,71672,2,0,L|401:91,2,46.0000008773804,0|0|0,3:0|3:0|3:0,0:0:0:0:
285,44,72006,1,0,3:0:0:0:
115,75,72172,6,0,P|95:127|195:177,1,184.000003509522,0|0,1:0|0:0,0:0:0:0:
273,197,72672,1,0,0:0:0:0:
21,340,72839,5,12,0:0:0:0:
106,308,73006,2,0,L|266:202,1,184.000003509522,0|0,1:0|0:0,0:0:0:0:
175,184,73506,1,0,0:0:0:0:
429,233,73672,6,0,L|428:109,1,92.0000017547608,0|0,1:0|0:0,0:0:0:0:
276,152,74006,2,0,L|187:117,1,92.0000017547608,0|8,1:0|0:0,0:0:0:0:
360,69,74339,1,2,3:1:0:0:
360,69,74506,1,2,3:1:0:0:
360,69,74672,1,2,1:0:0:0:
97,65,74839,6,0,P|82:126|182:179,1,184.000003509522,0|12,1:0|0:0,0:0:0:0:
345,271,75339,2,0,L|443:311,2,92.0000017547608,0|0|8,1:0|3:0|0:0,0:0:0:0:
175,355,75839,1,0,0:0:0:0:
133,335,75922,1,0,0:0:0:0:
91,316,76005,1,0,3:0:0:0:
364,174,76172,5,0,1:0:0:0:
54,236,77172,2,0,L|41:137,1,80,0|0,1:0|3:0,0:0:0:0:
316,106,77506,5,8,1:2:0:0:
256,192,82839,12,0,86506,0:0:0:0:
365,304,86839,5,8,0:3:0:0:
387,229,87005,1,0,0:0:0:0:
349,161,87172,1,0,0:0:0:0:
274,140,87339,1,0,0:0:0:0:
111,247,87506,5,0,0:0:0:0:
88,172,87672,1,0,0:0:0:0:
126,104,87839,1,8,0:0:0:0:
201,83,88006,1,8,0:0:0:0:
370,86,88172,2,0,L|378:182,1,80,0|0,1:0|0:0,0:0:0:0:
107,148,88506,5,4,1:0:0:0:
90,223,88672,1,0,0:0:0:0:
135,287,88839,1,0,1:0:0:0:
212,296,89005,1,0,0:0:0:0:
109,357,89172,2,0,L|97:251,1,80,0|0,1:0|0:0,0:0:0:0:
266,300,89506,5,0,1:0:0:0:
190,284,89672,1,0,0:0:0:0:
156,214,89839,1,0,1:0:0:0:
189,145,90005,1,0,0:0:0:0:
264,128,90173,2,0,L|331:131,2,40,0|0|0,1:0|0:0|0:0,0:0:0:0:
167,79,90506,1,0,1:0:0:0:
264,128,90673,1,0,0:0:0:0:
439,136,90839,6,0,L|447:315,1,160,0|0,1:0|1:0,0:0:0:0:
361,347,91339,1,0,0:0:0:0:
198,366,91506,2,0,L|187:188,1,160,0|0,1:0|1:0,0:0:0:0:
275,185,92006,1,0,0:0:0:0:
101,87,92173,6,0,L|94:250,1,160,0|0,1:0|1:0,0:0:0:0:
185,289,92672,1,0,0:0:0:0:
150,308,92755,1,0,0:0:0:0:
115,328,92838,1,0,1:0:0:0:
25,342,93006,1,8,0:0:0:0:
292,357,93173,1,8,1:2:0:0:
277,57,93506,5,8,1:3:0:0:
203,76,93672,1,0,3:0:0:0:
171,146,93839,1,0,3:0:0:0:
207,215,94005,1,0,3:0:0:0:
283,229,94173,2,0,L|379:225,1,80,0|0,3:0|3:0,0:0:0:0:
283,229,94506,2,0,L|180:224,1,80,0|0,3:0|3:0,0:0:0:0:
363,350,94839,5,0,3:0:0:0:
405,285,95005,1,0,3:0:0:0:
374,214,95172,1,0,3:0:0:0:
299,201,95338,1,0,0:0:0:0:
217,163,95506,2,0,L|314:120,1,80,0|0,3:0|3:0,0:0:0:0:
373,108,95839,2,0,L|470:108,1,80,0|0,3:0|3:0,0:0:0:0:
219,37,96173,6,0,L|174:45,2,40,0|0|0,0:0|0:0|0:0,0:0:0:0:
302,30,96506,2,0,L|389:47,1,80,0|0,0:0|0:0,0:0:0:0:
226,136,96839,6,0,L|180:142,2,40,0|0|0,0:0|0:0|0:0,0:0:0:0:
309,129,97172,2,0,L|396:146,1,80,0|0,0:0|0:0,0:0:0:0:
121,333,97506,5,0,1:0:0:0:
32,329,97673,2,0,P|20:274|108:200,1,160,0|0,0:0|1:0,0:0:0:0:
211,191,98173,2,0,L|255:181,1,40,0|0,3:0|3:0,0:0:0:0:
123,113,98423,1,0,3:0:0:0:
82,99,98506,2,0,L|166:82,1,80,0|0,1:0|0:0,0:0:0:0:
417,111,98839,6,0,L|427:232,1,92.0000017547608,4|0,1:0|0:0,0:0:0:0:
171,227,99172,2,0,L|161:359,1,92.0000017547608,0|0,1:0|0:0,0:0:0:0:
317,360,99506,6,0,L|235:302,1,92.0000017547608,12|0,0:0|1:0,0:0:0:0:
147,297,99839,1,0,3:0:0:0:
104,282,99922,1,0,3:0:0:0:
86,241,100005,1,0,3:0:0:0:
103,200,100088,1,0,0:0:0:0:
145,184,100172,1,0,3:0:0:0:
409,250,100339,6,0,P|429:197|336:124,1,184.000003509522,0|0,1:0|1:0,0:0:0:0:
180,79,100839,2,0,L|54:60,2,92.0000017547608,12|0|0,0:0|3:0|3:0,0:0:0:0:
348,137,101339,2,0,L|490:264,1,184.000003509522,0|0,1:0|1:0,0:0:0:0:
226,336,101839,6,0,P|200:279|310:235,1,184.000003509522,0|12,1:0|0:0,0:0:0:0:
449,213,102339,2,0,P|475:156|365:112,1,184.000003509522,0|8,1:0|0:0,0:0:0:0:
305,99,102839,1,0,3:0:0:0:
57,160,103006,6,0,L|48:255,1,92.0000017547608,0|0,1:0|0:0,0:0:0:0:
209,302,103339,2,0,L|311:326,1,92.0000017547608,0|8,1:0|0:0,0:0:0:0:
129,361,103672,2,0,L|103:322,2,46.0000008773804,0|0|0,3:0|3:0|3:0,0:0:0:0:
213,364,104006,1,0,3:0:0:0:
466,362,104172,6,0,L|470:264,1,92.0000017547608,0|0,1:0|0:0,0:0:0:0:
221,214,104506,2,0,L|117:191,1,92.0000017547608,0|0,1:0|0:0,0:0:0:0:
289,143,104839,6,0,L|375:101,2,92.0000017547608,12|0|0,0:0|1:0|3:0,0:0:0:0:
125,151,105339,2,0,L|119:38,1,92.0000017547608,0|0,0:0|0:0,0:0:0:0:
380,32,105672,6,0,P|407:91|305:151,1,184.000003509522,0|0,1:0|1:0,0:0:0:0:
162,169,106172,2,0,L|165:274,1,92.0000017547608,12|0,0:0|3:0,0:0:0:0:
279,293,106506,1,0,3:0:0:0:
406,306,106672,1,0,1:0:0:0:
255,366,106839,6,0,L|85:286,1,184.000003509522,0|0,1:0|3:0,0:0:0:0:
65,261,107256,1,0,3:0:0:0:
88,287,107339,1,0,1:0:0:0:
175,303,107506,1,12,0:0:0:0:
336,315,107672,6,0,P|400:306|395:191,1,184.000003509522,0|0,1:0|3:0,0:0:0:0:
160,213,108172,6,0,L|137:109,1,92.0000017547608,0|0,1:0|0:0,0:0:0:0:
286,133,108506,2,0,L|303:38,1,92.0000017547608,0|0,1:0|0:0,0:0:0:0:
147,38,108839,2,0,L|44:55,1,92.0000017547608,0|0,1:0|1:0,0:0:0:0:
212,111,109172,5,2,0:0:0:0:
253,128,109255,1,2,0:0:0:0:
269,170,109338,1,2,0:0:0:0:
250,211,109421,1,2,0:0:0:0:
208,226,109506,2,0,L|114:208,1,92.0000017547608,2|0,0:0|0:0,0:0:0:0:
369,362,109839,6,0,L|468:343,1,92.0000017547608,0|0,1:0|3:0,0:0:0:0:
482,317,110089,1,0,3:0:0:0:
459,344,110172,1,12,0:0:0:0:
296,336,110339,2,0,L|283:220,1,92.0000017547608,0|0,1:0|0:0,0:0:0:0:
379,204,110672,2,0,L|472:160,1,92.0000017547608,0|0,0:0|0:0,0:0:0:0:
207,172,111006,6,0,L|45:287,1,184.000003509522,0|0,1:0|1:0,0:0:0:0:
202,335,111506,2,0,L|303:299,2,92.0000017547608,12|0|0,0:0|3:0|3:0,0:0:0:0:
446,365,112006,2,0,P|468:301|366:259,1,184.000003509522,8|0,1:2|1:0,0:0:0:0:
135,274,112506,6,0,P|108:212|222:163,1,184.000003509522,0|12,1:0|0:0,0:0:0:0:
348,116,113006,2,0,L|360:226,1,92.0000017547608,0|0,1:0|0:0,0:0:0:0:
110,261,113339,6,0,L|4:313,1,92.0000017547608,0|0,1:0|0:0,0:0:0:0:
273,41,113672,2,0,L|379:93,2,92.0000017547608,0|0|0,1:0|0:0|1:0,0:0:0:0:
110,80,114172,2,0,L|101:183,1,92.0000017547608,12|0,0:0|3:0,0:0:0:0:
145,191,114422,1,0,3:0:0:0:
192,201,114506,2,0,L|276:266,1,92.0000017547608,0|0,1:0|1:0,0:0:0:0:
92,344,114839,5,2,1:2:0:0:
92,344,115006,1,2,0:0:0:0:
92,344,115172,1,2,0:0:0:0:
92,344,115339,1,2,0:0:0:0:
350,344,115506,6,0,L|448:300,2,92.0000017547608,12|0|0,0:0|1:0|0:0,0:0:0:0:
194,347,116006,2,0,L|186:234,1,92.0000017547608,0|0,0:0|0:0,0:0:0:0:
338,185,116339,6,0,P|300:140|166:121,1,184.000003509522,0|0,1:0|1:0,0:0:0:0:
427,50,116839,1,12,0:0:0:0:
468,128,117005,1,0,3:0:0:0:
429,208,117172,1,0,3:0:0:0:
341,223,117339,1,0,1:0:0:0:
87,362,117506,6,0,P|59:296|170:261,1,184.000003509522,0|12,1:0|0:0,0:0:0:0:
285,178,118006,2,0,L|186:130,2,92.0000017547608,0|0|8,1:0|0:0|0:0,0:0:0:0:
439,106,118506,2,0,L|395:75,1,46.0000008773804,0|0,0:0|3:0,0:0:0:0:
350,78,118672,1,0,0:0:0:0:
57,121,118839,5,0,1:0:0:0:
392,276,119839,2,0,L|274:321,1,92.0000017547608,0|0,1:0|3:0,0:0:0:0:
27,158,120172,5,8,1:2:0:0:
