osu file format v14

[General]
AudioFilename: audio.mp3
AudioLeadIn: 0
PreviewTime: 54756
Countdown: 0
SampleSet: Soft
StackLeniency: 0.7
Mode: 2
LetterboxInBreaks: 0
WidescreenStoryboard: 1

[Editor]
Bookmarks: 13506
DistanceSpacing: 2.8
BeatDivisor: 4
GridSize: 32
TimelineZoom: 3.199999

[Metadata]
Title:Calling
TitleUnicode:Calling
Artist:Zekk
ArtistUnicode:Zekk
Creator:Jemzuu
Version:Cup
Source:osu!
Tags:ajamez spectator afb alienflybot autofanboy denosaur den0saur featured artist fa electronic instrumental Future Bass Dubstep Drumstep drum and n bass dnb wub cyberpunk city
BeatmapID:2594406
BeatmapSetID:1246000

[Difficulty]
HPDrainRate:3
CircleSize:2.5
OverallDifficulty:6.2
ApproachRate:6.2
SliderMultiplier:1.2
SliderTickRate:1

[Events]
//Background and Video events
0,0,"calling.jpg",0,0
//Break Periods
2,77706,81819
//Storyboard Layer 0 (Background)
//Storyboard Layer 1 (Fail)
//Storyboard Layer 2 (Pass)
//Storyboard Layer 3 (Foreground)
//Storyboard Layer 4 (Overlay)
//Storyboard Sound Samples

[TimingPoints]
173,333.333333333333,4,2,3,30,1,0
13506,-100,4,2,3,30,0,0
14089,-100,4,2,3,5,0,0
14173,-100,4,2,1,30,0,0
15256,-100,4,2,1,5,0,0
15339,-100,4,2,1,30,0,0
17089,-100,4,2,1,5,0,0
17173,-100,4,2,1,30,0,0
17756,-100,4,2,1,5,0,0
17839,-100,4,2,1,30,0,0
18089,-100,4,2,1,5,0,0
18173,-100,4,2,1,30,0,0
18423,-100,4,2,1,5,0,0
18506,-100,4,2,1,30,0,0
19256,-100,4,2,1,5,0,0
19339,-100,4,2,1,30,0,0
19756,-100,4,2,1,5,0,0
19839,-100,4,2,1,30,0,0
20089,-100,4,2,1,5,0,0
20173,-100,4,2,1,30,0,0
20423,-100,4,2,1,5,0,0
20506,-100,4,2,1,30,0,0
21756,-100,4,2,1,5,0,0
21839,-100,4,2,1,30,0,0
22423,-100,4,2,1,5,0,0
22506,-100,4,2,1,40,0,0
22839,-100,4,2,1,40,0,0
23506,-100,4,2,1,50,0,0
23839,-100,4,2,2,70,0,0
24173,-100,4,2,4,60,0,0
25173,-100,4,2,3,60,0,0
25673,-100,4,2,1,60,0,0
26173,-100,4,2,4,60,0,0
26339,-100,4,2,3,60,0,0
26839,-100,4,2,4,60,0,0
29006,-100,4,2,3,60,0,0
29173,-100,4,2,2,60,0,0
29506,-100,4,2,4,60,0,0
30506,-100,4,2,3,60,0,0
31506,-100,4,2,4,60,0,0
31673,-100,4,2,3,60,0,0
32173,-100,4,2,4,60,0,0
33089,-100,4,2,3,60,0,0
33339,-100,4,2,1,60,0,0
33506,-100,4,2,3,60,0,0
33839,-100,4,2,4,60,0,0
34339,-100,4,2,3,60,0,0
34839,-100,4,2,2,60,0,0
35506,-100,4,2,4,60,0,0
35839,-100,4,2,3,60,0,0
36339,-100,4,2,2,60,0,0
36839,-100,4,2,4,60,0,0
37006,-100,4,2,3,60,0,0
37506,-100,4,2,1,60,0,0
38006,-100,4,2,3,60,0,0
38173,-100,4,2,4,60,0,0
39673,-100,4,2,2,60,0,0
40173,-100,4,2,4,60,0,0
44506,-100,4,1,0,60,0,0
44839,-100,4,2,4,60,0,0
45173,-100,4,2,2,60,0,0
45839,-100,4,2,1,70,0,0
50339,-100,4,2,2,70,0,0
53506,-100,4,1,0,30,0,0
53839,-100,4,1,0,45,0,0
54173,-100,4,1,0,60,0,0
54506,-100,4,1,0,70,0,0
54839,-100,4,2,2,70,0,0
55839,-100,4,2,1,70,0,0
56172,-90.9090909090909,4,2,1,80,0,1
56839,-90.9090909090909,4,2,1,80,0,1
57798,-90.9090909090909,4,2,1,5,0,1
57839,-90.9090909090909,4,2,1,80,0,1
58506,-90.9090909090909,4,2,2,80,0,1
58839,-90.9090909090909,4,2,1,80,0,1
59173,-90.9090909090909,4,2,2,80,0,1
60006,-90.9090909090909,4,2,1,80,0,1
61464,-90.9090909090909,4,2,1,5,0,1
61506,-90.9090909090909,4,2,1,80,0,1
63131,-90.9090909090909,4,2,1,5,0,1
63173,-90.9090909090909,4,2,1,80,0,1
63839,-90.9090909090909,4,2,2,80,0,1
64173,-90.9090909090909,4,2,1,80,0,1
66506,-100,4,1,0,50,0,0
67172,-90.9090909090909,4,2,1,80,0,1
68464,-90.9090909090909,4,2,1,5,0,1
68506,-90.9090909090909,4,2,1,80,0,1
69173,-90.9090909090909,4,2,2,80,0,1
69506,-90.9090909090909,4,2,1,80,0,1
73798,-90.9090909090909,4,2,1,5,0,1
73839,-90.9090909090909,4,2,1,80,0,1
74506,-90.9090909090909,4,2,2,80,0,1
74839,-90.9090909090909,4,2,1,80,0,1
76172,-100,4,2,1,80,0,0
77506,-90.9090909090909,4,2,2,80,0,1
77589,-100,4,2,2,80,0,0
82839,-100,4,2,1,50,0,0
84173,-100,4,2,1,60,0,0
86756,-100,4,2,1,5,0,0
86839,-100,4,2,1,60,0,0
87839,-100,4,2,2,80,0,0
88173,-100,4,2,3,30,0,0
88506,-100,4,2,1,70,0,0
93006,-100,4,2,2,70,0,0
96173,-100,4,1,0,30,0,0
96506,-100,4,1,0,45,0,0
96839,-100,4,1,0,60,0,0
97173,-100,4,1,0,70,0,0
97506,-100,4,2,2,70,0,0
98506,-100,4,2,1,70,0,0
98839,-90.9090909090909,4,2,1,80,0,1
99506,-90.9090909090909,4,2,1,80,0,1
103839,-90.9090909090909,4,2,1,80,0,1
104006,-90.9090909090909,4,2,1,80,0,1
104839,-90.9090909090909,4,2,1,80,0,1
109172,-100,4,2,1,80,0,0
109839,-90.9090909090909,4,2,1,80,0,1
118839,-100,4,2,1,80,0,0
120172,-90.9090909090909,4,2,2,80,0,1
120256,-100,4,2,2,80,0,0

[Colours]
Combo1 : 255,155,205
Combo2 : 74,165,255
Combo3 : 128,255,255
Combo4 : 155,155,255

[HitObjects]
342,41,13506,6,0,P|417:68|349:171,1,240,0|0,1:3|3:0,0:0:0:0:
224,206,14506,1,0,0:0:0:0:
94,265,14839,6,0,L|86:134,1,120
221,93,15506,2,0,L|299:87,1,60,0|0,3:0|0:0,0:0:0:0:
62,315,16172,6,0,P|37:269|159:154,1,240,0|0,0:0|3:0,0:0:0:0:
279,146,17172,2,0,L|284:226,2,60,0|0|0,0:0|0:0|0:0,0:0:0:0:
415,115,17839,1,0,0:0:0:0:
277,72,18172,6,0,L|133:37,1,120,0|0,3:0|0:0,0:0:0:0:
226,24,18672,1,0,0:0:0:0:
307,35,18839,6,0,P|344:48|289:146,1,180,0|0,0:0|0:0,0:0:0:0:
246,166,19506,2,0,L|121:178,1,120,0|0,3:0|0:0,0:0:0:0:
266,264,20172,6,0,L|274:392,1,120
208,380,20672,1,0,0:0:0:0:
137,366,20839,2,0,L|17:304,1,120,0|0,3:0|0:0,0:0:0:0:
180,230,21506,6,0,L|320:191,1,120,0|0,0:0|0:0,0:0:0:0:
356,173,22006,1,0,0:0:0:0:
287,171,22172,2,0,L|148:147,1,120,0|0,3:0|0:0,0:0:0:0:
329,75,22839,6,0,L|467:80,1,120,8|0,3:3|3:0,0:0:0:0:
310,186,23506,1,0,3:0:0:0:
168,302,23839,2,0,L|241:305,1,60,8|8,3:2|3:2,0:0:0:0:
304,308,24172,6,0,P|350:273|288:195,1,180,4|0,1:0|0:0,0:0:0:0:
225,193,24839,1,8,0:0:0:0:
79,80,25172,2,0,L|257:164,2,180,0|0|8,1:0|1:0|0:0,0:0:0:0:
34,120,26339,1,0,1:0:0:0:
81,80,26506,1,0,1:0:0:0:
235,72,26839,6,0,L|241:202,1,120,0|0,1:0|0:0,0:0:0:0:
386,206,27506,2,0,L|392:325,1,120,8|0,0:0|0:0,0:0:0:0:
329,346,28006,1,0,1:0:0:0:
265,350,28172,6,0,L|139:344,1,120,0|0,0:0|1:0,0:0:0:0:
314,262,28839,2,0,L|339:198,2,60,8|0|12,0:0|1:0|0:0,0:0:0:0:
146,253,29506,6,0,L|137:131,1,120,0|0,1:0|0:0,0:0:0:0:
285,52,30172,2,0,L|155:42,1,120,8|0,0:0|1:0,0:0:0:0:
27,193,30839,6,0,L|160:206,1,120
289,165,31506,2,0,L|303:293,1,120,8|0,0:0|0:0,0:0:0:0:
441,330,32172,5,0,1:0:0:0:
303,362,32506,1,0,0:0:0:0:
159,358,32839,2,0,L|59:332,2,90,8|0|0,0:0|1:0|1:0,0:0:0:0:
234,351,33506,6,0,L|250:206,1,120,0|0,1:0|1:0,0:0:0:0:
103,215,34172,2,0,L|83:84,1,120,8|0,0:0|1:0,0:0:0:0:
250,50,34839,6,0,L|118:37,2,120,12|0|8,1:2|0:0|0:0,0:0:0:0:
385,71,35839,1,0,1:0:0:0:
242,177,36172,6,0,L|97:188,1,120
270,301,36839,2,0,L|306:232,2,60,8|0|0,0:0|1:0|1:0,0:0:0:0:
115,355,37506,5,0,1:0:0:0:
253,356,37839,1,0,0:0:0:0:
391,351,38172,2,0,L|399:223,1,120,8|0,0:0|0:0,0:0:0:0:
248,241,38839,6,0,L|232:95,1,120,0|0,0:0|1:0,0:0:0:0:
395,60,39506,2,0,L|326:40,1,60,8|8,0:0|0:0,0:0:0:0:
256,39,39839,1,8,0:0:0:0:
423,37,40172,6,0,L|430:173,1,120,0|0,1:0|0:0,0:0:0:0:
283,183,40839,2,0,L|281:326,1,120,8|0,0:0|0:0,0:0:0:0:
134,357,41506,5,0,3:0:0:0:
62,334,41672,2,0,L|190:311,1,120,0|0,1:0|1:0,0:0:0:0:
313,252,42339,2,0,L|364:194,2,60,0|0|0,1:0|3:0|3:0,0:0:0:0:
231,260,42839,6,0,L|96:233,1,120,0|0,1:0|1:0,0:0:0:0:
262,138,43506,2,0,L|366:124,2,90,0|0|0,1:0|1:0|1:0,0:0:0:0:
189,137,44172,6,0,L|66:114,1,120,0|0,1:0|0:0,0:0:0:0:
223,61,44839,2,0,L|237:195,1,120,0|8,1:0|0:0,0:0:0:0:
379,224,45506,1,0,1:0:0:0:
211,324,45839,6,0,L|64:302,2,120,4|0|0,1:0|1:0|1:0,0:0:0:0:
354,349,46839,1,0,1:0:0:0:
241,321,47172,1,0,1:0:0:0:
191,216,47505,1,0,1:0:0:0:
240,111,47839,1,0,1:0:0:0:
362,74,48172,6,0,L|499:64,1,120,0|0,1:0|1:0,0:0:0:0:
348,189,48839,2,0,L|203:192,1,120,0|0,1:0|1:0,0:0:0:0:
82,73,49506,6,0,L|219:52,1,120,0|0,1:0|1:0,0:0:0:0:
59,199,50172,2,0,L|20:267,2,60,0|8|8,1:0|0:0|1:2,0:0:0:0:
226,189,50839,6,0,L|365:221,2,120,8|0|0,1:3|3:0|3:0,0:0:0:0:
90,269,51839,1,0,3:0:0:0:
237,332,52172,6,0,L|241:194,1,120,0|0,3:0|3:0,0:0:0:0:
390,196,52839,2,0,L|396:68,1,120,0|0,3:0|3:0,0:0:0:0:
249,47,53506,5,0,0:0:0:0:
190,43,53672,1,0,0:0:0:0:
130,40,53839,1,0,0:0:0:0:
135,331,54172,5,0,0:0:0:0:
194,327,54338,1,0,0:0:0:0:
254,324,54505,1,0,0:0:0:0:
405,330,54839,5,0,1:0:0:0:
333,294,55006,2,0,L|209:272,1,120
133,292,55506,2,0,L|123:158,1,120,0|0,3:0|3:0,0:0:0:0:
292,110,56172,6,0,L|439:123,2,132.00000402832,4|0|8,1:0|1:0|3:2,0:0:0:0:
219,121,57006,2,0,P|203:184|234:257,1,132.00000402832,0|0,1:0|0:0,0:0:0:0:
393,317,57672,6,0,L|248:279,1,132.00000402832,0|0,1:0|1:0,0:0:0:0:
193,262,58172,1,8,0:0:0:0:
265,223,58339,2,0,L|350:207,2,66.0000020141602,2|2|2,3:1|3:1|1:0,0:0:0:0:
94,292,59006,1,0,1:0:0:0:
31,297,59172,6,0,P|23:236|80:166,1,132.00000402832,4|8,1:0|0:0,0:0:0:0:
131,152,59672,2,0,L|286:131,1,132.00000402832,0|0,1:0|1:2,0:0:0:0:
88,257,60339,6,0,L|77:110,1,132.00000402832,0|0,1:0|1:0,0:0:0:0:
149,89,60839,1,8,0:0:0:0:
306,51,61172,2,0,L|392:53,1,66.0000020141602,0|0,3:0|3:0,0:0:0:0:
288,124,61506,6,0,L|152:211,1,132.00000402832,0|4,1:0|1:0,0:0:0:0:
328,228,62172,1,8,0:0:0:0:
399,249,62339,2,0,L|417:113,1,132.00000402832,0|0,1:0|0:0,0:0:0:0:
245,319,63006,6,0,L|370:256,1,132.00000402832,0|0,1:0|1:0,0:0:0:0:
432,226,63506,1,8,0:0:0:0:
361,196,63672,2,0,L|277:184,2,66.0000020141602,2|2|2,3:1|3:1|1:0,0:0:0:0:
443,189,64172,5,0,0:0:0:0:
458,148,64506,1,0,1:0:0:0:
427,95,64672,1,0,1:0:0:0:
377,64,64839,1,12,0:0:0:0:
316,62,65006,2,0,P|265:70|226:144,1,132.00000402832,0|0,1:0|3:0,0:0:0:0:
302,160,65506,6,0,L|444:191,2,132.00000402832,0|0|0,1:0|1:0|1:0,0:0:0:0:
166,246,66506,1,8,0:3:0:0:
225,251,66672,1,0,0:0:0:0:
285,256,66839,1,0,0:0:0:0:
114,347,67172,6,0,P|56:338|49:266,1,132.00000402832,4|8,1:0|0:0,0:0:0:0:
110,245,67672,2,0,L|255:213,1,132.00000402832,0|0,1:0|3:0,0:0:0:0:
406,89,68339,6,0,L|263:55,1,132.00000402832,0|0,1:0|1:0,0:0:0:0:
210,63,68839,1,8,0:0:0:0:
279,96,69006,2,0,L|369:106,1,66.0000020141602,2|2,3:1|3:1,0:0:0:0:
265,146,69339,2,0,P|205:161|181:232,1,132.00000402832,2|0,1:0|1:0,0:0:0:0:
261,256,69839,6,0,L|400:280,1,132.00000402832,4|2,1:0|1:0,0:0:0:0:
326,322,70339,1,2,1:0:0:0:
253,339,70506,1,2,1:0:0:0:
179,348,70672,1,2,0:1:0:0:
349,365,71006,6,0,L|353:209,1,132.00000402832,4|0,1:0|1:0,0:0:0:0:
281,209,71506,1,12,0:0:0:0:
143,173,71839,2,0,L|61:152,1,66.0000020141602,0|0,3:0|3:0,0:0:0:0:
152,135,72172,6,0,L|296:106,1,132.00000402832,0|0,1:0|0:0,0:0:0:0:
110,286,72839,5,12,0:0:0:0:
41,318,73006,2,0,L|30:175,1,132.00000402832,0|0,1:0|0:0,0:0:0:0:
201,109,73672,2,0,L|58:87,1,132.00000402832,0|0,1:0|1:0,0:0:0:0:
134,60,74172,1,8,0:0:0:0:
206,55,74339,2,0,L|294:58,2,66.0000020141602,2|2|2,3:1|3:1|1:0,0:0:0:0:
125,71,74839,6,0,P|110:136|148:195,1,132.00000402832,0|12,1:0|0:0,0:0:0:0:
216,211,75339,2,0,L|356:212,1,132.00000402832,0|8,1:0|0:0,0:0:0:0:
419,240,75839,1,0,0:0:0:0:
237,330,76172,5,0,1:0:0:0:
239,163,77172,2,0,L|313:136,1,60,0|0,1:0|3:0,0:0:0:0:
397,134,77506,5,8,1:2:0:0:
256,192,82839,12,0,86506,0:0:0:0:
84,321,86839,6,0,L|73:187,1,120,8|0,0:3|0:0,0:0:0:0:
201,132,87506,1,0,0:0:0:0:
260,124,87672,1,0,0:0:0:0:
320,117,87839,1,8,0:0:0:0:
189,48,88172,1,0,1:0:0:0:
362,246,88506,6,0,L|492:235,2,120,4|0|0,1:0|1:0|1:0,0:0:0:0:
220,358,89506,1,0,1:0:0:0:
333,330,89839,1,0,1:0:0:0:
383,225,90172,1,0,1:0:0:0:
334,120,90506,1,0,1:0:0:0:
212,83,90839,6,0,L|75:73,1,120,0|0,1:0|1:0,0:0:0:0:
247,44,91506,2,0,L|255:184,1,120,0|0,1:0|1:0,0:0:0:0:
87,199,92172,6,0,L|86:330,1,120,0|0,1:0|1:0,0:0:0:0:
234,344,92839,2,0,L|308:342,2,60,0|8|8,1:0|0:0|1:2,0:0:0:0:
70,325,93506,5,8,1:3:0:0:
136,226,93839,1,0,3:0:0:0:
241,171,94172,1,0,3:0:0:0:
360,174,94505,1,0,3:0:0:0:
216,232,94839,6,0,L|206:95,1,120,0|0,3:0|3:0,0:0:0:0:
357,68,95506,2,0,L|496:69,1,120,0|0,3:0|3:0,0:0:0:0:
329,165,96172,5,0,0:0:0:0:
325,224,96338,1,0,0:0:0:0:
322,284,96505,1,0,0:0:0:0:
166,342,96839,2,0,L|78:343,2,60,0|0|0,0:0|0:0|0:0,0:0:0:0:
337,339,97506,5,0,1:0:0:0:
400,342,97672,2,0,P|412:294|372:231,1,120,0|0,0:0|1:0,0:0:0:0:
314,222,98172,2,0,L|228:224,2,60,0|0|0,3:0|0:0|1:0,0:0:0:0:
154,129,98839,6,0,L|26:84,2,132.00000402832,4|0|12,1:0|1:0|0:0,0:0:0:0:
226,138,99672,1,0,1:0:0:0:
84,218,100006,1,0,3:0:0:0:
259,307,100339,6,0,P|268:240|209:188,1,132.00000402832,0|0,1:0|1:0,0:0:0:0:
159,197,100839,1,12,0:0:0:0:
228,194,101006,1,0,3:0:0:0:
297,146,101172,1,0,3:0:0:0:
368,139,101339,6,0,L|380:289,1,132.00000402832,0|0,1:0|1:0,0:0:0:0:
309,292,101839,6,0,L|172:325,1,132.00000402832,0|12,1:0|0:0,0:0:0:0:
254,350,102339,1,0,1:0:0:0:
406,348,102672,1,8,0:0:0:0:
233,349,103006,6,0,L|99:302,1,132.00000402832,0|0,1:0|1:0,0:0:0:0:
175,281,103506,1,12,0:0:0:0:
315,272,103839,1,0,3:0:0:0:
157,224,104172,6,0,P|214:173|296:176,1,132.00000402832,0|0,1:0|1:0,0:0:0:0:
409,185,104839,1,12,0:0:0:0:
477,191,105006,2,0,L|486:49,1,132.00000402832,0|0,1:0|0:0,0:0:0:0:
314,75,105672,6,0,L|177:88,1,132.00000402832,0|0,1:0|1:0,0:0:0:0:
254,144,106172,2,0,L|350:151,2,66.0000020141602,12|0|0,0:0|3:0|3:0,0:0:0:0:
184,156,106672,1,0,1:0:0:0:
102,160,106839,5,0,1:0:0:0:
68,342,107172,1,0,3:0:0:0:
106,288,107338,1,0,1:0:0:0:
162,255,107505,1,12,0:0:0:0:
227,249,107672,2,0,L|234:109,1,132.00000402832,0|0,1:0|3:0,0:0:0:0:
148,82,108172,6,0,L|10:68,1,132.00000402832,0|0,1:0|1:0,0:0:0:0:
165,217,108839,2,0,L|83:227,1,66.0000020141602,0|0,1:0|1:0,0:0:0:0:
36,230,109172,2,0,P|48:175|107:139,1,120,2|2,0:0|0:0,0:0:0:0:
248,349,109839,6,0,L|389:316,1,132.00000402832,0|12,1:0|0:0,0:0:0:0:
310,296,110339,1,0,1:0:0:0:
161,264,110672,1,0,0:0:0:0:
323,172,111006,6,0,L|467:141,1,132.00000402832,0|0,1:0|1:0,0:0:0:0:
372,117,111506,2,0,L|292:109,2,66.0000020141602,12|0|0,0:0|3:0|3:0,0:0:0:0:
459,107,112006,2,0,P|475:166|426:235,1,132.00000402832,8|0,1:2|1:0,0:0:0:0:
363,246,112506,6,0,L|226:259,1,132.00000402832,0|12,1:0|0:0,0:0:0:0:
160,275,113006,1,0,1:0:0:0:
326,339,113339,6,0,L|454:302,2,132.00000402832,0|0|0,1:0|1:0|1:0,0:0:0:0:
261,341,114172,1,12,0:0:0:0:
121,286,114506,2,0,L|51:279,1,66.0000020141602,0|0,1:0|1:0,0:0:0:0:
134,249,114839,6,0,P|232:235|254:88,1,264.000008056641,2|12,1:2|0:0,0:0:0:0:
190,73,115672,5,0,1:0:0:0:
49,71,116006,1,0,0:0:0:0:
213,100,116339,6,0,L|221:246,1,132.00000402832,0|0,1:0|1:0,0:0:0:0:
141,258,116839,2,0,L|57:260,2,66.0000020141602,12|0|0,0:0|3:0|3:0,0:0:0:0:
216,270,117339,1,0,1:0:0:0:
296,303,117506,6,0,L|154:326,1,132.00000402832,0|12,1:0|0:0,0:0:0:0:
237,346,118006,2,0,L|373:344,1,132.00000402832,0|8,1:0|0:0,0:0:0:0:
440,329,118506,1,0,0:0:0:0:
264,257,118839,5,0,1:0:0:0:
279,118,119839,2,0,L|353:102,1,60,0|0,1:0|3:0,0:0:0:0:
256,81,120172,5,8,1:2:0:0:
