osu file format v14

[General]
AudioFilename: audio.mp3
AudioLeadIn: 0
PreviewTime: 54756
Countdown: 0
SampleSet: Normal
StackLeniency: 0.7
Mode: 2
LetterboxInBreaks: 0
WidescreenStoryboard: 1

[Editor]
Bookmarks: 13506
DistanceSpacing: 0.9
BeatDivisor: 4
GridSize: 4
TimelineZoom: 3.199999

[Metadata]
Title:Calling
TitleUnicode:Calling
Artist:Zekk
ArtistUnicode:Zekk
Creator:Jemzuu
Version:AFB's Rain
Source:osu!
Tags:ajamez spectator afb alienflybot autofanboy denosaur den0saur featured artist fa electronic instrumental Future Bass Dubstep Drumstep drum and n bass dnb wub cyberpunk city
BeatmapID:2594405
BeatmapSetID:1246000

[Difficulty]
HPDrainRate:5
CircleSize:3.8
OverallDifficulty:8.7
ApproachRate:8.7
SliderMultiplier:2.08
SliderTickRate:1

[Events]
//Background and Video events
0,0,"calling.jpg",0,0
//Break Periods
//Storyboard Layer 0 (Background)
//Storyboard Layer 1 (Fail)
//Storyboard Layer 2 (Pass)
//Storyboard Layer 3 (Foreground)
//Storyboard Layer 4 (Overlay)
//Storyboard Sound Samples

[TimingPoints]
173,333.333333333333,4,1,99,10,1,0
1172,-117.647058823529,4,1,99,12,0,0
1506,-117.647058823529,4,1,99,15,0,0
1839,-117.647058823529,4,1,99,20,0,0
2172,-117.647058823529,4,1,99,27,0,0
2339,-117.647058823529,4,1,99,33,0,0
2506,-117.647058823529,4,1,99,40,0,0
2672,-117.647058823529,4,1,99,10,0,0
2839,-117.647058823529,4,2,0,30,0,0
3006,-117.647058823529,4,2,0,15,0,0
3172,-117.647058823529,4,2,0,30,0,0
3506,-117.647058823529,4,2,0,15,0,0
3672,-117.647058823529,4,2,0,30,0,0
5839,-117.647058823529,4,2,0,15,0,0
6006,-117.647058823529,4,2,0,30,0,0
6339,-117.647058823529,4,2,0,15,0,0
6506,-117.647058823529,4,2,0,30,0,0
7172,-117.647058823529,4,2,0,15,0,0
7339,-117.647058823529,4,2,0,30,0,0
7672,-117.647058823529,4,2,0,15,0,0
7839,-117.647058823529,4,2,0,30,0,0
8006,-117.647058823529,4,2,0,15,0,0
8172,-117.647058823529,4,2,0,30,0,0
8339,-117.647058823529,4,2,0,15,0,0
8506,-117.647058823529,4,2,0,30,0,0
8839,-117.647058823529,4,2,0,15,0,0
9006,-117.647058823529,4,2,0,30,0,0
9339,-117.647058823529,4,2,0,15,0,0
9672,-117.647058823529,4,2,0,30,0,0
12172,-117.647058823529,4,2,0,35,0,0
12672,-117.647058823529,4,2,0,15,0,0
12839,-117.647058823529,4,2,0,35,0,0
13339,-117.647058823529,4,2,0,30,0,0
13506,-117.647058823529,4,1,11,40,0,0
14172,-117.647058823529,4,1,16,40,0,0
14339,-117.647058823529,4,1,11,40,0,0
15506,-117.647058823529,4,1,16,40,0,0
15672,-117.647058823529,4,1,11,40,0,0
16839,-117.647058823529,4,1,16,40,0,0
17006,-117.647058823529,4,1,11,40,0,0
18172,-117.647058823529,4,1,16,40,0,0
18339,-117.647058823529,4,1,11,40,0,0
19506,-117.647058823529,4,1,16,40,0,0
19672,-117.647058823529,4,1,11,40,0,0
20839,-117.647058823529,4,1,16,40,0,0
21006,-117.647058823529,4,1,11,40,0,0
22172,-117.647058823529,4,1,16,40,0,0
22339,-117.647058823529,4,1,11,40,0,0
22506,-117.647058823529,4,1,11,25,0,0
22672,-117.647058823529,4,1,11,40,0,0
23172,-117.647058823529,4,1,11,45,0,0
23506,-117.647058823529,4,1,11,50,0,0
23839,-117.647058823529,4,1,11,55,0,0
24172,-117.647058823529,4,1,11,60,0,0
24839,-117.647058823529,4,1,13,60,0,0
25006,-117.647058823529,4,1,11,60,0,0
26172,-117.647058823529,4,1,13,60,0,0
26339,-117.647058823529,4,1,11,60,0,0
27506,-117.647058823529,4,1,13,60,0,0
27672,-117.647058823529,4,1,11,60,0,0
28839,-117.647058823529,4,1,13,60,0,0
29006,-117.647058823529,4,1,11,60,0,0
30172,-117.647058823529,4,1,13,60,0,0
30339,-117.647058823529,4,1,11,60,0,0
31506,-117.647058823529,4,1,13,60,0,0
31672,-117.647058823529,4,1,11,60,0,0
32839,-117.647058823529,4,1,13,60,0,0
33006,-117.647058823529,4,1,11,60,0,0
34172,-117.647058823529,4,1,13,60,0,0
34339,-117.647058823529,4,1,11,60,0,0
35506,-117.647058823529,4,1,13,60,0,0
35672,-117.647058823529,4,1,11,60,0,0
36839,-117.647058823529,4,1,13,60,0,0
37006,-117.647058823529,4,1,11,60,0,0
38172,-117.647058823529,4,1,13,60,0,0
38339,-117.647058823529,4,1,11,60,0,0
39506,-117.647058823529,4,1,13,60,0,0
39672,-117.647058823529,4,1,11,60,0,0
40839,-117.647058823529,4,1,13,60,0,0
41006,-117.647058823529,4,1,11,60,0,0
41506,-117.647058823529,4,1,16,60,0,0
41672,-117.647058823529,4,1,11,60,0,0
42172,-117.647058823529,4,1,13,60,0,0
42339,-117.647058823529,4,1,11,60,0,0
42506,-117.647058823529,4,1,11,60,0,0
42672,-117.647058823529,4,1,11,60,0,0
43506,-117.647058823529,4,1,13,60,0,0
43672,-117.647058823529,4,1,11,60,0,0
45172,-117.647058823529,4,1,13,60,0,0
45339,-117.647058823529,4,1,11,60,0,0
46006,-117.647058823529,4,1,13,80,0,0
46172,-117.647058823529,4,1,11,60,0,0
46339,-117.647058823529,4,1,13,80,0,0
46506,-117.647058823529,4,1,11,60,0,0
46672,-117.647058823529,4,1,13,80,0,0
46839,-117.647058823529,4,1,11,60,0,0
47006,-117.647058823529,4,1,13,70,0,0
47172,-117.647058823529,4,1,11,60,0,0
47339,-117.647058823529,4,1,13,70,0,0
47506,-117.647058823529,4,1,11,60,0,0
47672,-117.647058823529,4,1,13,70,0,0
47922,-117.647058823529,4,1,11,60,0,0
48339,-117.647058823529,4,1,13,80,0,0
48506,-117.647058823529,4,1,11,60,0,0
48672,-117.647058823529,4,1,13,80,0,0
48839,-117.647058823529,4,1,11,60,0,0
49006,-117.647058823529,4,1,13,80,0,0
49172,-117.647058823529,4,1,11,60,0,0
49339,-117.647058823529,4,1,13,80,0,0
49506,-117.647058823529,4,1,11,60,0,0
49672,-117.647058823529,4,1,13,70,0,0
49839,-117.647058823529,4,1,11,60,0,0
50006,-117.647058823529,4,1,13,70,0,0
50172,-117.647058823529,4,1,11,60,0,0
50339,-117.647058823529,4,1,13,70,0,0
50589,-117.647058823529,4,1,11,60,0,0
50839,-117.647058823529,4,1,11,80,0,0
53506,-117.647058823529,4,1,13,70,0,0
53589,-117.647058823529,4,1,11,80,0,0
53839,-117.647058823529,4,1,13,70,0,0
53922,-117.647058823529,4,1,11,80,0,0
54172,-117.647058823529,4,1,13,70,0,0
54256,-117.647058823529,4,1,11,80,0,0
54506,-117.647058823529,4,1,13,70,0,0
54589,-117.647058823529,4,1,11,60,0,0
55506,-117.647058823529,4,1,16,60,0,0
55672,-117.647058823529,4,1,11,60,0,0
55756,-117.647058823529,4,1,16,60,0,0
55839,-117.647058823529,4,1,11,60,0,0
56172,-100,4,1,11,80,0,1
56839,-100,4,1,11,80,0,1
61839,-100,4,1,11,80,0,1
62172,-100,4,1,11,80,0,1
66839,-100,4,1,11,80,0,0
66922,-100,4,1,11,30,0,0
67172,-100,4,1,11,80,0,1
67506,-100,4,1,11,80,0,1
77172,-100,4,1,11,80,0,1
77339,-100,4,1,11,80,0,1
77506,-117.647058823529,4,1,16,80,0,0
77839,-117.647058823529,4,2,0,40,0,0
78506,-117.647058823529,4,2,0,30,0,0
79006,-117.647058823529,4,2,0,40,0,0
80172,-117.647058823529,4,1,11,40,0,0
80672,-117.647058823529,4,2,0,40,0,0
81172,-117.647058823529,4,2,0,30,0,0
81339,-117.647058823529,4,2,0,40,0,0
81506,-117.647058823529,4,2,0,30,0,0
81839,-117.647058823529,4,2,0,40,0,0
82006,-117.647058823529,4,2,0,30,0,0
82672,-117.647058823529,4,2,0,40,0,0
82839,-117.647058823529,4,1,11,40,0,0
83506,-117.647058823529,4,1,16,40,0,0
83672,-117.647058823529,4,1,11,40,0,0
84839,-117.647058823529,4,1,16,40,0,0
85006,-117.647058823529,4,1,11,40,0,0
86172,-117.647058823529,4,1,16,40,0,0
86339,-117.647058823529,4,1,11,40,0,0
87172,-117.647058823529,4,1,11,45,0,0
87506,-117.647058823529,4,1,11,50,0,0
87839,-117.647058823529,4,1,11,55,0,0
88172,-117.647058823529,4,1,11,60,0,0
88672,-117.647058823529,4,1,13,80,0,0
88839,-117.647058823529,4,1,11,60,0,0
89006,-117.647058823529,4,1,13,80,0,0
89172,-117.647058823529,4,1,11,60,0,0
89339,-117.647058823529,4,1,13,80,0,0
89506,-117.647058823529,4,1,11,60,0,0
89672,-117.647058823529,4,1,13,70,0,0
89839,-117.647058823529,4,1,11,60,0,0
90006,-117.647058823529,4,1,13,70,0,0
90172,-117.647058823529,4,1,11,60,0,0
90339,-117.647058823529,4,1,13,70,0,0
90589,-117.647058823529,4,1,11,60,0,0
91006,-117.647058823529,4,1,13,80,0,0
91172,-117.647058823529,4,1,11,60,0,0
91339,-117.647058823529,4,1,13,80,0,0
91506,-117.647058823529,4,1,11,60,0,0
91672,-117.647058823529,4,1,13,80,0,0
91839,-117.647058823529,4,1,11,60,0,0
92006,-117.647058823529,4,1,13,80,0,0
92172,-117.647058823529,4,1,11,60,0,0
92339,-117.647058823529,4,1,13,100,0,0
92506,-117.647058823529,4,1,11,60,0,0
92672,-117.647058823529,4,1,13,70,0,0
92839,-117.647058823529,4,1,11,60,0,0
93006,-117.647058823529,4,1,13,70,0,0
93256,-117.647058823529,4,1,11,60,0,0
93506,-117.647058823529,4,1,11,80,0,0
96172,-117.647058823529,4,1,13,70,0,0
96256,-117.647058823529,4,1,11,80,0,0
96506,-117.647058823529,4,1,13,70,0,0
96589,-117.647058823529,4,1,11,80,0,0
96839,-117.647058823529,4,1,13,70,0,0
96922,-117.647058823529,4,1,11,80,0,0
97172,-117.647058823529,4,1,13,70,0,0
97256,-117.647058823529,4,1,11,80,0,0
97506,-117.647058823529,4,1,11,60,0,0
98172,-117.647058823529,4,1,16,60,0,0
98339,-117.647058823529,4,1,11,60,0,0
98422,-117.647058823529,4,1,16,60,0,0
98506,-117.647058823529,4,1,11,60,0,0
98839,-100,4,1,11,80,0,1
99506,-100,4,1,11,80,0,1
104172,-100,4,1,11,80,0,1
104839,-100,4,1,11,80,0,1
109506,-100,4,1,11,80,0,0
109589,-100,4,1,11,40,0,0
109839,-100,4,1,11,80,0,1
110006,-100,4,1,11,80,0,1
119839,-100,4,1,11,80,0,1
120006,-100,4,1,11,80,0,1
120172,-100,4,1,16,80,0,1
120339,-100,4,1,99,40,0,0
121506,-100,4,1,99,37,0,0
122839,-100,4,1,99,32,0,0
124172,-100,4,1,99,25,0,0
125506,-100,4,1,99,15,0,0
126839,-100,4,1,99,5,0,0

[Colours]
Combo1 : 255,155,205
Combo2 : 74,165,255
Combo3 : 128,255,255
Combo4 : 155,155,255

[HitObjects]
256,192,839,12,0,2672,0:0:0:0:
304,348,2839,6,0,L|216:344,1,88.4000016860962,2|0,0:0|0:0,0:0:0:0:
60,276,3172,2,0,L|236:268,1,176.800003372192,2|0,0:0|0:0,0:0:0:0:
264,184,3673,1,2,0:0:0:0:
236,100,3840,1,2,0:0:0:0:
164,52,4006,1,2,0:0:0:0:
320,124,4172,5,2,0:0:0:0:
322,168,4255,1,0,0:0:0:0:
324,212,4338,1,0,0:0:0:0:
168,284,4506,1,2,0:0:0:0:
96,236,4672,1,0,0:0:0:0:
68,152,4839,1,2,0:0:0:0:
96,68,5006,1,0,0:0:0:0:
168,20,5172,1,2,0:0:0:0:
324,88,5339,1,2,0:0:0:0:
168,156,5506,6,0,P|132:212|168:308,1,176.800003372192,2|0,0:0|0:0,0:0:0:0:
256,344,6006,2,0,L|432:336,1,176.800003372192,2|0,0:0|0:0,0:0:0:0:
344,332,6506,1,2,0:0:0:0:
188,260,6672,1,2,0:0:0:0:
344,188,6839,6,0,P|380:132|344:36,1,176.800003372192,2|0,0:0|0:0,0:0:0:0:
256,68,7339,2,0,P|220:124|256:220,1,176.800003372192,2|0,0:0|0:0,0:0:0:0:
344,252,7839,2,0,L|348:340,1,88.4000016860962,2|0,0:0|0:0,0:0:0:0:
192,272,8172,6,0,L|104:268,1,88.4000016860962,2|0,0:0|0:0,0:0:0:0:
260,196,8506,2,0,L|436:188,1,176.800003372192,2|0,0:0|0:0,0:0:0:0:
280,116,9006,2,0,P|244:172|280:268,1,176.800003372192,2|0,0:0|0:0,0:0:0:0:
368,272,9506,1,0,0:0:0:0:
212,344,9672,6,0,L|36:352,3,176.800003372192,2|2|2|2,0:0|0:0|0:0|0:0,0:0:0:0:
124,356,10839,1,0,0:0:0:0:
280,284,11006,6,0,P|316:228|280:132,1,176.800003372192,2|0,0:0|0:0,0:0:0:0:
124,60,11506,1,2,0:0:0:0:
96,144,11673,1,0,0:0:0:0:
124,228,11840,1,0,0:0:0:0:
196,276,12006,1,0,0:0:0:0:
352,348,12172,5,2,0:0:0:0:
264,344,12339,2,0,L|256:168,1,176.800003372192,2|0,0:0|0:0,0:0:0:0:
412,236,12839,1,2,0:0:0:0:
440,152,13006,1,2,0:0:0:0:
412,68,13173,1,2,0:0:0:0:
340,20,13339,1,0,0:0:0:0:
112,88,13506,6,0,P|108:172|180:216,1,176.800003372192,6|0,0:0|0:0,0:0:0:0:
356,152,14172,2,0,P|428:196|424:280,1,176.800003372192,8|0,0:0|0:0,0:0:0:0:
336,284,14672,1,0,0:0:0:0:
180,348,14839,5,2,0:0:0:0:
176,260,15006,1,0,0:0:0:0:
172,172,15172,1,0,0:0:0:0:
328,104,15339,1,2,0:0:0:0:
172,36,15506,2,0,L|168:124,1,88.4000016860962,8|0,0:0|0:0,0:0:0:0:
256,128,15839,2,0,L|260:216,1,88.4000016860962,0|0,0:0|0:0,0:0:0:0:
104,284,16172,6,0,L|16:288,2,88.4000016860962,2|0|0,0:0|0:0|0:0,0:0:0:0:
260,356,16672,1,2,0:0:0:0:
104,284,16839,2,0,P|100:200|172:156,1,176.800003372192,8|0,0:0|0:0,0:0:0:0:
84,152,17339,1,0,0:0:0:0:
240,80,17506,6,0,L|328:84,1,88.4000016860962,2|0,0:0|0:0,0:0:0:0:
240,80,17839,1,0,0:0:0:0:
237,124,17922,1,0,0:0:0:0:
235,168,18005,1,0,0:0:0:0:
392,232,18172,2,0,L|396:320,1,88.4000016860962,8|0,0:0|0:0,0:0:0:0:
308,324,18506,1,0,0:0:0:0:
352,321,18589,1,0,0:0:0:0:
396,319,18672,1,0,0:0:0:0:
168,252,18839,6,0,P|96:208|100:124,1,176.800003372192,2|0,0:0|0:0,0:0:0:0:
188,120,19339,1,0,0:0:0:0:
344,52,19506,2,0,L|168:44,1,176.800003372192,8|0,0:0|0:0,0:0:0:0:
256,40,20006,1,0,0:0:0:0:
412,112,20172,5,2,0:0:0:0:
416,200,20339,1,0,0:0:0:0:
420,288,20505,1,0,0:0:0:0:
264,356,20672,1,2,0:0:0:0:
420,288,20839,1,8,0:0:0:0:
448,204,21006,1,0,0:0:0:0:
420,120,21173,1,0,0:0:0:0:
348,72,21339,1,0,0:0:0:0:
192,4,21506,6,0,L|188:92,1,88.4000016860962,2|0,0:0|0:0,0:0:0:0:
276,96,21839,1,0,0:0:0:0:
120,168,22006,1,2,0:0:0:0:
276,240,22172,2,0,L|280:328,1,88.4000016860962,8|0,0:0|0:0,0:0:0:0:
124,364,22506,2,0,P|104:312|124:240,1,132.600002529144,4|0,0:2|0:0,0:0:0:0:
236,276,22839,5,2,0:0:0:0:
308,228,23005,1,0,0:0:0:0:
336,144,23172,1,2,0:0:0:0:
308,60,23339,1,0,0:0:0:0:
236,12,23506,2,0,L|148:16,2,88.4000016860962,2|0|8,0:0|0:0|0:0,0:0:0:0:
464,84,24006,1,8,0:0:0:0:
236,156,24172,6,0,P|200:212|236:308,1,176.800003372192,2|0,0:0|0:0,0:0:0:0:
412,376,24839,2,0,L|236:368,1,176.800003372192,8|0,0:0|0:0,0:0:0:0:
60,300,25506,1,0,0:0:0:0:
216,232,25672,6,0,P|252:176|216:80,1,176.800003372192,2|0,0:0|0:0,0:0:0:0:
60,8,26172,2,0,L|56:96,1,88.4000016860962,8|4,0:0|0:3,0:0:0:0:
144,100,26506,1,0,0:0:0:0:
392,168,26839,6,0,L|216:176,1,176.800003372192,2|0,0:0|0:0,0:0:0:0:
392,248,27506,2,0,P|464:292|460:376,1,176.800003372192,8|0,0:0|0:0,0:0:0:0:
304,308,28006,6,0,L|296:132,1,176.800003372192,2|0,0:0|0:0,0:0:0:0:
140,60,28506,2,0,L|136:148,1,88.4000016860962,2|0,0:0|0:0,0:0:0:0:
224,152,28839,1,8,0:0:0:0:
68,220,29006,1,4,0:3:0:0:
296,288,29172,2,0,L|384:292,1,88.4000016860962,4|0,0:2|0:0,0:0:0:0:
228,364,29506,6,0,P|192:308|228:212,1,176.800003372192,2|0,0:0|0:0,0:0:0:0:
404,140,30172,2,0,L|228:132,2,176.800003372192,8|0|0,0:0|0:0|0:0,0:0:0:0:
248,64,31006,6,0,P|176:108|180:192,1,176.800003372192,2|0,0:0|0:0,0:0:0:0:
336,264,31506,2,0,L|340:352,1,88.4000016860962,8|0,0:0|0:0,0:0:0:0:
252,284,31839,2,0,L|164:280,1,88.4000016860962,0|0,0:0|0:0,0:0:0:0:
252,212,32172,2,0,L|340:208,1,88.4000016860962,2|0,0:0|0:0,0:0:0:0:
184,140,32506,6,0,P|180:56|252:12,1,176.800003372192,0|8,0:0|0:0,0:0:0:0:
384,80,33089,1,4,0:3:0:0:
252,148,33339,1,4,0:3:0:0:
96,216,33506,6,0,L|92:304,1,88.4000016860962,2|0,0:0|0:0,0:0:0:0:
180,308,33839,1,2,0:0:0:0:
428,240,34172,2,0,L|432:152,1,88.4000016860962,8|0,0:0|0:0,0:0:0:0:
344,148,34505,1,2,0:0:0:0:
96,80,34839,6,0,L|272:72,1,176.800003372192,6|0,0:0|0:0,0:0:0:0:
184,68,35339,1,2,0:0:0:0:
28,136,35506,2,0,P|24:220|96:264,1,176.800003372192,8|0,0:0|0:0,0:0:0:0:
272,336,36172,1,0,0:0:0:0:
116,264,36339,6,0,L|108:88,1,176.800003372192,2|0,0:0|0:0,0:0:0:0:
264,16,36839,2,0,L|268:104,1,88.4000016860962,8|4,0:0|0:3,0:0:0:0:
180,108,37172,1,0,0:0:0:0:
428,176,37506,6,0,P|432:260|360:304,1,176.800003372192,2|0,0:0|0:0,0:0:0:0:
272,308,38006,1,2,0:0:0:0:
116,240,38172,2,0,L|292:232,1,176.800003372192,8|0,0:0|0:0,0:0:0:0:
136,160,38672,6,0,P|64:116|68:32,1,176.800003372192,2|0,0:0|0:0,0:0:0:0:
224,100,39172,2,0,L|312:104,2,88.4000016860962,2|0|8,0:0|0:0|0:0,0:0:0:0:
68,168,39672,1,12,0:3:0:0:
296,236,39839,2,0,L|300:324,1,88.4000016860962,12|0,0:2|0:0,0:0:0:0:
144,360,40172,6,0,P|108:304|144:208,1,176.800003372192,2|0,0:0|0:0,0:0:0:0:
232,204,40672,1,2,0:0:0:0:
388,136,40839,2,0,L|212:128,1,176.800003372192,8|0,0:0|0:0,0:0:0:0:
460,56,41506,5,8,0:0:0:0:
462,100,41589,1,8,0:0:0:0:
464,144,41672,2,0,L|376:148,2,88.4000016860962,2|0|2,0:0|0:0|0:0,0:0:0:0:
308,216,42172,2,0,L|304:304,1,88.4000016860962,8|0,0:0|0:0,0:0:0:0:
148,372,42506,1,8,0:0:0:0:
104,370,42589,1,8,0:0:0:0:
60,368,42672,1,2,0:0:0:0:
216,304,42839,6,0,L|220:216,1,88.4000016860962,2|0,0:0|0:0,0:0:0:0:
132,144,43172,2,0,L|220:140,1,88.4000016860962,2|0,0:0|0:0,0:0:0:0:
376,72,43506,2,0,L|244:68,2,132.600002529144,8|2|2,0:0|0:0|0:0,0:0:0:0:
148,0,44172,6,0,L|144:88,1,88.4000016860962,2|2,0:0|0:0,0:0:0:0:
300,156,44506,1,0,0:0:0:0:
344,184,44589,1,0,0:0:0:0:
360,236,44672,1,0,0:0:0:0:
344,288,44756,1,0,0:0:0:0:
300,316,44839,1,2,0:0:0:0:
248,312,44922,1,0,0:0:0:0:
392,248,45006,1,2,0:0:0:0:
444,244,45089,1,0,0:0:0:0:
300,180,45172,2,0,L|212:176,1,88.4000016860962,8|0,0:0|0:0,0:0:0:0:
255,177,45423,1,0,0:0:0:0:
300,180,45506,1,4,0:3:0:0:
52,108,45839,6,0,L|48:196,1,88.4000016860962,6|8,0:0|0:0,0:0:0:0:
204,264,46172,1,2,0:0:0:0:
248,266,46255,1,0,0:0:0:0:
292,268,46338,1,8,0:0:0:0:
204,332,46506,1,2,0:0:0:0:
159,329,46589,1,0,0:0:0:0:
115,327,46672,1,8,0:0:0:0:
344,200,46839,6,0,L|348:112,1,88.4000016860962,2|8,0:0|0:0,0:0:0:0:
192,48,47172,1,2,0:0:0:0:
189,92,47255,1,0,0:0:0:0:
187,136,47338,1,8,0:0:0:0:
276,200,47506,1,2,0:0:0:0:
320,202,47589,1,0,0:0:0:0:
364,204,47672,1,8,0:0:0:0:
453,268,47840,1,10,0:0:0:0:
456,312,47923,1,0,0:0:0:0:
458,356,48006,1,0,0:0:0:0:
232,288,48172,6,0,L|144:284,1,88.4000016860962,2|8,0:0|0:0,0:0:0:0:
300,216,48506,1,2,0:0:0:0:
302,171,48589,1,0,0:0:0:0:
304,127,48672,1,8,0:0:0:0:
216,164,48839,1,2,0:0:0:0:
216,119,48922,1,0,0:0:0:0:
216,75,49005,1,8,0:0:0:0:
127,111,49172,1,2,0:0:0:0:
124,66,49255,1,0,0:0:0:0:
122,22,49338,1,8,0:0:0:0:
352,92,49506,6,0,L|440:96,1,88.4000016860962,2|8,0:0|0:0,0:0:0:0:
284,164,49839,1,2,0:0:0:0:
239,166,49922,1,0,0:0:0:0:
195,168,50005,1,8,0:0:0:0:
284,236,50172,1,2,0:0:0:0:
286,280,50255,1,0,0:0:0:0:
288,324,50338,1,8,0:0:0:0:
376,360,50506,1,10,0:0:0:0:
392,308,50590,1,0,0:0:0:0:
376,256,50673,1,0,0:0:0:0:
332,228,50756,1,0,0:0:0:0:
188,264,50839,6,0,L|100:260,1,88.4000016860962,2|2,0:0|0:0,0:0:0:0:
188,264,51172,2,0,L|192:176,1,88.4000016860962,2|2,0:0|0:0,0:0:0:0:
36,108,51506,2,0,L|32:20,1,88.4000016860962,2|2,0:0|0:0,0:0:0:0:
120,24,51839,2,0,L|32:20,1,88.4000016860962,2|2,0:0|0:0,0:0:0:0:
260,96,52172,6,0,L|264:184,1,88.4000016860962,2|2,0:0|0:0,0:0:0:0:
176,188,52506,2,0,L|172:276,1,88.4000016860962,2|2,0:0|0:0,0:0:0:0:
328,340,52839,2,0,L|416:336,1,88.4000016860962,2|2,0:0|0:0,0:0:0:0:
504,272,53172,2,0,L|416:268,1,88.4000016860962,2|2,0:0|0:0,0:0:0:0:
188,200,53506,5,10,0:0:0:0:
172,148,53590,1,0,0:0:0:0:
188,96,53673,1,2,0:0:0:0:
232,68,53756,1,0,0:0:0:0:
336,104,53839,2,0,L|344:148,3,44.2000008430481,10|0|2|0,0:0|0:0|0:0|0:0,0:0:0:0:
196,184,54172,6,0,L|188:228,3,44.2000008430481,10|0|2|0,0:0|0:0|0:0|0:0,0:0:0:0:
360,104,54506,1,10,0:0:0:0:
404,132,54589,1,0,0:0:0:0:
420,184,54672,1,2,0:0:0:0:
404,236,54756,1,0,0:0:0:0:
260,308,54839,6,0,L|172:304,1,88.4000016860962,2|0,0:0|0:0,0:0:0:0:
164,260,55089,1,0,0:0:0:0:
268,220,55172,1,0,0:0:0:0:
272,176,55255,1,0,0:0:0:0:
276,132,55338,1,0,0:0:0:0:
120,64,55506,5,8,0:0:0:0:
76,92,55589,1,8,0:0:0:0:
60,144,55672,1,0,0:0:0:0:
76,196,55756,1,8,0:0:0:0:
120,224,55839,1,2,0:0:0:0:
276,296,56006,1,0,0:0:0:0:
48,364,56172,6,0,P|24:312|48:220,1,156,6|0,0:0|0:0,0:0:0:0:
100,188,56506,2,0,L|204:184,1,104,2|0,0:0|0:0,0:0:0:0:
360,220,56839,2,0,L|364:116,1,104,8|2,0:0|0:0,0:0:0:0:
312,114,57089,1,0,0:0:0:0:
260,112,57172,2,0,L|256:8,1,104,0|0,0:0|0:0,0:0:0:0:
412,80,57506,1,0,0:0:0:0:
184,152,57672,6,0,L|80:156,1,104,2|0,0:0|0:0,0:0:0:0:
132,154,57922,1,0,0:0:0:0:
184,152,58006,1,2,0:0:0:0:
340,224,58172,1,8,0:0:0:0:
112,296,58339,5,2,0:3:0:0:
68,268,58422,1,0,0:0:0:0:
52,216,58505,1,2,0:3:0:0:
68,164,58589,1,0,0:0:0:0:
112,136,58672,2,0,L|164:132,1,52,2|0,0:3|0:0,0:0:0:0:
112,64,58839,2,0,L|8:60,1,104,0|2,0:0|0:0,0:0:0:0:
60,56,59089,1,2,0:0:0:0:
228,128,59172,6,0,P|296:184|228:252,1,208,6|8,0:0|0:0,0:0:0:0:
124,288,59672,2,0,L|120:184,1,104,2|0,0:0|0:0,0:0:0:0:
276,116,60006,2,0,L|172:112,1,104,8|0,0:0|0:0,0:0:0:0:
400,48,60339,6,0,L|504:52,1,104,6|0,0:2|0:0,0:0:0:0:
452,50,60589,1,0,0:0:0:0:
400,48,60673,1,6,0:2:0:0:
244,120,60839,2,0,L|240:172,1,52,8|0,0:0|0:0,0:0:0:0:
292,208,61006,2,0,L|344:212,1,52,0|0,0:0|0:0,0:0:0:0:
292,284,61172,2,0,L|188:288,1,104,2|2,0:0|0:0,0:0:0:0:
348,360,61506,2,0,P|424:336|440:268,1,156,2|0,0:0|0:0,0:0:0:0:
264,284,61839,6,0,L|260:180,1,104,4|0,0:0|0:0,0:0:0:0:
108,216,62172,2,0,L|104:112,1,104,8|2,0:0|0:0,0:0:0:0:
156,110,62422,1,0,0:0:0:0:
208,108,62506,1,0,0:0:0:0:
364,140,62672,2,0,L|368:36,1,104,0|2,0:0|0:0,0:0:0:0:
140,208,63006,6,0,L|244:212,1,104,2|0,0:0|0:0,0:0:0:0:
246,262,63256,1,0,0:0:0:0:
248,314,63339,1,2,0:0:0:0:
92,380,63506,1,8,0:0:0:0:
320,316,63672,5,2,0:3:0:0:
364,288,63755,1,0,0:0:0:0:
380,236,63838,1,2,0:3:0:0:
364,184,63922,1,0,0:0:0:0:
320,156,64005,2,0,L|268:152,1,52,2|0,0:3|0:0,0:0:0:0:
96,220,64172,6,0,L|92:116,1,104,2|0,0:0|0:0,0:0:0:0:
144,114,64422,1,0,0:0:0:0:
196,112,64506,1,2,0:0:0:0:
40,48,64672,1,2,0:0:0:0:
268,184,64839,2,0,L|272:288,1,104,8|2,0:0|0:0,0:0:0:0:
168,356,65172,2,0,L|64:352,1,104,0|0,0:0|0:0,0:0:0:0:
292,284,65506,5,4,0:3:0:0:
336,256,65589,1,0,0:0:0:0:
352,204,65672,1,0,0:0:0:0:
336,152,65756,1,0,0:0:0:0:
292,124,65839,2,0,L|240:120,1,52,4|0,0:3|0:0,0:0:0:0:
188,88,66006,2,0,L|240:84,1,52,0|0,0:0|0:0,0:0:0:0:
408,48,66172,5,4,0:3:0:0:
452,76,66255,1,0,0:0:0:0:
468,128,66338,1,4,0:3:0:0:
452,180,66422,1,0,0:0:0:0:
408,208,66506,2,0,L|304:212,1,104,2|2,0:0|0:3,0:0:0:0:
460,284,66839,2,0,L|468:336,2,52,2|0|0,0:3|0:0|0:0,0:0:0:0:
232,352,67172,6,0,P|208:300|232:208,1,156,6|0,0:0|0:0,0:0:0:0:
284,176,67506,2,0,L|180:172,1,104,8|2,0:0|0:0,0:0:0:0:
24,204,67839,2,0,L|20:100,1,104,0|0,0:0|0:0,0:0:0:0:
176,68,68172,1,0,0:0:0:0:
404,36,68339,6,0,L|408:140,1,104,2|0,0:0|0:0,0:0:0:0:
356,142,68589,1,0,0:0:0:0:
304,144,68672,1,2,0:0:0:0:
460,216,68839,1,8,0:0:0:0:
232,288,69006,5,2,0:3:0:0:
188,260,69089,1,0,0:0:0:0:
172,208,69172,1,2,0:3:0:0:
188,156,69256,1,0,0:0:0:0:
232,128,69339,2,0,L|180:124,1,52,2|0,0:3|0:0,0:0:0:0:
128,156,69506,2,0,L|124:52,1,104,0|2,0:0|0:0,0:0:0:0:
176,48,69756,1,2,0:0:0:0:
344,116,69839,6,0,P|344:168|228:252,1,208,6|10,0:0|0:3,0:0:0:0:
72,324,70339,2,0,L|68:220,1,104,2|2,0:3|0:3,0:0:0:0:
120,218,70589,1,0,0:0:0:0:
172,216,70672,1,2,0:3:0:0:
16,148,70839,1,0,0:0:0:0:
244,80,71006,6,0,L|348:76,1,104,6|0,0:2|0:0,0:0:0:0:
296,78,71256,1,0,0:0:0:0:
244,80,71340,1,6,0:2:0:0:
400,152,71506,5,8,0:0:0:0:
392,200,71590,1,0,0:0:0:0:
368,240,71673,1,0,0:0:0:0:
328,268,71756,1,0,0:0:0:0:
280,276,71840,1,2,0:0:0:0:
436,312,72006,1,2,0:0:0:0:
280,276,72172,5,4,0:3:0:0:
240,248,72255,1,0,0:0:0:0:
216,208,72338,1,0,0:0:0:0:
208,160,72422,1,0,0:0:0:0:
288,192,72506,2,0,L|292:140,1,52,2|2,0:3|0:3,0:0:0:0:
212,104,72672,2,0,L|208:52,1,52,2|2,0:3|0:3,0:0:0:0:
380,116,72839,6,0,L|484:120,1,104,12|2,0:0|0:0,0:0:0:0:
432,118,73089,1,0,0:0:0:0:
380,116,73173,1,0,0:0:0:0:
224,184,73339,2,0,L|120:188,1,104,0|0,0:0|0:0,0:0:0:0:
348,260,73672,6,0,L|352:364,1,104,2|0,0:0|0:0,0:0:0:0:
300,362,73922,1,0,0:0:0:0:
248,360,74006,1,2,0:0:0:0:
404,296,74172,1,8,0:0:0:0:
176,232,74339,5,2,0:3:0:0:
132,204,74422,1,0,0:0:0:0:
116,152,74505,1,2,0:3:0:0:
132,100,74589,1,0,0:0:0:0:
176,72,74672,2,0,L|228:68,1,52,2|0,0:3|0:0,0:0:0:0:
400,136,74839,6,0,L|404:32,1,104,2|0,0:0|0:0,0:0:0:0:
352,34,75089,1,2,0:0:0:0:
300,36,75173,1,8,0:0:0:0:
144,104,75339,2,0,L|248:108,1,104,2|0,0:0|0:0,0:0:0:0:
300,110,75589,1,2,0:0:0:0:
247,107,75672,1,8,0:0:0:0:
92,180,75839,1,2,0:0:0:0:
76,232,75923,1,0,0:0:0:0:
92,284,76006,1,2,0:0:0:0:
136,312,76089,1,0,0:0:0:0:
344,348,76172,6,0,L|348:244,1,104,4|0,0:3|0:0,0:0:0:0:
244,212,76506,1,2,0:3:0:0:
242,160,76589,1,0,0:0:0:0:
240,108,76672,1,0,0:0:0:0:
238,56,76755,1,0,0:0:0:0:
236,4,76839,2,0,L|340:8,1,104,2|2,0:3|0:3,0:0:0:0:
184,80,77172,2,0,L|80:84,1,104,2|0,0:0|0:0,0:0:0:0:
132,88,77422,1,2,0:0:0:0:
276,124,77506,6,0,P|384:216|276:356,1,353.600006744385,6|2,0:0|0:0,0:0:0:0:
116,284,78506,1,0,0:0:0:0:
364,212,78839,2,0,L|368:124,1,88.4000016860962,0|2,0:0|0:0,0:0:0:0:
208,56,79339,2,0,L|32:48,2,176.800003372192,2|2|2,0:0|0:0|0:0,0:0:0:0:
52,128,80172,6,0,P|80:292|240:356,1,353.600006744385,2|2,0:0|0:0,0:0:0:0:
80,288,81172,2,0,L|76:200,1,88.4000016860962,0|2,0:0|0:0,0:0:0:0:
232,128,81506,2,0,L|408:120,1,176.800003372192,0|2,0:0|0:0,0:0:0:0:
320,116,82006,1,0,0:0:0:0:
160,48,82339,2,0,P|124:104|160:200,1,176.800003372192,0|2,0:0|0:0,0:0:0:0:
388,128,82839,6,0,P|424:184|304:296,1,265.200005058289,2|0,0:0|0:0,0:0:0:0:
148,264,83506,1,8,0:0:0:0:
324,228,83839,1,0,0:0:0:0:
76,264,84172,6,0,P|72:180|144:136,1,176.800003372192,2|0,0:0|0:0,0:0:0:0:
232,172,84672,1,0,0:0:0:0:
234,127,84755,1,0,0:0:0:0:
236,83,84838,1,8,0:0:0:0:
80,16,85006,2,0,L|72:192,1,176.800003372192,0|0,0:0|0:0,0:0:0:0:
228,264,85506,6,0,P|272:260|392:96,1,265.200005058289,2|0,0:0|0:0,0:0:0:0:
236,64,86172,1,8,0:0:0:0:
412,28,86506,2,0,L|420:160,1,132.600002529144,4|0,0:2|0:0,0:0:0:0:
308,92,86839,5,2,0:0:0:0:
236,140,87005,1,0,0:0:0:0:
208,224,87172,1,2,0:0:0:0:
236,308,87339,1,0,0:0:0:0:
308,356,87506,2,0,L|396:352,2,88.4000016860962,2|0|8,0:0|0:0|0:0,0:0:0:0:
80,284,88006,1,8,0:0:0:0:
308,212,88172,1,4,0:3:0:0:
132,140,88506,6,0,L|128:52,1,88.4000016860962,4|8,0:0|0:0,0:0:0:0:
284,120,88839,1,2,0:0:0:0:
240,122,88922,1,0,0:0:0:0:
196,124,89005,1,8,0:0:0:0:
108,196,89172,1,2,0:0:0:0:
64,198,89255,1,0,0:0:0:0:
20,200,89338,1,8,0:0:0:0:
248,272,89506,6,0,L|252:184,1,88.4000016860962,2|8,0:0|0:0,0:0:0:0:
96,340,89839,1,2,0:0:0:0:
94,296,89922,1,0,0:0:0:0:
92,252,90005,1,8,0:0:0:0:
180,180,90172,1,2,0:0:0:0:
224,178,90255,1,0,0:0:0:0:
268,176,90338,1,8,0:0:0:0:
180,108,90506,1,10,0:0:0:0:
224,106,90589,1,0,0:0:0:0:
268,104,90672,1,0,0:0:0:0:
496,32,90839,6,0,L|500:120,1,88.4000016860962,2|8,0:0|0:0,0:0:0:0:
344,188,91172,1,2,0:0:0:0:
300,192,91255,1,0,0:0:0:0:
256,194,91338,1,8,0:0:0:0:
344,260,91506,1,2,0:0:0:0:
346,304,91589,1,0,0:0:0:0:
348,348,91672,1,8,0:0:0:0:
260,276,91839,1,2,0:0:0:0:
304,274,91922,1,0,0:0:0:0:
348,272,92005,1,8,0:0:0:0:
120,200,92172,6,0,L|32:196,1,88.4000016860962,2|8,0:0|0:0,0:0:0:0:
188,128,92506,1,2,0:0:0:0:
190,84,92589,1,0,0:0:0:0:
192,40,92672,1,8,0:0:0:0:
104,112,92839,1,2,0:0:0:0:
102,156,92922,1,0,0:0:0:0:
100,200,93005,1,8,0:0:0:0:
188,272,93172,1,10,0:0:0:0:
172,220,93256,1,0,0:0:0:0:
188,168,93339,1,0,0:0:0:0:
232,140,93422,1,0,0:0:0:0:
376,104,93506,6,0,L|380:192,1,88.4000016860962,2|2,0:0|0:0,0:0:0:0:
292,188,93839,2,0,L|380:192,1,88.4000016860962,2|2,0:0|0:0,0:0:0:0:
224,264,94172,2,0,L|220:352,1,88.4000016860962,2|2,0:0|0:0,0:0:0:0:
308,288,94506,2,0,L|312:200,1,88.4000016860962,2|2,0:0|0:0,0:0:0:0:
84,132,94839,6,0,L|172:128,1,88.4000016860962,2|2,0:0|0:0,0:0:0:0:
260,64,95172,2,0,L|172:60,1,88.4000016860962,2|2,0:0|0:0,0:0:0:0:
16,128,95506,2,0,L|12:216,1,88.4000016860962,2|2,0:0|0:0,0:0:0:0:
100,212,95839,2,0,L|12:216,1,88.4000016860962,2|2,0:0|0:0,0:0:0:0:
240,288,96172,5,10,0:0:0:0:
284,260,96255,1,0,0:0:0:0:
300,208,96338,1,2,0:0:0:0:
284,156,96422,1,0,0:0:0:0:
180,124,96506,2,0,L|172:80,3,44.2000008430481,10|0|2|0,0:0|0:0|0:0|0:0,0:0:0:0:
320,48,96839,6,0,L|328:92,3,44.2000008430481,10|0|2|0,0:0|0:0|0:0|0:0,0:0:0:0:
156,124,97172,1,10,0:0:0:0:
140,176,97256,1,0,0:0:0:0:
156,228,97339,1,2,0:0:0:0:
200,256,97422,1,0,0:0:0:0:
344,328,97506,6,0,L|432:324,1,88.4000016860962,2|0,0:0|0:0,0:0:0:0:
388,320,97756,1,0,0:0:0:0:
284,280,97839,2,0,L|240:276,2,44.2000008430481,0|0|2,0:0|0:0|0:0,0:0:0:0:
440,208,98172,5,8,0:0:0:0:
432,160,98256,1,8,0:0:0:0:
408,120,98339,1,0,0:0:0:0:
368,92,98422,1,8,0:0:0:0:
320,84,98506,1,2,0:0:0:0:
476,48,98672,1,0,0:0:0:0:
248,12,98839,6,0,L|92:20,1,156,6|0,0:0|0:0,0:0:0:0:
144,88,99172,2,0,L|248:92,1,104,2|0,0:0|0:0,0:0:0:0:
92,160,99506,2,0,L|88:264,1,104,8|2,0:0|0:0,0:0:0:0:
192,328,99839,1,0,0:0:0:0:
243,326,99922,1,0,0:0:0:0:
295,324,100006,2,0,L|192:328,1,104,0|0,0:0|0:0,0:0:0:0:
420,360,100339,6,0,L|424:256,1,104,2|0,0:0|0:0,0:0:0:0:
372,254,100589,1,0,0:0:0:0:
320,252,100672,1,2,0:0:0:0:
164,184,100839,1,8,0:0:0:0:
392,252,101006,5,2,0:0:0:0:
436,224,101089,1,0,0:0:0:0:
452,172,101172,1,2,0:0:0:0:
436,120,101256,1,0,0:0:0:0:
392,92,101339,2,0,L|340:88,1,52,2|0,0:0|0:0,0:0:0:0:
392,20,101506,2,0,L|496:24,1,104,0|2,0:0|0:0,0:0:0:0:
444,28,101756,1,2,0:0:0:0:
276,100,101839,6,0,P|208:156|276:224,1,208,4|8,0:0|0:0,0:0:0:0:
380,292,102339,2,0,L|276:296,1,104,2|0,0:0|0:0,0:0:0:0:
120,364,102672,2,0,L|116:260,1,104,8|0,0:0|0:0,0:0:0:0:
344,192,103006,6,0,L|348:88,1,104,6|0,0:2|0:0,0:0:0:0:
296,86,103256,1,0,0:0:0:0:
244,84,103339,1,6,0:2:0:0:
88,48,103505,1,8,0:0:0:0:
96,96,103589,1,0,0:0:0:0:
120,136,103672,1,0,0:0:0:0:
160,164,103755,1,0,0:0:0:0:
208,172,103839,2,0,L|104:176,1,104,0|0,0:0|0:0,0:0:0:0:
332,108,104172,6,0,P|356:160|332:252,1,156,6|0,0:0|0:0,0:0:0:0:
280,284,104505,2,0,L|176:288,1,104,2|0,0:0|0:0,0:0:0:0:
332,356,104839,2,0,L|436:352,1,104,8|2,0:0|0:0,0:0:0:0:
438,300,105089,1,0,0:0:0:0:
440,248,105172,1,0,0:0:0:0:
284,180,105339,2,0,L|280:76,1,104,0|0,0:0|0:0,0:0:0:0:
52,8,105672,6,0,L|48:112,1,104,2|0,0:0|0:0,0:0:0:0:
100,114,105922,1,0,0:0:0:0:
152,116,106005,1,2,0:0:0:0:
308,188,106172,1,8,0:0:0:0:
80,260,106339,5,2,0:0:0:0:
36,232,106422,1,0,0:0:0:0:
20,180,106505,1,2,0:0:0:0:
36,128,106589,1,0,0:0:0:0:
80,100,106672,2,0,L|132:96,1,52,2|0,0:0|0:0,0:0:0:0:
300,168,106839,6,0,L|404:172,1,104,2|0,0:0|0:0,0:0:0:0:
300,244,107172,1,0,0:0:0:0:
248,246,107255,1,0,0:0:0:0:
196,248,107339,1,2,0:0:0:0:
424,320,107506,6,0,L|428:216,1,104,8|2,0:0|0:0,0:0:0:0:
324,144,107839,2,0,L|428:140,1,104,0|0,0:0|0:0,0:0:0:0:
200,68,108172,5,4,0:3:0:0:
156,96,108255,1,0,0:0:0:0:
140,148,108338,1,0,0:0:0:0:
156,200,108422,1,0,0:0:0:0:
200,228,108505,2,0,L|252:232,1,52,4|0,0:3|0:0,0:0:0:0:
304,268,108672,2,0,L|252:272,1,52,0|0,0:0|0:0,0:0:0:0:
84,308,108838,5,4,0:3:0:0:
40,280,108921,1,0,0:0:0:0:
24,228,109006,1,0,0:0:0:0:
40,176,109088,1,0,0:0:0:0:
84,148,109172,2,0,L|188:144,1,104,2|2,0:3|0:3,0:0:0:0:
344,72,109506,2,0,L|352:20,2,52,2|0|0,0:3|0:3|0:3,0:0:0:0:
116,144,109839,6,0,P|92:196|116:288,1,156,6|0,0:0|0:0,0:0:0:0:
168,320,110172,2,0,L|272:324,1,104,8|2,0:0|0:0,0:0:0:0:
428,252,110506,1,0,0:0:0:0:
429,200,110589,1,0,0:0:0:0:
431,148,110672,2,0,L|328:144,1,104,0|0,0:0|0:0,0:0:0:0:
100,72,111006,6,0,L|204:68,1,104,2|0,0:0|0:0,0:0:0:0:
254,66,111256,1,0,0:0:0:0:
306,64,111339,1,2,0:0:0:0:
148,0,111506,1,8,0:0:0:0:
376,136,111672,1,2,0:0:0:0:
368,184,111756,1,0,0:0:0:0:
344,224,111839,1,2,0:0:0:0:
304,252,111922,1,0,0:0:0:0:
256,260,112006,2,0,L|464:268,1,208,8|2,0:0|0:0,0:0:0:0:
412,272,112422,1,2,0:0:0:0:
244,344,112506,6,0,P|128:260|128:208,1,208,4|8,0:0|0:0,0:0:0:0:
232,144,113006,2,0,L|336:140,1,104,2|0,0:0|0:0,0:0:0:0:
108,72,113339,6,0,L|104:176,1,104,6|0,0:2|0:0,0:0:0:0:
332,248,113672,2,0,L|336:352,1,104,6|0,0:2|0:0,0:0:0:0:
108,284,114006,1,6,0:2:0:0:
264,216,114172,2,0,L|368:212,1,104,8|0,0:0|0:0,0:0:0:0:
316,214,114422,1,0,0:0:0:0:
264,216,114506,1,2,0:0:0:0:
108,148,114672,1,2,0:0:0:0:
264,216,114839,6,0,L|268:112,1,104,2|2,0:0|0:3,0:0:0:0:
228,140,115089,1,0,0:0:0:0:
204,180,115172,1,2,0:3:0:0:
196,228,115256,1,0,0:0:0:0:
204,276,115340,1,2,0:3:0:0:
228,316,115423,1,0,0:3:0:0:
268,344,115506,1,8,0:3:0:0:
496,344,115672,5,6,0:0:0:0:
497,292,115755,1,0,0:0:0:0:
499,240,115838,1,0,0:0:0:0:
396,172,116006,2,0,L|500:168,1,104,0|0,0:0|0:0,0:0:0:0:
272,100,116339,6,0,L|168:96,2,104,2|0|2,0:0|0:0|0:0,0:0:0:0:
44,28,116839,2,0,L|40:132,1,104,8|2,0:0|0:0,0:0:0:0:
92,134,117089,1,0,0:0:0:0:
144,136,117172,1,2,0:0:0:0:
300,208,117339,1,2,0:0:0:0:
72,280,117506,6,0,L|68:176,1,104,2|0,0:0|0:0,0:0:0:0:
120,174,117756,1,2,0:0:0:0:
68,176,117839,1,8,0:0:0:0:
224,248,118006,2,0,L|328:252,1,104,2|0,0:0|0:0,0:0:0:0:
276,250,118256,1,2,0:0:0:0:
224,248,118340,1,8,0:0:0:0:
380,320,118506,2,0,L|432:316,1,52,2|0,0:0|0:0,0:0:0:0:
484,284,118672,2,0,L|432:280,1,52,2|0,0:0|0:0,0:0:0:0:
264,152,118839,6,0,L|260:48,1,104,4|0,0:3|0:0,0:0:0:0:
364,12,119172,1,2,0:3:0:0:
365,63,119255,1,0,0:0:0:0:
367,115,119338,1,0,0:0:0:0:
369,167,119421,1,0,0:0:0:0:
371,219,119506,2,0,L|268:224,1,104,2|2,0:3|0:3,0:0:0:0:
112,296,119839,2,0,L|216:300,1,104,2|0,0:0|0:0,0:0:0:0:
164,304,120089,1,2,0:0:0:0:
0,340,120172,5,6,0:0:0:0:
256,192,120339,12,0,128172,0:0:0:0:
