osu file format v14

[General]
AudioFilename: audio.mp3
AudioLeadIn: 0
PreviewTime: -1
Countdown: 0
SampleSet: None
StackLeniency: 0.7
Mode: 2
LetterboxInBreaks: 0
WidescreenStoryboard: 0

[Editor]
DistanceSpacing: 0.8
BeatDivisor: 4
GridSize: 8
TimelineZoom: 1.5

[Metadata]
Title:Calling
TitleUnicode:Calling
Artist:Zekk
ArtistUnicode:Zekk
Creator:GiGas
Version:Ringings Echo
Source:
Tags:Future Bass Abstract Dubstep Drumstep wub zekk
BeatmapID:1834820
BeatmapSetID:877574

[Difficulty]
HPDrainRate:6
CircleSize:4.3
OverallDifficulty:9.7
ApproachRate:9.7
SliderMultiplier:2.7
SliderTickRate:2

[Events]
//Background and Video events
0,0,"65795391_p0_waifu2x_art_scale_tta_1.jpg",0,0
//Break Periods
2,78041,82180
//Storyboard Layer 0 (Background)
//Storyboard Layer 1 (Fail)
//Storyboard Layer 2 (Pass)
//Storyboard Layer 3 (Foreground)
//Storyboard Sound Samples

[TimingPoints]
2676,333.333333333333,4,2,1,100,1,0
2676,333.333333333333,4,2,1,100,1,0
13342,-100,4,2,1,25,0,0
13342,-100,4,2,1,25,0,0
18675,-100,4,2,1,40,0,0
18675,-100,4,2,1,40,0,0
22675,-100,4,2,1,20,0,0
22675,-100,4,2,1,20,0,0
23009,-100,4,2,1,30,0,0
23009,-100,4,2,1,30,0,0
23342,-100,4,2,1,40,0,0
23342,-100,4,2,1,40,0,0
23675,-100,4,2,1,60,0,0
23675,-100,4,2,1,60,0,0
24009,-100,4,2,1,45,0,0
24009,-100,4,2,1,45,0,0
39675,-50,4,2,1,45,0,0
39675,-50,4,2,1,45,0,0
40009,-100,4,2,1,45,0,0
40009,-100,4,2,1,45,0,0
45675,-100,4,1,1,45,0,0
45675,-100,4,1,1,45,0,0
53342,-100,4,1,2,45,0,0
53342,-100,4,1,2,45,0,0
53675,-100,4,1,2,50,0,0
53675,-100,4,1,2,50,0,0
54009,-100,4,1,2,60,0,0
54009,-100,4,1,2,60,0,0
54342,-100,4,1,2,70,0,0
54342,-100,4,1,2,70,0,0
54675,-100,4,1,1,70,0,0
54675,-100,4,1,1,70,0,0
55675,-50,4,3,1,76,0,0
55675,-50,4,3,1,76,0,0
56009,-50,4,3,2,76,0,0
56009,-50,4,3,2,76,0,0
56175,-50,4,3,1,76,0,0
56175,-50,4,3,1,76,0,0
56675,-100,4,3,1,76,0,0
56675,-100,4,3,1,76,0,0
59009,-45.4545454545455,4,3,2,76,0,0
59009,-45.4545454545455,4,3,2,76,0,0
59342,-100,4,3,1,76,0,0
59342,-100,4,3,1,76,0,0
60175,-45.4545454545455,4,3,2,76,0,0
60175,-45.4545454545455,4,3,2,76,0,0
60842,-100,4,3,1,76,0,0
60842,-100,4,3,1,76,0,0
61342,-50,4,3,2,76,0,0
61342,-50,4,3,2,76,0,0
61509,-50,4,3,1,76,0,0
61509,-50,4,3,1,76,0,0
62009,-100,4,3,1,76,0,0
62009,-100,4,3,1,76,0,0
62342,-66.6666666666667,4,3,3,76,0,0
62342,-66.6666666666667,4,3,3,76,0,0
62842,-100,4,3,1,76,0,0
62842,-100,4,3,1,76,0,0
65342,-100,4,3,3,76,0,0
65342,-100,4,3,3,76,0,0
67009,-50,4,3,1,76,0,0
67009,-50,4,3,1,76,0,0
67842,-100,4,3,1,76,0,0
67842,-100,4,3,1,76,0,0
68170,-100,4,3,1,76,0,0
68170,-100,4,3,1,76,0,0
69675,-50,4,3,2,76,0,0
69675,-50,4,3,2,76,0,0
69925,-50,4,3,1,76,0,0
69925,-50,4,3,1,76,0,0
70009,-100,4,3,1,76,0,0
70009,-100,4,3,1,76,0,0
70842,-50,4,3,2,76,0,0
70842,-50,4,3,2,76,0,0
71342,-100,4,3,1,76,0,0
71342,-100,4,3,1,76,0,0
72009,-66.6666666666667,4,3,3,76,0,0
72009,-66.6666666666667,4,3,3,76,0,0
72342,-100,4,3,1,76,0,0
72342,-100,4,3,1,76,0,0
73009,-66.6666666666667,4,3,2,76,0,0
73009,-66.6666666666667,4,3,2,76,0,0
73509,-100,4,3,1,76,0,0
73509,-100,4,3,1,76,0,0
77342,-100,4,3,4,76,0,0
77342,-100,4,3,4,76,0,0
77425,-100,4,3,1,50,0,0
77425,-100,4,3,1,50,0,0
77842,-100,4,3,4,5,0,0
77842,-100,4,3,4,5,0,0
82675,-100,4,2,1,45,0,0
82675,-100,4,2,1,45,0,0
88342,-100,4,1,1,55,0,0
88342,-100,4,1,1,55,0,0
96009,-100,4,1,2,40,0,0
96009,-100,4,1,2,40,0,0
96342,-100,4,1,2,50,0,0
96342,-100,4,1,2,50,0,0
96675,-100,4,1,2,60,0,0
96675,-100,4,1,2,60,0,0
97009,-100,4,1,2,70,0,0
97009,-100,4,1,2,70,0,0
97342,-100,4,1,1,65,0,0
97342,-100,4,1,1,65,0,0
98675,-50,4,3,2,76,0,0
98675,-50,4,3,2,76,0,0
99342,-100,4,3,1,76,0,0
99342,-100,4,3,1,76,0,0
100175,-47.6190476190476,4,3,2,76,0,0
100175,-47.6190476190476,4,3,2,76,0,0
100425,-47.6190476190476,4,3,1,76,0,0
100425,-47.6190476190476,4,3,1,76,0,0
100842,-100,4,3,1,76,0,0
100842,-100,4,3,1,76,0,0
101175,-66.6666666666667,4,3,2,76,0,0
101175,-66.6666666666667,4,3,3,76,0,0
101175,-66.6666666666667,4,3,3,76,0,0
101175,-66.6666666666667,4,3,2,76,0,0
101675,-50,4,3,2,76,0,0
101675,-50,4,3,2,76,0,0
102009,-100,4,3,1,76,0,0
102009,-100,4,3,1,76,0,0
102842,-50,4,3,2,76,0,0
102842,-50,4,3,2,76,0,0
103342,-66.6666666666667,4,3,1,76,0,0
103342,-66.6666666666667,4,3,1,76,0,0
104009,-50,4,3,2,76,0,0
104009,-50,4,3,2,76,0,0
104342,-50,4,3,3,76,0,0
104342,-50,4,3,3,76,0,0
104675,-100,4,3,1,76,0,0
104675,-100,4,3,1,76,0,0
105509,-50,4,3,1,76,0,0
105509,-50,4,3,1,76,0,0
106092,-100,4,3,1,76,0,0
106092,-100,4,3,1,76,0,0
107342,-50,4,3,2,76,0,0
107342,-50,4,3,2,76,0,0
107592,-100,4,3,1,76,0,0
107592,-100,4,3,1,76,0,0
108009,-100,4,3,3,76,0,0
108009,-100,4,3,3,76,0,0
109675,-50,4,3,2,76,0,0
109675,-50,4,3,2,76,0,0
110509,-100,4,3,2,76,0,0
110509,-100,4,3,2,76,0,0
110842,-50,4,3,2,76,0,0
110842,-50,4,3,2,76,0,0
111175,-50,4,3,1,76,0,0
111175,-50,4,3,1,76,0,0
111509,-100,4,3,1,76,0,0
111509,-100,4,3,1,76,0,0
112342,-100,4,3,3,76,0,0
112342,-100,4,3,3,76,0,0
112842,-50,4,3,1,76,0,0
112842,-50,4,3,1,76,0,0
113175,-66.6666666666667,4,3,1,76,0,0
113175,-66.6666666666667,4,3,1,76,0,0
115342,-66.6666666666667,4,3,2,76,0,0
115342,-66.6666666666667,4,3,2,76,0,0
115509,-66.6666666666667,4,3,1,76,0,0
115509,-66.6666666666667,4,3,1,76,0,0
116175,-50,4,3,2,76,0,0
116175,-50,4,3,2,76,0,0
116509,-50,4,3,1,76,0,0
116509,-50,4,3,1,76,0,0
117342,-50,4,3,2,76,0,0
117342,-50,4,3,2,76,0,0
117675,-100,4,3,1,76,0,0
117675,-100,4,3,1,76,0,0
117842,-100,4,3,2,76,0,0
117842,-100,4,3,2,76,0,0
117925,-100,4,3,1,76,0,0
117925,-100,4,3,1,76,0,0
118342,-100,4,3,2,76,0,0
118342,-100,4,3,2,76,0,0
118425,-100,4,3,1,76,0,0
118425,-100,4,3,1,76,0,0
118675,-100,4,3,2,76,0,0
118675,-100,4,3,2,76,0,0
119675,-66.6666666666667,4,3,1,76,0,0
119675,-66.6666666666667,4,3,1,76,0,0
120009,-100,4,2,99,50,0,0
120009,-100,4,2,99,50,0,0
120092,-66.6666666666667,4,2,99,30,0,0
120092,-66.6666666666667,4,2,99,30,0,0

[Colours]
Combo1 : 70,165,210
Combo2 : 255,176,255
Combo3 : 122,183,205
Combo4 : 253,114,111

[HitObjects]
160,304,13342,6,0,B|96:264|56:192|120:112|328:32,1,405,2|0,0:0|0:0,0:0:0:0:
440,32,14009,1,0,0:0:0:0:
288,96,14342,2,0,L|400:192,1,135
336,40,14675,6,0,P|248:120|336:232,1,270,2|0,0:0|0:0,0:0:0:0:
416,224,15175,1,0,0:0:0:0:
288,232,15342,2,0,L|184:128,1,135
352,120,15675,2,0,L|440:8,1,135
152,80,16009,6,0,L|240:208,3,135,2|0|0|0,0:0|0:0|0:0|0:0,0:0:0:0:
72,176,16675,2,0,L|184:64,1,135
416,64,17009,1,2,0:0:0:0:
120,288,17175,2,0,P|48:232|176:128,1,270,2|0,0:0|0:0,0:0:0:0:
272,112,17675,6,0,L|208:48,2,90,2|0|0,0:0|0:0|0:0,0:0:0:0:
376,112,18009,2,0,L|464:248,1,135,2|0,0:0|0:0,0:0:0:0:
280,112,18342,2,0,L|368:248,1,135,2|0,0:0|0:0,0:0:0:0:
72,240,18675,6,0,L|32:208,1,33.75,4|0,0:0|0:0,0:0:0:0:
72,240,18759,2,0,P|144:160|80:112,1,202.5
288,112,19342,1,0,0:0:0:0:
112,160,19675,2,0,L|208:288,1,135
392,264,20009,6,0,L|168:72,1,270,2|0,0:0|0:0,0:0:0:0:
272,88,20509,1,0,0:0:0:0:
136,96,20675,2,0,L|40:224,1,135
208,208,21009,2,0,L|304:336,1,135
32,312,21342,6,0,B|-16:248|-32:160|176:104,1,270,2|0,0:0|0:0,0:0:0:0:
272,184,21842,1,0,0:0:0:0:
136,184,22009,2,0,L|72:48,1,135,2|0,0:0|0:0,0:0:0:0:
192,32,22342,2,0,L|80:152,1,135
352,176,22675,5,4,0:0:0:0:
280,176,22842,1,0,0:0:0:0:
368,176,23009,1,4,0:0:0:0:
264,176,23175,1,0,0:0:0:0:
384,176,23342,1,4,0:0:0:0:
248,176,23509,1,0,0:0:0:0:
472,176,23675,1,4,0:0:0:0:
160,176,23842,1,0,0:0:0:0:
416,176,24009,5,8,0:0:0:0:
240,176,24342,1,2,0:0:0:0:
448,112,24675,2,0,L|248:352,1,270,4|0,0:0|0:0,0:0:0:0:
464,304,25342,1,0,0:0:0:0:
320,296,25509,2,0,P|248:240|328:104,1,270,4|0,0:0|0:0,0:0:0:0:
88,120,26009,1,4,0:0:0:0:
216,120,26175,1,2,0:0:0:0:
144,120,26342,1,0,0:0:0:0:
344,120,26675,5,4,0:0:0:0:
224,120,27009,1,0,0:0:0:0:
464,240,27342,2,0,B|504:176|464:136|272:104,1,270,2|0,0:0|0:0,0:0:0:0:
168,112,27842,2,0,P|128:144|248:160,1,270,4|0,0:0|0:0,0:0:0:0:
400,136,28342,2,0,P|480:176|368:248,1,270,4|0,0:0|0:0,0:0:0:0:
264,256,28842,1,2,0:0:0:0:
40,256,29009,6,0,B|8:184|64:144|176:120,1,202.5
320,120,29342,1,10,0:0:0:0:
128,120,29675,5,0,0:0:0:0:
424,232,30009,2,0,P|368:96|352:256,1,405,4|0,0:0|0:0,0:0:0:0:
440,248,30675,1,2,0:0:0:0:
320,248,30842,2,0,P|248:192|336:56,1,270,4|0,0:0|0:0,0:0:0:0:
96,80,31342,1,4,0:0:0:0:
216,80,31509,1,0,0:0:0:0:
24,80,31842,1,0,0:0:0:0:
336,288,32009,6,0,P|400:256|304:184,1,202.5,4|0,0:0|0:0,0:0:0:0:
280,160,32342,2,0,P|344:128|248:56,1,202.5
112,48,32675,2,0,P|80:96|144:176,1,135,4|0,0:0|0:0,0:0:0:0:
264,168,32925,2,0,L|152:272,1,135,4|0,0:0|0:0,0:0:0:0:
248,264,33175,1,4,0:0:0:0:
384,264,33342,5,2,0:0:0:0:
264,264,33509,1,0,0:0:0:0:
400,200,33675,2,0,L|240:48,1,202.5,4|0,0:0|0:0,0:0:0:0:
80,88,34009,2,0,L|248:88,1,135,4|0,0:0|0:0,0:0:0:0:
112,144,34342,2,0,P|56:192|144:280,1,202.5
328,288,34675,5,10,0:0:0:0:
232,288,34842,1,0,0:0:0:0:
376,288,35009,1,0,0:0:0:0:
152,288,35342,2,0,L|320:96,1,202.5,4|0,0:0|0:0,0:0:0:0:
144,136,35675,1,0,0:0:0:0:
232,136,35842,1,0,0:0:0:0:
144,136,36009,5,0,0:0:0:0:
280,136,36175,2,0,P|368:192|256:264,1,270,4|0,0:0|0:0,0:0:0:0:
16,128,36675,2,0,L|136:224,2,135,4|0|0,0:0|0:0|0:0,0:0:0:0:
312,264,37342,6,0,P|352:192|280:96,1,202.5,2|0,0:0|0:0,0:0:0:0:
192,96,37675,2,0,L|328:152,1,135
88,144,38009,2,0,L|8:24,2,135,4|0|0,0:0|0:0|0:0,0:0:0:0:
216,168,38509,2,0,B|240:96|240:56|32:0,1,270,4|0,0:0|0:0,0:0:0:0:
136,208,39009,2,0,B|112:136|112:112|48:88,1,135,4|0,0:0|0:0,0:0:0:0:
184,96,39342,5,4,0:0:0:0:
56,96,39509,1,2,0:0:0:0:
328,168,39675,2,0,L|24:168,1,270
384,168,40009,1,8,0:0:0:0:
160,168,40342,5,4,0:0:0:0:
408,256,40675,2,0,B|520:200|520:160|496:136|432:120|320:136|256:96|480:-8,1,405
168,128,41342,1,6,0:0:0:0:
248,128,41425,1,0,0:0:0:0:
328,128,41509,1,0,0:0:0:0:
168,128,41842,1,4,0:0:0:0:
384,128,42175,1,4,0:0:0:0:
224,200,42342,6,0,L|320:200,1,67.5,4|0,0:0|0:0,0:0:0:0:
144,272,42509,2,0,L|224:272,1,67.5,2|0,0:0|0:0,0:0:0:0:
32,128,42675,5,6,0:0:0:0:
152,128,42842,1,0,0:0:0:0:
80,32,43009,1,6,0:0:0:0:
200,32,43176,1,0,0:0:0:0:
128,192,43342,1,6,0:0:0:0:
328,304,43425,6,0,P|368:240|312:192,1,135
192,184,43675,2,0,L|96:112,1,67.5,6|0,0:0|0:0,0:0:0:0:
336,128,43842,2,0,L|432:56,1,67.5,6|0,0:0|0:0,0:0:0:0:
208,112,44009,2,0,L|144:40,1,67.5,6|0,0:0|0:0,0:0:0:0:
272,64,44175,2,0,L|328:136,1,67.5,6|0,0:0|0:0,0:0:0:0:
232,136,44342,2,0,B|160:168|144:240|296:248|304:288,1,202.5,6|0,0:0|0:0,0:0:0:0:
96,112,44675,6,0,P|32:168|120:232,1,202.5,2|0,0:0|0:0,0:0:0:0:
184,232,45009,1,0,0:0:0:0:
88,176,45175,2,0,L|168:128,1,67.5
352,256,45342,6,0,P|408:200|320:104,1,202.5
144,176,45675,6,0,L|264:88,1,135,2|0,0:0|0:0,0:0:0:0:
144,64,46009,1,0,0:0:0:0:
288,56,46175,1,0,0:0:0:0:
152,64,46342,2,0,L|368:64,1,202.5,2|0,0:0|0:0,0:0:0:0:
354,64,46675,6,0,L|138:64,1,202.5
151,64,47009,2,0,L|218:64,1,67.5,2|0,0:0|0:0,0:0:0:0:
368,72,47175,1,0,0:0:0:0:
152,248,47259,2,0,P|96:200|168:152,1,135
288,168,47509,1,4,0:0:0:0:
160,168,47675,1,4,0:0:0:0:
352,224,48009,6,0,L|456:112,2,135,8|0|0,0:0|0:0|0:0,0:0:0:0:
184,232,48509,2,0,P|128:176|208:16,1,270,2|0,0:0|0:0,0:0:0:0:
320,24,49009,1,2,0:0:0:0:
224,24,49175,1,0,0:0:0:0:
464,144,49342,6,0,L|240:144,1,202.5,2|0,0:0|0:0,0:0:0:0:
261,144,49675,2,0,L|360:144,1,67.5
480,144,49842,1,0,0:0:0:0:
256,256,49925,2,0,P|192:208|248:152,1,135,2|0,0:0|0:0,0:0:0:0:
368,152,50175,1,4,0:0:0:0:
264,152,50342,1,4,0:0:0:0:
400,72,50509,2,0,L|320:72,1,67.5
104,256,50675,6,0,L|272:256,1,135,2|0,0:0|0:0,0:0:0:0:
128,192,51009,2,0,L|72:48,1,135
224,328,51342,1,2,0:0:0:0:
332,259,51508,1,0,0:0:0:0:
323,131,51675,1,0,0:0:0:0:
205,80,51841,1,0,0:0:0:0:
304,80,52009,5,2,0:0:0:0:
237,171,52175,1,0,0:0:0:0:
400,216,52342,1,2,0:0:0:0:
464,304,52508,1,0,0:0:0:0:
296,304,52675,5,2,0:0:0:0:
392,304,52842,1,0,0:0:0:0:
256,304,53009,1,2,0:0:0:0:
432,304,53175,1,0,0:0:0:0:
136,200,53342,5,4,0:0:0:0:
280,200,53425,2,0,L|384:200,2,67.5
120,136,53675,1,4,0:0:0:0:
312,136,53758,2,0,L|416:136,2,67.5
96,72,54009,5,4,0:0:0:0:
352,72,54092,2,0,L|456:72,2,67.5
152,192,54342,2,0,L|32:192,1,67.5,4|0,0:0|0:0,0:0:0:0:
232,192,54509,1,0,0:0:0:0:
48,192,54592,1,0,0:0:0:0:
376,240,54675,5,8,0:0:0:0:
272,240,54842,2,0,L|272:144,1,67.5
432,176,55009,2,0,L|344:176,1,67.5
160,176,55175,1,0,0:0:0:0:
296,232,55342,6,0,L|192:232,1,67.5,4|0,0:0|0:0,0:0:0:0:
384,168,55509,2,0,L|304:168,1,67.5,4|0,0:0|0:0,0:0:0:0:
88,128,55675,6,0,L|208:392,1,270
448,240,56009,6,0,L|96:240,1,270,4|0,0:0|0:0,0:0:0:0:
178,240,56342,2,0,L|530:240,1,270,4|0,0:0|0:0,0:0:0:0:
368,240,56592,1,8,0:0:0:0:
152,136,56675,2,0,L|256:136,1,67.5,8|0,0:0|0:0,0:0:0:0:
80,80,56842,2,0,L|184:80,1,67.5
384,88,57009,2,0,L|464:88,1,67.5,4|0,0:0|0:0,0:0:0:0:
264,80,57175,2,0,L|264:336,1,202.5,8|0,0:0|0:0,0:0:0:0:
96,288,57509,6,0,L|16:288,1,67.5,8|0,0:0|0:0,0:0:0:0:
304,288,57675,2,0,L|376:280,1,67.5,4|0,0:0|0:0,0:0:0:0:
136,264,57842,2,0,B|40:224|88:168|280:144|184:88|160:96,1,202.5
32,152,58175,2,0,L|32:64,1,67.5,6|0,0:0|0:0,0:0:0:0:
304,152,58342,2,0,L|304:64,1,67.5,6|0,0:0|0:0,0:0:0:0:
32,152,58509,2,0,L|32:64,1,67.5,6|0,0:0|0:0,0:0:0:0:
264,272,58675,2,0,P|232:208|120:176,1,135
248,176,58925,1,0,0:0:0:0:
32,216,59009,6,0,L|480:216,1,445.500013595581,2|0,0:0|0:0,0:0:0:0:
144,128,59342,6,0,L|144:256,1,67.5,4|0,0:0|0:0,0:0:0:0:
368,168,59509,2,0,L|368:288,1,67.5
216,240,59675,2,0,L|312:208,1,67.5
96,240,59842,2,0,L|16:208,1,67.5,4|0,0:0|0:0,0:0:0:0:
376,288,60009,2,0,L|496:288,1,67.5,8|0,0:0|0:0,0:0:0:0:
448,232,60175,2,0,L|0:232,1,445.500013595581,8|0,0:0|0:0,0:0:0:0:
0,184,60509,2,0,L|448:184,1,445.500013595581,8|0,0:0|0:0,0:0:0:0:
224,120,60842,2,0,L|104:120,1,67.5
360,112,61009,2,0,L|424:88,1,67.5,8|0,0:0|0:0,0:0:0:0:
256,72,61175,2,0,L|344:48,1,67.5
72,240,61342,6,0,L|424:240,1,270,4|0,0:0|0:0,0:0:0:0:
342,240,61675,2,0,L|-10:240,1,270,8|0,0:0|0:0,0:0:0:0:
392,160,62009,2,0,L|480:128,1,67.5,4|0,0:0|0:0,0:0:0:0:
264,104,62175,2,0,L|360:64,1,67.5,4|0,0:0|0:0,0:0:0:0:
104,288,62342,2,0,P|80:176|200:320,1,506.250019311906,4|0,0:0|0:0,0:0:0:0:
56,304,62842,6,0,L|56:208,1,67.5,8|0,0:0|0:0,0:0:0:0:
288,304,63009,2,0,L|192:272,1,67.5,4|0,0:0|0:0,0:0:0:0:
376,296,63175,2,0,B|456:264|424:216|280:184,1,202.5,8|0,0:0|0:0,0:0:0:0:
104,184,63509,2,0,L|104:96,1,67.5,6|0,0:0|0:0,0:0:0:0:
376,184,63675,2,0,L|376:96,1,67.5,6|0,0:0|0:0,0:0:0:0:
104,184,63843,2,0,L|104:96,1,67.5,6|0,0:0|0:0,0:0:0:0:
304,280,64009,6,0,L|448:144,1,135
336,192,64259,1,0,0:0:0:0:
184,200,64342,2,0,L|80:176,1,67.5,8|0,0:0|0:0,0:0:0:0:
200,128,64509,2,0,L|112:104,1,67.5
392,128,64675,6,0,L|512:128,1,67.5,4|0,0:0|0:0,0:0:0:0:
256,120,64842,2,0,L|256:24,1,67.5
456,56,65009,2,0,L|360:56,1,67.5,4|0,0:0|0:0,0:0:0:0:
216,48,65175,2,0,L|128:48,1,67.5
376,200,65342,5,8,0:0:0:0:
200,200,65425,2,0,L|80:200,2,67.5
392,128,65675,1,8,0:0:0:0:
192,128,65758,2,0,L|72:128,2,67.5
360,64,66009,2,0,L|464:16,1,67.5,8|0,0:0|0:0,0:0:0:0:
184,64,66175,1,0,0:0:0:0:
360,64,66259,2,0,L|464:168,1,135,8|0,0:0|0:0,0:0:0:0:
144,192,66509,6,0,L|48:184,1,67.5
264,224,66675,2,0,P|264:152|120:136,1,202.5,4|0,0:0|0:0,0:0:0:0:
382,200,67009,6,0,L|78:200,1,270,4|0,0:0|0:0,0:0:0:0:
240,200,67342,1,0,0:0:0:0:
88,152,67509,2,0,L|392:152,1,270,4|0,0:0|0:0,0:0:0:0:
240,280,67842,2,0,L|240:32,1,202.5,8|0,0:0|0:0,0:0:0:0:
72,192,68175,6,0,L|184:192,1,67.5
336,192,68342,2,0,L|208:192,1,67.5,8|0,0:0|0:0,0:0:0:0:
432,176,68509,2,0,B|232:24,1,202.5,8|0,0:0|0:0,0:0:0:0:
472,56,68842,2,0,L|472:176,1,67.5,6|0,0:0|0:0,0:0:0:0:
224,48,69009,2,0,L|224:168,1,67.5,6|0,0:0|0:0,0:0:0:0:
472,56,69175,2,0,L|472:176,1,67.5,6|0,0:0|0:0,0:0:0:0:
288,136,69342,2,0,B|384:136|456:160|400:208,1,135,8|0,0:0|0:0,0:0:0:0:
344,176,69592,1,0,0:0:0:0:
72,272,69675,6,0,L|432:56,1,405,2|0,0:0|0:0,0:0:0:0:
232,80,70009,6,0,L|152:48,1,67.5,4|0,0:0|0:0,0:0:0:0:
344,187,70175,2,0,L|344:120,1,67.5,8|0,0:0|0:0,0:0:0:0:
96,147,70342,2,0,L|96:80,1,67.5,4|0,0:0|0:0,0:0:0:0:
292,65,70509,2,0,L|352:96,1,67.5,4|0,0:0|0:0,0:0:0:0:
136,240,70675,2,0,L|264:240,1,67.5
432,240,70842,6,0,L|16:240,1,405,8|0,0:0|0:0,0:0:0:0:
24,176,71175,2,0,L|136:32,1,135,8|0,0:0|0:0,0:0:0:0:
416,192,71342,2,0,P|448:136|368:96,1,135,4|0,0:0|0:0,0:0:0:0:
216,88,71592,1,0,0:0:0:0:
400,72,71675,2,0,L|160:72,1,202.5,4|0,0:0|0:0,0:0:0:0:
368,64,72009,6,0,P|472:136|360:224,1,303.750011587143,4|0,0:0|0:0,0:0:0:0:
208,208,72342,2,0,L|320:192,1,67.5,2|0,0:0|0:0,0:0:0:0:
104,152,72509,2,0,L|216:136,1,67.5,2|0,0:0|0:0,0:0:0:0:
416,128,72675,2,0,L|312:128,1,67.5,8|0,0:0|0:0,0:0:0:0:
168,128,72842,2,0,L|64:128,1,67.5
384,328,73009,6,0,B|416:320|496:-24|80:408|152:-80|328:8,1,506.250019311906,4|0,0:0|0:0,0:0:0:0:
128,80,73509,6,0,L|16:80,1,67.5
296,80,73675,2,0,L|392:80,1,67.5,4|0,0:0|0:0,0:0:0:0:
192,80,73842,2,0,P|136:128|256:192,1,202.5,8|0,0:0|0:0,0:0:0:0:
408,208,74175,2,0,L|408:304,1,67.5,6|0,0:0|0:0,0:0:0:0:
104,208,74342,2,0,L|104:304,1,67.5,6|0,0:0|0:0,0:0:0:0:
408,208,74509,2,0,L|408:304,1,67.5,6|0,0:0|0:0,0:0:0:0:
192,216,74675,5,8,0:0:0:0:
296,168,74842,2,0,L|200:168,1,67.5,8|0,0:0|0:0,0:0:0:0:
432,168,75009,1,4,0:0:0:0:
328,88,75175,1,8,0:0:0:0:
416,88,75342,2,0,L|320:88,1,67.5,8|0,0:0|0:0,0:0:0:0:
152,88,75509,1,4,0:0:0:0:
384,224,75675,6,0,L|264:224,1,67.5,6|0,0:0|0:0,0:0:0:0:
408,158,75842,2,0,L|288:158,1,67.5,6|0,0:0|0:0,0:0:0:0:
152,152,76009,2,0,L|48:24,1,135,4|0,0:0|0:0,0:0:0:0:
128,40,76259,1,0,0:0:0:0:
320,56,76342,2,0,L|224:56,1,67.5,8|0,0:0|0:0,0:0:0:0:
424,64,76509,1,0,0:0:0:0:
304,168,76675,6,0,L|424:48,1,135,4|0,0:0|0:0,0:0:0:0:
264,288,77009,2,0,P|208:232|264:152,1,135,8|0,0:0|0:0,0:0:0:0:
408,168,77259,1,4,0:0:0:0:
208,320,77342,2,0,B|160:232|160:192|232:184|280:184|328:192|368:192|400:184|440:184|416:64,1,405,4|0,0:0|0:0,0:0:0:0:
102,213,82675,6,0,B|5:86|174:167|175:130|501:156|242:24,1,405,8|0,0:0|0:0,0:0:0:0:
176,48,83342,1,2,0:0:0:0:
352,48,83675,1,0,0:0:0:0:
152,40,84342,1,0,0:0:0:0:
416,40,84675,1,2,0:0:0:0:
256,112,85009,6,0,L|256:264,1,135
400,240,85342,2,0,B|472:192|464:152|448:104|360:80|256:128,1,270,4|0,0:0|0:0,0:0:0:0:
208,112,85842,1,0,0:0:0:0:
432,200,86009,2,0,L|272:64,2,202.5
176,200,86675,5,6,0:0:0:0:
312,200,86842,1,0,0:0:0:0:
176,200,87009,2,0,L|176:32,1,135
400,120,87342,5,6,0:0:0:0:
344,120,87425,1,0,0:0:0:0:
288,120,87509,1,0,0:0:0:0:
416,56,87675,1,0,0:0:0:0:
168,40,87842,1,0,0:0:0:0:
312,176,88009,2,8,L|112:40,1,202.5
376,216,88342,6,0,L|496:88,1,135,2|0,0:0|0:0,0:0:0:0:
312,80,88675,1,0,0:0:0:0:
472,80,88842,1,0,0:0:0:0:
312,112,89009,2,0,P|248:160|336:216,1,202.5,2|0,0:0|0:0,0:0:0:0:
432,240,89342,2,0,P|504:304|423:351,1,202.5,2|0,0:0|0:0,0:0:0:0:
264,240,89675,6,0,L|176:240,1,67.5
368,240,89842,1,0,0:0:0:0:
196,240,89925,2,0,P|140:208|172:120,1,135,2|0,0:0|0:0,0:0:0:0:
348,120,90175,1,4,0:0:0:0:
228,120,90342,1,4,0:0:0:0:
348,120,90509,1,8,0:0:0:0:
96,264,90675,6,0,L|80:120,1,135,2|0,0:0|0:0,0:0:0:0:
208,168,91009,2,0,L|224:24,1,135
112,32,91342,1,2,0:0:0:0:
222,33,91509,1,0,0:0:0:0:
96,40,91675,2,0,L|64:200,1,135
208,112,92009,2,0,P|272:160|184:216,1,202.5,2|0,0:0|0:0,0:0:0:0:
96,240,92342,2,0,L|32:192,2,67.5,8|0|0,0:0|0:0|0:0,0:0:0:0:
368,248,92592,6,0,L|240:144,1,135,8|0,0:0|0:0,0:0:0:0:
96,152,92842,1,4,0:0:0:0:
216,152,93009,1,4,0:0:0:0:
88,80,93175,2,0,L|184:80,1,67.5
384,80,93342,5,2,0:0:0:0:
385,209,93508,1,0,0:0:0:0:
224,240,93675,1,0,0:0:0:0:
102,195,93842,1,0,0:0:0:0:
256,288,94009,1,2,0:0:0:0:
377,258,94175,1,0,0:0:0:0:
372,133,94342,1,0,0:0:0:0:
264,120,94509,1,0,0:0:0:0:
144,128,94675,6,0,L|272:16,1,135,2|0,0:0|0:0,0:0:0:0:
376,128,95009,2,0,L|248:16,1,135
392,32,95342,1,2,0:0:0:0:
280,24,95509,1,0,0:0:0:0:
408,32,95675,1,2,0:0:0:0:
248,24,95842,1,0,0:0:0:0:
472,56,96009,5,4,0:0:0:0:
288,56,96092,2,0,L|184:56,2,67.5
456,128,96342,1,4,0:0:0:0:
248,128,96425,2,0,L|144:128,2,67.5
432,192,96675,1,4,0:0:0:0:
208,200,96758,2,0,L|104:200,2,67.5
384,120,97009,5,4,0:0:0:0:
312,120,97092,1,0,0:0:0:0:
400,64,97175,1,0,0:0:0:0:
216,64,97259,1,0,0:0:0:0:
472,64,97342,5,2,0:0:0:0:
360,160,97509,2,0,L|360:72,1,67.5
440,80,97675,2,0,L|360:80,1,67.5
152,96,97842,5,2,0:0:0:0:
288,104,98009,2,0,L|208:104,1,67.5,4|0,0:0|0:0,0:0:0:0:
360,48,98175,2,0,L|280:48,1,67.5,4|0,0:0|0:0,0:0:0:0:
104,48,98342,1,2,0:0:0:0:
224,48,98509,1,0,0:0:0:0:
72,184,98675,6,0,L|406:184,1,270,8|0,0:0|0:0,0:0:0:0:
336,112,99009,2,0,L|66:112,1,270,8|0,0:0|0:0,0:0:0:0:
336,256,99342,2,0,L|456:256,1,67.5,8|0,0:0|0:0,0:0:0:0:
240,200,99509,2,0,L|152:200,1,67.5
336,136,99675,2,0,L|216:136,1,67.5,8|0,0:0|0:0,0:0:0:0:
104,144,99842,2,0,B|32:80|112:80|168:72|280:80,1,202.5,4|0,0:0|0:0,0:0:0:0:
448,176,100175,6,0,L|-8:176,1,425.2499870224,2|0,0:0|0:0,0:0:0:0:
344,96,100509,2,0,L|416:224,1,141.749995674133,8|0,0:0|0:0,0:0:0:0:
160,96,100675,1,4,0:0:0:0:
432,128,100842,2,0,L|432:240,1,67.5
280,176,101009,2,0,L|280:288,1,67.5
120,256,101175,2,0,B|48:168|48:168|176:168|248:168|248:168|280:56,1,405.000015449524,8|0,0:0|0:0,0:0:0:0:
208,80,101592,1,0,0:0:0:0:
416,256,101675,6,0,L|56:32,1,405,4|0,0:0|0:0,0:0:0:0:
360,144,102009,6,0,L|448:112,1,67.5,4|0,0:0|0:0,0:0:0:0:
224,104,102175,1,8,0:0:0:0:
336,96,102342,2,0,L|248:88,1,67.5,4|0,0:0|0:0,0:0:0:0:
88,88,102509,1,8,0:0:0:0:
200,88,102675,1,0,0:0:0:0:
32,88,102842,6,0,L|441:27,1,405,8|0,0:0|0:0,0:0:0:0:
432,28,103175,2,0,L|51:28,1,270,8|2,0:0|0:0,0:0:0:0:
162,28,103342,2,0,P|99:132|163:188,1,202.500007724762
344,240,103592,1,0,0:0:0:0:
168,264,103675,6,0,P|80:192|184:56,1,303.750011587143,12|0,0:0|0:0,0:0:0:0:
438,174,104009,6,0,L|36:51,1,405,4|0,0:0|0:0,0:0:0:0:
51,56,104342,2,0,L|467:8,1,405,4|0,0:0|0:0,0:0:0:0:
192,88,104675,2,0,L|104:48,1,67.5,4|0,0:0|0:0,0:0:0:0:
304,64,104842,2,0,L|392:56,1,67.5,8|0,0:0|0:0,0:0:0:0:
200,32,105009,2,0,L|288:24,1,67.5
72,56,105175,6,0,L|232:224,1,202.5,8|0,0:0|0:0,0:0:0:0:
376,352,105509,6,0,L|96:16,1,405,4|0,0:0|0:0,0:0:0:0:
112,176,105842,2,0,L|272:336,1,135,8|0,0:0|0:0,0:0:0:0:
16,176,106009,1,4,0:0:0:0:
416,232,106175,2,0,L|416:128,1,67.5,6|0,0:0|0:0,0:0:0:0:
256,224,106342,2,0,L|256:120,1,67.5,6|0,0:0|0:0,0:0:0:0:
72,232,106508,2,0,L|72:128,1,67.5,6|0,0:0|0:0,0:0:0:0:
256,96,106675,5,10,0:0:0:0:
200,96,106759,1,0,0:0:0:0:
256,96,106842,1,0,0:0:0:0:
200,96,106926,1,0,0:0:0:0:
376,104,107009,2,0,L|480:104,1,67.5,12|0,0:0|0:0,0:0:0:0:
240,72,107175,2,0,L|344:72,1,67.5,4|0,0:0|0:0,0:0:0:0:
457,254,107342,6,0,L|96:56,1,405,4|0,0:0|0:0,0:0:0:0:
101,59,107592,2,0,L|313:-4,1,202.5
24,80,108009,5,8,0:0:0:0:
240,192,108092,2,0,L|240:296,2,67.5
96,72,108342,1,8,0:0:0:0:
312,184,108425,2,0,L|312:288,2,67.5
168,96,108675,5,8,0:0:0:0:
232,96,108759,1,0,0:0:0:0:
80,64,108842,1,0,0:0:0:0:
304,64,108925,1,0,0:0:0:0:
96,288,109009,6,8,P|56:224|112:184,1,135
176,176,109259,1,0,0:0:0:0:
344,176,109342,2,0,L|136:112,1,202.5,4|0,0:0|0:0,0:0:0:0:
150,116,109675,6,0,L|520:312,1,405,8|0,0:0|0:0,0:0:0:0:
280,272,110009,1,0,0:0:0:0:
360,112,110175,6,8,L|208:360,1,270,8|0,0:0|0:0,0:0:0:0:
376,328,110509,2,0,P|424:248|344:190,1,202.5,10|0,0:0|0:0,0:0:0:0:
112,184,110842,6,0,L|440:184,1,270,12|0,0:0|0:0,0:0:0:0:
382,184,111175,6,0,L|320:40,1,135,8|0,0:0|0:0,0:0:0:0:
488,72,111342,1,4,0:0:0:0:
144,184,111509,2,0,L|144:72,1,67.5,6|0,0:0|0:0,0:0:0:0:
312,184,111675,2,0,L|312:72,1,67.5,6|0,0:0|0:0,0:0:0:0:
472,184,111842,2,0,L|472:72,1,67.5,6|0,0:0|0:0,0:0:0:0:
368,136,112009,2,0,L|256:32,1,135
336,40,112259,1,0,0:0:0:0:
112,216,112342,6,0,P|56:136|144:80,1,202.5,4|0,0:0|0:0,0:0:0:0:
336,80,112675,1,8,0:0:0:0:
64,216,112842,2,0,L|488:216,1,405,4|0,0:0|0:0,0:0:0:0:
168,96,113175,2,0,P|72:168|200:256,1,303.750011587143,4|0,0:0|0:0,0:0:0:0:
384,104,113509,2,0,P|480:176|352:264,1,303.750011587143,4|0,0:0|0:0,0:0:0:0:
144,224,113842,2,0,L|40:88,1,101.250003862381,8|0,0:0|0:0,0:0:0:0:
376,336,114009,6,0,L|224:128,1,202.500007724762,6|0,0:0|0:0,0:0:0:0:
336,168,114259,1,0,0:0:0:0:
72,176,114342,1,8,0:0:0:0:
192,176,114509,1,0,0:0:0:0:
40,240,114675,6,0,L|8:168,1,50.6250019311906,8|0,0:0|0:0,0:0:0:0:
112,240,114842,6,0,L|80:168,1,50.6250019311906,8|0,0:0|0:0,0:0:0:0:
184,232,115009,6,0,L|152:160,1,50.6250019311906,8|0,0:0|0:0,0:0:0:0:
256,232,115175,6,0,L|224:160,1,50.6250019311906,8|0,0:0|0:0,0:0:0:0:
16,120,115342,5,8,0:0:0:0:
280,120,115509,2,0,L|384:264,1,101.250003862381,8|0,0:0|0:0,0:0:0:0:
112,160,115675,2,0,L|8:304,1,101.250003862381,8|0,0:0|0:0,0:0:0:0:
344,240,115842,2,0,P|437:218|314:148,1,303.750011587143,4|0,0:0|0:0,0:0:0:0:
128,112,116175,6,0,L|488:296,1,405,12|0,0:0|0:0,0:0:0:0:
424,304,116509,1,8,0:0:0:0:
176,296,116675,1,4,0:0:0:0:
416,168,116842,2,0,L|456:88,1,67.5,6|0,0:0|0:0,0:0:0:0:
112,104,117009,2,0,L|82:43,1,67.5,6|0,0:0|0:0,0:0:0:0:
464,104,117175,2,0,L|495:43,1,67.5,6|0,0:0|0:0,0:0:0:0:
232,288,117342,6,0,L|72:32,1,270,10|0,0:0|0:0,0:0:0:0:
184,48,117592,1,0,0:0:0:0:
392,48,117675,1,0,0:0:0:0:
280,112,117842,2,0,L|184:88,1,67.5,8|0,0:0|0:0,0:0:0:0:
392,80,118009,2,0,L|296:56,1,67.5
496,72,118175,1,4,0:0:0:0:
352,160,118342,6,0,L|352:64,1,67.5,8|0,0:0|0:0,0:0:0:0:
192,96,118509,2,0,L|280:96,1,67.5
456,112,118675,2,0,L|280:112,1,135,12|0,0:0|0:0,0:0:0:0:
384,112,118925,1,0,0:0:0:0:
112,208,119009,2,0,L|112:96,1,67.5
280,208,119175,2,0,L|280:96,1,67.5
184,136,119342,5,0,0:0:0:0:
416,136,119509,1,0,0:0:0:0:
128,264,119675,2,0,P|64:224|152:144,1,202.500007724762,8|4,0:0|0:0,0:0:0:0:
328,136,119925,1,4,0:0:0:0:
152,344,120009,6,0,P|64:256|280:360,1,1080,2|0,0:0|0:0,0:0:0:0:
