osu file format v14

[General]
AudioFilename: audio.mp3
AudioLeadIn: 0
PreviewTime: 77677
Countdown: 0
SampleSet: Soft
StackLeniency: 0.7
Mode: 0
LetterboxInBreaks: 0
WidescreenStoryboard: 1

[Editor]
Bookmarks: 37252
DistanceSpacing: 0.9
BeatDivisor: 4
GridSize: 16
TimelineZoom: 2.899999

[Metadata]
Title:Ashes
TitleUnicode:Ashes
Artist:Zekk
ArtistUnicode:Zekk
Creator:Cheri
Version:Normal
Source:osu!
Tags: Hailie DJ Lucky FA Featured Artist Mappers' Guild MG Instrumental Electronic dj_lucky Dynamix
BeatmapID:2459723
BeatmapSetID:1177475

[Difficulty]
HPDrainRate:4
CircleSize:3
OverallDifficulty:5
ApproachRate:6
SliderMultiplier:1.15
SliderTickRate:1

[Events]
//Background and Video events
0,0,"background.png",0,0
//Break Periods
//Storyboard Layer 0 (Background)
//Storyboard Layer 1 (Fail)
//Storyboard Layer 2 (Pass)
//Storyboard Layer 3 (Foreground)
//Storyboard Layer 4 (Overlay)
//Storyboard Sound Samples

[TimingPoints]
1365,300,4,2,0,100,1,0
1365,-133.333333333333,4,2,0,100,0,0
10965,-100,4,2,0,70,0,0
20565,-100,4,2,0,50,0,0
30165,-83.3333333333333,4,2,0,70,0,0
38565,-83.3333333333333,4,2,0,90,0,0
39765,-83.3333333333333,4,2,0,70,0,0
49365,-100,4,2,0,70,0,0
50490,-83.3333333333333,4,2,0,5,0,0
50565,-117.647058823529,4,2,0,40,0,0
51765,-117.647058823529,4,2,0,40,0,0
58965,-117.647058823529,4,2,0,50,0,0
68565,-100,4,2,0,70,0,0
78165,-83.3333333333333,4,2,0,90,0,1
97365,-83.3333333333333,4,2,0,80,0,0
106965,-100,4,2,0,80,0,0
116640,-100,4,2,0,10,0,0

[Colours]
Combo1 : 131,128,86
Combo2 : 128,128,0
SliderTrackOverride : 150,150,150

[HitObjects]
472,327,1365,6,0,P|473:281|458:226,1,86.2500032901765,4|0,0:0|0:0,0:0:0:0:
413,100,2265,1,2,0:0:0:0:
413,100,2565,2,0,P|350:104|314:101,1,86.2500032901765,2|2,0:0|0:0,0:0:0:0:
223,77,3165,6,0,L|220:30,2,43.1250016450883,2|0|2,0:0|0:0|0:0,0:0:0:0:
169,133,3765,1,2,0:0:0:0:
155,287,4365,6,0,L|155:345,2,43.1250016450883,2|0|0,0:0|0:0|3:0,0:0:0:0:
75,272,4965,1,2,0:0:0:0:
225,234,5565,2,0,L|275:235,2,43.1250016450883,0|2|0,3:0|0:0|3:0,0:0:0:0:
232,160,6165,5,2,0:0:0:0:
232,160,6465,2,0,P|283:159|327:162,1,86.2500032901765,0|0,0:0|3:0,0:0:0:0:
399,175,7065,1,2,0:0:0:0:
399,175,7365,2,0,P|397:129|386:79,1,86.2500032901765,0|0,0:0|0:0,0:0:0:0:
318,57,7965,6,0,L|318:2,2,43.1250016450883,2|0|0,0:0|0:0|0:0,0:0:0:0:
251,98,8565,2,0,P|206:100|157:99,1,86.2500032901765,2|0,0:0|0:0,0:0:0:0:
165,177,9165,6,0,L|223:182,2,43.1250016450883,2|0|0,0:0|0:0|0:0,0:0:0:0:
142,251,9765,2,0,P|98:249|46:252,1,86.2500032901765,2|0,0:0|0:0,0:0:0:0:
27,323,10365,2,0,L|25:386,2,43.1250016450883,2|0|0,0:0|3:0|3:0,0:0:0:0:
129,340,10965,6,0,P|197:340|261:344,1,115,4|0,0:0|1:0,0:0:0:0:
282,307,11415,1,0,1:2:0:0:
338,162,11865,2,0,L|414:163,1,57.5,0|0,3:0|3:0,0:0:0:0:
442,140,12165,6,0,P|461:209|446:276,1,115,2|0,1:0|0:0,0:0:0:0:
405,342,12765,2,0,B|358:333|358:333|288:348,1,115
199,301,13365,6,0,P|198:263|180:173,1,115,4|0,1:0|1:0,0:0:0:0:
139,162,13815,1,0,1:0:0:0:
212,89,14115,2,0,P|236:97|327:86,1,115,0|0,3:0|3:0,0:0:0:0:
373,71,14565,6,0,P|381:126|384:200,1,115,2|0,1:0|0:0,0:0:0:0:
405,286,15165,2,0,P|359:281|286:283,1,115,0|0,3:0|0:0,0:0:0:0:
194,243,15765,6,0,L|193:365,1,115,4|0,0:0|1:0,0:0:0:0:
141,365,16215,1,0,1:0:0:0:
65,293,16515,2,0,P|69:245|39:177,1,115,0|0,3:0|1:0,0:0:0:0:
64,135,16965,6,0,P|114:125|178:112,1,115
211,73,17415,1,2,0:0:0:0:
286,143,17715,1,0,3:0:0:0:
433,188,18165,6,0,P|447:225|437:321,1,115,4|0,0:0|0:0,0:0:0:0:
406,334,18615,1,0,1:0:0:0:
250,326,19065,1,4,3:0:0:0:
250,326,19365,6,0,L|155:327,2,86.25,4|4|4,0:0|0:0|0:0,0:0:0:0:
291,259,20040,1,4,0:0:0:0:
254,190,20265,1,4,3:0:0:0:
254,190,20565,6,0,P|209:156|142:160,3,115,4|0|0|0,0:0|0:0|0:0|0:0,0:0:0:0:
141,52,21765,2,0,P|84:47|39:12,2,115,2|0|2,0:0|0:0|0:0,0:0:0:0:
243,68,22665,5,0,0:0:0:0:
243,68,22965,1,2,0:0:0:0:
243,68,23265,1,0,0:0:0:0:
243,68,23565,2,0,L|366:65,1,115,0|0,3:0|3:0,0:0:0:0:
439,129,24165,1,0,3:0:0:0:
417,230,24465,2,0,P|396:266|327:304,1,115,0|0,3:0|3:0,0:0:0:0:
230,305,25065,1,0,3:0:0:0:
127,289,25365,6,0,P|107:240|75:194,1,86.25,4|0,0:0|3:0,0:0:0:0:
141,104,25965,2,0,P|152:63|181:26,1,86.25,0|0,3:0|3:0,0:0:0:0:
300,70,26565,6,0,L|301:159,1,86.25,4|0,3:2|3:0,0:0:0:0:
202,240,27165,2,0,L|201:329,1,86.25,0|0,0:0|3:0,0:0:0:0:
278,356,27615,5,0,3:0:0:0:
278,356,27765,2,0,P|309:323|366:311,1,86.25,4|0,0:0|3:0,0:0:0:0:
400,247,28215,1,0,3:0:0:0:
400,247,28365,2,0,B|491:248,2,86.25,0|0|0,3:0|3:0|3:0,0:0:0:0:
401,194,28965,5,4,3:0:0:0:
34,28,30165,6,0,P|59:83|134:107,1,137.999995788574,6|0,1:0|0:0,0:0:0:0:
238,49,30765,2,0,B|273:34|273:34|325:45,1,68.9999978942872,0|0,1:0|0:0,0:0:0:0:
289,164,31215,1,0,0:0:0:0:
289,164,31365,2,0,P|357:217|420:203,1,137.999995788574,4|0,3:0|0:0,0:0:0:0:
411,87,31965,2,0,L|247:87,1,137.999995788574,4|0,1:2|3:0,0:0:0:0:
210,85,32415,1,0,3:0:0:0:
187,142,32565,6,0,P|189:190|186:286,1,137.999995788574,2|0,1:1|0:0,0:0:0:0:
68,317,33165,2,0,B|34:305|34:305|-6:324,1,68.9999978942872,4|0,1:2|0:0,0:0:0:0:
31,201,33615,1,0,3:0:0:0:
31,201,33765,2,0,P|8:142|53:82,1,137.999995788574,4|2,3:0|0:0,0:0:0:0:
171,80,34365,2,0,L|173:10,2,68.9999978942872,4|0|2,1:2|0:0|0:0,0:0:0:0:
269,156,34965,6,0,B|263:221|263:221|303:288,1,137.999995788574,2|0,1:0|3:0,0:0:0:0:
404,215,35565,2,0,P|446:208|496:210,1,68.9999978942872,0|0,1:0|0:0,0:0:0:0:
468,87,36015,1,0,0:0:0:0:
468,87,36165,2,0,P|399:102|331:84,1,137.999995788574,4|0,3:0|3:0,0:0:0:0:
210,78,36765,2,0,L|214:6,2,68.9999978942872,4|2|2,1:2|0:0|0:0,0:0:0:0:
174,129,37215,1,2,0:0:0:0:
174,129,37365,6,0,P|180:187|242:247,1,137.999995788574,2|0,1:0|3:0,0:0:0:0:
356,251,37965,2,0,B|364:218|364:218|348:184,1,68.9999978942872,4|0,1:2|0:0,0:0:0:0:
303,76,38415,5,0,0:0:0:0:
303,76,38565,2,0,L|399:72,1,68.9999978942872,2|0,1:0|1:0,0:0:0:0:
493,146,39015,1,4,3:0:0:0:
493,146,39165,2,0,L|492:225,1,68.9999978942872,0|2,1:0|1:0,0:0:0:0:
464,339,39615,1,0,3:0:0:0:
464,339,39765,6,0,B|384:320|392:375|307:340,1,137.999995788574,6|0,1:0|0:0,0:0:0:0:
205,332,40365,2,0,B|197:308|197:308|217:252,1,68.9999978942872,0|0,1:0|0:0,0:0:0:0:
112,192,40815,1,0,0:0:0:0:
112,192,40965,2,0,P|80:141|136:76,1,137.999995788574,4|0,3:0|0:0,0:0:0:0:
231,31,41565,2,0,L|369:31,1,137.999995788574,4|0,1:2|3:0,0:0:0:0:
492,39,42165,6,0,P|506:106|481:170,1,137.999995788574,2|0,1:1|0:0,0:0:0:0:
425,190,42615,1,0,3:0:0:0:
425,190,42765,2,0,B|345:192,1,68.9999978942872,4|0,1:2|0:0,0:0:0:0:
236,182,43215,1,0,0:0:0:0:
236,182,43365,2,0,P|232:251|233:344,1,137.999995788574,2|2,1:0|0:0,0:0:0:0:
356,315,43965,2,0,L|357:409,2,68.9999978942872,4|0|0,1:2|3:0|3:0,0:0:0:0:
474,96,44865,6,0,L|473:9,1,68.9999978942872,6|0,1:0|0:0,0:0:0:0:
411,24,45165,1,4,1:2:0:0:
178,111,45765,2,0,P|153:141|144:180,2,68.9999978942872,4|0|0,3:0|1:0|0:0,0:0:0:0:
238,94,46215,1,4,3:0:0:0:
291,125,46365,2,0,L|292:275,1,137.999995788574,4|0,1:2|3:0,0:0:0:0:
207,353,46965,6,0,P|191:297|202:219,1,137.999995788574,2|0,1:0|3:0,0:0:0:0:
173,98,47565,2,0,L|173:19,2,68.9999978942872,4|0|2,1:2|0:0|0:0,0:0:0:0:
294,62,48165,1,4,3:0:0:0:
294,62,48315,2,0,L|437:64,1,137.999995788574,0|0,0:0|1:0,0:0:0:0:
478,105,48765,2,0,P|508:148|501:237,1,137.999995788574,0|0,1:0|1:0,0:0:0:0:
448,259,49215,1,0,1:0:0:0:
396,268,49365,6,0,P|408:210|270:204,1,230,4|0,0:0|0:0,0:0:0:0:
232,358,50565,6,0,P|199:352|127:353,1,97.7500018644333,0|0,3:0|3:0,0:0:0:0:
75,286,51165,2,0,P|72:233|55:191,1,97.7500018644333,0|0,3:0|3:0,0:0:0:0:
96,113,51765,1,2,0:0:0:0:
173,72,52065,2,0,L|289:70,1,97.7500018644333,0|0,0:0|1:0,0:0:0:0:
385,99,52665,1,0,3:0:0:0:
385,99,52965,6,0,P|420:72|473:48,2,97.7500018644333,0|0|0,3:0|3:0|1:0,0:0:0:0:
346,179,53865,1,0,0:0:0:0:
346,179,54165,2,0,L|237:177,1,97.7500018644333,0|0,1:0|3:0,0:0:0:0:
188,241,54765,1,0,1:0:0:0:
188,241,55065,1,0,3:0:0:0:
188,241,55365,2,0,P|197:283|184:350,1,97.7500018644333,0|0,3:0|0:0,0:0:0:0:
115,288,55965,2,0,L|12:287,1,97.7500018644333,0|0,3:0|3:0,0:0:0:0:
33,202,56565,5,0,3:0:0:0:
33,202,56865,1,0,0:0:0:0:
33,202,57165,2,0,L|30:98,1,97.7500018644333,0|0,1:0|3:0,0:0:0:0:
107,61,57765,2,0,P|157:45|202:49,1,97.7500018644333,0|2,0:0|0:0,0:0:0:0:
288,61,58365,2,0,L|288:1,2,48.8750009322167,2|2|0,3:2|3:2|3:0,0:0:0:0:
240,135,58965,6,0,P|286:148|351:131,1,97.7500018644333,4|0,0:0|0:0,0:0:0:0:
422,138,59565,1,0,1:0:0:0:
458,224,59865,1,0,0:0:0:0:
458,224,60165,6,0,P|472:264|472:296,2,73.312501398325,4|4|4,3:0|3:0|3:0,0:0:0:0:
415,237,60765,2,0,L|314:238,1,97.7500018644333,0|0,1:0|0:0,0:0:0:0:
229,249,61365,1,4,3:0:0:0:
229,249,61665,1,2,0:0:0:0:
229,249,61965,2,0,L|228:353,1,97.7500018644333,0|2,1:0|0:0,0:0:0:0:
139,343,62565,2,0,P|103:348|67:342,2,73.312501398325,4|4|4,3:0|3:0|3:0,0:0:0:0:
135,299,63165,2,0,L|133:200,1,97.7500018644333,4|0,3:0|0:0,0:0:0:0:
84,127,63765,6,0,P|133:116|192:129,1,97.7500018644333,4|0,3:0|0:0,0:0:0:0:
260,156,64365,1,0,1:0:0:0:
260,156,64665,1,2,0:0:0:0:
316,88,64965,2,0,L|314:14,2,73.312501398325,4|4|4,3:0|3:0|3:0,0:0:0:0:
346,104,65565,2,0,P|395:102|459:103,1,97.7500018644333,0|2,1:0|0:0,0:0:0:0:
472,185,66165,1,4,3:0:0:0:
392,291,66615,1,4,3:0:0:0:
392,291,66765,2,0,L|391:350,2,48.8750009322167,0|2|2,1:0|0:0|0:0,0:0:0:0:
311,301,67365,5,4,3:0:0:0:
311,301,67665,1,4,3:0:0:0:
311,301,67965,1,4,1:2:0:0:
223,312,68265,6,0,L|161:312,1,48.8750009322167,4|4,3:0|3:0,0:0:0:0:
155,263,68565,6,0,P|144:228|181:145,1,115,4|0,0:0|1:0,0:0:0:0:
201,116,69015,1,0,1:2:0:0:
351,76,69465,2,0,L|420:74,1,57.5,0|0,3:0|3:0,0:0:0:0:
459,83,69765,6,0,L|458:215,1,115,2|0,1:0|0:0,0:0:0:0:
436,299,70365,2,0,B|382:283|382:283|319:305,1,115,0|0,0:0|0:0,0:0:0:0:
226,331,70965,6,0,P|235:284|218:215,1,115,4|0,1:0|1:0,0:0:0:0:
169,208,71415,1,0,1:0:0:0:
112,121,71715,2,0,L|110:53,2,57.5,0|0|0,3:0|3:0|3:0,0:0:0:0:
162,108,72165,6,0,L|286:107,1,115,2|0,1:0|1:0,0:0:0:0:
365,52,72765,2,0,P|420:66|483:45,1,115,0|0,3:0|0:0,0:0:0:0:
482,153,73365,6,0,L|482:276,1,115,4|0,0:0|1:0,0:0:0:0:
458,314,73815,1,0,1:0:0:0:
358,343,74115,2,0,P|330:309|245:286,1,115,0|0,3:0|1:0,0:0:0:0:
226,319,74565,6,0,P|159:333|109:302,1,115,0|0,0:0|0:0,0:0:0:0:
71,294,75015,1,2,0:0:0:0:
94,193,75315,1,0,3:0:0:0:
90,35,75765,6,0,P|147:46|223:29,1,115,4|0,0:0|0:0,0:0:0:0:
209,88,76215,1,0,1:0:0:0:
312,91,76515,2,0,L|314:21,2,57.5,0|4|0,3:0|3:0|3:0,0:0:0:0:
330,139,76965,5,4,0:0:0:0:
121,292,77715,2,0,L|52:290,2,57.5,0|0|2,3:0|3:0|0:0,0:0:0:0:
153,348,78165,6,0,P|206:360|275:316,1,137.999995788574,6|0,1:0|1:0,0:0:0:0:
278,255,78615,1,2,0:1:0:0:
397,221,78915,2,0,L|397:295,2,68.9999978942872,2|0|2,0:1|1:0|0:1,0:0:0:0:
440,104,79515,2,0,L|441:31,2,68.9999978942872,2|0|2,0:1|1:0|0:1,0:0:0:0:
381,81,79965,1,4,0:3:0:0:
263,40,80265,2,0,L|177:41,1,68.9999978942872,0|2,1:0|0:0,0:0:0:0:
132,49,80565,6,0,P|112:131|129:202,1,137.999995788574,2|0,0:1|1:0,0:0:0:0:
205,273,81165,2,0,B|272:258|272:258|345:276,1,137.999995788574,4|0,0:3|1:0,0:0:0:0:
397,297,81615,1,2,0:1:0:0:
474,200,81915,2,0,P|474:132|468:108,1,68.9999978942872,2|0,0:1|1:0,0:0:0:0:
359,82,82365,2,0,L|359:161,2,68.9999978942872,2|2|0,0:1|0:0|1:0,0:0:0:0:
253,16,82965,6,0,P|219:63|135:88,1,137.999995788574,6|0,1:0|1:0,0:0:0:0:
89,60,83415,1,2,0:1:0:0:
44,176,83715,2,0,B|30:208|30:208|37:258,2,68.9999978942872,2|0|2,0:1|1:0|0:1,0:0:0:0:
164,146,84315,2,0,B|174:116|174:116|166:61,2,68.9999978942872,2|0|2,0:1|1:0|0:1,0:0:0:0:
226,160,84765,2,0,P|282:158|379:158,1,137.999995788574,4|0,0:3|1:0,0:0:0:0:
471,94,85365,6,0,L|470:23,1,68.9999978942872,2|0,0:1|1:0,0:0:0:0:
351,49,85815,1,2,0:1:0:0:
351,49,85965,2,0,L|199:51,1,137.999995788574,0|4,1:0|3:0,0:0:0:0:
119,132,86565,5,4,3:0:0:0:
98,254,86865,1,4,3:0:0:0:
211,305,87165,2,0,P|224:273|227:239,2,68.9999978942872,4|0|0,1:2|3:0|3:0,0:0:0:0:
174,354,87615,1,0,3:0:0:0:
360,353,88065,6,0,L|455:355,1,68.9999978942872,0|2,1:0|0:1,0:0:0:0:
443,231,88515,2,0,L|520:230,2,68.9999978942872,2|0|2,0:1|1:0|0:1,0:0:0:0:
377,131,89115,1,2,0:1:0:0:
377,131,89265,2,0,P|371:80|280:27,1,137.999995788574,0|4,1:0|0:3,0:0:0:0:
225,122,89865,2,0,P|202:119|171:81,1,68.9999978942872,2|2,1:0|0:0,0:0:0:0:
138,33,90165,6,0,L|-33:35,1,137.999995788574,2|0,0:1|1:0,0:0:0:0:
23,161,90765,1,4,0:3:0:0:
23,161,90915,2,0,P|18:198|25:240,2,68.9999978942872,0|0|2,0:0|1:0|0:1,0:0:0:0:
149,190,91515,1,2,0:1:0:0:
149,190,91665,2,0,L|298:189,1,137.999995788574,0|2,1:0|0:1,0:0:0:0:
382,110,92265,2,0,L|384:194,1,68.9999978942872,0|2,1:0|0:0,0:0:0:0:
431,218,92565,6,0,P|440:291|394:348,1,137.999995788574,6|0,1:0|1:0,0:0:0:0:
343,330,93015,1,2,0:1:0:0:
222,311,93315,2,0,L|222:388,2,68.9999978942872,2|0|2,0:1|1:0|0:1,0:0:0:0:
104,269,93915,2,0,L|104:118,1,137.999995788574,2|2,0:1|0:1,0:0:0:0:
148,83,94365,2,0,L|145:10,2,68.9999978942872,4|2|2,0:3|0:1|1:0,0:0:0:0:
207,99,94815,1,2,0:0:0:0:
207,99,94965,6,0,P|251:140|325:131,1,137.999995788574,6|0,1:0|3:0,0:0:0:0:
435,76,95565,1,2,1:0:0:0:
435,76,95715,2,0,P|442:200|446:232,1,137.999995788574,0|2,3:0|1:0,0:0:0:0:
464,272,96165,6,0,L|467:353,1,68.9999978942872,6|2,1:0|1:1,0:0:0:0:
351,310,96615,1,2,1:0:0:0:
351,310,96765,2,0,L|350:390,2,68.9999978942872,0|2|2,1:0|0:0|1:1,0:0:0:0:
295,281,97215,1,2,0:1:0:0:
252,235,97365,6,0,P|268:170|248:104,1,137.999995788574,6|0,1:0|0:0,0:0:0:0:
363,57,97965,2,0,B|401:66|401:66|450:53,1,68.9999978942872,0|0,1:0|0:0,0:0:0:0:
493,171,98415,1,0,0:0:0:0:
493,171,98565,2,0,P|509:239|476:308,1,137.999995788574,4|2,3:0|0:0,0:0:0:0:
375,360,99165,2,0,L|376:203,1,137.999995788574,4|0,1:2|3:0,0:0:0:0:
296,125,99765,6,0,P|228:127|135:120,1,137.999995788574,2|0,1:1|0:0,0:0:0:0:
36,97,100365,2,0,B|24:131|24:131|43:179,1,68.9999978942872,4|0,1:2|0:0,0:0:0:0:
112,266,100815,1,0,3:0:0:0:
112,266,100965,2,0,P|172:267|260:268,1,137.999995788574,4|2,3:0|0:0,0:0:0:0:
373,287,101565,2,0,L|369:379,2,68.9999978942872,4|0|2,1:2|0:0|0:0,0:0:0:0:
475,217,102165,6,0,B|485:160|485:160|445:77,1,137.999995788574,2|0,1:0|3:0,0:0:0:0:
332,48,102765,2,0,L|243:50,1,68.9999978942872,0|0,1:0|0:0,0:0:0:0:
142,52,103215,1,0,0:0:0:0:
142,52,103365,2,0,P|132:76|155:207,1,137.999995788574,0|0,3:0|3:0,0:0:0:0:
155,287,103965,2,0,L|156:361,2,68.9999978942872,4|2|2,1:2|0:0|0:0,0:0:0:0:
217,288,104415,1,2,0:0:0:0:
273,313,104565,6,0,P|276:236|341:202,1,137.999995788574,2|0,1:0|3:0,0:0:0:0:
414,121,105165,2,0,B|377:114|377:114|349:87,1,68.9999978942872,4|0,1:2|0:0,0:0:0:0:
241,72,105615,5,0,0:0:0:0:
241,72,105765,2,0,L|87:72,1,137.999995788574,4|0,3:0|1:0,0:0:0:0:
0,68,106365,2,0,L|1:-3,2,68.9999978942872,0|2|4,1:0|3:2|3:3,0:0:0:0:
17,127,106815,1,4,3:3:0:0:
18,179,106965,6,0,P|65:196|135:161,1,115,4|0,0:0|1:0,0:0:0:0:
168,199,107415,1,0,1:2:0:0:
281,92,107865,2,0,L|280:29,1,57.5,0|0,3:0|3:0,0:0:0:0:
332,18,108165,6,0,P|388:23|462:12,1,115,2|0,1:0|0:0,0:0:0:0:
479,114,108765,2,0,B|480:255,1,115,0|0,0:0|0:0,0:0:0:0:
413,308,109365,6,0,P|362:308|295:345,1,115,4|0,1:0|1:0,0:0:0:0:
255,347,109815,1,0,1:0:0:0:
164,297,110115,2,0,L|165:369,2,57.5,0|0|0,3:0|3:0|3:0,0:0:0:0:
118,270,110565,6,0,P|97:220|117:144,1,115,2|0,1:0|0:0,0:0:0:0:
175,84,111165,2,0,P|230:84|301:84,1,115,0|0,3:0|0:0,0:0:0:0:
389,112,111765,6,0,L|389:235,1,115,4|0,0:0|1:0,0:0:0:0:
428,259,112215,1,0,1:0:0:0:
366,342,112515,2,0,P|317:321|234:317,1,115,0|0,3:0|1:0,0:0:0:0:
204,322,112965,1,0,0:0:0:0:
59,264,113415,1,2,0:0:0:0:
49,160,113715,1,0,3:0:0:0:
142,36,114165,6,0,B|279:36,1,115,4|0,0:0|0:0,0:0:0:0:
305,53,114615,1,0,1:0:0:0:
403,85,114915,2,0,L|430:18,2,57.5,0|4|0,3:0|3:0|3:0,0:0:0:0:
432,128,115365,6,0,P|426:199|434:255,2,115,4|0|0,3:0|3:0|3:0,0:0:0:0:
333,160,116265,1,4,3:0:0:0:
235,194,116565,5,4,1:0:0:0:
256,192,116640,12,0,118815,0:0:0:0:
