osu file format v14

[General]
AudioFilename: audio.mp3
AudioLeadIn: 0
PreviewTime: 77677
Countdown: 0
SampleSet: Soft
StackLeniency: 0.2
Mode: 0
LetterboxInBreaks: 0
WidescreenStoryboard: 1

[Editor]
Bookmarks: 37252
DistanceSpacing: 0.8
BeatDivisor: 4
GridSize: 16
TimelineZoom: 2.899999

[Metadata]
Title:Ashes
TitleUnicode:Ashes
Artist:Zekk
ArtistUnicode:Zekk
Creator:Cheri
Version:Insane
Source:osu!
Tags: Hailie DJ Lucky FA Featured Artist Mappers' Guild MG Instrumental Electronic dj_lucky Dynamix
BeatmapID:2459722
BeatmapSetID:1177475

[Difficulty]
HPDrainRate:5
CircleSize:3.5
OverallDifficulty:8
ApproachRate:9
SliderMultiplier:1.5
SliderTickRate:1

[Events]
//Background and Video events
0,0,"background.png",0,0
//Break Periods
//Storyboard Layer 0 (Background)
//Storyboard Layer 1 (Fail)
//Storyboard Layer 2 (Pass)
//Storyboard Layer 3 (Foreground)
//Storyboard Layer 4 (Overlay)
//Storyboard Sound Samples

[TimingPoints]
1365,300,4,2,0,100,1,0
1365,-200,4,2,0,100,0,0
10965,-100,4,2,0,70,0,0
20565,-100,4,2,0,50,0,0
30165,-66.6666666666667,4,2,0,70,0,0
38565,-50,4,2,0,90,0,0
39765,-50,4,2,0,70,0,0
40365,-66.6666666666667,4,2,0,70,0,0
49440,-66.6666666666667,4,2,0,5,0,0
50490,-66.6666666666667,4,2,0,5,0,0
50565,-66.6666666666667,4,2,0,40,0,0
51765,-200,4,2,0,40,0,0
58965,-133.333333333333,4,2,0,50,0,0
68565,-100,4,2,0,70,0,0
78165,-66.6666666666667,4,2,0,90,0,1
97365,-66.6666666666667,4,2,0,80,0,0
106965,-100,4,2,0,80,0,0
116640,-100,4,2,0,10,0,0

[Colours]
Combo1 : 131,128,86
Combo2 : 128,128,0
SliderTrackOverride : 150,150,150

[HitObjects]
483,353,1365,6,0,P|485:312|491:279,2,75,4|0|0,0:0|0:0|0:0,0:0:0:0:
396,214,2265,1,2,0:0:0:0:
396,214,2415,2,0,L|394:252,2,37.5,0|2|0,0:0|0:0|0:0,0:0:0:0:
329,142,2865,6,0,L|306:141,4,18.75,2|0|2|0|2,0:0|0:0|0:0|0:0|0:0,0:0:0:0:
230,161,3315,2,0,L|230:120,1,37.5,0|2,0:0|0:0,0:0:0:0:
150,56,3765,6,0,L|69:46,1,75,2|0,0:0|0:0,0:0:0:0:
22,142,4365,2,0,L|17:186,1,37.5,2|0,0:0|0:0,0:0:0:0:
99,215,4665,6,0,L|96:232,7,9.375,0|0|0|0|0|0|0|0,3:0|3:0|3:0|3:0|3:0|3:0|3:0|3:0,0:0:0:0:
100,260,4965,6,0,P|135:263|173:279,1,75,2|0,0:0|0:0,0:0:0:0:
256,229,5415,1,0,3:0:0:0:
256,229,5565,1,0,3:0:0:0:
256,229,5715,2,0,L|252:187,1,37.5,2|0,0:0|3:0,0:0:0:0:
366,159,6015,1,0,3:0:0:0:
366,159,6165,6,0,L|442:160,1,75,2|0,0:0|0:0,0:0:0:0:
435,54,6615,1,0,0:0:0:0:
435,54,6765,2,0,P|436:40|435:31,3,18.75,0|0|0|0,3:0|3:0|3:0|3:0,0:0:0:0:
388,34,7065,2,0,L|343:32,2,37.5,2|0|0,0:0|0:0|0:0,0:0:0:0:
252,84,7965,6,0,L|251:126,2,37.5,2|0|0,0:0|0:0|0:0,0:0:0:0:
173,147,8565,1,2,0:0:0:0:
163,247,9165,6,0,L|166:288,2,37.5,2|0|0,0:0|0:0|0:0,0:0:0:0:
80,292,9765,1,2,0:0:0:0:
266,213,10365,5,2,0:0:0:0:
343,101,10515,2,0,L|352:84,2,18.75,0|0|0,3:0|3:0|3:0,0:0:0:0:
409,185,10815,1,0,0:0:0:0:
409,185,10965,6,0,P|411:226|395:268,1,75,4|0,0:0|0:0,0:0:0:0:
270,110,11265,1,0,1:0:0:0:
270,110,11415,2,0,P|301:101|350:103,1,75,0|0,1:2|0:0,0:0:0:0:
177,88,11715,2,0,L|161:36,4,37.5,0|0|0|0|0,3:0|3:0|3:0|3:0|3:0,0:0:0:0:
53,133,12165,6,0,P|19:178|46:263,1,150,2|0,1:0|0:0,0:0:0:0:
63,269,12765,2,0,B|118:260|118:260|212:304,1,150,0|0,0:0|0:0,0:0:0:0:
467,307,13365,6,0,P|471:266|464:224,1,75,4|0,1:0|0:0,0:0:0:0:
344,108,13665,1,0,1:0:0:0:
344,108,13815,2,0,P|382:105|421:127,1,75,0|0,1:0|0:0,0:0:0:0:
283,170,14115,2,0,L|283:210,4,37.5,0|0|0|0|0,3:0|3:0|3:0|3:0|3:0,0:0:0:0:
190,99,14565,6,0,L|192:13,1,75,2|0,1:0|0:0,0:0:0:0:
101,116,14865,2,0,L|100:207,1,75,0|0,0:0|0:0,0:0:0:0:
100,190,15165,1,0,3:0:0:0:
85,335,15315,2,0,P|116:325|164:323,1,75,0|0,3:0|0:0,0:0:0:0:
331,238,15615,1,0,0:0:0:0:
331,238,15765,6,0,L|414:236,1,75,4|0,0:0|0:0,0:0:0:0:
328,87,16065,1,0,1:0:0:0:
328,87,16215,2,0,L|254:91,1,75,0|0,1:0|0:0,0:0:0:0:
89,138,16515,2,0,L|91:100,3,37.5,0|0|0|0,3:0|3:0|3:0|3:0,0:0:0:0:
70,150,16815,2,0,L|69:197,1,37.5,0|0,1:0|0:0,0:0:0:0:
142,284,17040,6,0,L|227:285,1,75,2|0,0:0|0:0,0:0:0:0:
145,296,17415,2,0,L|223:299,1,75,2|0,0:0|0:0,0:0:0:0:
383,298,17715,2,0,L|387:351,2,37.5,0|0|0,3:0|3:0|3:0,0:0:0:0:
424,141,18015,2,0,L|443:134,3,18.75,2|2|2|2,3:0|3:0|3:0|3:0,0:0:0:0:
390,136,18165,6,0,P|345:161|289:91,1,150,4|0,0:0|0:0,0:0:0:0:
180,32,18615,2,0,P|168:64|133:96,1,75,0|0,1:0|0:0,0:0:0:0:
30,209,18915,6,0,L|25:159,4,37.5,0|0|4|0|0,3:0|3:0|3:0|3:0|3:0,0:0:0:0:
128,316,19365,6,0,L|212:316,1,75,4|0,0:0|0:0,0:0:0:0:
193,278,19590,2,0,L|279:278,1,75,4|0,0:0|0:0,0:0:0:0:
266,251,19815,2,0,L|345:249,1,75,4|0,0:0|0:0,0:0:0:0:
388,247,20040,6,0,P|408:206|383:148,1,112.5,4|4,0:0|3:0,0:0:0:0:
308,55,20415,1,4,3:0:0:0:
308,55,20490,1,4,3:0:0:0:
308,55,20565,5,4,0:0:0:0:
184,76,20715,1,0,0:0:0:0:
184,76,21015,1,0,0:0:0:0:
184,76,21315,1,0,0:0:0:0:
184,76,21615,1,0,0:0:0:0:
184,76,21765,6,0,L|259:62,1,75,2|0,0:0|0:0,0:0:0:0:
178,100,22065,2,0,L|89:116,1,75,0|0,0:0|0:0,0:0:0:0:
242,149,22365,2,0,L|259:229,1,75,2|0,0:0|0:0,0:0:0:0:
149,144,22665,2,0,L|136:66,1,75,0|0,0:0|0:0,0:0:0:0:
282,139,22965,2,0,L|365:124,1,75,2|0,0:0|0:0,0:0:0:0:
220,249,23265,2,0,L|139:263,1,75,0|0,0:0|0:0,0:0:0:0:
43,339,23565,2,0,L|42:294,3,37.5,0|0|0|0,3:0|3:0|3:0|3:0,0:0:0:0:
10,278,23865,6,0,L|9:200,1,75,0|0,3:0|0:0,0:0:0:0:
138,134,24165,1,0,3:0:0:0:
138,134,24315,2,0,L|138:176,2,37.5,0|0|0,3:0|3:0|3:0,0:0:0:0:
256,64,24615,2,0,L|257:14,2,37.5,0|0|0,3:0|3:0|3:0,0:0:0:0:
329,179,24915,1,0,3:0:0:0:
329,179,25065,2,0,L|404:180,1,75,0|0,3:0|0:0,0:0:0:0:
506,106,25365,5,4,0:0:0:0:
506,106,25515,2,0,P|503:80|499:55,2,37.5,0|0|0,3:0|3:0|3:0,0:0:0:0:
403,179,25815,1,0,0:0:0:0:
447,274,25965,2,0,P|443:294|443:322,4,37.5,0|0|0|0|0,3:0|3:0|3:0|3:0|0:0,0:0:0:0:
403,179,26415,1,0,3:0:0:0:
403,179,26490,1,0,3:0:0:0:
403,179,26565,1,4,3:2:0:0:
306,108,26715,2,0,L|255:110,2,37.5,0|0|0,3:0|3:0|3:0,0:0:0:0:
169,180,27015,2,0,L|166:260,1,75,0|0,0:0|0:0,0:0:0:0:
258,323,27315,2,0,L|253:378,2,37.5,0|0|0,3:0|3:0|3:0,0:0:0:0:
362,261,27615,1,0,3:0:0:0:
362,261,27765,6,0,L|448:263,1,75,4|0,0:0|0:0,0:0:0:0:
436,262,27990,1,0,3:0:0:0:
436,262,28065,1,0,3:0:0:0:
495,159,28215,1,0,3:0:0:0:
495,159,28365,2,0,P|497:121|483:78,1,75,0|0,3:0|3:0,0:0:0:0:
466,67,28590,1,0,3:0:0:0:
362,132,28815,1,0,3:0:0:0:
362,132,28965,5,4,3:0:0:0:
47,40,30165,6,0,P|38:113|152:100,1,225.000008583069,6|0,1:0|0:0,0:0:0:0:
194,66,30540,2,0,L|138:61,2,56.2500021457673,0|0|0,3:0|3:0|3:0,0:0:0:0:
245,71,30765,2,0,P|265:102|266:180,1,112.500004291535,0|0,1:0|0:0,0:0:0:0:
239,190,31215,1,0,0:0:0:0:
72,332,31365,6,0,B|61:263|61:263|91:209,1,112.500004291535,4|0,3:0|0:0,0:0:0:0:
239,190,31665,2,0,P|253:172|253:128,3,56.2500021457673,0|2|2|2,0:0|0:0|0:0|0:0,0:0:0:0:
249,111,31965,6,0,L|137:110,1,112.500004291535,4|0,1:2|0:0,0:0:0:0:
95,0,32265,1,0,3:0:0:0:
2,137,32415,1,0,3:0:0:0:
2,137,32490,1,0,3:0:0:0:
2,137,32565,6,0,L|0:260,1,112.500004291535,2|0,1:1|0:0,0:0:0:0:
180,313,32940,5,0,3:0:0:0:
180,313,33015,1,0,3:0:0:0:
180,313,33090,1,0,3:0:0:0:
180,313,33165,6,0,P|226:264|352:332,1,225.000008583069,4|0,1:2|0:0,0:0:0:0:
486,262,33615,1,0,3:0:0:0:
486,262,33765,6,0,P|494:222|513:150,1,112.500004291535,4|0,3:0|0:0,0:0:0:0:
462,31,34065,1,2,0:0:0:0:
325,11,34215,1,2,0:0:0:0:
325,11,34290,1,2,0:0:0:0:
325,11,34365,6,0,P|307:53|304:240,1,225.000008583069,4|2,1:2|0:0,0:0:0:0:
145,213,34815,1,2,0:0:0:0:
262,333,34965,2,0,B|181:327|181:327|132:363|132:363|33:367,1,225.000008583069,2|0,1:0|3:0,0:0:0:0:
6,316,35340,2,0,L|-2:380,2,56.2500021457673,0|0|0,3:0|3:0|3:0,0:0:0:0:
22,277,35565,6,0,P|10:242|32:160,1,112.500004291535,0|0,1:0|0:0,0:0:0:0:
52,58,35865,1,0,0:0:0:0:
52,58,36015,1,0,0:0:0:0:
52,58,36165,5,4,3:0:0:0:
52,58,36315,2,0,L|136:64,5,56.2500021457673,0|0|0|0|0|0,3:0|3:0|3:0|3:0|0:0|0:0,0:0:0:0:
130,34,36765,1,4,1:2:0:0:
236,152,36915,1,2,0:0:0:0:
398,136,37065,1,2,0:0:0:0:
398,136,37215,1,2,0:0:0:0:
398,136,37365,6,0,P|402:199|405:253,1,112.500004291535,2|0,1:0|0:0,0:0:0:0:
291,315,37665,2,0,L|288:251,3,56.2500021457673,0|0|0|0,3:0|3:0|3:0|3:0,0:0:0:0:
264,357,37965,6,0,P|156:343|23:368,1,225.000008583069,4|0,1:2|3:0,0:0:0:0:
38,188,38565,1,2,1:0:0:0:
38,188,38715,2,0,B|72:201|72:201|118:182,1,75,0|0,1:0|0:0,0:0:0:0:
264,142,39015,1,4,3:0:0:0:
394,241,39165,1,0,1:0:0:0:
394,241,39240,1,0,0:0:0:0:
394,241,39315,2,0,L|394:79,1,150,2|0,1:0|0:0,0:0:0:0:
198,37,39615,1,0,3:0:0:0:
198,37,39690,1,0,3:0:0:0:
198,37,39765,6,0,P|258:34|192:162,1,300,6|0,1:0|0:0,0:0:0:0:
154,168,40140,2,0,L|144:80,2,75,0|0|0,3:0|3:0|3:0,0:0:0:0:
140,198,40365,6,0,P|86:209|26:191,1,112.500004291535,0|0,1:0|0:0,0:0:0:0:
31,156,40815,1,0,0:0:0:0:
133,328,40965,2,0,B|177:329|177:329|211:306|211:306|254:306,1,112.500004291535,4|0,3:0|0:0,0:0:0:0:
430,274,41265,2,0,L|430:217,3,56.2500021457673,0|2|2|2,0:0|0:0|0:0|0:0,0:0:0:0:
427,198,41565,6,0,P|402:185|387:104,1,112.500004291535,4|0,1:2|0:0,0:0:0:0:
220,141,41865,2,0,P|201:162|196:189,3,56.2500021457673,0|0|0|0,3:0|3:0|3:0|3:0,0:0:0:0:
185,214,42165,6,0,L|59:213,1,112.500004291535,2|0,1:1|0:0,0:0:0:0:
0,69,42465,1,0,0:0:0:0:
142,20,42615,1,0,3:0:0:0:
142,20,42690,1,0,3:0:0:0:
142,20,42765,2,0,B|215:19|215:19|239:66|239:66|365:69,1,225.000008583069,4|0,1:2|0:0,0:0:0:0:
474,246,43365,6,0,P|455:243|497:116,1,225.000008583069,2|2,1:0|0:0,0:0:0:0:
455,76,43740,2,0,L|483:28,2,56.2500021457673,2|2|2,0:0|0:0|0:0,0:0:0:0:
427,39,43965,1,4,1:2:0:0:
283,139,44115,2,0,L|278:205,2,56.2500021457673,0|0|0,3:0|3:0|3:0,0:0:0:0:
65,133,44565,5,2,0:0:0:0:
65,133,44715,1,2,0:0:0:0:
65,133,44865,2,0,P|18:185|90:241,1,168.750006437302,6|0,1:0|0:0,0:0:0:0:
112,254,45165,2,0,B|176:254|176:254|200:332|200:332|289:335,1,225.000008583069,4|0,1:2|0:0,0:0:0:0:
366,187,45615,1,2,0:0:0:0:
366,187,45765,5,4,3:0:0:0:
203,66,45915,2,0,P|168:126|175:167,1,112.500004291535,0|0,1:0|0:0,0:0:0:0:
174,165,46140,1,0,0:0:0:0:
174,165,46215,1,4,3:0:0:0:
335,301,46365,2,0,L|85:299,1,225.000008583069,4|0,1:2|3:0,0:0:0:0:
7,178,46815,1,0,3:0:0:0:
7,178,46890,1,0,3:0:0:0:
7,178,46965,6,0,P|-17:99|96:34,1,225.000008583069,2|0,1:0|3:0,0:0:0:0:
237,136,47415,1,0,3:0:0:0:
237,136,47490,1,0,3:0:0:0:
237,136,47565,2,0,L|236:276,1,112.500004291535,4|0,1:2|0:0,0:0:0:0:
321,64,47865,2,0,L|319:191,1,112.500004291535,2|0,0:0|0:0,0:0:0:0:
274,332,48165,6,0,P|325:339|424:315,1,112.500004291535,4|0,3:0|0:0,0:0:0:0:
444,180,48465,1,2,0:0:0:0:
444,180,48615,1,0,1:0:0:0:
280,211,48765,2,0,L|214:213,3,56.2500021457673,0|4|4|4,1:0|3:0|3:0|3:0,0:0:0:0:
204,182,49065,1,0,1:0:0:0:
323,77,49215,1,0,1:0:0:0:
444,180,49365,5,4,0:0:0:0:
256,192,49440,12,0,50490,0:0:0:0:
255,184,50565,5,0,3:0:0:0:
255,184,50865,1,0,3:0:0:0:
255,184,51165,1,0,3:0:0:0:
255,184,51465,1,0,3:0:0:0:
255,184,51765,6,0,L|255:105,1,75,2|0,0:0|0:0,0:0:0:0:
328,71,52365,5,0,1:0:0:0:
328,71,52665,2,0,L|349:71,3,18.75,0|0|0|0,3:0|3:0|3:0|3:0,0:0:0:0:
371,57,52965,5,0,3:0:0:0:
502,105,53265,2,0,L|502:125,3,18.75,0|0|0|0,3:0|3:0|3:0|3:0,0:0:0:0:
489,162,53565,6,0,P|487:204|491:236,1,75,0|0,1:0|0:0,0:0:0:0:
363,319,54165,2,0,L|289:319,1,75,0|0,1:0|3:0,0:0:0:0:
183,235,54765,1,0,1:0:0:0:
183,235,54915,1,0,0:0:0:0:
183,235,55065,2,0,L|182:196,1,37.5,0|0,3:0|0:0,0:0:0:0:
87,185,55365,6,0,L|86:110,1,75,0|0,3:0|0:0,0:0:0:0:
188,89,55965,2,0,L|186:2,1,75,0|0,3:0|3:0,0:0:0:0:
291,34,56565,6,0,L|373:34,1,75,0|0,3:0|0:0,0:0:0:0:
362,121,57165,2,0,L|363:160,1,37.5,0|0,1:0|3:0,0:0:0:0:
465,148,57465,6,0,L|479:147,6,9.375,0|0|0|0|0|0|0,3:0|3:0|3:0|3:0|3:0|3:0|3:0,0:0:0:0:
469,195,57765,6,0,L|471:276,1,75,0|2,0:0|0:0,0:0:0:0:
364,340,58365,6,0,L|345:340,4,18.75,2|2|2|0|0,3:2|3:2|3:2|3:0|3:0,0:0:0:0:
230,341,58815,1,2,0:0:0:0:
230,341,58965,6,0,L|229:227,1,112.500004291535,4|0,0:0|0:0,0:0:0:0:
157,123,59415,1,4,3:0:0:0:
157,123,59565,2,0,L|276:123,1,112.500004291535,0|0,1:0|0:0,0:0:0:0:
444,123,60165,2,0,P|448:88|499:59,1,84.3750032186509,4|4,3:0|3:0,0:0:0:0:
467,216,60615,1,4,3:0:0:0:
467,216,60765,2,0,L|355:216,1,112.500004291535,0|0,1:0|0:0,0:0:0:0:
213,217,61215,5,0,3:0:0:0:
213,217,61365,2,0,P|211:267|164:312,1,112.500004291535,4|2,3:0|0:0,0:0:0:0:
74,275,61815,1,0,1:0:0:0:
74,275,61965,2,0,L|72:335,2,56.2500021457673,0|0|2,1:0|0:0|0:0,0:0:0:0:
31,162,62565,2,0,P|72:171|113:162,1,84.3750032186509,4|4,3:0|3:0,0:0:0:0:
205,71,63015,2,0,L|167:71,2,28.1250010728836,4|4|4,3:0|3:0|3:0,0:0:0:0:
302,99,63315,6,0,L|303:157,2,56.2500021457673,2|0|0,0:0|0:0|0:0,0:0:0:0:
409,192,63765,6,0,L|409:249,2,56.2500021457673,4|0|0,3:0|0:0|0:0,0:0:0:0:
295,231,64215,1,4,3:0:0:0:
295,231,64365,2,0,L|236:230,1,56.2500021457673,0|0,1:0|0:0,0:0:0:0:
139,135,64665,2,0,L|141:77,1,56.2500021457673,2|0,0:0|3:0,0:0:0:0:
256,58,64965,6,0,L|256:151,2,84.3750032186509,4|4|4,3:0|3:0|3:0,0:0:0:0:
362,179,65565,2,0,L|362:115,2,56.2500021457673,0|2|2,1:0|0:0|0:0,0:0:0:0:
318,246,66015,1,2,0:0:0:0:
318,246,66165,5,4,3:0:0:0:
181,325,66615,1,4,3:0:0:0:
181,325,66765,2,0,L|124:323,1,56.2500021457673,0|2,1:0|0:0,0:0:0:0:
86,188,67065,1,2,0:0:0:0:
86,188,67215,1,2,0:0:0:0:
86,188,67365,2,0,P|136:192|191:147,1,112.500004291535,4|4,3:0|3:0,0:0:0:0:
340,80,67965,2,0,L|340:46,3,28.1250010728836,4|2|2|2,1:2|0:0|0:0|0:0,0:0:0:0:
311,29,68265,5,4,3:0:0:0:
469,97,68415,1,4,3:0:0:0:
469,97,68490,1,4,3:0:0:0:
469,97,68565,6,0,P|471:138|458:186,1,75,4|0,0:0|0:0,0:0:0:0:
333,234,68865,1,0,1:0:0:0:
333,234,69015,2,0,P|293:231|251:233,1,75,0|0,1:2|0:0,0:0:0:0:
140,100,69315,2,0,L|138:45,4,37.5,0|0|0|0|0,3:0|3:0|3:0|3:0|3:0,0:0:0:0:
41,151,69765,6,0,P|44:238|93:306,1,150,2|0,1:0|0:0,0:0:0:0:
303,304,70365,2,0,B|323:296|383:311|360:361|429:367|446:350,1,150,0|0,0:0|0:0,0:0:0:0:
464,323,70965,6,0,L|461:240,1,75,4|0,1:0|0:0,0:0:0:0:
484,77,71265,1,0,1:0:0:0:
484,77,71415,2,0,P|446:74|400:87,1,75,0|0,1:0|0:0,0:0:0:0:
268,180,71715,2,0,L|268:220,4,37.5,0|0|0|0|0,3:0|3:0|3:0|3:0|3:0,0:0:0:0:
243,150,72165,6,0,L|245:64,1,75,2|0,1:0|0:0,0:0:0:0:
106,57,72465,6,0,L|20:57,1,75,0|0,1:0|0:0,0:0:0:0:
32,58,72765,1,0,3:0:0:0:
20,233,72915,2,0,L|108:233,1,75,0|0,1:0|0:0,0:0:0:0:
294,243,73215,1,0,1:0:0:0:
294,243,73365,6,0,L|294:166,1,75,4|0,0:0|0:0,0:0:0:0:
187,46,73665,1,0,1:0:0:0:
187,46,73815,2,0,L|111:44,1,75,0|0,1:0|0:0,0:0:0:0:
22,164,74115,2,0,L|22:124,3,37.5,0|0|0|0,3:0|3:0|3:0|3:0,0:0:0:0:
40,185,74415,1,0,1:0:0:0:
142,284,74640,6,0,L|141:203,1,75,2|0,0:0|0:0,0:0:0:0:
149,287,75015,2,0,L|151:210,1,75,2|0,0:0|0:0,0:0:0:0:
281,230,75315,2,0,L|282:282,2,37.5,0|0|0,3:0|3:0|3:0,0:0:0:0:
350,103,75615,2,0,L|350:77,3,18.75,2|2|2|2,3:0|3:0|3:0|3:0,0:0:0:0:
389,88,75765,6,0,P|425:147|491:125,1,150,4|0,0:0|0:0,0:0:0:0:
505,320,76215,2,0,P|493:352|458:384,1,75,0|0,1:0|0:0,0:0:0:0:
401,223,76515,6,0,L|352:221,4,37.5,0|0|4|0|0,3:0|3:0|3:0|3:0|3:0,0:0:0:0:
483,162,76965,1,4,0:0:0:0:
344,37,77715,5,0,3:0:0:0:
344,37,77790,1,0,3:0:0:0:
344,37,77865,1,0,3:0:0:0:
289,95,78015,1,2,0:0:0:0:
117,49,78165,6,0,P|108:99|131:176,1,112.500004291535,6|0,1:0|0:0,0:0:0:0:
341,204,78465,2,0,P|283:205|209:204,1,112.500004291535,0|2,1:0|0:1,0:0:0:0:
169,355,78764,1,0,0:0:0:0:
29,204,78915,5,2,0:1:0:0:
29,204,79065,1,0,1:0:0:0:
117,49,79215,2,0,P|144:39|225:48,1,112.500004291535,2|4,0:1|3:0,0:0:0:0:
445,88,79515,5,2,0:1:0:0:
445,88,79665,1,0,1:0:0:0:
225,48,79815,1,2,0:1:0:0:
225,48,79965,1,4,0:3:0:0:
309,232,80115,1,2,0:1:0:0:
213,157,80265,5,0,1:0:0:0:
162,310,80415,1,2,0:0:0:0:
162,310,80490,1,2,0:0:0:0:
162,310,80565,6,0,P|151:265|118:191,1,112.500004291535,2|0,0:1|0:0,0:0:0:0:
365,137,80865,1,0,1:0:0:0:
223,46,81015,2,0,P|215:93|214:168,1,112.500004291535,2|4,2:1|0:3,0:0:0:0:
365,137,81315,1,0,0:0:0:0:
452,269,81465,5,0,1:0:0:0:
452,269,81615,2,0,L|340:272,1,112.500004291535,2|4,0:1|3:0,0:0:0:0:
211,364,81915,5,2,0:1:0:0:
121,200,82065,1,0,1:0:0:0:
320,199,82215,1,0,3:0:0:0:
320,199,82290,1,0,3:0:0:0:
320,199,82365,1,2,0:1:0:0:
121,200,82515,1,2,0:0:0:0:
158,35,82665,6,0,L|161:98,3,56.2500021457673,0|2|2|2,1:0|0:0|0:0|0:0,0:0:0:0:
183,92,82965,6,0,P|240:95|298:58,1,112.500004291535,6|0,1:0|0:0,0:0:0:0:
441,164,83265,1,0,1:0:0:0:
446,345,83415,2,0,P|405:308|344:286,1,112.500004291535,2|4,0:1|0:3,0:0:0:0:
200,307,83715,5,2,0:1:0:0:
183,92,83865,1,0,1:0:0:0:
183,92,84015,2,0,L|297:91,1,112.500004291535,2|4,0:1|3:0,0:0:0:0:
460,158,84315,6,0,P|469:93|447:46,1,112.500004291535,2|0,0:1|1:0,0:0:0:0:
183,92,84615,1,2,0:1:0:0:
184,267,84765,5,4,0:3:0:0:
184,267,84915,1,2,0:1:0:0:
31,138,85065,1,0,1:0:0:0:
31,138,85215,1,2,0:0:0:0:
33,304,85365,6,0,L|104:210,1,112.500004291535,2|0,0:1|1:0,0:0:0:0:
113,174,85815,5,2,0:1:0:0:
113,174,85965,1,0,1:0:0:0:
276,218,86115,1,0,3:0:0:0:
276,218,86190,1,0,3:0:0:0:
276,218,86265,1,4,3:0:0:0:
416,115,86415,1,2,1:0:0:0:
245,53,86565,5,4,3:0:0:0:
416,115,86715,2,0,L|481:104,2,56.2500021457673,4|4|4,3:0|3:0|3:0,0:0:0:0:
276,218,87015,5,0,3:0:0:0:
448,253,87165,1,4,1:2:0:0:
315,353,87315,1,0,3:0:0:0:
315,353,87390,1,0,3:0:0:0:
315,353,87465,2,0,L|258:353,3,56.2500021457673,0|0|0|0,3:0|3:0|3:0|3:0,0:0:0:0:
235,323,87765,5,2,0:0:0:0:
235,323,87915,1,2,0:0:0:0:
83,196,88065,1,0,1:0:0:0:
83,196,88215,2,0,P|79:151|72:60,1,112.500004291535,2|0,0:1|0:0,0:0:0:0:
254,5,88515,5,2,0:1:0:0:
395,112,88665,1,0,1:0:0:0:
395,112,88815,2,0,P|425:127|504:126,1,112.500004291535,2|4,0:1|3:0,0:0:0:0:
443,292,89115,5,2,0:1:0:0:
443,292,89265,1,0,1:0:0:0:
395,112,89415,1,2,0:1:0:0:
395,112,89565,1,4,0:3:0:0:
248,199,89715,1,2,0:0:0:0:
107,115,89865,5,2,1:0:0:0:
92,301,90015,1,2,0:0:0:0:
92,301,90090,1,2,0:0:0:0:
92,301,90165,6,0,P|83:253|53:182,1,112.500004291535,2|0,0:1|0:0,0:0:0:0:
248,200,90465,1,0,1:0:0:0:
227,31,90615,2,0,P|203:67|183:150,1,112.500004291535,2|4,2:1|0:3,0:0:0:0:
419,85,90915,5,0,0:0:0:0:
356,264,91065,1,0,1:0:0:0:
419,85,91215,2,0,L|290:83,1,112.500004291535,2|4,0:1|3:0,0:0:0:0:
92,89,91515,1,2,0:1:0:0:
43,221,91665,2,0,L|159:221,1,112.500004291535,0|0,1:0|3:0,0:0:0:0:
261,376,91965,1,2,0:1:0:0:
388,222,92115,1,2,0:0:0:0:
183,311,92265,6,0,L|185:255,3,56.2500021457673,0|2|2|2,1:0|0:0|0:0|0:0,0:0:0:0:
155,221,92565,6,0,P|98:223|43:159,1,112.500004291535,6|0,1:0|0:0,0:0:0:0:
217,60,92865,1,0,1:0:0:0:
319,231,93015,2,0,P|315:288|365:346,1,112.500004291535,2|4,0:1|0:3,0:0:0:0:
492,165,93315,5,2,0:1:0:0:
492,165,93465,1,0,1:0:0:0:
319,231,93615,2,0,L|440:230,1,112.500004291535,2|4,0:1|3:0,0:0:0:0:
337,104,93915,5,2,0:1:0:0:
337,104,94065,1,0,1:0:0:0:
331,337,94215,1,2,0:1:0:0:
237,235,94365,1,4,0:3:0:0:
132,127,94515,1,2,0:1:0:0:
237,235,94665,1,2,1:0:0:0:
337,104,94815,1,2,0:0:0:0:
337,104,94965,6,0,P|369:64|428:37,1,112.500004291535,6|0,1:0|1:0,0:0:0:0:
239,103,95265,1,0,3:0:0:0:
239,103,95340,1,0,3:0:0:0:
239,103,95415,2,0,P|199:124|126:126,1,112.500004291535,4|2,0:0|1:0,0:0:0:0:
38,201,95715,1,0,3:0:0:0:
154,42,95865,1,4,3:0:0:0:
38,201,96015,1,2,1:0:0:0:
278,231,96165,5,6,1:0:0:0:
468,125,96315,2,0,L|486:6,1,112.500004291535,2|0,1:1|1:0,0:0:0:0:
457,217,96615,5,2,1:0:0:0:
484,13,96765,1,0,1:0:0:0:
303,97,96915,1,2,0:0:0:0:
457,217,97065,1,2,1:1:0:0:
485,14,97215,1,2,0:1:0:0:
184,181,97365,6,0,P|213:96|95:67,1,225.000008583069,6|0,1:0|0:0,0:0:0:0:
37,228,97815,1,0,3:0:0:0:
37,228,97890,1,0,3:0:0:0:
37,228,97965,2,0,L|37:348,1,112.500004291535,0|0,1:0|0:0,0:0:0:0:
72,342,98415,1,0,0:0:0:0:
226,358,98565,6,0,B|240:283|240:283|199:193,1,168.750006437302,4|4,3:0|0:3,0:0:0:0:
300,124,98865,2,0,P|314:106|353:81,3,56.2500021457673,2|2|2|2,0:0|0:0|0:0|0:0,0:0:0:0:
377,77,99165,6,0,L|489:78,1,112.500004291535,4|0,1:2|0:0,0:0:0:0:
398,232,99465,1,0,3:0:0:0:
240,128,99615,1,0,3:0:0:0:
240,128,99690,1,0,3:0:0:0:
240,128,99765,6,0,L|238:5,1,112.500004291535,2|0,1:1|0:0,0:0:0:0:
45,69,100140,5,0,3:0:0:0:
45,69,100215,1,0,3:0:0:0:
45,69,100290,1,0,3:0:0:0:
45,69,100365,6,0,P|106:95|85:237,1,225.000008583069,4|2,1:2|0:0,0:0:0:0:
165,370,100815,1,0,3:0:0:0:
165,370,100965,6,0,P|229:354|342:335,1,168.750006437302,4|4,3:0|0:3,0:0:0:0:
375,236,101265,1,2,0:0:0:0:
484,349,101415,1,2,0:0:0:0:
484,349,101490,1,2,0:0:0:0:
484,349,101565,6,0,L|469:119,1,225.000008583069,4|2,1:2|0:0,0:0:0:0:
313,221,102015,1,2,0:0:0:0:
294,45,102165,2,0,B|257:41|174:47|231:96|150:109|65:85,1,225.000008583069,2|0,1:0|3:0,0:0:0:0:
40,79,102540,2,0,L|58:13,2,56.2500021457673,0|0|0,3:0|3:0|3:0,0:0:0:0:
11,118,102765,6,0,P|-3:172|15:225,1,112.500004291535,0|0,1:0|0:0,0:0:0:0:
168,160,103065,2,0,L|284:163,1,112.500004291535,0|0,0:0|0:0,0:0:0:0:
397,70,103365,5,0,3:0:0:0:
397,70,103515,2,0,L|453:70,5,56.2500021457673,0|0|0|0|0|0,0:0|3:0|3:0|0:0|3:0|0:0,0:0:0:0:
492,74,103965,1,4,1:2:0:0:
474,255,104115,1,2,0:0:0:0:
381,305,104265,1,2,0:0:0:0:
381,305,104415,1,2,0:0:0:0:
381,305,104565,6,0,P|374:243|388:188,1,112.500004291535,2|0,1:0|0:0,0:0:0:0:
274,64,104865,2,0,L|221:37,3,56.2500021457673,0|0|0|0,3:0|3:0|3:0|3:0,0:0:0:0:
262,97,105165,6,0,P|158:123|53:73,1,225.000008583069,4|0,1:2|3:0,0:0:0:0:
24,244,105615,1,0,0:0:0:0:
24,244,105765,6,0,L|154:246,1,112.500004291535,4|0,3:0|0:0,0:0:0:0:
301,342,106065,2,0,L|181:339,1,112.500004291535,0|0,1:0|0:0,0:0:0:0:
344,210,106365,5,0,1:0:0:0:
385,378,106515,1,2,3:2:0:0:
460,247,106665,2,0,P|464:216|495:212,3,56.2500021457673,4|4|4|4,3:3|3:3|3:3|3:3,0:0:0:0:
502,217,106965,6,0,P|504:176|491:128,1,75,4|0,0:0|0:0,0:0:0:0:
353,40,107265,1,0,1:0:0:0:
353,40,107415,2,0,P|315:46|271:39,1,75,0|0,1:2|0:0,0:0:0:0:
187,127,107715,2,0,L|147:128,4,37.5,0|0|0|0|0,3:0|3:0|3:0|3:0|3:0,0:0:0:0:
15,37,108165,6,0,B|4:73|6:102|26:139|32:160|20:199,1,150,2|0,1:0|0:0,0:0:0:0:
122,347,108765,2,0,P|188:341|272:359,1,150,0|0,0:0|0:0,0:0:0:0:
488,287,109365,6,0,B|500:246|500:246|485:204,1,75,4|0,1:0|0:0,0:0:0:0:
437,35,109665,1,0,1:0:0:0:
437,35,109815,2,0,P|396:38|350:41,1,75,0|0,1:0|0:0,0:0:0:0:
165,8,110115,2,0,L|115:10,4,37.5,0|0|0|0|0,3:0|3:0|3:0|3:0|3:0,0:0:0:0:
43,39,110565,6,0,L|42:114,1,75,2|0,1:0|0:0,0:0:0:0:
119,229,110865,6,0,L|121:314,1,75,0|0,0:0|0:0,0:0:0:0:
120,303,111090,1,0,3:0:0:0:
120,303,111165,1,0,3:0:0:0:
219,168,111315,2,0,L|307:168,1,75,0|0,3:0|0:0,0:0:0:0:
479,124,111615,1,0,0:0:0:0:
479,124,111765,6,0,P|485:79|479:47,1,75,4|0,0:0|0:0,0:0:0:0:
312,68,112065,1,0,1:0:0:0:
312,68,112215,2,0,L|236:68,1,75,0|0,1:0|0:0,0:0:0:0:
92,180,112515,2,0,L|92:220,3,37.5,0|0|0|0,3:0|3:0|3:0|3:0,0:0:0:0:
79,242,112815,1,0,1:0:0:0:
232,149,113040,6,0,L|314:149,1,75,2|0,0:0|0:0,0:0:0:0:
233,167,113415,2,0,L|314:168,1,75,2|0,0:0|0:0,0:0:0:0:
456,245,113715,2,0,L|456:295,2,37.5,0|0|0,3:0|3:0|3:0,0:0:0:0:
326,317,114015,2,0,L|326:335,3,18.75,2|2|2|2,3:0|3:0|3:0|3:0,0:0:0:0:
295,347,114165,6,0,P|229:369|184:305,1,150,4|0,0:0|0:0,0:0:0:0:
84,144,114615,2,0,P|72:112|37:80,1,75,0|0,1:0|0:0,0:0:0:0:
172,181,114915,2,0,L|173:138,5,37.5,0|0|4|0|0|0,3:0|3:0|3:0|3:0|3:0|3:0,0:0:0:0:
173,122,115365,6,0,L|324:121,1,150,4|0,3:0|3:0,0:0:0:0:
363,146,115965,1,0,3:0:0:0:
464,150,116115,1,4,3:0:0:0:
464,150,116190,1,4,3:0:0:0:
464,150,116265,1,4,3:0:0:0:
414,226,116415,1,2,0:0:0:0:
363,146,116565,5,4,1:0:0:0:
256,192,116640,12,0,118815,0:0:0:0:
