osu file format v14

[General]
AudioFilename: audio.mp3
AudioLeadIn: 0
PreviewTime: 77677
Countdown: 0
SampleSet: Soft
StackLeniency: 0.7
Mode: 0
LetterboxInBreaks: 0
WidescreenStoryboard: 1

[Editor]
Bookmarks: 37252
DistanceSpacing: 0.8
BeatDivisor: 4
GridSize: 16
TimelineZoom: 2.899999

[Metadata]
Title:Ashes
TitleUnicode:Ashes
Artist:Zekk
ArtistUnicode:Zekk
Creator:Cheri
Version:Hard
Source:osu!
Tags: Hailie DJ Lucky FA Featured Artist Mappers' Guild MG Instrumental Electronic dj_lucky Dynamix
BeatmapID:2459721
BeatmapSetID:1177475

[Difficulty]
HPDrainRate:5
CircleSize:3.5
OverallDifficulty:7
ApproachRate:8
SliderMultiplier:1.3
SliderTickRate:1

[Events]
//Background and Video events
0,0,"background.png",0,0
//Break Periods
//Storyboard Layer 0 (Background)
//Storyboard Layer 1 (Fail)
//Storyboard Layer 2 (Pass)
//Storyboard Layer 3 (Foreground)
//Storyboard Layer 4 (Overlay)
//Storyboard Sound Samples

[TimingPoints]
1365,300,4,2,0,100,1,0
1365,-200,4,2,0,100,0,0
10965,-100,4,2,0,70,0,0
20565,-100,4,2,0,50,0,0
30165,-66.6666666666667,4,2,0,70,0,0
38565,-50,4,2,0,90,0,0
39765,-50,4,2,0,70,0,0
40365,-66.6666666666667,4,2,0,70,0,0
49440,-66.6666666666667,4,2,0,5,0,0
50490,-66.6666666666667,4,2,0,5,0,0
50565,-66.6666666666667,4,2,0,40,0,0
51765,-200,4,2,0,40,0,0
58965,-133.333333333333,4,2,0,50,0,0
68565,-100,4,2,0,70,0,0
78165,-66.6666666666667,4,2,0,90,0,1
97365,-66.6666666666667,4,2,0,80,0,0
106965,-100,4,2,0,80,0,0
116640,-100,4,2,0,10,0,0

[Colours]
Combo1 : 131,128,86
Combo2 : 128,128,0
SliderTrackOverride : 150,150,150

[HitObjects]
41,128,1365,6,0,P|39:87|34:59,2,65,4|0|0,0:0|0:0|0:0,0:0:0:0:
169,223,2265,1,2,0:0:0:0:
169,223,2415,2,0,L|243:225,1,65,0|0,0:0|0:0,0:0:0:0:
343,215,2865,2,0,P|342:186|338:148,1,65,2|2,0:0|0:0,0:0:0:0:
266,65,3315,2,0,L|232:64,1,32.5,0|2,0:0|0:0,0:0:0:0:
120,75,3765,6,0,P|128:124|118:176,1,97.5,2|0,0:0|0:0,0:0:0:0:
40,278,4365,1,2,0:0:0:0:
40,278,4665,2,0,P|62:282|89:309,1,48.75,0|0,3:0|3:0,0:0:0:0:
121,317,4965,6,0,L|188:319,1,65,2|0,0:0|0:0,0:0:0:0:
285,342,5415,2,0,P|286:325|282:295,1,32.5,0|0,3:0|3:0,0:0:0:0:
273,215,5715,2,0,L|306:216,2,32.5,2|0|0,0:0|3:0|3:0,0:0:0:0:
180,172,6165,6,0,L|106:170,1,65,2|0,0:0|0:0,0:0:0:0:
156,71,6615,1,0,0:0:0:0:
156,71,6765,2,0,L|196:71,1,32.5,0|0,3:0|3:0,0:0:0:0:
289,45,7065,2,0,L|325:46,2,32.5,2|0|0,0:0|0:0|0:0,0:0:0:0:
264,144,7965,6,0,L|264:182,2,32.5,2|0|0,0:0|0:0|0:0,0:0:0:0:
264,144,8565,1,2,0:0:0:0:
349,252,9165,6,0,L|349:297,2,32.5,2|0|0,0:0|0:0|0:0,0:0:0:0:
349,252,9765,1,2,0:0:0:0:
236,339,10365,2,0,L|268:339,2,32.5,2|0|0,0:0|3:0|3:0,0:0:0:0:
92,284,10815,1,0,0:0:0:0:
92,284,10965,6,0,P|81:248|85:216,1,65,4|0,0:0|0:0,0:0:0:0:
190,132,11265,1,0,1:0:0:0:
190,132,11415,2,0,P|218:133|269:132,1,65,0|0,1:2|0:0,0:0:0:0:
353,72,11715,1,0,3:0:0:0:
353,72,11865,2,0,L|439:71,1,65,0|0,3:0|3:0,0:0:0:0:
471,183,12165,6,0,P|497:228|478:313,1,130,2|0,1:0|0:0,0:0:0:0:
440,305,12765,2,0,B|385:296|385:296|296:305,1,130,0|0,0:0|0:0,0:0:0:0:
109,311,13365,6,0,L|110:222,1,65,4|0,1:0|0:0,0:0:0:0:
180,141,13665,1,0,1:0:0:0:
180,141,13815,2,0,P|180:124|182:68,1,65,0|0,1:0|0:0,0:0:0:0:
305,42,14115,2,0,L|346:44,4,32.5,0|0|0|0|0,3:0|3:0|3:0|3:0|3:0,0:0:0:0:
419,114,14565,6,0,P|437:159|421:250,1,130,2|0,1:0|0:0,0:0:0:0:
314,347,15165,1,0,3:0:0:0:
314,347,15315,2,0,P|271:348|227:348,2,65,0|0|0,3:0|0:0|0:0,0:0:0:0:
301,252,15765,6,0,L|229:248,1,65,4|0,0:0|0:0,0:0:0:0:
170,132,16065,1,0,1:0:0:0:
170,132,16215,2,0,L|170:64,1,65,0|0,1:0|0:0,0:0:0:0:
64,122,16515,1,0,3:0:0:0:
64,122,16665,1,0,3:0:0:0:
64,122,16815,2,0,L|64:194,1,65,0|0,1:0|0:0,0:0:0:0:
64,227,17040,6,0,L|133:224,1,65,2|0,0:0|0:0,0:0:0:0:
294,169,17415,1,2,0:0:0:0:
282,319,17715,2,0,L|360:321,1,65,0|0,3:0|3:0,0:0:0:0:
420,217,18015,1,2,3:0:0:0:
420,217,18165,6,0,P|421:167|441:66,1,130,4|0,0:0|0:0,0:0:0:0:
336,62,18615,2,0,P|296:58|256:62,1,65,0|0,1:0|0:0,0:0:0:0:
139,69,18915,2,0,L|130:5,2,65,0|4|0,3:0|3:0|3:0,0:0:0:0:
60,150,19365,2,0,P|41:102|42:46,2,97.5,4|4|4,0:0|0:0|0:0,0:0:0:0:
150,232,20040,6,0,P|178:220|258:223,1,97.5,4|4,0:0|3:0,0:0:0:0:
354,228,20415,2,0,L|353:263,2,32.5,4|4|4,3:0|3:0|0:0,0:0:0:0:
391,122,20715,2,0,B|450:99|450:99|513:127,3,130,0|0|0|0,0:0|0:0|0:0|0:0,0:0:0:0:
491,225,21765,5,2,0:0:0:0:
467,226,22065,1,0,0:0:0:0:
437,225,22365,2,0,P|419:180|452:95,1,130,2|0,0:0|0:0,0:0:0:0:
288,48,22965,2,0,L|208:47,1,65,2|0,0:0|0:0,0:0:0:0:
247,140,23265,2,0,L|172:140,1,65,0|0,0:0|0:0,0:0:0:0:
166,226,23565,2,0,L|80:224,1,65,0|0,3:0|3:0,0:0:0:0:
173,320,23865,6,0,P|222:315|318:323,1,130,0|0,3:0|3:0,0:0:0:0:
411,296,24315,2,0,P|410:258|410:220,1,65,0|0,3:0|3:0,0:0:0:0:
337,134,24615,2,0,P|337:95|336:58,1,65,0|0,3:0|3:0,0:0:0:0:
228,85,24915,1,0,3:0:0:0:
228,85,25065,2,0,L|160:85,1,65,0|0,3:0|0:0,0:0:0:0:
6,110,25365,5,4,0:0:0:0:
6,110,25515,2,0,L|7:190,1,65,0|0,3:0|3:0,0:0:0:0:
88,270,25815,1,0,0:0:0:0:
88,270,25965,2,0,L|86:356,2,65,0|0|0,3:0|3:0|0:0,0:0:0:0:
156,174,26415,1,0,3:0:0:0:
156,174,26565,1,4,3:2:0:0:
156,174,26715,2,0,L|233:172,1,65,0|0,3:0|3:0,0:0:0:0:
332,170,27015,2,0,L|333:236,1,65,0|0,0:0|0:0,0:0:0:0:
247,295,27315,2,0,L|247:388,2,65,0|0|0,3:0|3:0|3:0,0:0:0:0:
150,265,27765,6,0,L|53:262,1,97.5,4|0,0:0|3:0,0:0:0:0:
30,97,28215,1,0,3:0:0:0:
30,97,28365,2,0,P|28:59|70:9,1,97.5,0|0,3:0|3:0,0:0:0:0:
228,62,28815,1,0,3:0:0:0:
228,62,28965,5,4,3:0:0:0:
452,41,30165,6,0,P|450:124|461:243,1,195.00000743866,6|0,1:0|0:0,0:0:0:0:
355,273,30615,1,0,3:0:0:0:
355,273,30765,2,0,P|326:294|325:372,1,97.50000371933,0|0,1:0|0:0,0:0:0:0:
281,363,31215,1,0,0:0:0:0:
170,308,31365,6,0,B|116:316|116:316|65:296,1,97.50000371933,4|0,3:0|0:0,0:0:0:0:
25,209,31665,2,0,L|25:100,1,97.50000371933,0|2,0:0|0:0,0:0:0:0:
156,44,31965,6,0,L|256:45,1,97.50000371933,4|0,1:2|0:0,0:0:0:0:
364,22,32265,1,0,3:0:0:0:
452,106,32415,1,0,3:0:0:0:
452,106,32565,6,0,L|452:244,1,97.50000371933,2|0,1:1|0:0,0:0:0:0:
423,328,32940,2,0,L|363:332,2,48.750001859665,0|0|0,3:0|3:0|3:0,0:0:0:0:
332,317,33165,6,0,P|256:368|160:336,1,195.00000743866,4|0,1:2|0:0,0:0:0:0:
41,289,33615,1,0,3:0:0:0:
41,289,33765,6,0,P|40:249|37:163,1,97.50000371933,4|0,3:0|0:0,0:0:0:0:
87,64,34065,1,2,0:0:0:0:
87,64,34215,1,2,0:0:0:0:
87,64,34365,6,0,P|105:106|215:57,1,195.00000743866,4|2,1:2|0:0,0:0:0:0:
302,149,34815,1,2,0:0:0:0:
302,149,34965,2,0,B|300:230|300:230|334:267|334:267|335:357,1,195.00000743866,2|0,1:0|3:0,0:0:0:0:
449,347,35415,1,0,3:0:0:0:
449,347,35565,6,0,P|453:295|473:235,1,97.50000371933,0|0,1:0|0:0,0:0:0:0:
488,130,35865,2,0,L|383:127,1,97.50000371933,0|0,0:0|0:0,0:0:0:0:
283,59,36165,5,4,3:0:0:0:
283,59,36315,2,0,P|256:105|275:166,1,97.50000371933,0|0,3:0|3:0,0:0:0:0:
190,220,36615,1,0,0:0:0:0:
190,220,36765,2,0,B|147:237|147:237|80:219,3,97.50000371933,4|2|2|2,1:2|0:0|0:0|0:0,0:0:0:0:
6,262,37365,6,0,P|6:213|17:166,1,97.50000371933,2|0,1:0|0:0,0:0:0:0:
97,81,37665,1,0,3:0:0:0:
97,81,37815,1,0,3:0:0:0:
97,81,37965,6,0,P|206:80|317:76,1,195.00000743866,4|0,1:2|3:0,0:0:0:0:
474,192,38565,1,2,1:0:0:0:
474,192,38715,2,0,B|458:226|458:226|470:257,1,65,0|0,1:0|0:0,0:0:0:0:
335,353,39015,1,4,3:0:0:0:
335,353,39165,1,0,1:0:0:0:
335,353,39315,2,0,L|179:353,1,130,2|0,1:0|0:0,0:0:0:0:
60,322,39615,1,0,3:0:0:0:
60,322,39765,6,0,P|58:270|19:56,1,260,6|0,1:0|0:0,0:0:0:0:
153,93,40215,1,0,3:0:0:0:
153,93,40365,6,0,P|222:81|281:75,1,97.50000371933,0|0,1:0|0:0,0:0:0:0:
428,92,40815,1,0,0:0:0:0:
428,92,40965,2,0,P|435:137|437:196,1,97.50000371933,4|0,3:0|0:0,0:0:0:0:
439,299,41265,1,0,0:0:0:0:
439,299,41415,1,2,0:0:0:0:
439,299,41565,6,0,P|404:295|310:297,1,97.50000371933,4|0,1:2|0:0,0:0:0:0:
292,193,41865,1,0,3:0:0:0:
292,193,42015,1,0,3:0:0:0:
292,193,42165,6,0,L|412:194,1,97.50000371933,2|0,1:1|0:0,0:0:0:0:
492,147,42465,2,0,P|491:104|462:49,1,97.50000371933,0|0,0:0|3:0,0:0:0:0:
376,7,42765,2,0,B|304:10|304:10|279:53|279:53|183:53,1,195.00000743866,4|0,1:2|0:0,0:0:0:0:
0,128,43365,6,0,P|70:207|16:259,1,195.00000743866,2|2,1:0|0:0,0:0:0:0:
55,359,43815,1,2,0:0:0:0:
55,359,43965,1,4,1:2:0:0:
55,359,44115,2,0,L|189:359,1,97.50000371933,0|0,3:0|3:0,0:0:0:0:
201,277,44415,1,0,0:0:0:0:
267,359,44565,5,2,0:0:0:0:
267,359,44715,1,2,0:0:0:0:
267,359,44865,2,0,P|260:318|371:269,1,146.250005578995,6|0,1:0|0:0,0:0:0:0:
390,258,45165,2,0,P|397:201|273:132,1,195.00000743866,4|0,1:2|0:0,0:0:0:0:
176,69,45615,1,2,0:0:0:0:
176,69,45765,5,4,3:0:0:0:
176,69,45915,2,0,P|185:141|186:196,1,97.50000371933,0|0,1:0|0:0,0:0:0:0:
180,282,46215,1,4,3:0:0:0:
180,282,46365,2,0,L|396:278,1,195.00000743866,4|0,1:2|3:0,0:0:0:0:
475,248,46815,1,0,3:0:0:0:
475,248,46965,6,0,P|499:169|399:111,1,195.00000743866,2|0,1:0|3:0,0:0:0:0:
298,143,47415,1,0,3:0:0:0:
298,143,47565,2,0,L|180:145,1,97.50000371933,4|0,1:2|0:0,0:0:0:0:
107,144,47865,2,0,L|108:251,1,97.50000371933,2|0,0:0|0:0,0:0:0:0:
109,350,48165,6,0,P|58:357|2:246,1,195.00000743866,4|2,3:0|0:0,0:0:0:0:
107,144,48615,1,0,1:0:0:0:
107,144,48765,2,0,L|221:145,1,97.50000371933,0|4,1:0|3:0,0:0:0:0:
314,99,49065,1,0,1:0:0:0:
314,99,49215,1,0,1:0:0:0:
314,99,49365,5,4,0:0:0:0:
256,192,49440,12,0,50265,0:0:0:0:
257,188,50565,5,0,3:0:0:0:
257,188,50865,1,0,3:0:0:0:
257,188,51165,1,0,3:0:0:0:
257,188,51465,1,0,3:0:0:0:
257,188,51765,6,0,L|257:257,1,65,2|0,0:0|0:0,0:0:0:0:
184,327,52365,5,0,1:0:0:0:
184,327,52665,2,0,L|144:329,1,32.5,0|0,3:0|3:0,0:0:0:0:
77,263,52965,5,0,3:0:0:0:
77,263,53265,2,0,L|77:221,1,32.5,0|0,3:0|3:0,0:0:0:0:
135,150,53565,6,0,P|144:184|174:216,1,65,0|0,1:0|0:0,0:0:0:0:
262,158,54165,2,0,L|330:158,1,65,0|0,1:0|3:0,0:0:0:0:
410,168,54765,2,0,L|411:210,1,32.5,0|0,1:0|0:0,0:0:0:0:
470,277,55065,1,0,3:0:0:0:
470,277,55365,6,0,L|469:353,1,65,0|0,3:0|0:0,0:0:0:0:
364,227,55965,2,0,L|365:157,1,65,0|0,3:0|3:0,0:0:0:0:
264,71,56565,6,0,L|185:70,1,65,0|0,3:0|0:0,0:0:0:0:
138,176,57165,1,0,1:0:0:0:
138,176,57465,2,0,P|105:177|93:175,1,32.5,0|0,3:0|3:0,0:0:0:0:
20,230,57765,6,0,L|18:306,1,65,0|2,0:0|0:0,0:0:0:0:
159,341,58365,2,0,P|190:338|224:348,1,65,2|0,3:2|3:0,0:0:0:0:
303,308,58815,1,2,0:0:0:0:
303,308,58965,6,0,L|302:210,1,97.50000371933,4|0,0:0|0:0,0:0:0:0:
303,104,59415,1,4,3:0:0:0:
303,104,59565,2,0,L|192:105,1,97.50000371933,0|0,1:0|0:0,0:0:0:0:
46,49,60165,2,0,P|80:71|88:103,1,73.1250027894975,4|4,3:0|3:0,0:0:0:0:
81,241,60615,1,4,3:0:0:0:
81,241,60765,2,0,L|185:241,1,97.50000371933,0|0,1:0|0:0,0:0:0:0:
299,221,61215,5,0,3:0:0:0:
299,221,61365,2,0,P|301:271|339:314,1,97.50000371933,4|2,3:0|0:0,0:0:0:0:
442,286,61965,2,0,L|440:339,2,48.750001859665,0|0|2,1:0|0:0|0:0,0:0:0:0:
480,159,62565,2,0,P|439:168|405:163,1,73.1250027894975,4|4,3:0|3:0,0:0:0:0:
335,67,63015,2,0,L|272:66,1,48.750001859665,4|4,3:0|3:0,0:0:0:0:
197,98,63315,6,0,L|197:44,2,48.750001859665,2|0|0,0:0|0:0|0:0,0:0:0:0:
90,159,63765,6,0,L|90:211,2,48.750001859665,4|0|0,3:0|0:0|0:0,0:0:0:0:
195,207,64215,1,4,3:0:0:0:
195,207,64365,2,0,L|314:206,1,97.50000371933,0|2,1:0|0:0,0:0:0:0:
350,107,64965,6,0,L|351:29,1,73.1250027894975,4|4,3:0|3:0,0:0:0:0:
313,29,65265,2,0,P|282:29|249:38,1,48.750001859665,0|4,3:0|3:0,0:0:0:0:
163,79,65565,2,0,L|163:145,2,48.750001859665,0|2|2,1:0|0:0|0:0,0:0:0:0:
65,107,66015,2,0,L|65:162,1,48.750001859665,2|4,0:0|3:0,0:0:0:0:
108,260,66615,1,4,3:0:0:0:
108,260,66765,2,0,L|165:261,1,48.750001859665,0|2,1:0|0:0,0:0:0:0:
259,316,67065,2,0,L|315:314,1,48.750001859665,2|2,0:0|0:0,0:0:0:0:
400,242,67365,6,0,P|394:202|339:157,1,97.50000371933,4|4,3:0|3:0,0:0:0:0:
222,101,67965,2,0,L|157:101,1,48.750001859665,4|2,1:2|0:0,0:0:0:0:
106,32,68265,5,4,3:0:0:0:
43,101,68415,1,4,3:0:0:0:
43,101,68565,6,0,P|41:142|39:195,1,65,4|0,0:0|0:0,0:0:0:0:
133,233,68865,1,0,1:0:0:0:
133,233,69015,2,0,P|173:230|209:234,1,65,0|0,1:2|0:0,0:0:0:0:
284,145,69315,2,0,P|285:94|294:78,2,65,0|0|0,3:0|3:0|3:0,0:0:0:0:
383,165,69765,6,0,P|393:243|348:289,1,130,2|0,1:0|0:0,0:0:0:0:
220,355,70365,2,0,B|173:341|173:341|78:347,1,130,0|0,0:0|0:0,0:0:0:0:
48,327,70965,6,0,L|48:238,1,65,4|0,1:0|0:0,0:0:0:0:
46,153,71265,1,0,1:0:0:0:
46,153,71415,2,0,P|82:167|130:163,1,65,0|0,1:0|0:0,0:0:0:0:
210,120,71715,2,0,P|244:108|276:109,1,65,0|0,3:0|3:0,0:0:0:0:
383,127,72015,1,0,3:0:0:0:
383,127,72165,6,0,L|384:52,1,65,2|0,1:0|0:0,0:0:0:0:
482,120,72465,6,0,L|482:190,1,65,0|0,1:0|0:0,0:0:0:0:
440,275,72765,1,0,3:0:0:0:
440,275,72915,2,0,L|352:276,1,65,0|0,1:0|0:0,0:0:0:0:
275,246,73215,1,0,1:0:0:0:
275,246,73365,6,0,L|274:179,1,65,4|0,0:0|0:0,0:0:0:0:
302,72,73665,1,0,1:0:0:0:
302,72,73815,2,0,L|372:72,1,65,0|0,1:0|0:0,0:0:0:0:
481,117,74115,2,0,P|493:151|496:200,1,65,0|0,3:0|3:0,0:0:0:0:
458,264,74415,1,0,1:0:0:0:
458,264,74640,6,0,L|378:262,1,65,2|0,0:0|0:0,0:0:0:0:
267,359,75015,2,0,L|196:356,1,65,2|0,0:0|0:0,0:0:0:0:
75,308,75315,2,0,P|74:274|81:226,1,65,0|0,3:0|3:0,0:0:0:0:
104,122,75615,1,2,3:0:0:0:
104,122,75765,6,0,P|162:140|206:85,1,130,4|0,0:0|0:0,0:0:0:0:
328,34,76215,2,0,P|361:51|391:89,1,65,0|0,1:0|0:0,0:0:0:0:
486,148,76515,6,0,L|509:221,3,65,0|4|0|4,3:0|3:0|3:0|0:0,0:0:0:0:
412,294,77715,2,0,L|423:336,2,32.5,0|0|0,3:0|3:0|3:0,0:0:0:0:
324,203,78015,1,2,0:0:0:0:
324,203,78165,6,0,P|333:153|315:81,1,97.50000371933,6|0,1:0|0:0,0:0:0:0:
219,45,78465,2,0,P|162:45|111:44,1,97.50000371933,0|2,1:0|0:1,0:0:0:0:
17,140,78764,1,0,0:0:0:0:
17,140,78915,2,0,P|10:188|26:251,1,97.50000371933,2|0,0:1|1:0,0:0:0:0:
111,327,79215,2,0,P|118:268|100:204,1,97.50000371933,2|4,0:1|3:0,0:0:0:0:
215,171,79515,2,0,L|333:170,1,97.50000371933,2|0,0:1|1:0,0:0:0:0:
427,101,79815,1,2,0:1:0:0:
427,101,79965,2,0,P|456:167|453:217,1,97.50000371933,4|2,0:3|0:1,0:0:0:0:
331,250,80265,5,0,1:0:0:0:
256,348,80415,1,2,0:0:0:0:
256,348,80490,1,2,0:0:0:0:
256,348,80565,6,0,L|379:350,1,97.50000371933,2|0,0:1|0:0,0:0:0:0:
256,240,80865,1,0,1:0:0:0:
256,240,81015,2,0,P|209:241|150:240,1,97.50000371933,2|4,2:1|0:3,0:0:0:0:
205,109,81315,1,0,0:0:0:0:
311,25,81465,5,0,1:0:0:0:
311,25,81615,2,0,L|417:28,1,97.50000371933,2|4,0:1|3:0,0:0:0:0:
510,128,81915,2,0,P|510:79|500:31,1,97.50000371933,2|0,0:1|1:0,0:0:0:0:
405,137,82215,2,0,L|356:137,2,48.750001859665,0|0|2,3:0|3:0|0:1,0:0:0:0:
318,232,82515,1,2,0:0:0:0:
209,331,82665,6,0,L|212:283,3,48.750001859665,0|2|2|2,1:0|0:0|0:0|0:0,0:0:0:0:
213,250,82965,6,0,P|164:244|115:243,1,97.50000371933,6|0,1:0|0:0,0:0:0:0:
86,120,83265,1,0,1:0:0:0:
86,120,83415,2,0,P|88:71|79:10,1,97.50000371933,2|4,0:1|0:3,0:0:0:0:
221,129,83715,5,2,0:1:0:0:
254,18,83865,1,0,1:0:0:0:
254,18,84015,2,0,L|372:17,1,97.50000371933,2|4,0:1|3:0,0:0:0:0:
470,22,84315,6,0,P|455:72|458:120,1,97.50000371933,2|0,0:1|1:0,0:0:0:0:
329,122,84615,1,2,0:1:0:0:
235,220,84765,2,0,L|332:220,1,97.50000371933,4|2,0:3|0:1,0:0:0:0:
262,310,85065,1,0,1:0:0:0:
262,310,85215,1,2,0:0:0:0:
104,258,85365,6,0,L|103:144,1,97.50000371933,2|0,0:1|1:0,0:0:0:0:
103,160,85815,2,0,P|134:149|209:165,1,97.50000371933,2|0,0:1|1:0,0:0:0:0:
349,110,86115,2,0,L|379:50,2,48.750001859665,0|0|4,3:0|3:0|3:0,0:0:0:0:
472,173,86415,1,2,1:0:0:0:
407,259,86565,5,4,3:0:0:0:
407,259,86715,2,0,L|384:330,2,48.750001859665,4|4|4,3:0|3:0|3:0,0:0:0:0:
259,232,87015,5,0,3:0:0:0:
259,232,87165,1,4,1:2:0:0:
197,357,87315,1,0,3:0:0:0:
197,357,87465,2,0,L|121:357,3,48.750001859665,0|0|0|0,3:0|3:0|3:0|3:0,0:0:0:0:
103,350,87765,6,0,P|86:299|113:273,1,97.50000371933,2|2,0:0|0:0,0:0:0:0:
53,147,88065,1,0,1:0:0:0:
53,147,88215,2,0,L|54:30,1,97.50000371933,2|0,0:1|0:0,0:0:0:0:
182,47,88515,2,0,L|181:155,1,97.50000371933,2|0,0:1|1:0,0:0:0:0:
299,81,88815,2,0,P|351:78|403:80,1,97.50000371933,2|4,0:1|3:0,0:0:0:0:
491,196,89115,6,0,L|489:302,1,97.50000371933,2|0,0:1|1:0,0:0:0:0:
394,178,89415,2,0,L|397:73,1,97.50000371933,2|4,0:1|0:3,0:0:0:0:
307,176,89715,1,2,0:0:0:0:
307,176,89865,5,2,1:0:0:0:
329,301,90015,1,2,0:0:0:0:
329,301,90090,1,2,0:0:0:0:
329,301,90165,6,0,P|279:301|215:305,1,97.50000371933,2|0,0:1|0:0,0:0:0:0:
190,180,90465,1,0,1:0:0:0:
190,180,90615,2,0,L|189:82,1,97.50000371933,2|4,2:1|0:3,0:0:0:0:
324,15,90915,5,0,0:0:0:0:
324,15,91065,1,0,1:0:0:0:
324,15,91215,2,0,L|449:15,1,97.50000371933,2|4,0:1|3:0,0:0:0:0:
427,143,91515,1,2,0:1:0:0:
427,143,91665,2,0,L|327:143,1,97.50000371933,0|0,1:0|3:0,0:0:0:0:
287,299,91965,1,2,0:1:0:0:
287,299,92115,1,2,0:0:0:0:
287,299,92265,6,0,L|287:248,3,48.750001859665,0|2|2|2,1:0|0:0|0:0|0:0,0:0:0:0:
323,275,92565,6,0,P|367:275|421:279,1,97.50000371933,6|0,1:0|0:0,0:0:0:0:
329,143,92865,1,0,1:0:0:0:
329,143,93015,2,0,P|292:142|216:141,1,97.50000371933,2|4,0:1|0:3,0:0:0:0:
112,112,93315,5,2,0:1:0:0:
112,112,93465,1,0,1:0:0:0:
112,112,93615,2,0,L|118:12,1,97.50000371933,2|4,0:1|3:0,0:0:0:0:
241,15,93915,5,2,0:1:0:0:
241,15,94065,2,0,P|293:36|333:75,1,97.50000371933,0|2,1:0|0:1,0:0:0:0:
440,153,94365,1,4,0:3:0:0:
440,153,94515,2,0,P|441:201|441:260,1,97.50000371933,2|2,0:1|1:0,0:0:0:0:
344,342,94815,1,2,0:0:0:0:
204,312,94965,6,0,L|75:312,1,97.50000371933,6|0,1:0|1:0,0:0:0:0:
191,208,95265,1,0,3:0:0:0:
191,208,95415,2,0,L|315:211,1,97.50000371933,4|2,0:0|1:0,0:0:0:0:
395,145,95715,1,0,3:0:0:0:
395,145,95865,2,0,B|410:98|410:98|378:40,1,97.50000371933,4|2,3:0|1:0,0:0:0:0:
267,73,96165,5,6,1:0:0:0:
267,73,96315,2,0,L|158:72,1,97.50000371933,2|0,1:1|1:0,0:0:0:0:
43,72,96615,1,2,1:0:0:0:
43,72,96765,1,0,1:0:0:0:
67,185,96915,1,2,0:0:0:0:
67,185,97065,1,2,1:1:0:0:
93,280,97215,1,2,0:1:0:0:
190,342,97365,6,0,P|289:339|384:334,1,195.00000743866,6|0,1:0|0:0,0:0:0:0:
467,267,97815,1,0,3:0:0:0:
467,267,97965,2,0,P|461:231|497:168,1,97.50000371933,0|0,1:0|0:0,0:0:0:0:
383,63,98415,1,0,0:0:0:0:
383,63,98565,6,0,B|329:71|329:71|278:51,1,97.50000371933,4|0,3:0|0:0,0:0:0:0:
175,29,98865,2,0,L|175:126,1,97.50000371933,2|2,0:0|0:0,0:0:0:0:
138,216,99165,6,0,L|238:217,1,97.50000371933,4|0,1:2|0:0,0:0:0:0:
189,315,99465,1,0,3:0:0:0:
57,354,99615,1,0,3:0:0:0:
57,354,99765,6,0,L|57:216,1,97.50000371933,2|0,1:1|0:0,0:0:0:0:
17,104,100140,2,0,L|16:56,2,48.750001859665,0|0|0,3:0|3:0|3:0,0:0:0:0:
59,58,100365,6,0,P|148:87|227:28,1,195.00000743866,4|2,1:2|0:0,0:0:0:0:
339,85,100815,1,0,3:0:0:0:
339,85,100965,6,0,P|384:86|441:87,1,97.50000371933,4|0,3:0|0:3,0:0:0:0:
512,205,101265,1,2,0:0:0:0:
512,205,101415,1,2,0:0:0:0:
512,205,101565,6,0,P|530:247|459:371,1,195.00000743866,4|2,1:2|0:0,0:0:0:0:
362,331,102015,1,2,0:0:0:0:
362,331,102165,2,0,B|360:250|360:250|394:213|394:213|395:123,1,195.00000743866,2|0,1:0|3:0,0:0:0:0:
320,51,102615,1,0,3:0:0:0:
320,51,102765,6,0,P|286:79|229:98,1,97.50000371933,0|0,1:0|0:0,0:0:0:0:
128,52,103065,2,0,L|127:165,1,97.50000371933,0|0,0:0|0:0,0:0:0:0:
86,248,103365,5,0,3:0:0:0:
86,248,103515,2,0,P|59:294|78:355,1,97.50000371933,0|0,0:0|3:0,0:0:0:0:
178,308,103815,1,0,3:0:0:0:
178,308,103965,2,0,B|288:307,3,97.50000371933,4|2|2|2,1:2|0:0|0:0|0:0,0:0:0:0:
360,233,104565,6,0,P|360:184|371:137,1,97.50000371933,2|0,1:0|0:0,0:0:0:0:
472,61,104865,1,0,3:0:0:0:
472,61,105015,1,0,3:0:0:0:
472,61,105165,6,0,P|352:60|252:56,1,195.00000743866,4|0,1:2|3:0,0:0:0:0:
92,135,105765,1,4,3:0:0:0:
92,135,105915,6,0,B|73:172|73:172|86:250,1,97.50000371933,0|0,0:0|1:0,0:0:0:0:
213,307,106215,1,0,0:0:0:0:
213,307,106365,1,0,1:0:0:0:
213,307,106515,2,0,L|210:206,1,97.50000371933,2|4,3:2|3:3,0:0:0:0:
312,160,106815,1,4,3:3:0:0:
312,160,106890,1,4,3:3:0:0:
312,160,106965,6,0,P|311:129|311:92,1,65,4|0,0:0|0:0,0:0:0:0:
413,56,107265,1,0,1:0:0:0:
413,56,107415,2,0,P|441:57|492:56,1,65,0|0,1:2|0:0,0:0:0:0:
476,167,107715,1,0,3:0:0:0:
476,167,107865,2,0,L|390:166,1,65,0|0,3:0|3:0,0:0:0:0:
326,217,108165,6,0,P|352:262|333:347,1,130,2|0,1:0|0:0,0:0:0:0:
322,337,108765,2,0,B|178:337,1,130,0|0,0:0|0:0,0:0:0:0:
30,245,109365,6,0,L|31:156,1,65,4|0,1:0|0:0,0:0:0:0:
127,144,109665,1,0,1:0:0:0:
127,144,109815,2,0,P|127:127|175:78,1,65,0|0,1:0|0:0,0:0:0:0:
250,141,110115,2,0,L|250:174,4,32.5,0|0|0|0|0,3:0|3:0|3:0|3:0|3:0,0:0:0:0:
355,195,110565,6,0,P|352:256|357:331,1,130,2|0,1:0|0:0,0:0:0:0:
192,358,111165,1,0,3:0:0:0:
192,358,111315,2,0,P|149:359|105:359,2,65,0|0|0,3:0|0:0|0:0,0:0:0:0:
166,260,111765,6,0,L|82:256,1,65,4|0,0:0|0:0,0:0:0:0:
31,174,112065,1,0,1:0:0:0:
31,174,112215,2,0,L|31:106,1,65,0|0,1:0|0:0,0:0:0:0:
129,71,112515,1,0,3:0:0:0:
129,71,112665,1,0,3:0:0:0:
129,71,112815,2,0,L|129:143,1,65,0|0,1:0|0:0,0:0:0:0:
157,127,113040,6,0,L|235:127,1,65,2|0,0:0|0:0,0:0:0:0:
367,68,113415,1,2,0:0:0:0:
467,204,113715,2,0,L|402:202,1,65,0|0,3:0|3:0,0:0:0:0:
317,207,114015,1,2,3:0:0:0:
317,207,114165,6,0,P|318:257|338:358,1,130,4|0,0:0|0:0,0:0:0:0:
231,343,114615,2,0,P|191:343|151:343,1,65,0|0,1:0|0:0,0:0:0:0:
63,317,114915,2,0,L|57:387,2,65,0|4|0,3:0|3:0|3:0,0:0:0:0:
53,210,115365,6,0,L|43:60,1,130,4|0,3:0|3:0,0:0:0:0:
141,102,115965,1,0,3:0:0:0:
141,102,116115,2,0,L|204:102,2,32.5,4|4|4,3:0|3:0|3:0,0:0:0:0:
207,186,116415,1,2,0:0:0:0:
298,145,116565,5,4,1:0:0:0:
256,192,116640,12,0,118815,0:0:0:0:
