osu file format v14

[General]
AudioFilename: audio.mp3
AudioLeadIn: 0
PreviewTime: 77677
Countdown: 0
SampleSet: Soft
StackLeniency: 0.2
Mode: 0
LetterboxInBreaks: 0
WidescreenStoryboard: 0

[Editor]
Bookmarks: 37252
DistanceSpacing: 0.8
BeatDivisor: 8
GridSize: 16
TimelineZoom: 1.7

[Metadata]
Title:Ashes
TitleUnicode:Ashes
Artist:Zekk
ArtistUnicode:Zekk
Creator:Cheri
Version:Extra
Source:osu!
Tags: Hailie DJ Lucky FA Featured Artist Mappers' Guild MG Instrumental Electronic dj_lucky Dynamix
BeatmapID:2457121
BeatmapSetID:1177475

[Difficulty]
HPDrainRate:5
CircleSize:4
OverallDifficulty:8.5
ApproachRate:9
SliderMultiplier:1.6
SliderTickRate:1

[Events]
//Background and Video events
0,0,"background.png",0,0
//Break Periods
//Storyboard Layer 0 (Background)
//Storyboard Layer 1 (Fail)
//Storyboard Layer 2 (Pass)
//Storyboard Layer 3 (Foreground)
//Storyboard Layer 4 (Overlay)
//Storyboard Sound Samples

[TimingPoints]
1365,300,4,2,0,100,1,0
1365,-200,4,2,0,100,0,0
10965,-100,4,2,0,70,0,0
20565,-100,4,2,0,50,0,0
30165,-66.6666666666667,4,2,0,70,0,0
38565,-50,4,2,0,90,0,0
39765,-50,4,2,0,70,0,0
40365,-66.6666666666667,4,2,0,70,0,0
49440,-66.6666666666667,4,2,0,5,0,0
50490,-66.6666666666667,4,2,0,5,0,0
50565,-66.6666666666667,4,2,0,40,0,0
51765,-200,4,2,0,40,0,0
58965,-133.333333333333,4,2,0,50,0,0
68565,-100,4,2,0,70,0,0
78165,-66.6666666666667,4,2,0,90,0,1
97365,-66.6666666666667,4,2,0,80,0,0
106965,-100,4,2,0,80,0,0
116640,-100,4,2,0,10,0,0

[Colours]
Combo1 : 131,128,86
Combo2 : 128,128,0
SliderTrackOverride : 150,150,150

[HitObjects]
26,358,1365,6,0,P|24:318|17:274,2,80,4|0|0,0:0|0:0|0:0,0:0:0:0:
96,218,2265,1,2,0:0:0:0:
96,218,2415,2,0,L|143:215,2,40,0|2|0,0:0|0:0|0:0,0:0:0:0:
171,135,2865,6,0,L|191:135,4,20,2|0|2|0|2,0:0|0:0|0:0|0:0|0:0,0:0:0:0:
277,43,3315,1,0,0:0:0:0:
277,43,3465,1,2,0:0:0:0:
277,43,3765,6,0,L|399:31,1,120,2|0,0:0|0:0,0:0:0:0:
425,136,4365,1,2,0:0:0:0:
425,136,4440,1,0,0:0:0:0:
425,136,4515,1,0,0:0:0:0:
491,257,4665,6,0,L|487:239,7,10,0|0|0|0|0|0|0|0,3:0|3:0|3:0|3:0|3:0|3:0|3:0|3:0,0:0:0:0:
443,324,4965,6,0,P|401:314|373:289,1,80,2|0,0:0|0:0,0:0:0:0:
356,281,5340,6,0,L|331:281,3,20,0|0|0|0,3:0|3:0|3:0|3:0,0:0:0:0:
245,277,5715,2,0,L|247:317,1,40,2|0,0:0|3:0,0:0:0:0:
134,220,6015,1,0,3:0:0:0:
134,220,6090,1,0,3:0:0:0:
134,220,6165,6,0,L|48:221,1,80,2|0,0:0|0:0,0:0:0:0:
16,128,6615,1,0,0:0:0:0:
101,80,6765,2,0,P|100:64|101:54,3,20,0|0|0|0,3:0|3:0|3:0|3:0,0:0:0:0:
121,44,7065,2,0,L|166:48,2,40,2|0|0,0:0|0:0|0:0,0:0:0:0:
351,65,7965,6,0,L|348:112,2,40,2|0|0,0:0|0:0|0:0,0:0:0:0:
440,94,8565,1,2,0:0:0:0:
367,278,9165,6,0,L|364:325,2,40,2|0|0,0:0|0:0|0:0,0:0:0:0:
456,307,9765,1,2,0:0:0:0:
258,194,10365,5,2,0:0:0:0:
162,89,10515,1,0,3:0:0:0:
162,89,10590,1,0,3:0:0:0:
162,89,10665,1,0,3:0:0:0:
162,89,10815,1,0,0:0:0:0:
33,192,10965,6,0,P|31:239|49:287,1,80,4|0,0:0|0:0,0:0:0:0:
183,193,11265,1,0,1:0:0:0:
240,99,11415,2,0,P|204:89|148:91,1,80,0|0,1:2|0:0,0:0:0:0:
313,52,11715,1,0,3:0:0:0:
313,52,11790,1,0,3:0:0:0:
313,52,11865,1,0,3:0:0:0:
313,52,11940,1,0,3:0:0:0:
313,52,12015,1,0,3:0:0:0:
461,81,12165,6,0,L|498:251,1,160,2|0,1:0|0:0,0:0:0:0:
511,275,12765,2,0,P|434:264|361:300,1,160,0|0,0:0|0:0,0:0:0:0:
63,354,13365,6,0,P|58:308|80:267,1,80,4|0,1:0|0:0,0:0:0:0:
209,151,13665,1,0,1:0:0:0:
244,71,13815,2,0,P|201:67|165:83,1,80,0|0,1:0|0:0,0:0:0:0:
225,167,14115,1,0,3:0:0:0:
225,167,14190,1,0,3:0:0:0:
225,167,14265,1,0,3:0:0:0:
225,167,14340,1,0,3:0:0:0:
225,167,14415,1,0,3:0:0:0:
374,78,14565,6,0,P|369:40|348:-13,1,80,2|0,1:0|0:0,0:0:0:0:
416,103,14865,2,0,P|416:140|429:184,1,80,0|0,0:0|0:0,0:0:0:0:
427,181,15090,1,0,3:0:0:0:
427,181,15165,1,0,3:0:0:0:
506,287,15315,2,0,L|508:367,1,80,0|0,3:0|0:0,0:0:0:0:
311,198,15615,1,0,0:0:0:0:
170,245,15765,6,0,L|75:243,1,80,4|0,0:0|0:0,0:0:0:0:
153,70,16065,1,0,1:0:0:0:
323,64,16215,2,0,L|406:63,1,80,0|0,1:0|0:0,0:0:0:0:
512,179,16515,5,0,3:0:0:0:
512,179,16590,1,0,3:0:0:0:
512,179,16665,1,0,3:0:0:0:
512,179,16740,1,0,3:0:0:0:
508,176,16815,2,0,L|510:229,1,40,0|0,1:0|0:0,0:0:0:0:
385,298,17040,6,0,L|289:299,1,80,2|0,0:0|0:0,0:0:0:0:
297,336,17415,2,0,L|208:335,1,80,2|0,0:0|0:0,0:0:0:0:
90,342,17715,2,0,L|84:301,2,40,0|0|0,3:0|3:0|3:0,0:0:0:0:
64,134,18015,2,0,L|42:127,3,20,2|2|2|2,3:0|3:0|3:0|3:0,0:0:0:0:
101,129,18165,6,0,P|153:157|226:102,1,160,4|0,0:0|0:0,0:0:0:0:
342,10,18615,2,0,P|356:47|389:75,1,80,0|0,1:0|0:0,0:0:0:0:
512,207,18915,5,0,3:0:0:0:
512,207,18990,1,0,3:0:0:0:
512,207,19065,1,4,3:0:0:0:
512,207,19140,1,0,3:0:0:0:
512,207,19215,1,0,3:0:0:0:
378,342,19365,2,0,L|294:342,1,80,4|0,0:0|0:0,0:0:0:0:
249,252,19590,2,0,L|151:252,1,80,4|0,0:0|0:0,0:0:0:0:
173,170,19815,2,0,L|83:168,1,80,4|0,0:0|0:0,0:0:0:0:
66,191,20040,6,0,P|43:145|72:78,1,120,4|4,0:0|3:0,0:0:0:0:
186,28,20415,1,4,3:0:0:0:
186,28,20490,1,4,3:0:0:0:
186,28,20565,5,4,0:0:0:0:
338,60,20715,1,0,0:0:0:0:
338,60,21015,1,0,0:0:0:0:
338,60,21315,1,0,0:0:0:0:
338,60,21615,1,0,0:0:0:0:
338,60,21765,6,0,L|252:44,1,80,2|0,0:0|0:0,0:0:0:0:
344,88,22065,2,0,L|425:105,1,80,0|0,0:0|0:0,0:0:0:0:
271,143,22365,2,0,L|182:125,1,80,2|0,0:0|0:0,0:0:0:0:
324,211,22665,2,0,L|417:227,1,80,0|0,0:0|0:0,0:0:0:0:
180,253,22965,2,0,L|85:236,1,80,2|0,0:0|0:0,0:0:0:0:
284,341,23265,2,0,L|376:357,1,80,0|0,0:0|0:0,0:0:0:0:
495,285,23565,5,0,3:0:0:0:
495,285,23640,1,0,3:0:0:0:
495,285,23715,1,0,3:0:0:0:
495,285,23790,1,0,3:0:0:0:
495,285,23865,6,0,L|496:196,1,80,0|0,3:0|0:0,0:0:0:0:
424,82,24165,1,0,3:0:0:0:
366,184,24315,2,0,L|366:231,2,40,0|0|0,3:0|3:0|3:0,0:0:0:0:
265,66,24615,1,0,3:0:0:0:
265,66,24690,1,0,3:0:0:0:
265,66,24765,1,0,3:0:0:0:
172,178,24915,1,0,3:0:0:0:
172,178,25065,2,0,L|87:179,1,80,0|0,3:0|0:0,0:0:0:0:
22,63,25365,6,0,L|23:6,1,40,4|0,0:0|0:0,0:0:0:0:
31,31,25515,1,0,3:0:0:0:
31,31,25590,1,0,3:0:0:0:
31,31,25665,1,0,3:0:0:0:
147,89,25815,1,0,0:0:0:0:
264,3,25965,1,0,3:0:0:0:
264,3,26040,1,0,3:0:0:0:
264,3,26115,1,0,3:0:0:0:
264,3,26190,1,0,3:0:0:0:
264,3,26265,1,0,0:0:0:0:
368,93,26415,1,0,3:0:0:0:
368,93,26490,1,0,3:0:0:0:
368,93,26565,2,0,L|368:143,1,40,4|0,3:2|0:0,0:0:0:0:
486,196,26715,5,0,3:0:0:0:
486,196,26790,1,0,3:0:0:0:
486,196,26865,1,0,3:0:0:0:
372,252,27015,2,0,L|372:332,1,80,0|0,0:0|0:0,0:0:0:0:
257,370,27315,1,0,3:0:0:0:
257,370,27390,1,0,3:0:0:0:
257,370,27465,1,0,3:0:0:0:
134,271,27615,1,0,3:0:0:0:
134,271,27690,1,0,3:0:0:0:
134,271,27765,6,0,L|37:273,1,80,4|0,0:0|0:0,0:0:0:0:
54,272,27990,1,0,3:0:0:0:
54,272,28065,1,0,3:0:0:0:
61,150,28215,1,0,3:0:0:0:
61,150,28365,2,0,P|58:107|68:68,1,80,0|0,3:0|3:0,0:0:0:0:
93,46,28590,1,0,3:0:0:0:
411,43,28815,1,0,3:0:0:0:
411,43,28965,5,4,3:0:0:0:
411,43,30165,6,0,P|401:122|254:131,1,240.000009155274,6|0,1:0|0:0,0:0:0:0:
260,123,30540,1,0,3:0:0:0:
250,100,30615,1,0,3:0:0:0:
226,82,30690,1,0,3:0:0:0:
192,82,30765,2,0,P|135:93|85:61,1,120.000004577637,0|0,1:0|0:0,0:0:0:0:
156,264,31215,1,0,0:0:0:0:
366,284,31365,6,0,B|326:133|326:133|250:100,1,240.000009155274,4|0,3:0|0:0,0:0:0:0:
262,113,31740,1,2,0:0:0:0:
262,113,31815,1,2,0:0:0:0:
262,113,31890,1,2,0:0:0:0:
262,112,31965,6,0,L|449:112,1,180.000006866455,4|0,1:2|0:0,0:0:0:0:
456,126,32265,1,0,3:0:0:0:
456,126,32340,1,0,3:0:0:0:
456,126,32415,1,0,3:0:0:0:
456,126,32490,1,0,3:0:0:0:
456,126,32565,6,0,L|458:370,1,240.000009155274,2|0,1:1|0:0,0:0:0:0:
434,367,32940,5,0,3:0:0:0:
406,365,33015,1,0,3:0:0:0:
380,365,33090,1,0,3:0:0:0:
342,330,33165,6,0,P|290:275|165:348,1,240.000009155274,4|0,1:2|0:0,0:0:0:0:
52,199,33615,1,0,3:0:0:0:
52,199,33765,6,0,P|37:180|129:116,1,180.000006866455,4|0,3:0|0:0,0:0:0:0:
156,130,34065,1,2,0:0:0:0:
170,118,34140,1,2,0:0:0:0:
172,100,34215,1,2,0:0:0:0:
164,76,34290,1,2,0:0:0:0:
149,49,34365,6,0,P|182:17|349:82,1,240.000009155274,4|2,1:2|0:0,0:0:0:0:
497,133,34815,1,2,0:0:0:0:
426,312,34965,2,0,L|168:313,1,240.000009155274,2|0,1:0|3:0,0:0:0:0:
195,320,35340,1,0,3:0:0:0:
195,320,35415,1,0,3:0:0:0:
195,320,35490,1,0,3:0:0:0:
195,320,35565,6,0,P|181:279|219:207,1,120.000004577637,0|0,1:0|0:0,0:0:0:0:
423,107,35865,1,0,0:0:0:0:
423,107,36015,1,0,0:0:0:0:
423,107,36165,2,0,L|504:107,6,60.0000022888184,4|0|0|0|0|0|0,3:0|3:0|3:0|3:0|3:0|3:0|0:0,0:0:0:0:
406,225,36765,1,4,1:2:0:0:
406,225,36915,1,2,0:0:0:0:
279,114,37065,6,0,L|195:116,1,60.0000022888184,2|0,0:0|0:0,0:0:0:0:
118,35,37215,2,0,L|197:34,1,60.0000022888184,2|0,0:0|0:0,0:0:0:0:
106,137,37365,6,0,P|101:209|124:260,1,120.000004577637,2|0,1:0|0:0,0:0:0:0:
299,342,37665,1,0,3:0:0:0:
285,346,37740,1,0,3:0:0:0:
266,340,37815,1,0,3:0:0:0:
260,324,37890,1,0,3:0:0:0:
257,291,37965,6,0,P|383:276|505:283,1,240.000009155274,4|0,1:2|3:0,0:0:0:0:
502,155,38565,1,2,1:0:0:0:
342,74,38715,2,0,B|303:89|303:89|265:76,1,80,0|0,1:0|0:0,0:0:0:0:
236,60,39015,1,4,3:0:0:0:
67,274,39165,2,0,B|74:312|74:312|62:356,1,80,0|0,1:0|0:0,0:0:0:0:
117,217,39315,2,0,L|117:32,1,160,2|0,1:0|0:0,0:0:0:0:
342,74,39615,1,0,3:0:0:0:
342,74,39690,1,0,3:0:0:0:
342,74,39765,6,0,P|274:71|317:238,1,320,6|0,1:0|0:0,0:0:0:0:
346,230,40140,1,0,3:0:0:0:
379,230,40215,1,0,3:0:0:0:
412,231,40290,1,0,3:0:0:0:
455,232,40365,6,0,P|448:161|487:119,1,120.000004577637,0|0,1:0|0:0,0:0:0:0:
510,155,40815,1,0,0:0:0:0:
313,49,40965,2,0,B|243:50|243:50|204:23|204:23|97:29,1,180.000006866455,4|0,3:0|0:0,0:0:0:0:
33,41,41265,2,0,L|33:101,3,60.0000022888184,0|2|2|2,0:0|0:0|0:0|0:0,0:0:0:0:
60,199,41565,6,0,P|132:191|184:222,1,120.000004577637,4|0,1:2|0:0,0:0:0:0:
346,197,41865,5,0,3:0:0:0:
346,197,41940,1,0,3:0:0:0:
346,197,42015,1,0,3:0:0:0:
346,197,42090,1,0,3:0:0:0:
346,197,42165,6,0,L|348:10,1,180.000006866455,2|0,1:1|0:0,0:0:0:0:
372,15,42465,1,0,0:0:0:0:
409,15,42540,1,0,3:0:0:0:
441,34,42615,1,0,3:0:0:0:
465,73,42690,1,0,3:0:0:0:
464,119,42765,6,0,B|441:100|349:112|357:204|295:213|237:193,1,240.000009155274,4|0,1:2|0:0,0:0:0:0:
5,252,43365,6,0,P|3:301|158:296,1,240.000009155274,2|2,1:0|0:0,0:0:0:0:
192,243,43740,2,0,L|117:241,2,60.0000022888184,2|2|2,0:0|0:0|0:0,0:0:0:0:
292,326,43965,2,0,L|369:326,1,60.0000022888184,4|0,1:2|3:0,0:0:0:0:
352,326,44115,1,0,3:0:0:0:
352,326,44190,1,0,3:0:0:0:
352,326,44265,1,0,3:0:0:0:
485,46,44565,5,2,0:0:0:0:
485,46,44715,1,2,0:0:0:0:
176,21,44865,2,0,P|229:81|160:131,1,180.000006866455,6|0,1:0|0:0,0:0:0:0:
64,87,45165,6,0,L|302:42,1,240.000009155274,4|0,1:2|0:0,0:0:0:0:
279,227,45615,2,0,L|215:245,1,60.0000022888184,2|0,0:0|0:0,0:0:0:0:
271,340,45765,5,4,3:0:0:0:
373,239,45915,2,0,P|378:184|332:144,1,120.000004577637,0|0,1:0|0:0,0:0:0:0:
240,133,46140,1,0,0:0:0:0:
139,277,46215,1,4,3:0:0:0:
139,277,46365,2,0,L|144:25,1,240.000009155274,4|0,1:2|3:0,0:0:0:0:
143,37,46740,1,0,3:0:0:0:
143,37,46815,1,0,3:0:0:0:
143,37,46890,1,0,3:0:0:0:
279,80,46965,6,0,B|356:113|356:113|421:70|421:70|504:95,1,240.000009155274,2|0,1:0|3:0,0:0:0:0:
495,92,47340,1,0,3:0:0:0:
495,92,47415,1,0,3:0:0:0:
495,92,47490,1,0,3:0:0:0:
495,92,47565,5,4,1:2:0:0:
438,186,47715,1,0,0:0:0:0:
438,186,47865,1,2,0:0:0:0:
438,186,48015,1,0,0:0:0:0:
280,83,48165,6,0,L|282:221,1,120.000004577637,4|0,3:0|0:0,0:0:0:0:
71,357,48465,1,2,0:0:0:0:
41,203,48615,1,0,1:0:0:0:
195,259,48765,5,0,1:0:0:0:
195,259,48840,1,4,3:0:0:0:
195,259,48915,1,4,3:0:0:0:
195,259,48990,1,4,3:0:0:0:
195,259,49065,1,0,1:0:0:0:
280,83,49215,2,0,L|244:-7,1,60.0000022888184,0|0,1:0|0:0,0:0:0:0:
392,18,49365,5,4,0:0:0:0:
256,192,49440,12,0,50490,0:0:0:0:
257,183,50565,5,0,3:0:0:0:
257,183,50865,1,0,3:0:0:0:
257,183,51165,1,0,3:0:0:0:
257,183,51465,1,0,3:0:0:0:
257,183,51765,6,0,L|257:93,1,80,2|0,0:0|0:0,0:0:0:0:
173,55,52365,5,0,1:0:0:0:
173,55,52665,2,0,L|135:57,3,20,0|0|0|0,3:0|3:0|3:0|3:0,0:0:0:0:
79,102,52965,5,0,3:0:0:0:
79,102,53265,2,0,L|80:138,3,20,0|0|0|0,3:0|3:0|3:0|3:0,0:0:0:0:
17,190,53565,6,0,P|14:238|15:275,1,80,0|0,1:0|0:0,0:0:0:0:
133,337,54165,2,0,L|178:335,1,40,0|0,1:0|0:0,0:0:0:0:
217,225,54465,2,0,L|265:226,1,40,0|0,3:0|0:0,0:0:0:0:
366,236,54765,1,0,1:0:0:0:
366,236,54915,1,0,0:0:0:0:
366,236,55065,2,0,L|367:280,1,40,0|0,3:0|0:0,0:0:0:0:
452,212,55365,6,0,L|453:127,1,80,0|0,3:0|0:0,0:0:0:0:
351,113,55965,2,0,L|350:29,1,80,0|0,3:0|3:0,0:0:0:0:
225,19,56565,6,0,L|144:20,1,80,0|0,3:0|0:0,0:0:0:0:
102,123,57165,1,0,1:0:0:0:
102,123,57315,1,0,3:0:0:0:
102,123,57465,6,0,L|85:122,6,10,0|0|0|0|0|0|0,3:0|3:0|3:0|3:0|3:0|3:0|3:0,0:0:0:0:
36,203,57765,6,0,L|36:246,1,40,0|0,0:0|0:0,0:0:0:0:
122,294,58065,2,0,L|121:335,1,40,2|0,0:0|0:0,0:0:0:0:
290,354,58365,6,0,L|262:354,4,20,2|2|2|0|0,3:2|3:2|3:2|3:0|3:0,0:0:0:0:
449,318,58815,1,2,0:0:0:0:
449,318,58890,1,2,0:0:0:0:
449,318,58965,6,0,L|445:189,1,120.000004577637,4|0,0:0|0:0,0:0:0:0:
331,112,59415,1,4,3:0:0:0:
331,112,59565,2,0,L|208:114,1,120.000004577637,0|0,1:0|0:0,0:0:0:0:
113,108,60165,2,0,P|108:68|69:29,1,90.0000034332277,4|4,3:0|3:0,0:0:0:0:
55,214,60615,1,4,3:0:0:0:
55,214,60765,2,0,L|183:214,1,120.000004577637,0|0,1:0|0:0,0:0:0:0:
304,221,61215,5,0,3:0:0:0:
304,221,61290,1,0,3:0:0:0:
304,221,61365,2,0,P|307:278|354:314,1,120.000004577637,4|2,3:0|0:0,0:0:0:0:
463,287,61815,1,0,1:0:0:0:
463,287,61965,2,0,L|465:356,2,60.0000022888184,0|0|2,1:0|0:0|0:0,0:0:0:0:
512,158,62415,1,0,2:0:0:0:
512,158,62565,2,0,P|465:169|419:158,1,90.0000034332277,4|4,3:0|3:0,0:0:0:0:
314,55,63015,2,0,L|357:55,2,30.0000011444092,4|4|4,3:0|3:0|3:0,0:0:0:0:
203,87,63315,6,0,L|202:153,1,60.0000022888184,2|0,0:0|0:0,0:0:0:0:
112,247,63615,1,0,0:0:0:0:
112,247,63765,2,0,L|112:312,2,60.0000022888184,4|0|0,3:0|0:0|0:0,0:0:0:0:
231,232,64215,1,4,3:0:0:0:
231,232,64365,2,0,L|299:231,1,60.0000022888184,0|0,1:0|0:0,0:0:0:0:
389,128,64665,2,0,L|386:62,1,60.0000022888184,2|0,0:0|3:0,0:0:0:0:
254,41,64965,6,0,L|254:124,1,60.0000022888184,4|0,3:0|0:0,0:0:0:0:
254,101,65190,1,4,3:0:0:0:
346,197,65415,1,4,3:0:0:0:
346,197,65565,2,0,L|346:137,1,60.0000022888184,0|2,1:0|0:0,0:0:0:0:
245,237,65865,1,2,0:0:0:0:
245,237,66015,1,2,0:0:0:0:
213,149,66165,5,4,3:0:0:0:
213,149,66615,1,4,3:0:0:0:
484,119,66765,2,0,L|421:120,1,60.0000022888184,0|2,1:0|0:0,0:0:0:0:
320,39,67065,1,2,0:0:0:0:
320,39,67215,2,0,L|282:38,1,30.0000011444092,2|0,0:0|0:0,0:0:0:0:
149,23,67365,6,0,B|120:67|120:67|144:141,1,120.000004577637,4|4,3:0|3:0,0:0:0:0:
320,39,67965,2,0,L|350:39,3,30.0000011444092,4|2|2|2,1:2|0:0|0:0|0:0,0:0:0:0:
388,33,68265,5,4,3:0:0:0:
403,44,68340,1,4,3:0:0:0:
409,62,68415,1,4,3:0:0:0:
410,80,68490,1,4,3:0:0:0:
399,114,68565,6,0,P|365:114|304:114,1,80,4|0,0:0|0:0,0:0:0:0:
104,115,68865,1,0,1:0:0:0:
226,3,69015,2,0,L|224:100,1,80,0|0,1:2|0:0,0:0:0:0:
242,287,69315,1,0,3:0:0:0:
242,287,69390,1,0,3:0:0:0:
242,287,69465,1,0,3:0:0:0:
242,287,69540,1,0,3:0:0:0:
242,287,69615,1,0,3:0:0:0:
14,230,69765,6,0,B|72:212|72:212|102:229|102:229|180:206,1,160,2|0,1:0|0:0,0:0:0:0:
0,196,70365,1,0,0:0:0:0:
0,196,70665,1,0,0:0:0:0:
438,257,70965,6,0,P|443:217|433:179,1,80,4|0,1:0|0:0,0:0:0:0:
326,41,71265,1,0,1:0:0:0:
222,153,71415,2,0,P|270:158|312:141,1,80,0|0,1:0|0:0,0:0:0:0:
96,181,71715,1,0,3:0:0:0:
96,181,71790,1,0,3:0:0:0:
96,181,71865,1,0,3:0:0:0:
96,181,71940,1,0,3:0:0:0:
96,181,72015,1,0,3:0:0:0:
99,282,72165,6,0,L|7:281,1,80,2|0,1:0|0:0,0:0:0:0:
138,346,72465,2,0,L|229:345,1,80,0|0,1:0|0:0,0:0:0:0:
217,345,72690,1,0,3:0:0:0:
217,345,72765,1,0,3:0:0:0:
261,150,72915,2,0,L|261:61,1,80,0|0,1:0|0:0,0:0:0:0:
368,263,73215,2,0,L|367:309,1,40,0|0,1:0|0:0,0:0:0:0:
419,190,73365,6,0,P|377:177|323:183,1,80,4|0,0:0|0:0,0:0:0:0:
90,117,73665,1,0,1:0:0:0:
77,27,73815,2,0,L|172:27,1,80,0|0,1:0|0:0,0:0:0:0:
274,124,74115,1,0,3:0:0:0:
274,124,74190,1,0,3:0:0:0:
274,124,74265,1,0,3:0:0:0:
274,124,74340,1,0,3:0:0:0:
274,124,74415,1,0,1:0:0:0:
267,119,74640,6,0,L|251:29,1,80,2|0,0:0|0:0,0:0:0:0:
375,220,75015,2,0,L|354:131,1,80,2|0,0:0|0:0,0:0:0:0:
434,39,75315,5,0,3:0:0:0:
434,39,75390,1,0,3:0:0:0:
434,39,75465,1,0,3:0:0:0:
434,39,75615,2,0,L|456:32,3,20,2|2|2|2,3:0|3:0|3:0|3:0,0:0:0:0:
492,46,75765,6,0,P|490:125|411:157,1,160,4|0,0:0|0:0,0:0:0:0:
214,80,76215,2,0,P|265:92|295:124,1,80,0|0,1:0|0:0,0:0:0:0:
230,199,76515,5,0,3:0:0:0:
230,199,76590,1,0,3:0:0:0:
230,199,76665,1,4,3:0:0:0:
230,199,76740,1,0,3:0:0:0:
230,199,76815,1,0,3:0:0:0:
230,199,76890,1,0,0:0:0:0:
230,199,76965,5,4,0:0:0:0:
252,26,77715,5,0,3:0:0:0:
252,26,77790,1,0,3:0:0:0:
252,26,77865,1,0,3:0:0:0:
158,110,78015,1,2,0:0:0:0:
33,65,78165,6,0,P|26:121|17:210,1,120.000004577637,6|0,1:0|0:0,0:0:0:0:
97,320,78465,1,0,1:0:0:0:
246,179,78615,2,0,P|213:131|150:109,1,120.000004577637,2|4,0:1|0:3,0:0:0:0:
345,80,78915,5,2,0:1:0:0:
246,179,79065,1,0,1:0:0:0:
345,80,79215,2,0,L|481:79,1,120.000004577637,2|4,0:1|3:0,0:0:0:0:
359,190,79515,5,2,0:1:0:0:
254,309,79665,1,0,1:0:0:0:
251,85,79815,1,2,0:1:0:0:
151,198,79965,1,4,0:3:0:0:
359,190,80115,1,2,0:1:0:0:
254,309,80265,5,0,1:0:0:0:
239,312,80340,1,2,0:0:0:0:
221,316,80415,1,2,0:0:0:0:
201,320,80490,1,2,0:0:0:0:
159,331,80565,6,0,P|128:289|48:268,1,120.000004577637,2|0,0:1|0:0,0:0:0:0:
241,193,80865,1,0,1:0:0:0:
145,38,81015,2,0,P|215:53|260:100,1,120.000004577637,2|4,2:1|0:3,0:0:0:0:
241,193,81315,1,0,0:0:0:0:
483,83,81465,5,0,1:0:0:0:
250,84,81615,1,2,0:1:0:0:
250,84,81765,1,4,3:0:0:0:
41,79,81915,5,2,0:1:0:0:
141,266,82065,1,0,1:0:0:0:
260,94,82215,1,0,3:0:0:0:
260,94,82290,1,0,3:0:0:0:
260,94,82365,6,0,L|354:91,1,60.0000022888184,2|0,0:1|0:0,0:0:0:0:
394,248,82515,1,2,0:0:0:0:
468,65,82665,5,0,1:0:0:0:
467,56,82740,1,2,0:0:0:0:
466,46,82815,1,2,0:0:0:0:
464,35,82890,1,2,0:0:0:0:
452,14,82965,6,0,P|386:17|335:60,1,120.000004577637,6|0,1:0|0:0,0:0:0:0:
447,202,83265,1,0,1:0:0:0:
258,333,83415,2,0,P|304:291|319:230,1,120.000004577637,2|4,0:1|0:3,0:0:0:0:
83,64,83715,5,2,0:1:0:0:
212,184,83865,1,0,1:0:0:0:
343,47,84015,2,0,L|213:45,1,120.000004577637,2|4,0:1|3:0,0:0:0:0:
127,244,84315,6,0,P|108:170|125:132,1,120.000004577637,2|0,0:1|1:0,0:0:0:0:
343,47,84615,1,2,0:1:0:0:
338,278,84765,5,4,0:3:0:0:
338,278,84915,1,2,0:1:0:0:
223,45,85065,1,0,1:0:0:0:
491,65,85215,2,0,L|490:144,1,60.0000022888184,2|2,0:0|0:0,0:0:0:0:
493,328,85365,6,0,P|439:289|446:225,1,120.000004577637,2|0,0:1|1:0,0:0:0:0:
242,166,85815,5,2,0:1:0:0:
242,166,85965,1,0,1:0:0:0:
59,249,86115,1,0,3:0:0:0:
59,249,86190,1,0,3:0:0:0:
59,249,86265,6,0,L|51:170,1,60.0000022888184,4|0,3:0|0:0,0:0:0:0:
106,338,86415,1,2,1:0:0:0:
113,57,86565,5,4,3:0:0:0:
242,166,86715,5,4,3:0:0:0:
242,166,86790,1,4,3:0:0:0:
242,166,86865,1,4,3:0:0:0:
378,45,87015,5,0,3:0:0:0:
409,41,87090,1,0,3:0:0:0:
449,39,87165,1,4,1:2:0:0:
173,57,87315,1,0,3:0:0:0:
173,57,87390,1,0,3:0:0:0:
173,57,87465,2,0,L|92:57,3,60.0000022888184,0|0|0|0,3:0|3:0|3:0|3:0,0:0:0:0:
82,56,87765,6,0,P|87:118|106:109,1,120.000004577637,2|2,0:0|0:0,0:0:0:0:
306,119,88065,1,0,1:0:0:0:
197,342,88215,2,0,P|219:287|203:231,1,120.000004577637,2|0,0:1|0:0,0:0:0:0:
366,307,88515,5,2,0:1:0:0:
422,106,88665,1,0,1:0:0:0:
422,106,88815,2,0,P|386:101|298:122,1,120.000004577637,2|4,0:1|3:0,0:0:0:0:
197,342,89115,5,2,0:1:0:0:
72,218,89265,1,0,1:0:0:0:
278,209,89415,1,2,0:1:0:0:
93,99,89565,1,4,0:3:0:0:
197,342,89715,5,2,0:0:0:0:
443,224,89865,1,2,1:0:0:0:
443,224,89940,1,2,0:0:0:0:
443,224,90015,1,2,0:0:0:0:
443,224,90090,1,2,0:0:0:0:
443,224,90165,6,0,P|411:173|407:101,1,120.000004577637,2|0,0:1|0:0,0:0:0:0:
270,293,90465,1,0,1:0:0:0:
187,46,90615,2,0,P|244:67|300:155,1,120.000004577637,2|4,2:1|0:3,0:0:0:0:
111,196,90915,5,0,0:0:0:0:
72,350,91065,1,0,1:0:0:0:
69,71,91215,2,0,L|194:44,1,120.000004577637,2|4,0:1|3:0,0:0:0:0:
111,196,91515,1,2,0:1:0:0:
352,104,91665,2,0,L|224:131,1,120.000004577637,0|0,1:0|3:0,0:0:0:0:
69,71,91965,1,2,0:1:0:0:
16,173,92115,6,0,L|86:159,1,60.0000022888184,2|0,0:0|0:0,0:0:0:0:
143,289,92265,1,0,1:0:0:0:
143,289,92340,1,2,0:0:0:0:
143,289,92415,1,2,0:0:0:0:
143,289,92490,1,2,0:0:0:0:
143,289,92565,6,0,P|207:292|245:366,1,120.000004577637,6|0,1:0|0:0,0:0:0:0:
234,128,92865,1,0,1:0:0:0:
39,62,93015,2,0,P|43:126|-14:192,1,120.000004577637,2|4,0:1|0:3,0:0:0:0:
55,347,93315,5,2,0:1:0:0:
130,154,93465,1,0,1:0:0:0:
304,233,93615,2,0,L|167:231,1,120.000004577637,2|4,0:1|3:0,0:0:0:0:
264,70,93915,5,2,0:1:0:0:
406,233,94065,1,0,1:0:0:0:
264,70,94215,1,2,0:1:0:0:
260,340,94365,1,4,0:3:0:0:
264,70,94515,1,2,0:1:0:0:
103,235,94665,1,2,1:0:0:0:
381,125,94815,1,2,0:0:0:0:
259,339,94965,6,0,P|222:293|222:235,1,120.000004577637,6|0,1:0|1:0,0:0:0:0:
153,67,95265,1,0,3:0:0:0:
153,67,95340,1,0,3:0:0:0:
153,67,95415,2,0,P|207:48|282:93,1,120.000004577637,4|2,0:0|1:0,0:0:0:0:
469,199,95715,1,0,3:0:0:0:
469,199,95790,1,0,3:0:0:0:
469,199,95865,1,4,3:0:0:0:
263,69,96015,2,0,L|263:151,1,60.0000022888184,2|0,1:0|0:0,0:0:0:0:
241,258,96165,5,6,1:0:0:0:
106,124,96315,1,2,1:1:0:0:
241,258,96465,1,0,1:0:0:0:
85,329,96615,6,0,L|9:330,1,60.0000022888184,2|0,1:0|0:0,0:0:0:0:
106,124,96765,2,0,L|191:126,1,60.0000022888184,0|0,1:0|0:0,0:0:0:0:
241,258,96915,1,2,0:0:0:0:
353,50,97065,1,2,1:1:0:0:
497,244,97215,2,0,L|430:243,1,60.0000022888184,2|0,0:1|0:0,0:0:0:0:
241,258,97365,6,0,P|208:161|319:119,1,240.000009155274,6|0,1:0|0:0,0:0:0:0:
459,16,97815,1,0,3:0:0:0:
459,16,97890,1,0,3:0:0:0:
459,16,97965,2,0,L|459:153,1,120.000004577637,0|0,1:0|0:0,0:0:0:0:
436,150,98415,1,0,0:0:0:0:
319,297,98565,6,0,P|259:253|189:314,1,180.000006866455,4|4,3:0|0:3,0:0:0:0:
189,312,98865,1,2,0:0:0:0:
189,312,98940,1,2,0:0:0:0:
189,312,99015,1,2,0:0:0:0:
189,312,99090,1,2,0:0:0:0:
206,327,99165,6,0,L|84:327,1,120.000004577637,4|0,1:2|0:0,0:0:0:0:
21,143,99465,1,0,3:0:0:0:
21,143,99540,1,0,3:0:0:0:
21,143,99615,1,0,3:0:0:0:
21,143,99690,1,0,3:0:0:0:
21,143,99765,2,0,B|107:138|107:138|151:66|151:66|242:58,1,240.000009155274,2|0,1:1|0:0,0:0:0:0:
316,71,100140,5,0,3:0:0:0:
316,71,100215,1,0,3:0:0:0:
316,71,100290,1,0,3:0:0:0:
316,71,100365,6,0,P|323:174|397:197,1,180.000006866455,4|0,1:2|0:0,0:0:0:0:
171,343,100815,2,0,L|97:343,1,60.0000022888184,0|0,3:0|0:0,0:0:0:0:
44,242,100965,2,0,B|41:171|41:171|26:151|26:151|24:53,1,180.000006866455,4|4,3:0|0:3,0:0:0:0:
40,47,101265,1,2,0:0:0:0:
61,35,101340,1,2,0:0:0:0:
85,36,101415,1,2,0:0:0:0:
103,59,101490,1,2,0:0:0:0:
118,88,101565,6,0,B|191:89|191:89|244:46|244:46|354:45,1,240.000009155274,4|2,1:2|0:0,0:0:0:0:
479,201,102015,1,2,0:0:0:0:
479,201,102165,2,0,P|450:197|457:22,1,240.000009155274,2|0,1:0|3:0,0:0:0:0:
431,31,102540,1,0,3:0:0:0:
431,31,102615,1,0,3:0:0:0:
431,31,102690,1,0,3:0:0:0:
439,39,102765,6,0,B|394:80|394:80|312:51,1,120.000004577637,0|0,1:0|0:0,0:0:0:0:
53,63,103065,1,0,0:0:0:0:
53,63,103215,1,0,0:0:0:0:
53,63,103365,2,0,B|93:146|-5:152|39:258,1,180.000006866455,0|0,3:0|3:0,0:0:0:0:
204,191,103815,1,0,3:0:0:0:
222,295,103965,6,0,L|303:298,1,60.0000022888184,4|0,1:2|0:0,0:0:0:0:
204,191,104115,2,0,L|117:190,1,60.0000022888184,2|0,0:0|0:0,0:0:0:0:
318,194,104265,1,2,0:0:0:0:
421,325,104415,1,2,0:0:0:0:
421,325,104490,1,0,0:0:0:0:
421,325,104565,6,0,P|413:264|455:209,1,120.000004577637,2|0,1:0|0:0,0:0:0:0:
362,30,104865,1,0,3:0:0:0:
341,29,104940,1,0,3:0:0:0:
320,33,105015,1,0,3:0:0:0:
302,58,105090,1,0,3:0:0:0:
289,99,105165,6,0,B|213:98|213:98|167:155|167:155|66:152,1,240.000009155274,4|0,1:2|3:0,0:0:0:0:
20,316,105765,2,0,L|278:315,1,240.000009155274,4|0,3:0|1:0,0:0:0:0:
459,338,106365,2,0,L|457:267,3,60.0000022888184,0|2|2|2,1:0|0:0|3:2|3:2,0:0:0:0:
478,235,106665,5,4,3:3:0:0:
460,197,106740,1,4,3:3:0:0:
426,174,106815,1,4,3:3:0:0:
383,174,106890,1,4,3:3:0:0:
345,195,106965,6,0,P|324:160|315:121,1,80,4|0,0:0|0:0,0:0:0:0:
171,243,107265,1,0,1:0:0:0:
131,46,107415,2,0,P|166:62|201:101,1,80,0|0,1:2|0:0,0:0:0:0:
185,257,107715,1,0,3:0:0:0:
185,257,107790,1,0,3:0:0:0:
185,257,107865,1,0,3:0:0:0:
185,257,107940,1,0,3:0:0:0:
185,257,108015,1,0,3:0:0:0:
328,358,108165,6,0,B|388:358|388:358|411:330|411:330|479:330,1,160,2|0,1:0|0:0,0:0:0:0:
318,340,108765,2,0,L|491:341,1,160,0|0,0:0|0:0,0:0:0:0:
496,178,109365,6,0,P|491:137|474:94,1,80,4|0,1:0|0:0,0:0:0:0:
357,240,109665,1,0,1:0:0:0:
241,82,109815,2,0,P|280:78|331:90,1,80,0|0,1:0|0:0,0:0:0:0:
373,255,110115,1,0,3:0:0:0:
373,255,110190,1,0,3:0:0:0:
373,255,110265,1,0,3:0:0:0:
373,255,110340,1,0,3:0:0:0:
373,255,110415,1,0,3:0:0:0:
222,331,110565,6,0,B|182:322|182:322|132:332,1,80,2|0,1:0|0:0,0:0:0:0:
106,146,110865,2,0,L|9:147,1,80
26,146,111090,1,0,3:0:0:0:
26,146,111165,1,0,3:0:0:0:
194,110,111315,2,0,L|194:23,1,80,0|0,3:0|0:0,0:0:0:0:
384,149,111615,1,0,0:0:0:0:
384,149,111765,6,0,L|297:151,1,80,4|0,0:0|0:0,0:0:0:0:
270,264,112065,1,0,1:0:0:0:
194,30,112215,2,0,L|274:30,1,80,0|0,1:0|0:0,0:0:0:0:
470,164,112515,5,0,3:0:0:0:
472,139,112590,1,0,3:0:0:0:
474,109,112665,1,0,3:0:0:0:
479,75,112740,1,0,3:0:0:0:
482,46,112815,2,0,L|437:42,1,40,0|0,1:0|0:0,0:0:0:0:
473,37,113040,6,0,L|385:26,1,80,2|0,0:0|0:0,0:0:0:0:
385,19,113415,1,2,0:0:0:0:
215,43,113715,5,0,3:0:0:0:
215,43,113790,1,0,3:0:0:0:
215,43,113865,1,0,3:0:0:0:
215,43,114015,2,0,L|193:36,3,20,2|2|2|2,3:0|3:0|3:0|3:0,0:0:0:0:
102,82,114165,6,0,P|107:95|173:135,1,80,4|0,0:0|0:0,0:0:0:0:
407,268,114615,2,0,P|421:305|413:351,1,80,0|0,1:0|0:0,0:0:0:0:
319,332,114915,5,0,3:0:0:0:
319,332,114990,1,0,3:0:0:0:
319,332,115065,1,4,3:0:0:0:
319,332,115140,1,0,3:0:0:0:
319,332,115215,1,0,3:0:0:0:
319,332,115290,1,0,3:0:0:0:
319,332,115365,1,4,3:0:0:0:
243,238,115665,1,0,3:0:0:0:
166,154,115965,1,0,3:0:0:0:
99,64,116115,1,4,3:0:0:0:
99,64,116190,1,4,3:0:0:0:
99,64,116265,1,4,3:0:0:0:
166,154,116415,1,2,0:0:0:0:
243,238,116565,5,4,1:0:0:0:
256,192,116640,12,0,118815,0:0:0:0:
