osu file format v14

[General]
AudioFilename: audio.mp3
AudioLeadIn: 0
PreviewTime: 77677
Countdown: 0
SampleSet: Soft
StackLeniency: 0.2
Mode: 0
LetterboxInBreaks: 0
WidescreenStoryboard: 1

[Editor]
Bookmarks: 37252
DistanceSpacing: 0.8
BeatDivisor: 12
GridSize: 16
TimelineZoom: 2.899999

[Metadata]
Title:Ashes
TitleUnicode:Ashes
Artist:Zekk
ArtistUnicode:Zekk
Creator:Cheri
Version:Expert
Source:osu!
Tags:Hailie DJ Lucky FA Featured Artist Mappers' Guild MG Instrumental Electronic dj_lucky Dynamix
BeatmapID:2455742
BeatmapSetID:1177475

[Difficulty]
HPDrainRate:5
CircleSize:4
OverallDifficulty:9
ApproachRate:9
SliderMultiplier:1.6
SliderTickRate:1

[Events]
//Background and Video events
0,0,"background.png",0,0
//Break Periods
//Storyboard Layer 0 (Background)
//Storyboard Layer 1 (Fail)
//Storyboard Layer 2 (Pass)
//Storyboard Layer 3 (Foreground)
//Storyboard Layer 4 (Overlay)
//Storyboard Sound Samples

[TimingPoints]
1365,300,4,2,0,100,1,0
1365,-200,4,2,0,100,0,0
10965,-100,4,2,0,70,0,0
20565,-100,4,2,0,50,0,0
25365,-100,4,2,0,60,0,0
30165,-66.6666666666667,4,2,0,70,0,0
38565,-50,4,2,0,90,0,0
39765,-50,4,2,0,70,0,0
40365,-66.6666666666667,4,2,0,70,0,0
49440,-66.6666666666667,4,2,0,5,0,0
50490,-66.6666666666667,4,2,0,5,0,0
50565,-66.6666666666667,4,2,0,40,0,0
51765,-200,4,2,0,40,0,0
58965,-133.333333333333,4,2,0,50,0,0
68565,-100,4,2,0,70,0,0
78165,-66.6666666666667,4,2,0,90,0,1
97365,-66.6666666666667,4,2,0,80,0,0
106965,-100,4,2,0,80,0,0
116640,-100,4,2,0,10,0,0

[Colours]
Combo1 : 131,128,86
Combo2 : 128,128,0
SliderTrackOverride : 150,150,150

[HitObjects]
480,24,1365,6,0,P|464:54|464:125,2,80,4|0|0,0:0|0:0|0:0,0:0:0:0:
416,166,2265,1,2,0:0:0:0:
416,166,2415,2,0,L|371:151,2,40,0|2|0,0:0|0:0|0:0,0:0:0:0:
340,249,2865,6,0,L|366:259,4,20,2|0|2|0|2,0:0|0:0|0:0|0:0|0:0,0:0:0:0:
235,341,3315,1,0,0:0:0:0:
235,341,3465,1,2,0:0:0:0:
235,341,3765,6,0,L|105:355,1,120,2|0,0:0|0:0,0:0:0:0:
43,383,4365,1,2,0:0:0:0:
43,383,4440,1,0,0:0:0:0:
43,383,4515,1,0,0:0:0:0:
21,127,4665,6,0,L|25:145,7,10,0|0|0|0|0|0|0|0,3:0|3:0|3:0|3:0|3:0|3:0|3:0|3:0,0:0:0:0:
69,60,4965,6,0,P|96:85|139:95,1,80,2|0,0:0|0:0,0:0:0:0:
164,82,5340,6,0,L|144:76,3,20,0|0|0|0,3:0|3:0|3:0|3:0,0:0:0:0:
298,48,5715,1,2,0:0:0:0:
298,48,5790,1,0,0:0:0:0:
298,48,5865,2,0,L|322:45,1,20,0|0,3:0|0:0,0:0:0:0:
331,43,6015,1,0,3:0:0:0:
341,42,6090,1,0,3:0:0:0:
368,45,6165,6,0,L|397:125,1,80,2|0,0:0|0:0,0:0:0:0:
448,278,6615,1,0,0:0:0:0:
391,340,6765,1,0,3:0:0:0:
391,340,6840,1,0,3:0:0:0:
391,340,6915,1,0,3:0:0:0:
391,340,6990,1,0,3:0:0:0:
391,340,7065,2,0,L|346:350,2,40,2|0|0,0:0|0:0|0:0,0:0:0:0:
112,338,7965,5,2,0:0:0:0:
112,338,8115,1,0,0:0:0:0:
112,338,8265,1,0,0:0:0:0:
112,338,8565,5,2,0:0:0:0:
87,83,9165,5,2,0:0:0:0:
87,83,9315,1,0,0:0:0:0:
87,83,9465,1,0,0:0:0:0:
87,83,9765,5,2,0:0:0:0:
284,223,10365,5,2,0:0:0:0:
352,334,10515,1,0,3:0:0:0:
352,334,10590,1,0,3:0:0:0:
352,334,10665,1,0,3:0:0:0:
352,334,10815,1,0,0:0:0:0:
485,141,10965,6,0,P|470:89|445:56,1,80,4|0,0:0|0:0,0:0:0:0:
371,181,11265,1,0,1:0:0:0:
352,334,11415,2,0,P|388:344|444:342,1,80,0|0,1:2|0:0,0:0:0:0:
387,199,11715,1,0,3:0:0:0:
387,199,11790,1,0,3:0:0:0:
387,199,11865,1,0,3:0:0:0:
387,199,11940,1,0,3:0:0:0:
387,199,12015,1,0,3:0:0:0:
207,322,12165,6,0,B|157:323|157:323|131:350|131:350|56:350,1,160,2|0,1:0|0:0,0:0:0:0:
210,303,12765,2,0,L|37:302,1,160,0|0,0:0|0:0,0:0:0:0:
106,53,13365,6,0,P|89:85|89:140,1,80,4|0,1:0|0:0,0:0:0:0:
274,235,13665,1,0,1:0:0:0:
389,84,13815,2,0,P|328:65|298:67,1,80,0|0,1:0|0:0,0:0:0:0:
329,83,14115,1,0,3:0:0:0:
329,83,14190,1,0,3:0:0:0:
329,83,14265,1,0,3:0:0:0:
329,83,14340,1,0,3:0:0:0:
329,83,14415,1,0,3:0:0:0:
206,269,14565,6,0,B|224:306|224:306|274:317,1,80,2|0,1:0|0:0,0:0:0:0:
179,231,14865,2,0,P|153:221|95:221,1,80,0|0,0:0|0:0,0:0:0:0:
78,242,15090,1,0,3:0:0:0:
78,242,15165,1,0,3:0:0:0:
78,242,15315,2,0,L|66:160,1,80,0|0,3:0|0:0,0:0:0:0:
472,305,15615,2,0,L|475:353,1,40,0|0,0:0|0:0,0:0:0:0:
512,232,15765,6,0,L|424:216,1,80,4|0,0:0|0:0,0:0:0:0:
218,367,16065,1,0,1:0:0:0:
29,343,16215,2,0,L|113:356,1,80,0|0,1:0|0:0,0:0:0:0:
279,232,16515,5,0,3:0:0:0:
255,226,16590,1,0,3:0:0:0:
227,221,16665,1,0,3:0:0:0:
197,213,16740,1,0,3:0:0:0:
154,201,16815,2,0,L|144:244,1,40,0|0,1:0|0:0,0:0:0:0:
117,160,17040,6,0,L|92:250,1,80,2|0,0:0|0:0,0:0:0:0:
50,19,17415,2,0,L|22:97,1,80,2|0,0:0|0:0,0:0:0:0:
131,58,17715,5,0,3:0:0:0:
131,58,17790,1,0,3:0:0:0:
131,58,17865,1,0,3:0:0:0:
131,58,18015,2,0,L|153:65,3,20,2|2|2|2,3:0|3:0|3:0|3:0,0:0:0:0:
254,44,18165,6,0,P|319:84|398:52,1,160,4|0,0:0|0:0,0:0:0:0:
411,340,18615,2,0,P|397:303|405:257,1,80,0|0,1:0|0:0,0:0:0:0:
487,303,18915,5,0,3:0:0:0:
487,303,18990,1,0,3:0:0:0:
487,303,19065,1,4,3:0:0:0:
487,303,19140,1,0,3:0:0:0:
487,303,19215,1,0,3:0:0:0:
30,313,19365,2,0,L|114:313,1,80,4|0,0:0|0:0,0:0:0:0:
168,230,19590,2,0,L|266:230,1,80,4|0,0:0|0:0,0:0:0:0:
313,154,19815,2,0,L|403:156,1,80,4|0,0:0|0:0,0:0:0:0:
460,102,20040,1,4,0:0:0:0:
248,230,20265,1,4,3:0:0:0:
110,313,20415,1,4,3:0:0:0:
110,313,20490,1,4,3:0:0:0:
110,313,20565,5,4,0:0:0:0:
248,230,20715,1,0,0:0:0:0:
248,230,21015,1,0,0:0:0:0:
248,230,21315,1,0,0:0:0:0:
248,230,21615,1,0,0:0:0:0:
285,233,21765,6,0,L|371:249,1,80,2|0,0:0|0:0,0:0:0:0:
275,201,22065,2,0,L|194:184,1,80,0|0,0:0|0:0,0:0:0:0:
324,282,22365,2,0,L|413:300,1,80,2|0,0:0|0:0,0:0:0:0:
208,152,22665,2,0,L|115:136,1,80,0|0,0:0|0:0,0:0:0:0:
395,324,22965,2,0,L|490:341,1,80,2|0,0:0|0:0,0:0:0:0:
142,105,23265,2,0,L|50:89,1,80
282,225,23565,5,0,3:0:0:0:
282,225,23640,1,0,3:0:0:0:
282,225,23715,1,2,3:0:0:0:
282,225,23790,1,0,3:0:0:0:
282,225,23865,1,2,3:0:0:0:
207,242,24015,1,0,0:0:0:0:
110,166,24165,1,4,3:0:0:0:
70,99,24315,1,0,3:0:0:0:
70,99,24390,1,0,3:0:0:0:
70,99,24465,1,8,3:0:0:0:
80,350,24615,1,0,3:0:0:0:
80,350,24690,1,0,3:0:0:0:
80,350,24765,1,8,3:0:0:0:
373,205,24915,1,0,3:0:0:0:
373,205,24990,1,0,3:0:0:0:
373,205,25065,1,8,3:0:0:0:
471,158,25215,1,0,0:0:0:0:
471,158,25290,1,0,0:0:0:0:
373,205,25365,6,0,L|377:261,1,40,4|0,0:0|0:0,0:0:0:0:
296,288,25515,1,0,3:0:0:0:
296,288,25590,1,0,3:0:0:0:
296,288,25665,1,0,3:0:0:0:
212,229,25815,1,0,0:0:0:0:
149,294,25965,1,0,3:0:0:0:
149,294,26040,1,0,3:0:0:0:
149,294,26115,1,0,3:0:0:0:
149,294,26190,1,0,3:0:0:0:
30,194,26415,1,4,3:0:0:0:
30,194,26490,1,0,3:0:0:0:
30,194,26565,1,4,3:2:0:0:
107,25,26715,5,0,3:0:0:0:
119,36,26790,1,0,3:0:0:0:
132,45,26865,1,4,3:0:0:0:
210,36,27015,1,2,0:0:0:0:
303,47,27165,1,0,3:0:0:0:
398,61,27315,1,0,3:0:0:0:
398,61,27390,1,0,3:0:0:0:
398,61,27465,1,4,3:3:0:0:
494,72,27615,1,0,3:0:0:0:
494,72,27690,1,0,3:0:0:0:
398,61,27765,6,0,L|424:142,1,80,4|0,0:0|0:0,0:0:0:0:
400,158,27990,1,0,3:0:0:0:
400,158,28065,1,0,3:0:0:0:
297,215,28215,1,0,3:0:0:0:
195,269,28365,1,0,3:0:0:0:
87,326,28515,1,0,3:0:0:0:
87,326,28590,1,0,3:0:0:0:
400,158,28815,1,0,3:0:0:0:
87,326,28965,5,4,3:0:0:0:
512,145,30165,6,0,P|502:66|355:57,1,240.000009155274,6|0,1:0|0:0,0:0:0:0:
352,70,30540,1,0,3:0:0:0:
330,81,30615,1,0,3:0:0:0:
306,77,30690,1,0,3:0:0:0:
251,9,30765,6,0,P|220:63|236:130,1,120.000004577637,0|0,1:0|0:0,0:0:0:0:
254,150,31215,1,0,0:0:0:0:
473,373,31365,6,0,B|508:305|508:305|357:194,1,240.000009155274,4|0,3:0|0:0,0:0:0:0:
364,240,31740,1,2,0:0:0:0:
362,250,31815,1,2,0:0:0:0:
359,260,31890,1,2,0:0:0:0:
324,340,31965,6,0,L|137:340,1,180.000006866455,4|0,1:2|0:0,0:0:0:0:
144,340,32265,1,0,3:0:0:0:
144,340,32340,1,0,3:0:0:0:
144,340,32415,1,0,3:0:0:0:
144,340,32490,1,0,3:0:0:0:
23,383,32565,6,0,B|16:317|16:317|0:282|0:282|27:133,1,240.000009155274,2|0,1:1|0:0,0:0:0:0:
15,114,32940,1,0,3:0:0:0:
32,110,33015,1,0,3:0:0:0:
50,106,33090,1,0,3:0:0:0:
127,171,33165,6,0,P|203:103|261:48,1,180.000006866455,4|0,1:2|0:0,0:0:0:0:
285,54,33615,2,0,L|232:111,1,60.0000022888184,0|0,3:0|0:0,0:0:0:0:
315,271,33765,6,0,P|370:265|415:154,1,180.000006866455,4|0,3:0|0:0,0:0:0:0:
405,173,34065,1,2,0:0:0:0:
424,190,34140,1,2,0:0:0:0:
444,186,34215,1,2,0:0:0:0:
454,161,34290,1,2,0:0:0:0:
469,73,34365,6,0,B|430:50|318:68|354:152|235:94,1,240.000009155274,4|2,1:2|0:0,0:0:0:0:
46,353,34815,2,0,P|53:311|39:284,1,60.0000022888184,2|0,0:0|0:0,0:0:0:0:
163,371,34965,6,0,P|164:310|313:298,1,240.000009155274,2|0,1:0|3:0,0:0:0:0:
309,292,35340,1,0,3:0:0:0:
309,292,35415,1,0,3:0:0:0:
309,292,35490,1,0,3:0:0:0:
391,345,35565,6,0,P|405:304|367:232,1,120.000004577637,0|0,1:0|0:0,0:0:0:0:
375,238,35865,1,0,0:0:0:0:
375,238,36015,1,0,0:0:0:0:
375,238,36165,6,0,L|301:225,7,60.0000022888184,4|0|0|0|0|0|0|0,3:0|3:0|3:0|3:0|3:0|3:0|0:0|0:0,0:0:0:0:
117,107,36765,6,0,L|200:129,1,60.0000022888184,4|0,1:2|0:0,0:0:0:0:
333,91,36915,2,0,L|247:72,1,60.0000022888184,2|0,0:0|0:0,0:0:0:0:
69,223,37065,6,0,L|144:248,1,60.0000022888184,2|0,0:0|0:0,0:0:0:0:
214,367,37215,2,0,L|131:337,1,60.0000022888184,2|0,0:0|0:0,0:0:0:0:
375,238,37365,6,0,P|379:166|439:145,1,120.000004577637,2|0,1:0|0:0,0:0:0:0:
442,384,37665,1,0,3:0:0:0:
429,371,37740,1,0,3:0:0:0:
426,342,37815,1,0,3:0:0:0:
443,321,37890,1,0,3:0:0:0:
512,370,37965,6,0,P|509:243|507:121,1,240.000009155274,4|0,1:2|3:0,0:0:0:0:
480,93,38565,6,0,B|436:77|436:77|376:96,1,80,2|0,1:0|0:0,0:0:0:0:
308,248,38715,2,0,B|264:261|264:261|214:244,1,80,0|0,1:0|0:0,0:0:0:0:
209,228,39015,1,4,3:0:0:0:
24,121,39165,2,0,B|17:83|17:83|29:39,1,80,0|0,1:0|0:0,0:0:0:0:
88,357,39315,2,0,L|88:172,1,160,2|0,1:0|0:0,0:0:0:0:
88,197,39615,1,0,0:0:0:0:
88,197,39690,1,0,0:0:0:0:
88,197,39765,6,0,P|156:200|113:33,1,320,6|0,1:0|0:0,0:0:0:0:
90,36,40140,1,0,3:0:0:0:
65,63,40215,1,0,3:0:0:0:
64,100,40290,1,0,3:0:0:0:
88,197,40365,6,0,P|95:268|56:310,1,120.000004577637,0|0,1:0|0:0,0:0:0:0:
32,315,40815,1,0,0:0:0:0:
440,214,40965,6,0,B|478:272|478:272|476:319|476:319|538:407,1,180.000006866455,4|0,3:0|0:0,0:0:0:0:
490,361,41265,1,0,0:0:0:0:
467,340,41340,1,2,0:0:0:0:
463,299,41415,1,2,0:0:0:0:
500,264,41490,1,2,0:0:0:0:
440,214,41565,6,0,P|332:210|300:122,1,180.000006866455,4|0,1:2|0:0,0:0:0:0:
281,158,41865,1,0,3:0:0:0:
272,159,41940,1,0,3:0:0:0:
261,160,42015,1,0,3:0:0:0:
249,162,42090,1,0,3:0:0:0:
166,187,42165,6,0,L|193:379,1,180.000006866455,2|0,1:1|0:0,0:0:0:0:
180,368,42465,1,0,0:0:0:0:
172,370,42540,1,0,3:0:0:0:
165,373,42615,1,0,3:0:0:0:
159,374,42690,1,0,3:0:0:0:
42,307,42765,6,0,B|102:308|102:308|123:270|123:270|279:270,1,240.000009155274,4|0,1:2|0:0,0:0:0:0:
507,132,43365,6,0,P|509:83|354:88,1,240.000009155274,2|2,1:0|0:0,0:0:0:0:
344,94,43740,1,2,0:0:0:0:
317,103,43815,1,2,0:0:0:0:
284,90,43890,1,2,0:0:0:0:
242,20,43965,5,4,1:2:0:0:
242,20,44040,1,0,3:0:0:0:
242,20,44115,1,0,3:0:0:0:
242,20,44190,1,0,3:0:0:0:
242,20,44265,1,0,3:0:0:0:
33,359,44565,5,2,0:0:0:0:
33,359,44715,1,2,0:0:0:0:
485,343,44865,6,0,B|363:308|363:308|387:237,1,180.000006866455,6|0,1:0|0:0,0:0:0:0:
463,296,45165,6,0,L|226:356,1,240.000009155274,4|0,1:2|0:0,0:0:0:0:
380,258,45615,2,0,L|294:277,1,60.0000022888184,2|0,0:0|0:0,0:0:0:0:
456,62,45765,5,4,3:0:0:0:
456,62,45915,2,0,P|371:123|385:171,1,120.000004577637,0|0,1:0|0:0,0:0:0:0:
382,148,46140,1,0,0:0:0:0:
380,258,46215,2,0,P|416:248|456:215,1,60.0000022888184,4|0,3:0|0:0,0:0:0:0:
162,194,46365,2,0,P|128:288|236:355,1,240.000009155274,4|0,1:2|3:0,0:0:0:0:
230,355,46740,1,0,3:0:0:0:
230,355,46815,1,0,3:0:0:0:
230,355,46890,1,0,3:0:0:0:
162,194,46965,6,0,L|-15:-3,1,240.000009155274,2|0,1:0|3:0,0:0:0:0:
1,15,47340,1,0,3:0:0:0:
1,15,47415,1,0,3:0:0:0:
1,15,47490,1,0,3:0:0:0:
1,15,47565,5,4,1:2:0:0:
162,194,47715,1,0,0:0:0:0:
322,359,47865,1,2,0:0:0:0:
162,194,48015,1,0,0:0:0:0:
322,359,48165,6,0,L|283:223,1,120.000004577637,4|0,3:0|0:0,0:0:0:0:
334,112,48465,2,0,L|303:23,1,60.0000022888184,2|0,0:0|0:0,0:0:0:0:
413,62,48615,2,0,L|454:157,1,60.0000022888184,0|0,1:0|0:0,0:0:0:0:
379,206,48765,5,0,1:0:0:0:
379,206,48840,1,4,3:0:0:0:
379,206,48915,1,4,3:0:0:0:
379,206,48990,1,4,3:0:0:0:
379,206,49065,2,0,L|422:298,1,60.0000022888184,0|0,1:0|0:0,0:0:0:0:
139,138,49215,2,0,L|175:228,1,60.0000022888184,0|0,1:0|0:0,0:0:0:0:
77,238,49365,5,4,0:0:0:0:
256,192,49440,12,0,50490,0:0:0:0:
255,201,50565,5,0,3:0:0:0:
255,201,50865,1,0,3:0:0:0:
255,201,51165,1,0,3:0:0:0:
255,201,51465,1,0,3:0:0:0:
255,201,51765,6,0,L|255:291,1,80,2|0,0:0|0:0,0:0:0:0:
339,329,52365,5,0,1:0:0:0:
339,329,52665,2,0,L|377:327,3,20,0|0|0|0,3:0|3:0|3:0|3:0,0:0:0:0:
433,282,52965,5,0,3:0:0:0:
433,282,53265,2,0,L|432:246,3,20,0|0|0|0,3:0|3:0|3:0|3:0,0:0:0:0:
494,194,53565,6,0,L|493:99,1,80,0|0,1:0|0:0,0:0:0:0:
360,67,54165,5,0,1:0:0:0:
360,67,54315,1,0,0:0:0:0:
360,67,54465,1,0,3:0:0:0:
360,67,54615,1,0,0:0:0:0:
360,67,54765,2,0,L|318:66,1,40,0|0,1:0|0:0,0:0:0:0:
255,124,55065,2,0,L|205:122,1,40,0|0,3:0|0:0,0:0:0:0:
87,151,55365,6,0,L|86:236,1,80,0|0,3:0|0:0,0:0:0:0:
185,318,55965,1,0,3:0:0:0:
185,318,56265,1,0,3:0:0:0:
185,318,56565,6,0,L|264:321,1,80,0|0,3:0|0:0,0:0:0:0:
362,261,57165,1,0,1:0:0:0:
362,261,57315,1,0,3:0:0:0:
362,261,57465,6,0,L|379:262,6,10,0|0|0|0|0|0|0,3:0|3:0|3:0|3:0|3:0|3:0|3:0,0:0:0:0:
490,276,57765,6,0,L|490:233,1,40,0|0,0:0|0:0,0:0:0:0:
432,188,58065,1,2,0:0:0:0:
360,151,58215,1,0,0:0:0:0:
256,86,58365,5,2,3:2:0:0:
256,86,58440,1,2,3:2:0:0:
256,86,58515,1,2,3:2:0:0:
256,86,58590,1,0,3:0:0:0:
256,86,58665,1,0,3:0:0:0:
63,66,58815,1,2,0:0:0:0:
63,66,58890,1,2,0:0:0:0:
63,66,58965,6,0,L|53:192,1,120.000004577637,4|0,0:0|0:0,0:0:0:0:
181,272,59415,1,4,3:0:0:0:
181,272,59565,2,0,L|306:288,1,120.000004577637,0|0,1:0|0:0,0:0:0:0:
323,282,60165,6,0,B|331:237|331:237|314:182,2,90.0000034332277,4|4|4,3:0|3:0|3:0,0:0:0:0:
384,143,60765,2,0,L|432:281,1,120.000004577637,0|0,1:0|0:0,0:0:0:0:
481,140,61215,5,0,3:0:0:0:
481,140,61290,1,0,3:0:0:0:
481,140,61365,2,0,P|456:88|393:47,1,120.000004577637,4|2,3:0|0:0,0:0:0:0:
423,256,61815,1,0,1:0:0:0:
423,256,61965,2,0,L|471:322,2,60.0000022888184,0|0|2,1:0|0:0|0:0,0:0:0:0:
260,341,62415,1,0,2:0:0:0:
260,341,62565,2,0,L|181:342,1,60.0000022888184,4|0,3:0|0:0,0:0:0:0:
176,332,62790,1,4,3:0:0:0:
83,370,63015,1,4,3:0:0:0:
83,370,63090,1,4,3:0:0:0:
83,370,63165,1,4,3:0:0:0:
72,220,63315,6,0,L|98:277,1,60.0000022888184,2|0,0:0|0:0,0:0:0:0:
145,157,63615,1,0,0:0:0:0:
145,157,63765,2,0,L|170:94,2,60.0000022888184,4|0|0,3:0|0:0|0:0,0:0:0:0:
255,63,64215,1,4,3:0:0:0:
346,107,64365,2,0,L|374:188,1,60.0000022888184,0|0,1:0|0:0,0:0:0:0:
255,63,64665,1,2,0:0:0:0:
258,301,64815,1,0,3:0:0:0:
258,301,64965,6,0,L|258:218,1,60.0000022888184,4|0,3:0|0:0,0:0:0:0:
250,232,65190,1,4,3:0:0:0:
155,369,65415,1,4,3:0:0:0:
318,137,65565,5,0,1:0:0:0:
239,226,65715,1,2,0:0:0:0:
318,137,65865,1,2,0:0:0:0:
239,226,66015,2,0,L|189:225,1,30.0000011444092,2|0,0:0|0:0,0:0:0:0:
130,288,66165,5,4,3:0:0:0:
318,137,66615,1,4,3:0:0:0:
39,54,66765,5,0,1:0:0:0:
93,113,66915,1,2,0:0:0:0:
150,171,67065,1,2,0:0:0:0:
318,137,67215,2,0,L|364:136,1,30.0000011444092,2|0,0:0|0:0,0:0:0:0:
448,146,67365,6,0,B|411:221|411:221|436:233|436:233|451:254,1,120.000004577637,4|4,3:0|3:0,0:0:0:0:
106,361,67965,1,4,1:2:0:0:
106,361,68040,1,2,0:0:0:0:
106,361,68115,1,2,0:0:0:0:
106,361,68190,1,2,0:0:0:0:
43,306,68265,5,4,3:0:0:0:
36,274,68340,1,4,3:0:0:0:
30,241,68415,1,4,3:0:0:0:
25,206,68490,1,4,3:0:0:0:
52,135,68565,6,0,P|71:114|128:92,1,80,4|0,0:0|0:0,0:0:0:0:
338,59,68865,1,0,1:0:0:0:
332,281,69015,2,0,P|296:291|240:289,1,80,0|0,1:2|0:0,0:0:0:0:
356,77,69315,1,0,3:0:0:0:
356,77,69390,1,0,3:0:0:0:
356,77,69465,1,0,3:0:0:0:
356,77,69540,1,0,3:0:0:0:
356,77,69615,1,0,3:0:0:0:
512,146,69765,6,0,B|462:147|462:147|436:174|436:174|361:174,1,160,2|0,1:0|0:0,0:0:0:0:
512,156,70365,2,0,L|339:155,1,160,0|0,0:0|0:0,0:0:0:0:
72,364,70965,6,0,P|62:321|70:279,1,80,4|0,1:0|0:0,0:0:0:0:
193,132,71265,1,0,1:0:0:0:
298,303,71415,2,0,P|242:304|207:286,1,80,0|0,1:0|0:0,0:0:0:0:
209,149,71715,1,0,3:0:0:0:
209,149,71790,1,0,3:0:0:0:
209,149,71865,1,0,3:0:0:0:
209,149,71940,1,0,3:0:0:0:
209,149,72015,1,0,3:0:0:0:
413,102,72165,6,0,B|454:108|454:108|505:103,1,80,2|0,1:0|0:0,0:0:0:0:
433,153,72465,2,0,L|342:154,1,80,0|0,1:0|0:0,0:0:0:0:
321,171,72690,1,0,3:0:0:0:
321,171,72765,1,0,3:0:0:0:
321,171,72915,2,0,L|300:94,1,80,0|0,1:0|0:0,0:0:0:0:
475,290,73215,2,0,L|467:341,1,40,0|0,1:0|0:0,0:0:0:0:
357,283,73365,6,0,L|269:267,1,80,4|0,0:0|0:0,0:0:0:0:
59,119,73665,1,0,1:0:0:0:
76,26,73815,2,0,L|160:39,1,80,0|0,1:0|0:0,0:0:0:0:
466,50,74115,5,0,3:0:0:0:
442,58,74190,1,0,3:0:0:0:
416,69,74265,1,0,3:0:0:0:
387,80,74340,1,0,3:0:0:0:
345,94,74415,2,0,L|360:135,1,40,0|0,1:0|0:0,0:0:0:0:
316,99,74640,6,0,L|360:196,1,80,2|0,0:0|0:0,0:0:0:0:
307,158,75015,2,0,L|353:256,1,80,2|0,0:0|0:0,0:0:0:0:
160,353,75315,5,0,3:0:0:0:
160,353,75390,1,0,3:0:0:0:
160,353,75465,1,0,3:0:0:0:
160,353,75615,2,0,L|182:360,3,20,2|2|2|2,3:0|3:0|3:0|3:0,0:0:0:0:
63,299,75765,6,0,P|65:220|144:188,1,160,4|0,0:0|0:0,0:0:0:0:
463,95,76215,2,0,P|449:58|419:26,1,80,0|0,1:0|0:0,0:0:0:0:
373,120,76515,5,0,3:0:0:0:
373,120,76590,1,0,3:0:0:0:
373,120,76665,1,4,3:0:0:0:
373,120,76740,1,0,3:0:0:0:
373,120,76815,1,0,3:0:0:0:
373,120,76890,1,0,0:0:0:0:
373,120,76965,5,4,0:0:0:0:
45,370,77715,5,0,3:0:0:0:
45,370,77790,1,0,3:0:0:0:
45,370,77865,1,0,3:0:0:0:
12,251,78015,1,2,0:0:0:0:
479,319,78165,6,0,P|469:260|513:177,1,120.000004577637,6|0,1:0|0:0,0:0:0:0:
153,194,78465,1,0,1:0:0:0:
31,40,78615,2,0,P|64:88|69:157,1,120.000004577637,2|4,0:1|0:3,0:0:0:0:
153,194,78915,5,2,0:1:0:0:
246,145,79065,1,0,1:0:0:0:
336,201,79215,1,2,0:1:0:0:
336,201,79365,1,4,3:0:0:0:
153,194,79515,5,2,0:1:0:0:
149,102,79665,1,0,1:0:0:0:
240,52,79815,1,2,0:1:0:0:
341,95,79965,1,4,0:3:0:0:
336,201,80115,1,2,0:1:0:0:
149,102,80265,5,0,1:0:0:0:
134,99,80340,1,2,0:0:0:0:
116,95,80415,1,2,0:0:0:0:
96,91,80490,1,2,0:0:0:0:
23,134,80565,6,0,P|16:67|48:25,1,120.000004577637,2|0,0:1|0:0,0:0:0:0:
336,201,80865,1,0,1:0:0:0:
370,300,81015,2,0,P|294:303|249:256,1,120.000004577637,2|4,2:1|0:3,0:0:0:0:
341,95,81315,1,0,0:0:0:0:
471,305,81465,5,0,1:0:0:0:
182,284,81615,1,2,0:1:0:0:
182,284,81765,1,4,3:0:0:0:
471,305,81915,5,2,0:1:0:0:
484,193,82065,1,0,1:0:0:0:
412,153,82215,1,0,3:0:0:0:
412,153,82290,1,0,3:0:0:0:
412,153,82365,6,0,L|318:156,1,60.0000022888184,2|0,0:1|0:0,0:0:0:0:
228,107,82515,2,0,L|132:109,1,60.0000022888184,2|0,0:0|0:0,0:0:0:0:
44,319,82665,5,0,1:0:0:0:
45,328,82740,1,2,0:0:0:0:
46,338,82815,1,2,0:0:0:0:
48,349,82890,1,2,0:0:0:0:
60,370,82965,6,0,P|126:367|177:324,1,120.000004577637,6|0,1:0|0:0,0:0:0:0:
352,154,83265,1,0,1:0:0:0:
229,12,83415,2,0,P|183:54|168:115,1,120.000004577637,2|4,0:1|0:3,0:0:0:0:
454,287,83715,5,2,0:1:0:0:
359,319,83865,1,0,1:0:0:0:
277,269,84015,1,2,0:1:0:0:
277,269,84165,1,4,3:0:0:0:
493,114,84315,5,2,0:1:0:0:
249,111,84465,1,0,1:0:0:0:
454,287,84615,1,2,0:1:0:0:
309,47,84765,5,4,0:3:0:0:
186,44,84915,1,2,0:1:0:0:
277,269,85065,1,0,1:0:0:0:
29,355,85215,2,0,L|30:276,1,60.0000022888184,2|2,0:0|0:0,0:0:0:0:
14,59,85365,6,0,B|96:59|96:59|75:33|75:33|76:-1,1,120.000004577637,2|0,0:1|1:0,0:0:0:0:
277,269,85815,5,2,0:1:0:0:
75,28,85965,1,0,1:0:0:0:
14,59,86115,1,0,3:0:0:0:
14,59,86190,1,0,3:0:0:0:
14,59,86265,6,0,L|22:138,1,60.0000022888184,4|0,3:0|0:0,0:0:0:0:
91,244,86415,2,0,L|78:136,1,60.0000022888184,2|0,1:0|0:0,0:0:0:0:
138,351,86565,5,4,3:0:0:0:
277,269,86715,5,4,3:0:0:0:
277,269,86790,1,4,3:0:0:0:
277,269,86865,1,4,3:0:0:0:
507,191,87015,5,0,3:0:0:0:
474,179,87090,1,0,3:0:0:0:
436,166,87165,1,4,1:2:0:0:
345,46,87315,1,0,3:0:0:0:
345,46,87390,1,0,3:0:0:0:
345,46,87465,2,0,L|426:77,3,60.0000022888184,0|0|0|0,3:0|3:0|3:0|3:0,0:0:0:0:
281,95,87765,5,2,0:0:0:0:
267,94,87915,1,2,0:0:0:0:
11,95,88065,1,0,1:0:0:0:
54,326,88215,2,0,P|38:264|75:200,1,120.000004577637,2|0,0:1|0:0,0:0:0:0:
453,232,88515,5,2,0:1:0:0:
370,179,88665,1,0,1:0:0:0:
283,228,88815,1,2,0:1:0:0:
283,228,88965,1,4,3:0:0:0:
468,343,89115,5,2,0:1:0:0:
512,183,89265,1,0,1:0:0:0:
352,94,89415,1,2,0:1:0:0:
202,222,89565,1,4,0:3:0:0:
468,343,89715,6,0,L|377:344,1,60.0000022888184,2|0,0:0|0:0,0:0:0:0:
202,222,89865,1,2,1:0:0:0:
219,187,89940,1,2,0:0:0:0:
210,144,90015,1,2,0:0:0:0:
182,124,90090,1,2,0:0:0:0:
149,107,90165,6,0,P|170:65|248:20,1,120.000004577637,2|0,0:1|0:0,0:0:0:0:
401,198,90465,1,0,1:0:0:0:
206,344,90615,2,0,P|149:323|93:235,1,120.000004577637,2|4,2:1|0:3,0:0:0:0:
401,198,90915,5,0,0:0:0:0:
434,84,91065,1,0,1:0:0:0:
342,9,91215,1,2,0:1:0:0:
342,9,91365,1,4,3:0:0:0:
397,299,91515,5,2,0:1:0:0:
401,198,91665,1,0,1:0:0:0:
434,84,91815,1,0,3:0:0:0:
358,384,91965,1,2,0:1:0:0:
410,85,92115,1,2,0:0:0:0:
388,84,92190,1,0,0:0:0:0:
369,95,92265,1,0,1:0:0:0:
369,95,92340,1,2,0:0:0:0:
369,95,92415,1,2,0:0:0:0:
369,95,92490,1,2,0:0:0:0:
369,95,92565,6,0,P|305:92|267:18,1,120.000004577637,6|0,1:0|0:0,0:0:0:0:
89,314,92865,1,0,1:0:0:0:
489,344,93015,2,0,P|485:280|542:214,1,120.000004577637,2|4,0:1|0:3,0:0:0:0:
193,342,93315,5,2,0:1:0:0:
89,314,93465,1,0,1:0:0:0:
86,194,93615,1,2,0:1:0:0:
86,194,93765,1,4,3:0:0:0:
292,342,93915,5,2,0:1:0:0:
121,109,94065,1,0,1:0:0:0:
260,184,94215,1,2,0:1:0:0:
228,34,94365,1,4,0:3:0:0:
55,264,94515,1,2,0:1:0:0:
355,115,94665,1,2,1:0:0:0:
28,95,94815,1,2,0:0:0:0:
446,152,94965,6,0,P|446:95|368:34,1,120.000004577637,6|0,1:0|1:0,0:0:0:0:
398,261,95265,1,0,3:0:0:0:
398,261,95340,1,0,3:0:0:0:
448,322,95415,2,0,P|394:338|330:303,1,120.000004577637,4|2,0:0|1:0,0:0:0:0:
43,149,95715,1,0,3:0:0:0:
36,124,95790,1,0,3:0:0:0:
28,95,95865,1,4,3:0:0:0:
120,295,96015,2,0,L|155:388,1,60.0000022888184,2|0,1:0|0:0,0:0:0:0:
250,137,96165,5,6,1:0:0:0:
472,75,96315,1,2,1:1:0:0:
250,137,96465,1,0,1:0:0:0:
120,295,96615,2,0,L|212:275,1,60.0000022888184,2|0,1:0|0:0,0:0:0:0:
250,137,96765,2,0,L|166:147,1,60.0000022888184,0|0,1:0|0:0,0:0:0:0:
305,263,96915,1,2,0:0:0:0:
472,75,97065,1,2,1:1:0:0:
135,352,97215,2,0,P|120:303|129:255,1,60.0000022888184,2|0,0:1|0:0,0:0:0:0:
42,46,97365,6,0,P|153:38|190:144,1,240.000009155274,6|0,1:0|0:0,0:0:0:0:
171,156,97740,1,0,3:0:0:0:
148,160,97815,1,0,3:0:0:0:
127,157,97890,1,0,3:0:0:0:
49,146,97965,2,0,P|18:200|40:267,1,120.000004577637,0|0,1:0|0:0,0:0:0:0:
282,192,98415,1,0,0:0:0:0:
483,57,98565,6,0,B|517:24|517:24|381:23,1,180.000006866455,4|4,3:0|0:3,0:0:0:0:
352,30,98865,1,2,0:0:0:0:
335,38,98940,1,2,0:0:0:0:
325,56,99015,1,2,0:0:0:0:
325,84,99090,1,2,0:0:0:0:
370,149,99165,6,0,L|183:149,1,180.000006866455,4|0,1:2|0:0,0:0:0:0:
190,149,99465,1,0,3:0:0:0:
190,149,99540,1,0,3:0:0:0:
190,149,99615,1,0,3:0:0:0:
190,149,99690,1,0,3:0:0:0:
77,71,99765,6,0,B|59:190|59:190|86:239|86:239|79:305,1,240.000009155274,2|0,1:1|0:0,0:0:0:0:
105,318,100140,1,0,3:0:0:0:
119,324,100215,1,0,3:0:0:0:
137,331,100290,1,0,3:0:0:0:
265,360,100365,6,0,P|341:292|399:237,1,180.000006866455,4|0,1:2|0:0,0:0:0:0:
438,247,100665,1,2,0:0:0:0:
438,247,100815,2,0,L|385:304,1,60.0000022888184,0|0,3:0|0:0,0:0:0:0:
498,187,100965,6,0,P|447:149|457:88,1,120.000004577637,4|0,3:0|0:3,0:0:0:0:
495,40,101190,1,4,0:3:0:0:
494,70,101265,1,2,0:0:0:0:
477,92,101340,1,2,0:0:0:0:
451,98,101415,1,2,0:0:0:0:
429,82,101490,1,2,0:0:0:0:
356,25,101565,6,0,B|311:12|196:22|272:86|191:106|130:69,1,240.000009155274,4|2,1:2|0:0,0:0:0:0:
127,58,102015,2,0,B|128:23|128:23|95:-6,1,60.0000022888184,2|0,0:0|0:0,0:0:0:0:
21,186,102165,6,0,P|50:190|43:365,1,240.000009155274,2|0,1:0|3:0,0:0:0:0:
68,355,102540,1,0,3:0:0:0:
68,355,102615,1,0,3:0:0:0:
68,355,102690,1,0,3:0:0:0:
189,352,102765,6,0,B|234:314|234:314|316:340,1,120.000004577637,0|0,1:0|0:0,0:0:0:0:
486,283,103065,1,0,0:0:0:0:
486,283,103215,1,0,0:0:0:0:
486,283,103365,5,0,3:0:0:0:
491,290,103590,1,0,3:0:0:0:
491,290,103665,1,0,3:0:0:0:
333,91,103815,1,0,3:0:0:0:
259,145,103965,6,0,L|201:129,1,60.0000022888184,4|0,1:2|0:0,0:0:0:0:
333,91,104115,2,0,L|408:119,1,60.0000022888184,2|0,0:0|0:0,0:0:0:0:
235,260,104265,1,2,0:0:0:0:
415,225,104415,1,2,0:0:0:0:
438,223,104490,1,0,0:0:0:0:
477,218,104565,6,0,P|432:254|437:312,1,120.000004577637,2|0,1:0|0:0,0:0:0:0:
333,91,104865,1,0,3:0:0:0:
328,107,104940,1,0,3:0:0:0:
311,110,105015,1,0,3:0:0:0:
295,95,105090,1,0,3:0:0:0:
307,21,105165,6,0,L|59:18,1,240.000009155274,4|0,1:2|3:0,0:0:0:0:
67,18,105765,5,4,3:0:0:0:
67,18,106065,1,0,1:0:0:0:
36,350,106365,1,0,1:0:0:0:
36,350,106440,1,2,0:0:0:0:
36,350,106515,1,2,3:2:0:0:
36,350,106590,1,2,3:2:0:0:
63,272,106665,5,4,3:3:0:0:
100,286,106740,1,4,3:3:0:0:
137,285,106815,1,4,3:3:0:0:
170,255,106890,1,4,3:3:0:0:
186,128,106965,6,0,P|171:76|146:43,1,80,4|0,0:0|0:0,0:0:0:0:
384,123,107265,1,0,1:0:0:0:
319,332,107415,2,0,P|284:316|249:277,1,80,0|0,1:2|0:0,0:0:0:0:
400,138,107715,1,0,3:0:0:0:
400,138,107790,1,0,3:0:0:0:
400,138,107865,1,0,3:0:0:0:
400,138,107940,1,0,3:0:0:0:
400,138,108015,1,0,3:0:0:0:
156,54,108165,6,0,B|96:54|96:54|57:97|57:97|5:82,1,160,2|0,1:0|0:0,0:0:0:0:
170,53,108765,2,0,L|-3:52,1,160,0|0,0:0|0:0,0:0:0:0:
66,270,109365,6,0,P|53:309|58:357,1,80,4|0,1:0|0:0,0:0:0:0:
138,149,109665,1,0,1:0:0:0:
393,192,109815,2,0,L|485:190,1,80,0|0,1:0|0:0,0:0:0:0:
330,330,110115,1,0,3:0:0:0:
330,330,110190,1,0,3:0:0:0:
330,330,110265,1,0,3:0:0:0:
330,330,110340,1,0,3:0:0:0:
330,330,110415,1,0,3:0:0:0:
170,323,110565,6,0,B|211:332|211:332|246:359,1,80,2|0,1:0|0:0,0:0:0:0:
179,231,110865,2,0,L|100:197,1,80,0|0,0:0|0:0,0:0:0:0:
18,82,111090,1,0,3:0:0:0:
18,82,111165,1,0,3:0:0:0:
18,82,111315,2,0,L|6:0,1,80,0|0,3:0|0:0,0:0:0:0:
171,272,111615,2,0,L|174:320,1,40,0|0,0:0|0:0,0:0:0:0:
310,158,111765,6,0,L|222:142,1,80,4|0,0:0|0:0,0:0:0:0:
383,99,112065,1,0,1:0:0:0:
38,361,112215,2,0,L|122:374,1,80,0|0,1:0|0:0,0:0:0:0:
463,307,112515,5,0,3:0:0:0:
439,301,112590,1,0,3:0:0:0:
410,294,112665,1,0,3:0:0:0:
377,284,112740,1,0,3:0:0:0:
349,276,112815,2,0,L|339:319,1,40,0|0,1:0|0:0,0:0:0:0:
330,240,113040,6,0,L|305:330,1,80,2|0,0:0|0:0,0:0:0:0:
309,189,113415,2,0,L|283:274,1,80,2|0,0:0|0:0,0:0:0:0:
228,82,113715,5,0,3:0:0:0:
228,82,113790,1,0,3:0:0:0:
228,82,113865,1,0,3:0:0:0:
228,82,114015,2,0,L|250:89,3,20,2|2|2|2,3:0|3:0|3:0|3:0,0:0:0:0:
148,92,114165,6,0,P|75:118|9:78,1,160,4|0,0:0|0:0,0:0:0:0:
64,355,114615,2,0,P|50:318|58:272,1,80,0|0,1:0|0:0,0:0:0:0:
188,312,114915,5,0,3:0:0:0:
188,312,114990,1,0,3:0:0:0:
188,312,115065,1,4,3:0:0:0:
188,312,115140,1,0,3:0:0:0:
188,312,115215,1,0,3:0:0:0:
188,312,115290,1,0,3:0:0:0:
188,312,115365,1,4,3:0:0:0:
297,248,115665,1,0,3:0:0:0:
409,191,115965,1,0,3:0:0:0:
418,199,116115,1,4,3:0:0:0:
418,199,116190,1,4,3:0:0:0:
418,199,116265,1,4,3:0:0:0:
500,134,116415,1,2,0:0:0:0:
297,248,116565,5,4,1:0:0:0:
256,192,116640,12,0,118815,0:0:0:0:
