osu file format v14

[General]
AudioFilename: audio.mp3
AudioLeadIn: 0
PreviewTime: 77677
Countdown: 0
SampleSet: Soft
StackLeniency: 0.7
Mode: 0
LetterboxInBreaks: 0
WidescreenStoryboard: 1

[Editor]
Bookmarks: 37252
DistanceSpacing: 1
BeatDivisor: 4
GridSize: 16
TimelineZoom: 2.899999

[Metadata]
Title:Ashes
TitleUnicode:Ashes
Artist:Zekk
ArtistUnicode:Zekk
Creator:Cheri
Version:Easy
Source:osu!
Tags:Hailie DJ Lucky FA Featured Artist Mappers' Guild MG Instrumental Electronic dj_lucky Dynamix
BeatmapID:2482730
BeatmapSetID:1177475

[Difficulty]
HPDrainRate:3
CircleSize:2
OverallDifficulty:4
ApproachRate:4
SliderMultiplier:1.05
SliderTickRate:1

[Events]
//Background and Video events
0,0,"background.png",0,0
//Break Periods
2,50765,57645
//Storyboard Layer 0 (Background)
//Storyboard Layer 1 (Fail)
//Storyboard Layer 2 (Pass)
//Storyboard Layer 3 (Foreground)
//Storyboard Layer 4 (Overlay)
//Storyboard Sound Samples

[TimingPoints]
1365,300,4,2,0,100,1,0
1365,-133.333333333333,4,2,0,100,0,0
10965,-100,4,2,0,70,0,0
20565,-100,4,2,0,50,0,0
25365,-100,4,2,0,60,0,0
30165,-90.9090909090909,4,2,0,70,0,0
38565,-90.9090909090909,4,2,0,90,0,0
39765,-90.9090909090909,4,2,0,70,0,0
49365,-100,4,2,0,70,0,0
49440,-100,4,2,0,5,0,0
50490,-90.9090909090909,4,2,0,5,0,0
50565,-117.647058823529,4,2,0,40,0,0
51765,-117.647058823529,4,2,0,40,0,0
58965,-117.647058823529,4,2,0,50,0,0
68565,-100,4,2,0,70,0,0
78165,-90.9090909090909,4,2,0,90,0,1
97365,-90.9090909090909,4,2,0,80,0,0
106965,-100,4,2,0,80,0,0
116640,-100,4,2,0,10,0,0

[Colours]
Combo1 : 131,128,86
Combo2 : 128,128,0
SliderTrackOverride : 150,150,150

[HitObjects]
436,303,10365,5,2,0:0:0:0:
436,303,10965,6,0,L|277:302,1,157.5,4|0,0:0|1:2,0:0:0:0:
126,341,11865,1,0,3:0:0:0:
41,278,12165,2,0,P|46:215|51:171,1,105,2|0,1:0|0:0,0:0:0:0:
132,107,12765,2,0,B|247:101,1,105,0|0,0:0|0:0,0:0:0:0:
331,54,13365,6,0,P|348:102|322:220,1,157.5,4|0,1:0|1:0,0:0:0:0:
238,255,14115,2,0,L|68:258,1,157.5,0|2,3:0|1:0,0:0:0:0:
78,152,14865,1,0,0:0:0:0:
61,48,15165,2,0,P|126:47|165:69,1,105,0|0,3:0|0:0,0:0:0:0:
261,92,15765,6,0,L|419:91,1,157.5,4|0,0:0|1:0,0:0:0:0:
488,169,16515,1,0,3:0:0:0:
434,302,16965,6,0,P|385:304|330:301,1,105,0|0,0:0|0:0,0:0:0:0:
290,336,17415,1,2,0:0:0:0:
67,249,18165,6,0,P|68:210|62:89,1,157.5,4|0,0:0|1:0,0:0:0:0:
220,60,19065,1,4,3:0:0:0:
220,60,19365,6,0,L|306:60,2,78.75,4|4|4,0:0|0:0|0:0,0:0:0:0:
158,145,20115,1,0,0:0:0:0:
212,292,20565,6,0,P|264:245|383:297,1,210,4|0,0:0|0:0,0:0:0:0:
511,148,21765,6,0,L|511:32,2,105,2|0|2,0:0|0:0|0:0,0:0:0:0:
418,155,22665,5,0,0:0:0:0:
418,155,22965,1,2,0:0:0:0:
418,155,23265,1,0,0:0:0:0:
418,155,23565,2,0,L|304:157,1,105,0|2,3:0|3:0,0:0:0:0:
219,110,24165,1,4,3:0:0:0:
137,175,24465,2,0,L|136:289,2,105,8|8|8,3:0|3:0|3:0,0:0:0:0:
219,110,25365,6,0,P|234:164|240:221,1,105,4|0,0:0|3:0,0:0:0:0:
344,216,25965,2,0,P|354:167|374:109,1,105,0|0,3:0|0:0,0:0:0:0:
327,19,26565,6,0,L|213:19,1,105,4|4,3:2|3:0,0:0:0:0:
155,100,27165,1,0,3:0:0:0:
155,100,27465,1,4,3:3:0:0:
79,172,27765,2,0,P|48:205|30:271,1,105,4|0,0:0|3:0,0:0:0:0:
111,327,28365,2,0,B|193:327,2,78.75,0|0|0,3:0|3:0|3:0,0:0:0:0:
124,276,28965,5,4,3:0:0:0:
457,347,30165,6,0,P|459:286|468:223,1,115.50000352478,6|0,1:0|0:0,0:0:0:0:
459,119,30765,2,0,B|404:140|404:140|341:117,1,115.50000352478,0|0,1:0|0:0,0:0:0:0:
254,69,31365,1,4,3:0:0:0:
254,69,31665,1,0,0:0:0:0:
150,129,31965,2,0,L|146:249,1,115.50000352478,4|0,1:2|3:0,0:0:0:0:
84,342,32565,6,0,P|123:332|211:331,1,115.50000352478,2|0,1:1|0:0,0:0:0:0:
306,369,33165,2,0,P|332:297|318:260,1,115.50000352478,4|0,1:2|0:0,0:0:0:0:
425,225,33765,1,4,3:0:0:0:
425,225,34065,1,2,0:0:0:0:
511,301,34365,2,0,L|512:364,2,57.7500017623902,4|0|2,1:2|0:0|0:0,0:0:0:0:
512,166,34965,6,0,P|504:125|447:70,1,115.50000352478,2|0,1:0|3:0,0:0:0:0:
339,91,35565,2,0,P|288:94|224:93,1,115.50000352478,0|0,1:0|0:0,0:0:0:0:
110,109,36165,1,4,3:0:0:0:
231,305,36765,2,0,L|231:370,2,57.7500017623902,4|2|2,1:2|0:0|0:0,0:0:0:0:
309,220,37365,6,0,P|312:158|322:97,1,115.50000352478,2|0,1:0|3:0,0:0:0:0:
409,25,37965,2,0,B|425:65|425:65|421:143,1,115.50000352478,4|0,1:2|3:0,0:0:0:0:
450,249,38565,2,0,L|339:250,1,86.6250026435853,2|0,1:0|0:0,0:0:0:0:
291,298,39015,2,0,L|291:360,2,57.7500017623902,4|0|2,3:0|1:0|1:0,0:0:0:0:
118,303,39765,6,0,P|78:262|20:244,1,115.50000352478,6|0,1:0|0:0,0:0:0:0:
45,130,40365,2,0,B|43:54|43:54|78:20,1,115.50000352478,0|0,1:0|0:0,0:0:0:0:
187,61,40965,1,4,3:0:0:0:
187,61,41265,1,0,0:0:0:0:
261,149,41565,2,0,L|378:150,1,115.50000352478,4|0,1:2|3:0,0:0:0:0:
364,264,42165,6,0,P|294:265|245:265,1,115.50000352478,2|0,1:1|0:0,0:0:0:0:
126,311,42765,2,0,B|111:250|111:250|127:196,1,115.50000352478,4|0,1:2|0:0,0:0:0:0:
215,127,43365,1,2,1:0:0:0:
215,127,43665,1,2,0:0:0:0:
326,98,43965,2,0,L|327:35,2,57.7500017623902,4|0|0,1:2|3:0|3:0,0:0:0:0:
421,308,44865,5,6,1:0:0:0:
314,276,45165,2,0,P|261:277|188:275,1,115.50000352478,4|0,1:2|0:0,0:0:0:0:
84,292,45765,2,0,L|84:362,2,57.7500017623902,4|0|0,3:0|1:0|0:0,0:0:0:0:
56,179,46365,2,0,L|58:56,1,115.50000352478,4|0,1:2|3:0,0:0:0:0:
168,112,46965,1,2,1:0:0:0:
168,112,47265,1,0,3:0:0:0:
282,94,47565,2,0,L|281:19,2,57.7500017623902,4|0|2,1:2|0:0|0:0,0:0:0:0:
372,165,48165,6,0,L|371:301,1,115.50000352478,4|2,3:0|0:0,0:0:0:0:
277,348,48765,2,0,P|241:338|151:343,1,115.50000352478,0|0,1:0|1:0,0:0:0:0:
110,316,49215,1,0,1:0:0:0:
256,192,49365,12,0,50565,3:0:0:0:
303,260,58965,6,0,L|186:261,1,89.2500017023087,4|0,0:0|0:0,0:0:0:0:
90,246,59565,1,0,1:0:0:0:
90,246,59865,1,0,0:0:0:0:
64,160,60165,6,0,P|65:119|68:86,2,66.9375012767315,4|4|4,3:0|3:0|3:0,0:0:0:0:
108,154,60765,1,0,1:0:0:0:
295,152,61365,1,4,3:0:0:0:
295,152,61665,1,2,0:0:0:0:
295,152,61965,2,0,L|294:254,1,89.2500017023087,0|2,1:0|0:0,0:0:0:0:
342,316,62565,2,0,P|381:325|419:322,2,66.9375012767315,4|4|4,3:0|3:0|3:0,0:0:0:0:
302,337,63165,1,4,3:0:0:0:
142,260,63765,6,0,P|79:257|34:258,1,89.2500017023087,4|0,3:0|0:0,0:0:0:0:
56,166,64365,1,0,1:0:0:0:
56,166,64665,1,2,0:0:0:0:
56,166,64965,2,0,L|58:87,2,66.9375012767315,4|4|4,3:0|3:0|3:0,0:0:0:0:
99,155,65565,2,0,P|147:155|192:161,1,89.2500017023087,0|2,1:0|0:0,0:0:0:0:
252,98,66165,5,4,3:0:0:0:
418,167,66765,2,0,P|420:228|420:266,1,89.2500017023087,0|2,1:0|0:0,0:0:0:0:
332,273,67365,2,0,L|334:370,2,89.2500017023087,4|4|4,3:0|3:0|1:2,0:0:0:0:
242,269,68265,1,4,3:0:0:0:
254,164,68565,6,0,L|411:164,1,157.5,4|0,0:0|1:2,0:0:0:0:
461,14,69465,1,0,3:0:0:0:
509,106,69765,2,0,P|512:159|499:210,1,105,2|0,1:0|0:0,0:0:0:0:
415,307,70365,2,0,B|299:306,1,105,0|0,0:0|0:0,0:0:0:0:
216,354,70965,6,0,P|208:295|256:205,1,157.5,4|0,1:0|1:0,0:0:0:0:
146,193,71715,2,0,L|-16:194,1,157.5,0|2,3:0|1:0,0:0:0:0:
24,95,72465,1,0,1:0:0:0:
124,63,72765,2,0,L|242:63,1,105,0|0,3:0|0:0,0:0:0:0:
333,72,73365,6,0,L|330:238,1,157.5,4|0,0:0|1:0,0:0:0:0:
287,381,74265,1,0,3:0:0:0:
182,336,74565,6,0,P|127:334|78:335,1,105,0|0,0:0|0:0,0:0:0:0:
35,303,75015,1,2,0:0:0:0:
159,71,75765,6,0,L|320:69,1,157.5,4|0,0:0|1:0,0:0:0:0:
461,8,76665,1,4,3:0:0:0:
433,109,76965,5,4,0:0:0:0:
250,297,77715,2,0,L|250:365,2,52.5,0|0|2,3:0|3:0|0:0,0:0:0:0:
193,285,78165,6,0,L|10:288,1,173.250005287171,6|2,1:0|0:1,0:0:0:0:
19,171,78915,2,0,P|25:79|44:41,1,115.50000352478,2|2,0:1|0:1,0:0:0:0:
147,58,79515,2,0,L|150:-7,2,57.7500017623902,2|0|2,0:1|1:0|0:1,0:0:0:0:
194,91,79965,1,4,0:3:0:0:
297,141,80265,1,0,1:0:0:0:
398,85,80565,6,0,P|412:151|387:218,1,115.50000352478,2|0,0:1|1:0,0:0:0:0:
307,265,81165,2,0,B|252:253|252:253|172:275,1,115.50000352478,4|0,0:3|1:0,0:0:0:0:
147,302,81615,1,2,0:1:0:0:
95,198,81915,1,2,0:1:0:0:
169,41,82365,2,0,P|210:84|283:100,1,115.50000352478,2|0,0:1|1:0,0:0:0:0:
378,100,82965,6,0,P|347:154|367:259,1,173.250005287171,6|2,1:0|0:1,0:0:0:0:
267,341,83715,2,0,L|131:339,1,115.50000352478,2|2,0:1|0:1,0:0:0:0:
42,300,84315,2,0,B|32:330|32:330|36:377,2,57.7500017623902,2|0|2,0:1|1:0|0:1,0:0:0:0:
70,249,84765,1,4,0:3:0:0:
71,133,85065,1,0,1:0:0:0:
169,73,85365,6,0,L|250:73,1,57.7500017623902,2|0,0:1|1:0,0:0:0:0:
343,102,85815,1,2,0:1:0:0:
343,102,85965,2,0,L|339:223,1,115.50000352478,0|4,1:0|3:0,0:0:0:0:
334,332,86565,5,4,3:0:0:0:
244,259,86865,1,4,3:0:0:0:
145,318,87165,2,0,P|98:308|78:245,1,115.50000352478,4|0,1:2|3:0,0:0:0:0:
101,196,87615,1,0,3:0:0:0:
217,67,88065,6,0,L|297:71,1,57.7500017623902,0|2,1:0|0:1,0:0:0:0:
381,115,88515,2,0,L|380:184,2,57.7500017623902,2|0|2,0:1|1:0|0:1,0:0:0:0:
495,97,89115,1,2,0:1:0:0:
495,97,89265,2,0,P|501:148|487:237,1,115.50000352478,0|4,1:0|0:3,0:0:0:0:
408,288,89865,1,2,1:0:0:0:
298,323,90165,6,0,L|169:317,1,115.50000352478,2|0,0:1|1:0,0:0:0:0:
82,259,90765,1,4,0:3:0:0:
79,143,91065,2,0,L|82:63,2,57.7500017623902,0|2|4,1:0|0:1|3:0,0:0:0:0:
188,106,91665,2,0,L|186:234,1,115.50000352478,0|2,1:0|0:1,0:0:0:0:
289,164,92265,1,0,1:0:0:0:
289,164,92565,6,0,P|306:109|413:63,1,173.250005287171,6|2,1:0|0:1,0:0:0:0:
498,128,93315,2,0,L|501:59,2,57.7500017623902,2|0|2,0:1|1:0|0:1,0:0:0:0:
454,235,93915,2,0,L|455:351,1,115.50000352478,2|2,0:1|0:1,0:0:0:0:
403,376,94365,1,4,0:3:0:0:
331,285,94665,1,2,1:0:0:0:
220,319,94965,6,0,P|216:274|171:206,1,115.50000352478,6|0,1:0|3:0,0:0:0:0:
119,115,95565,2,0,L|120:47,2,57.7500017623902,2|0|4,1:0|3:0|3:0,0:0:0:0:
6,143,96165,6,0,L|4:261,1,115.50000352478,6|0,1:0|1:0,0:0:0:0:
108,307,96765,2,0,L|110:230,2,57.7500017623902,0|2|2,1:0|0:0|1:1,0:0:0:0:
223,312,97365,6,0,P|260:270|262:189,1,115.50000352478,6|0,1:0|0:0,0:0:0:0:
276,89,97965,2,0,B|228:110|228:110|162:98,1,115.50000352478,0|0,1:0|0:0,0:0:0:0:
51,113,98565,2,0,P|35:45|43:17,2,86.6250026435853,4|4|2,3:0|0:3|0:0,0:0:0:0:
32,167,99165,1,4,1:2:0:0:
101,259,99465,1,0,3:0:0:0:
215,272,99765,6,0,P|283:270|344:271,1,115.50000352478,2|0,1:1|0:0,0:0:0:0:
441,293,100365,2,0,B|450:236|450:236|418:175,1,115.50000352478,4|2,1:2|0:0,0:0:0:0:
388,74,100965,2,0,P|431:73|474:74,2,86.6250026435853,4|4|2,3:0|0:3|0:0,0:0:0:0:
340,49,101565,1,4,1:2:0:0:
340,49,101865,1,2,0:0:0:0:
231,89,102165,6,0,P|232:150|233:219,1,115.50000352478,2|0,1:0|3:0,0:0:0:0:
193,312,102765,2,0,L|322:313,1,115.50000352478,0|0,1:0|0:0,0:0:0:0:
421,338,103365,2,0,P|431:314|423:228,1,86.6250026435853,0|0,3:0|3:0,0:0:0:0:
457,111,103965,2,0,P|386:87|341:59,1,115.50000352478,4|2,1:2|0:0,0:0:0:0:
236,80,104565,6,0,P|233:157|230:223,1,115.50000352478,2|0,1:0|3:0,0:0:0:0:
155,282,105165,1,4,1:2:0:0:
33,175,105615,5,0,0:0:0:0:
33,175,105765,2,0,L|33:43,1,115.50000352478,4|0,3:0|1:0,0:0:0:0:
150,57,106365,2,0,L|150:123,2,57.7500017623902,0|2|4,1:0|3:2|3:3,0:0:0:0:
253,37,106965,6,0,P|329:47|410:37,1,157.5,4|0,0:0|1:2,0:0:0:0:
489,174,107865,1,0,3:0:0:0:
424,256,108165,2,0,P|418:308|414:360,1,105,2|0,1:0|0:0,0:0:0:0:
322,310,108765,2,0,B|332:194,1,105,0|0,0:0|0:0,0:0:0:0:
303,103,109365,6,0,P|281:123|152:101,1,157.5,4|0,1:0|1:0,0:0:0:0:
82,180,110115,2,0,L|81:302,1,105,0|0,3:0|3:0,0:0:0:0:
123,329,110565,1,2,1:0:0:0:
210,272,110865,1,0,0:0:0:0:
296,331,111165,2,0,L|403:333,1,105,0|0,3:0|0:0,0:0:0:0:
469,253,111765,6,0,L|469:89,1,157.5,4|0,0:0|1:0,0:0:0:0:
243,109,112965,6,0,P|194:111|139:108,1,105,0|0,0:0|0:0,0:0:0:0:
71,109,113415,2,0,P|54:135|58:219,1,105,2|0,0:0|3:0,0:0:0:0:
209,212,114165,6,0,L|373:210,1,157.5,4|0,0:0|1:0,0:0:0:0:
391,365,115065,1,4,3:0:0:0:
287,346,115365,6,0,L|170:349,2,105,4|0|0,3:0|3:0|3:0,0:0:0:0:
284,241,116265,1,4,3:0:0:0:
227,152,116565,5,4,1:0:0:0:
256,192,116640,12,0,118815,0:0:0:0:
