osu file format v14

[General]
AudioFilename: audio.mp3
AudioLeadIn: 0
PreviewTime: 77677
Countdown: 0
SampleSet: Soft
StackLeniency: 0.7
Mode: 0
LetterboxInBreaks: 0
WidescreenStoryboard: 1

[Editor]
Bookmarks: 37252
DistanceSpacing: 1
BeatDivisor: 4
GridSize: 16
TimelineZoom: 2.899999

[Metadata]
Title:Ashes
TitleUnicode:Ashes
Artist:Zekk
ArtistUnicode:Zekk
Creator:Cheri
Version:Advanced
Source:osu!
Tags: Hailie DJ Lucky FA Featured Artist Mappers' Guild MG Instrumental Electronic dj_lucky Dynamix
BeatmapID:2459720
BeatmapSetID:1177475

[Difficulty]
HPDrainRate:4.5
CircleSize:3.5
OverallDifficulty:5.5
ApproachRate:6
SliderMultiplier:1.15
SliderTickRate:1

[Events]
//Background and Video events
0,0,"background.png",0,0
//Break Periods
//Storyboard Layer 0 (Background)
//Storyboard Layer 1 (Fail)
//Storyboard Layer 2 (Pass)
//Storyboard Layer 3 (Foreground)
//Storyboard Layer 4 (Overlay)
//Storyboard Sound Samples

[TimingPoints]
1365,300,4,2,0,100,1,0
1365,-133.333333333333,4,2,0,100,0,0
10965,-100,4,2,0,70,0,0
20565,-100,4,2,0,50,0,0
30165,-83.3333333333333,4,2,0,70,0,0
38565,-83.3333333333333,4,2,0,90,0,0
39765,-83.3333333333333,4,2,0,70,0,0
49365,-100,4,2,0,70,0,0
50565,-117.647058823529,4,2,0,40,0,0
51765,-117.647058823529,4,2,0,40,0,0
58965,-117.647058823529,4,2,0,50,0,0
68565,-100,4,2,0,70,0,0
78165,-83.3333333333333,4,2,0,90,0,1
97365,-83.3333333333333,4,2,0,80,0,0
106965,-100,4,2,0,80,0,0
116640,-100,4,2,0,10,0,0

[Colours]
Combo1 : 131,128,86
Combo2 : 128,128,0
SliderTrackOverride : 150,150,150

[HitObjects]
40,57,1365,6,0,P|64:112|67:153,1,86.2500032901765,4|0,0:0|0:0,0:0:0:0:
118,307,2265,1,2,0:0:0:0:
118,307,2565,2,0,P|177:299|214:296,1,86.2500032901765,2|2,0:0|0:0,0:0:0:0:
289,307,3165,6,0,L|306:354,2,43.1250016450883,2|0|2,0:0|0:0|0:0,0:0:0:0:
375,306,3765,1,2,0:0:0:0:
355,134,4365,6,0,L|339:91,2,43.1250016450883,2|0|0,0:0|0:0|3:0,0:0:0:0:
438,109,4965,1,2,0:0:0:0:
279,41,5565,2,0,L|235:43,2,43.1250016450883,0|2|0,3:0|0:0|3:0,0:0:0:0:
278,84,6015,1,0,3:0:0:0:
254,120,6165,5,2,0:0:0:0:
189,177,6465,2,0,P|138:178|94:180,1,86.2500032901765,0|0,0:0|3:0,0:0:0:0:
17,196,7065,1,2,0:0:0:0:
45,281,7365,2,0,P|55:331|58:377,1,86.2500032901765,0|0,0:0|0:0,0:0:0:0:
143,351,7965,6,0,L|202:348,2,43.1250016450883,2|0|0,0:0|0:0|0:0,0:0:0:0:
145,266,8565,2,0,P|185:253|233:255,1,86.2500032901765,2|0,0:0|0:0,0:0:0:0:
273,179,9165,6,0,L|225:172,2,43.1250016450883,2|0|0,0:0|0:0|0:0,0:0:0:0:
337,121,9765,2,0,P|373:154|416:176,1,86.2500032901765,2|0,0:0|0:0,0:0:0:0:
446,247,10365,2,0,L|447:299,2,43.1250016450883,2|0|0,0:0|3:0|3:0,0:0:0:0:
368,331,10965,6,0,P|280:320|237:324,1,115,4|0,0:0|1:0,0:0:0:0:
203,348,11415,1,0,1:2:0:0:
110,289,11715,1,0,3:0:0:0:
110,289,11865,2,0,L|106:217,1,57.5,0|0,3:0|3:0,0:0:0:0:
142,186,12165,6,0,L|138:50,1,115,2|0,1:0|0:0,0:0:0:0:
252,55,12765,2,0,B|287:44|287:44|369:49,1,115,0|0,0:0|0:0,0:0:0:0:
474,84,13365,6,0,P|458:126|386:168,1,115,4|0,1:0|1:0,0:0:0:0:
345,153,13815,1,0,1:0:0:0:
244,97,14115,2,0,L|242:25,2,57.5,0|0|0,3:0|3:0|3:0,0:0:0:0:
192,123,14565,6,0,P|162:175|181:242,1,115,2|0,1:0|0:0,0:0:0:0:
80,298,15165,2,0,P|105:343|169:359,1,115,0|0,3:0|0:0,0:0:0:0:
276,340,15765,6,0,L|276:217,1,115,4|0,0:0|1:0,0:0:0:0:
324,194,16215,1,0,1:0:0:0:
412,120,16515,2,0,P|434:163|438:236,1,115,0|0,3:0|1:0,0:0:0:0:
409,278,16965,6,0,P|366:304|295:301,1,115,0|0,0:0|0:0,0:0:0:0:
257,268,17415,1,2,0:0:0:0:
163,334,17715,1,0,3:0:0:0:
67,190,18165,6,0,P|66:143|63:57,1,115,4|0,0:0|0:0,0:0:0:0:
106,35,18615,1,0,1:0:0:0:
211,80,18915,2,0,L|210:18,2,57.5,0|4|0,3:0|3:0|3:0,0:0:0:0:
258,112,19365,2,0,P|296:148|340:148,2,86.25,4|4|4,0:0|0:0|0:0,0:0:0:0:
195,172,20040,1,4,0:0:0:0:
130,229,20265,2,0,L|133:304,1,57.5,4|4,3:0|3:0,0:0:0:0:
181,317,20565,6,0,P|226:351|293:347,3,115,4|0|0|0,0:0|0:0|0:0|0:0,0:0:0:0:
368,274,21765,2,0,P|333:244|265:235,2,115,2|0|2,0:0|0:0|0:0,0:0:0:0:
459,162,22665,1,0,0:0:0:0:
372,86,22965,1,2,0:0:0:0:
268,135,23265,1,0,0:0:0:0:
194,223,23565,2,0,L|193:352,1,115,0|0,3:0|3:0,0:0:0:0:
97,274,24165,1,0,3:0:0:0:
93,159,24465,2,0,P|114:123|183:85,1,115,0|0,3:0|3:0,0:0:0:0:
290,90,25065,2,0,L|371:87,1,57.5,0|0,3:0|0:0,0:0:0:0:
404,94,25365,6,0,P|426:133|441:180,1,86.25,4|0,0:0|3:0,0:0:0:0:
433,261,25815,1,0,0:0:0:0:
433,261,25965,2,0,P|422:302|393:339,1,86.25,0|0,3:0|3:0,0:0:0:0:
315,305,26415,5,0,3:0:0:0:
315,305,26565,2,0,L|314:216,1,86.25,4|0,3:2|3:0,0:0:0:0:
250,169,27015,1,0,0:0:0:0:
250,169,27165,2,0,L|251:80,1,86.25,0|0,0:0|3:0,0:0:0:0:
174,42,27615,5,0,3:0:0:0:
174,42,27765,2,0,B|145:80|145:80|155:136,1,86.25,4|0,0:0|3:0,0:0:0:0:
91,179,28215,1,0,3:0:0:0:
91,179,28365,2,0,B|52:168|52:168|8:184,2,86.25,0|0|0,3:0|3:0|3:0,0:0:0:0:
121,227,28965,5,4,3:0:0:0:
478,356,30165,6,0,P|453:301|378:277,1,137.999995788574,6|0,1:0|0:0,0:0:0:0:
333,323,30615,1,0,3:0:0:0:
333,323,30765,2,0,B|298:338|298:338|246:327,1,68.9999978942872,0|0,1:0|0:0,0:0:0:0:
224,205,31215,1,0,0:0:0:0:
224,205,31365,2,0,P|200:176|59:236,1,206.999993682861,4|2,3:0|0:0,0:0:0:0:
36,283,31965,2,0,L|200:283,1,137.999995788574,4|0,1:2|3:0,0:0:0:0:
301,229,32565,6,0,P|296:182|348:111,1,137.999995788574,2|0,1:1|0:0,0:0:0:0:
407,75,33015,1,0,3:0:0:0:
407,75,33165,2,0,B|441:87|441:87|481:68,1,68.9999978942872,4|0,1:2|0:0,0:0:0:0:
462,214,33615,1,0,3:0:0:0:
462,214,33765,2,0,P|494:260|402:344,1,206.999993682861,4|2,3:0|0:0,0:0:0:0:
333,334,34365,2,0,L|256:332,2,68.9999978942872,4|0|2,1:2|0:0|0:0,0:0:0:0:
223,250,34965,6,0,B|229:185|229:185|189:118,1,137.999995788574,2|0,1:0|3:0,0:0:0:0:
131,99,35415,1,0,3:0:0:0:
131,99,35565,2,0,P|103:155|102:175,1,68.9999978942872,0|0,1:0|0:0,0:0:0:0:
47,287,36015,1,0,0:0:0:0:
69,352,36165,2,0,P|134:332|210:338,1,137.999995788574,4|0,3:0|3:0,0:0:0:0:
337,303,36765,2,0,L|411:303,2,68.9999978942872,4|2|2,1:2|0:0|0:0,0:0:0:0:
345,238,37215,1,2,0:0:0:0:
345,238,37365,6,0,P|339:180|277:120,1,137.999995788574,2|0,1:0|3:0,0:0:0:0:
226,101,37815,1,0,3:0:0:0:
226,101,37965,2,0,B|195:114|195:114|189:162,1,68.9999978942872,4|0,1:2|0:0,0:0:0:0:
204,291,38415,5,0,0:0:0:0:
204,291,38565,2,0,L|204:373,1,68.9999978942872,2|0,1:0|1:0,0:0:0:0:
116,260,39015,1,4,3:0:0:0:
116,260,39165,2,0,L|117:181,1,68.9999978942872,0|2,1:0|1:0,0:0:0:0:
20,92,39615,1,0,3:0:0:0:
70,45,39765,6,0,P|139:26|197:63,1,137.999995788574,6|0,1:0|0:0,0:0:0:0:
218,128,40215,1,0,3:0:0:0:
218,128,40365,2,0,B|246:145|246:145|305:132,1,68.9999978942872,0|0,1:0|0:0,0:0:0:0:
423,143,40815,1,0,0:0:0:0:
423,143,40965,2,0,P|455:194|367:286,1,206.999993682861,4|2,3:0|0:0,0:0:0:0:
301,274,41565,2,0,L|163:274,1,137.999995788574,4|0,1:2|3:0,0:0:0:0:
36,329,42165,6,0,P|22:262|47:198,1,137.999995788574,2|0,1:1|0:0,0:0:0:0:
114,173,42615,1,0,3:0:0:0:
114,173,42765,2,0,B|194:171,1,68.9999978942872,4|0,1:2|0:0,0:0:0:0:
324,163,43215,1,0,0:0:0:0:
324,163,43365,2,0,P|328:94|211:49,1,206.999993682861,2|2,1:0|0:0,0:0:0:0:
147,56,43965,2,0,L|68:56,2,68.9999978942872,4|0|0,1:2|3:0|3:0,0:0:0:0:
0,176,44865,6,0,L|0:264,1,68.9999978942872,6|0,1:0|0:0,0:0:0:0:
51,290,45165,1,4,1:2:0:0:
135,103,45615,1,2,0:0:0:0:
135,103,45765,2,0,P|160:73|202:61,2,68.9999978942872,4|0|0,3:0|1:0|0:0,0:0:0:0:
188,155,46215,1,4,3:0:0:0:
188,155,46365,2,0,L|333:155,1,137.999995788574,4|0,1:2|3:0,0:0:0:0:
454,204,46965,6,0,P|470:260|459:338,1,137.999995788574,2|0,1:0|3:0,0:0:0:0:
321,324,47565,2,0,L|250:323,2,68.9999978942872,4|0|2,1:2|0:0|0:0,0:0:0:0:
345,191,48165,1,4,3:0:0:0:
345,191,48465,2,0,L|202:189,1,137.999995788574,2|0,0:0|1:0,0:0:0:0:
202,119,48915,2,0,P|203:84|195:45,2,68.9999978942872,4|0|0,3:0|1:0|1:0,0:0:0:0:
145,108,49365,6,0,P|102:161|256:329,1,345,4|0,0:0|0:0,0:0:0:0:
336,345,50565,6,0,P|337:303|305:245,1,97.7500018644333,0|0,3:0|3:0,0:0:0:0:
407,226,51165,2,0,P|410:173|427:131,1,97.7500018644333,0|0,3:0|3:0,0:0:0:0:
439,35,51765,1,2,0:0:0:0:
351,71,52065,1,0,0:0:0:0:
351,71,52365,1,0,1:0:0:0:
351,71,52665,2,0,L|282:72,1,48.8750009322167,0|0,3:0|3:0,0:0:0:0:
254,60,52965,6,0,P|224:65|161:46,2,97.7500018644333,0|0|0,3:0|3:0|1:0,0:0:0:0:
244,157,53865,1,0,0:0:0:0:
244,157,54165,2,0,L|246:259,1,97.7500018644333,0|0,1:0|3:0,0:0:0:0:
192,338,54765,1,0,1:0:0:0:
192,338,55065,1,0,3:0:0:0:
192,338,55365,2,0,P|149:343|83:323,1,97.7500018644333,0|0,3:0|0:0,0:0:0:0:
61,238,55965,2,0,L|61:141,1,97.7500018644333,0|0,3:0|3:0,0:0:0:0:
130,71,56565,5,0,3:0:0:0:
130,71,56865,1,0,0:0:0:0:
130,71,57165,2,0,L|235:72,1,97.7500018644333,0|0,1:0|3:0,0:0:0:0:
324,82,57765,2,0,B|343:125|343:125|325:193,1,97.7500018644333,0|2,0:0|0:0,0:0:0:0:
385,254,58365,2,0,L|385:314,2,48.8750009322167,2|2|0,3:2|3:2|3:0,0:0:0:0:
304,310,58965,6,0,P|256:304|193:314,1,97.7500018644333,4|0,0:0|0:0,0:0:0:0:
130,249,59565,1,0,1:0:0:0:
146,152,59865,1,0,0:0:0:0:
146,152,60165,6,0,P|154:126|132:80,2,73.312501398325,4|4|4,3:0|3:0|3:0,0:0:0:0:
194,142,60765,2,0,P|230:166|302:153,1,97.7500018644333,0|0,1:0|0:0,0:0:0:0:
373,127,61365,1,4,3:0:0:0:
368,224,61665,1,2,0:0:0:0:
416,309,61965,2,0,L|416:357,2,48.8750009322167,0|0|2,1:0|0:0|0:0,0:0:0:0:
367,224,62565,2,0,P|403:219|439:225,2,73.312501398325,4|4|4,3:0|3:0|3:0,0:0:0:0:
336,185,63165,2,0,P|345:130|333:84,1,97.7500018644333,4|0,3:0|0:0,0:0:0:0:
243,123,63765,6,0,L|123:122,1,97.7500018644333,4|0,3:0|0:0,0:0:0:0:
74,189,64365,1,0,1:0:0:0:
73,286,64665,1,2,0:0:0:0:
158,333,64965,2,0,P|186:358|230:363,2,73.312501398325,4|4|4,3:0|3:0|3:0,0:0:0:0:
166,280,65565,2,0,P|113:271|63:292,1,97.7500018644333,0|2,1:0|0:0,0:0:0:0:
38,193,66165,1,4,3:0:0:0:
195,77,66615,1,4,3:0:0:0:
195,77,66765,2,0,L|227:23,2,48.8750009322167,0|2|2,1:0|0:0|0:0,0:0:0:0:
299,103,67365,5,4,3:0:0:0:
299,103,67665,1,4,3:0:0:0:
299,103,67965,1,4,1:2:0:0:
380,157,68265,6,0,P|390:189|390:217,1,48.8750009322167,4|4,3:0|3:0,0:0:0:0:
379,260,68565,6,0,P|314:258|244:260,1,115,4|0,0:0|1:0,0:0:0:0:
236,309,69015,1,0,1:2:0:0:
131,350,69315,1,0,3:0:0:0:
131,350,69465,2,0,L|62:352,1,57.5,0|0,3:0|3:0,0:0:0:0:
62,295,69765,6,0,L|63:163,1,115,2|0,1:0|0:0,0:0:0:0:
84,67,70365,2,0,B|138:83|138:83|201:61,1,115,0|0,0:0|0:0,0:0:0:0:
304,32,70965,6,0,P|295:79|295:150,1,115,4|0,1:0|1:0,0:0:0:0:
340,180,71415,1,0,1:0:0:0:
412,269,71715,2,0,L|414:337,2,57.5,0|0|0,3:0|3:0|3:0,0:0:0:0:
356,283,72165,6,0,P|316:307|247:282,1,115,2|0,1:0|1:0,0:0:0:0:
149,337,72765,2,0,P|94:323|31:344,1,115,0|0,3:0|0:0,0:0:0:0:
37,223,73365,6,0,L|37:100,1,115,4|0,0:0|1:0,0:0:0:0:
61,56,73815,1,0,1:0:0:0:
175,41,74115,2,0,P|203:75|288:98,1,115,0|0,3:0|1:0,0:0:0:0:
297,49,74565,6,0,P|353:51|403:82,1,115,0|0,0:0|0:0,0:0:0:0:
459,82,75015,1,2,0:0:0:0:
402,181,75315,1,0,3:0:0:0:
467,340,75765,6,0,P|410:329|334:346,1,115,4|0,0:0|0:0,0:0:0:0:
315,294,76215,1,0,1:0:0:0:
200,295,76515,2,0,L|173:362,2,57.5,0|4|0,3:0|3:0|3:0,0:0:0:0:
151,263,76965,5,4,0:0:0:0:
395,112,77715,2,0,L|461:134,2,57.5,0|0|2,3:0|3:0|0:0,0:0:0:0:
359,36,78165,6,0,P|306:24|218:43,1,137.999995788574,6|0,1:0|1:0,0:0:0:0:
174,106,78615,1,2,0:1:0:0:
47,213,78915,2,0,L|47:139,2,68.9999978942872,2|0|2,0:1|1:0|0:1,0:0:0:0:
160,333,79515,2,0,L|159:260,2,68.9999978942872,2|0|2,0:1|1:0|0:1,0:0:0:0:
238,357,79965,1,4,0:3:0:0:
408,333,80265,1,0,1:0:0:0:
408,333,80415,1,2,0:0:0:0:
408,333,80565,6,0,P|413:245|389:188,1,137.999995788574,2|0,0:1|1:0,0:0:0:0:
258,105,81165,2,0,L|181:103,1,68.9999978942872,4|0,0:3|0:0,0:0:0:0:
117,61,81465,1,0,1:0:0:0:
117,61,81615,1,2,0:1:0:0:
58,216,81915,2,0,P|55:263|63:315,1,68.9999978942872,2|0,0:1|1:0,0:0:0:0:
221,305,82365,2,0,L|219:377,2,68.9999978942872,2|2|0,0:1|0:0|1:0,0:0:0:0:
301,283,82815,1,2,0:0:0:0:
301,283,82965,6,0,P|318:226|269:135,1,137.999995788574,6|0,1:0|1:0,0:0:0:0:
220,112,83415,1,2,0:1:0:0:
85,208,83715,2,0,B|52:217|52:217|10:200,2,68.9999978942872,2|0|2,0:1|1:0|0:1,0:0:0:0:
220,112,84315,2,0,B|255:101|255:101|304:117,2,68.9999978942872,2|0|2,0:1|1:0|0:1,0:0:0:0:
257,185,84765,2,0,P|313:187|359:114,1,137.999995788574,4|0,0:3|1:0,0:0:0:0:
477,241,85365,6,0,L|478:312,1,68.9999978942872,2|0,0:1|1:0,0:0:0:0:
327,379,85815,1,2,0:1:0:0:
306,298,85965,2,0,L|154:296,1,137.999995788574,0|4,1:0|3:0,0:0:0:0:
40,358,86565,5,4,3:0:0:0:
40,358,86865,2,0,P|16:303|17:284,1,68.9999978942872,4|0,3:0|3:0,0:0:0:0:
45,218,87165,2,0,P|48:182|67:144,2,68.9999978942872,4|0|0,1:2|3:0|3:0,0:0:0:0:
128,206,87615,1,0,3:0:0:0:
342,67,88065,6,0,L|437:65,1,68.9999978942872,0|2,1:0|0:1,0:0:0:0:
317,201,88515,2,0,L|240:202,2,68.9999978942872,2|0|2,0:1|1:0|0:1,0:0:0:0:
230,344,89115,1,2,0:1:0:0:
230,344,89265,2,0,P|183:344|139:270,1,137.999995788574,0|4,1:0|0:3,0:0:0:0:
143,115,89865,1,2,1:0:0:0:
143,115,90015,1,2,0:0:0:0:
143,115,90165,6,0,L|290:66,1,137.999995788574,2|0,0:1|1:0,0:0:0:0:
428,143,90765,1,4,0:3:0:0:
428,143,90915,2,0,P|433:106|426:64,2,68.9999978942872,0|0|2,0:0|1:0|0:1,0:0:0:0:
312,262,91515,1,2,0:1:0:0:
312,262,91665,2,0,L|228:260,1,68.9999978942872,0|0,1:0|3:0,0:0:0:0:
171,301,91965,1,2,0:1:0:0:
41,216,92265,1,0,1:0:0:0:
41,216,92415,1,2,0:0:0:0:
41,216,92565,6,0,P|32:143|60:73,1,137.999995788574,6|0,1:0|1:0,0:0:0:0:
129,50,93015,1,2,0:1:0:0:
290,85,93315,2,0,L|290:162,2,68.9999978942872,2|0|2,0:1|1:0|0:1,0:0:0:0:
446,137,93915,2,0,P|473:205|461:286,1,137.999995788574,2|2,0:1|0:1,0:0:0:0:
389,296,94365,2,0,L|392:369,2,68.9999978942872,4|2|2,0:3|0:1|1:0,0:0:0:0:
307,280,94815,1,2,0:0:0:0:
307,280,94965,6,0,L|206:282,2,68.9999978942872,6|0|0,1:0|1:0|3:0,0:0:0:0:
354,124,95565,1,2,1:0:0:0:
354,124,95715,2,0,P|284:106|211:127,1,137.999995788574,0|2,3:0|1:0,0:0:0:0:
147,159,96165,6,0,L|147:246,1,68.9999978942872,6|2,1:0|1:1,0:0:0:0:
28,343,96615,1,2,1:0:0:0:
28,343,96765,2,0,L|29:263,2,68.9999978942872,0|2|2,1:0|0:0|1:1,0:0:0:0:
105,384,97215,1,2,0:1:0:0:
179,347,97365,6,0,P|163:282|183:216,1,137.999995788574,6|0,1:0|0:0,0:0:0:0:
132,166,97815,1,0,3:0:0:0:
132,166,97965,2,0,B|97:181|97:181|45:170,1,68.9999978942872,0|0,1:0|0:0,0:0:0:0:
186,79,98415,1,0,0:0:0:0:
186,79,98565,2,0,P|210:50|351:110,1,206.999993682861,4|2,3:0|0:0,0:0:0:0:
401,146,99165,2,0,L|400:303,1,137.999995788574,4|0,1:2|3:0,0:0:0:0:
268,359,99765,6,0,P|224:328|135:329,1,137.999995788574,2|0,1:1|0:0,0:0:0:0:
73,307,100215,1,0,3:0:0:0:
73,307,100365,2,0,B|85:273|85:273|66:233,1,68.9999978942872,4|0,1:2|0:0,0:0:0:0:
84,95,100815,1,0,3:0:0:0:
84,95,100965,2,0,P|144:94|232:93,1,137.999995788574,4|2,3:0|0:0,0:0:0:0:
373,80,101565,2,0,L|389:-8,2,68.9999978942872,4|0|2,1:2|0:0|0:0,0:0:0:0:
458,205,102165,6,0,B|498:259|498:259|465:325,1,137.999995788574,2|0,1:0|3:0,0:0:0:0:
394,321,102615,1,0,3:0:0:0:
394,321,102765,2,0,L|310:324,1,68.9999978942872,0|0,1:0|0:0,0:0:0:0:
174,302,103215,1,0,0:0:0:0:
117,352,103365,2,0,P|127:328|59:223,1,137.999995788574,0|0,3:0|3:0,0:0:0:0:
114,83,103965,2,0,L|36:82,2,68.9999978942872,4|2|2,1:2|0:0|0:0,0:0:0:0:
176,40,104415,1,2,0:0:0:0:
226,101,104565,6,0,P|223:178|273:242,1,137.999995788574,2|0,1:0|3:0,0:0:0:0:
329,260,105015,1,0,3:0:0:0:
329,260,105165,2,0,B|362:244|362:244|421:252,1,68.9999978942872,4|0,1:2|0:0,0:0:0:0:
487,128,105615,5,0,0:0:0:0:
487,128,105765,2,0,L|333:128,1,137.999995788574,4|0,3:0|1:0,0:0:0:0:
213,196,106365,2,0,L|212:267,2,68.9999978942872,0|2|4,1:0|3:2|3:3,0:0:0:0:
146,158,106815,1,4,3:3:0:0:
167,80,106965,6,0,P|214:63|284:98,1,115,4|0,0:0|1:0,0:0:0:0:
328,122,107415,1,0,1:2:0:0:
411,208,107715,1,0,3:0:0:0:
411,208,107865,2,0,L|412:271,1,57.5,0|0,3:0|3:0,0:0:0:0:
393,319,108165,6,0,P|337:314|263:325,1,115,2|0,1:0|0:0,0:0:0:0:
163,317,108765,2,0,B|165:263|165:263|108:214,1,115,0|0,0:0|0:0,0:0:0:0:
41,138,109365,6,0,P|83:129|150:92,1,115,4|0,1:0|1:0,0:0:0:0:
203,89,109815,1,0,1:0:0:0:
317,101,110115,2,0,L|337:40,2,57.5,0|0|0,3:0|3:0|3:0,0:0:0:0:
352,146,110565,6,0,P|373:196|353:272,1,115,2|0,1:0|0:0,0:0:0:0:
276,330,111165,2,0,P|215:348|150:330,1,115,0|0,3:0|0:0,0:0:0:0:
206,230,111765,6,0,L|206:107,1,115,4|0,0:0|1:0,0:0:0:0:
163,76,112215,1,0,1:0:0:0:
254,6,112515,2,0,P|282:40|298:120,1,115,0|0,3:0|1:0,0:0:0:0:
316,162,112965,6,0,P|356:191|422:195,1,115,0|0,0:0|0:0,0:0:0:0:
462,156,113415,1,2,0:0:0:0:
460,270,113715,1,0,3:0:0:0:
305,346,114165,6,0,B|245:331|245:331|172:352,1,115,4|0,0:0|0:0,0:0:0:0:
137,333,114615,1,0,1:0:0:0:
25,305,114915,2,0,L|-2:372,2,57.5,0|4|0,3:0|3:0|3:0,0:0:0:0:
17,247,115365,6,0,P|0:181|30:133,2,115,4|0|0,3:0|3:0|3:0,0:0:0:0:
121,199,116265,2,0,L|188:196,1,57.5,4|2,3:0|0:0,0:0:0:0:
224,162,116565,5,4,1:0:0:0:
256,192,116640,12,0,118815,0:0:0:0:
