osu file format v14

[General]
AudioFilename: audio.mp3
AudioLeadIn: 0
PreviewTime: 50371
Countdown: 0
SampleSet: Normal
StackLeniency: 0.7
Mode: 1
LetterboxInBreaks: 0
WidescreenStoryboard: 0

[Editor]
Bookmarks: 1220,11064,20912,30758,40604,50450,60296,70143,79989,89835,99681,119373,129220
DistanceSpacing: 2.6
BeatDivisor: 4
GridSize: 32
TimelineZoom: 2.899999

[Metadata]
Title:Abrasion
TitleUnicode:Abrasion
Artist:Zekk
ArtistUnicode:Zekk
Creator:komasy
Version:Inner Oni
Source:osu!
Tags:Featured Artist FA Electronic Instrumental Hardcore Pumpcore Hardtek Dubstep Twerk Cut Short Version Ver CYCLIK CONTROL
BeatmapID:2507254
BeatmapSetID:1204065

[Difficulty]
HPDrainRate:6.6
CircleSize:5
OverallDifficulty:6.6
ApproachRate:10
SliderMultiplier:1.4
SliderTickRate:1

[Events]
//Background and Video events
0,0,"white-and-black-wooden-board-963278.jpg",0,0
//Break Periods
//Storyboard Layer 0 (Background)
//Storyboard Layer 1 (Fail)
//Storyboard Layer 2 (Pass)
//Storyboard Layer 3 (Foreground)
//Storyboard Layer 4 (Overlay)
//Storyboard Sound Samples

[TimingPoints]
1218,307.692307692308,4,1,0,80,1,0
1218,-125,4,1,0,80,0,0
10987,-100,4,1,0,90,0,0
20987,-105.263157894737,4,1,0,40,0,0
23294,-111.111111111111,4,1,0,20,0,0
24525,-117.647058823529,4,1,0,10,0,0
25756,-125,4,1,0,80,0,0
28292,-122.302158273381,4,1,0,80,0,0
28368,-119.718309859155,4,1,0,80,0,0
28445,-117.241379310345,4,1,0,80,0,0
28522,-114.864864864865,4,1,0,80,0,0
28599,-112.582781456954,4,1,0,80,0,0
28676,-110.38961038961,4,1,0,80,0,0
28753,-108.28025477707,4,1,0,80,0,0
28830,-106.25,4,1,0,80,0,0
28907,-104.294478527607,4,1,0,80,0,0
28984,-102.409638554217,4,1,0,80,0,0
29061,-100.591715976331,4,1,0,80,0,0
29138,-98.8372093023256,4,1,0,80,0,0
29215,-97.1428571428571,4,1,0,80,0,0
29292,-95.5056179775281,4,1,0,80,0,0
29368,-93.9226519337016,4,1,0,80,0,0
29445,-92.3913043478261,4,1,0,80,0,0
29522,-90.9090909090909,4,1,0,80,0,0
29602,-133.333333333333,4,1,0,80,0,0
30292,-126.582278481013,4,1,0,80,0,0
30369,-125,4,1,0,80,0,0
30446,-123.595505617978,4,1,0,80,0,0
30522,-122.222222222222,4,1,0,80,0,0
30599,-120.879120879121,4,1,0,80,0,0
30676,-119.565217391304,4,1,0,80,0,0
30753,-118.279569892473,4,1,0,90,0,0
30830,-117.021276595745,4,1,0,90,0,0
30907,-115.789473684211,4,1,0,90,0,0
30984,-114.583333333333,4,1,0,90,0,0
31061,-113.40206185567,4,1,0,90,0,0
31138,-112.244897959184,4,1,0,90,0,0
31215,-111.111111111111,4,1,0,90,0,0
40139,-109.375,4,1,0,90,0,0
40215,-107.692307692308,4,1,0,90,0,0
40292,-106.060606060606,4,1,0,90,0,0
40369,-104.477611940299,4,1,0,90,0,0
40446,-102.941176470588,4,1,0,90,0,0
40523,-101.449275362319,4,1,0,90,0,0
40600,-100,4,1,0,100,0,0
45522,-99.5934959349593,4,1,0,100,0,0
45598,-99.1902834008097,4,1,0,100,0,0
45675,-98.7903225806452,4,1,0,100,0,0
45752,-98.3935742971888,4,1,0,100,0,0
45829,-98,4,1,0,100,0,0
45906,-97.609561752988,4,1,0,100,0,0
45983,-97.2222222222222,4,1,0,100,0,0
46060,-96.8379446640316,4,1,0,100,0,0
46137,-96.4566929133858,4,1,0,100,0,0
46214,-96.078431372549,4,1,0,100,0,0
46291,-95.703125,4,1,0,100,0,0
46368,-95.3307392996109,4,1,0,100,0,0
46445,-94.9612403100775,4,1,0,100,0,0
46522,-94.5945945945946,4,1,0,100,0,0
46598,-94.2307692307692,4,1,0,100,0,0
46675,-93.8697318007663,4,1,0,100,0,0
46752,-93.5114503816794,4,1,0,100,0,0
46829,-93.1558935361217,4,1,0,100,0,0
46906,-92.8030303030303,4,1,0,100,0,0
46983,-92.4528301886792,4,1,0,100,0,0
47060,-92.1052631578947,4,1,0,100,0,0
47137,-91.7602996254682,4,1,0,100,0,0
47214,-91.4179104477612,4,1,0,100,0,0
47291,-91.0780669144981,4,1,0,100,0,0
47368,-90.7407407407408,4,1,0,100,0,0
47445,-90.4059040590406,4,1,0,100,0,0
47522,-90.0735294117647,4,1,0,100,0,0
47598,-89.7435897435897,4,1,0,100,0,0
47675,-89.4160583941606,4,1,0,100,0,0
47752,-89.0909090909091,4,1,0,100,0,0
47829,-88.768115942029,4,1,0,100,0,0
47906,-88.4476534296029,4,1,0,100,0,0
47983,-88.1294964028777,4,1,0,100,0,0
48060,-87.8136200716846,4,1,0,100,0,0
48137,-87.5,4,1,0,100,0,0
48214,-87.1886120996441,4,1,0,100,0,0
48291,-86.8794326241135,4,1,0,100,0,0
48368,-86.5724381625442,4,1,0,100,0,0
48445,-86.2676056338028,4,1,0,100,0,0
48522,-85.9649122807018,4,1,0,100,0,0
48598,-85.6643356643357,4,1,0,100,0,0
48675,-85.3658536585366,4,1,0,100,0,0
48752,-85.0694444444445,4,1,0,100,0,0
48829,-84.7750865051903,4,1,0,100,0,0
48906,-84.4827586206897,4,1,0,100,0,0
48983,-84.192439862543,4,1,0,100,0,0
49060,-83.9041095890411,4,1,0,100,0,0
49137,-83.6177474402731,4,1,0,100,0,0
49214,-83.3333333333333,4,1,0,90,0,0
50448,-100,4,1,0,100,0,1
60294,-100,4,1,0,100,0,0
60368,-101.796407185629,4,1,0,90,0,0
60445,-102.719033232628,4,1,0,90,0,0
60522,-103.658536585366,4,1,0,90,0,0
60599,-104.615384615385,4,1,0,90,0,0
60676,-105.590062111801,4,1,0,90,0,0
60753,-106.583072100313,4,1,0,90,0,0
60830,-107.594936708861,4,1,0,90,0,0
60907,-108.626198083067,4,1,0,90,0,0
60984,-109.677419354839,4,1,0,90,0,0
61061,-110.749185667752,4,1,0,90,0,0
61138,-111.842105263158,4,1,0,90,0,0
61215,-112.956810631229,4,1,0,90,0,0
61292,-114.093959731544,4,1,0,90,0,0
61368,-115.254237288136,4,1,0,90,0,0
61445,-116.438356164384,4,1,0,90,0,0
61525,-117.647058823529,4,1,0,100,0,1
64831,-111.111111111111,4,1,0,100,0,1
64908,-108.695652173913,4,1,0,100,0,1
64984,-106.382978723404,4,1,0,100,0,1
65061,-104.166666666667,4,1,0,100,0,1
65138,-102.040816326531,4,1,0,100,0,1
65215,-100,4,1,0,100,0,1
70141,-100,4,1,0,100,0,0
70218,-105.263157894737,4,1,0,40,0,0
72525,-111.111111111111,4,1,0,20,0,0
73756,-117.647058823529,4,1,0,10,0,0
74987,-125,4,1,0,80,0,0
77525,-122.302158273381,4,1,0,80,0,0
77601,-119.718309859155,4,1,0,80,0,0
77678,-117.241379310345,4,1,0,80,0,0
77755,-114.864864864865,4,1,0,80,0,0
77832,-112.582781456954,4,1,0,80,0,0
77909,-110.38961038961,4,1,0,80,0,0
77986,-108.28025477707,4,1,0,80,0,0
78063,-106.25,4,1,0,80,0,0
78140,-104.294478527607,4,1,0,80,0,0
78217,-102.409638554217,4,1,0,80,0,0
78294,-100.591715976331,4,1,0,80,0,0
78371,-98.8372093023256,4,1,0,80,0,0
78448,-97.1428571428571,4,1,0,80,0,0
78525,-95.5056179775281,4,1,0,80,0,0
78601,-93.9226519337016,4,1,0,80,0,0
78678,-92.3913043478261,4,1,0,80,0,0
78755,-90.9090909090909,4,1,0,80,0,0
78833,-131.578947368421,4,1,0,80,0,0
79216,-129.87012987013,4,1,0,80,0,0
79369,-128.205128205128,4,1,0,80,0,0
79523,-126.582278481013,4,1,0,80,0,0
79600,-125,4,1,0,80,0,0
79677,-123.595505617978,4,1,0,80,0,0
79753,-122.222222222222,4,1,0,80,0,0
79830,-120.879120879121,4,1,0,80,0,0
79907,-119.565217391304,4,1,0,80,0,0
79984,-118.279569892473,4,1,0,90,0,0
80061,-117.021276595745,4,1,0,90,0,0
80138,-115.789473684211,4,1,0,90,0,0
80215,-114.583333333333,4,1,0,90,0,0
80292,-113.40206185567,4,1,0,90,0,0
80369,-112.244897959184,4,1,0,90,0,0
80446,-111.111111111111,4,1,0,90,0,0
89370,-109.375,4,1,0,90,0,0
89446,-107.692307692308,4,1,0,90,0,0
89523,-106.060606060606,4,1,0,90,0,0
89600,-104.477611940299,4,1,0,90,0,0
89677,-102.941176470588,4,1,0,90,0,0
89754,-101.449275362319,4,1,0,90,0,0
89831,-100,4,1,0,100,0,0
94756,-99.5934959349593,4,1,0,100,0,0
94832,-99.1902834008097,4,1,0,100,0,0
94909,-98.7903225806452,4,1,0,100,0,0
94986,-98.3935742971888,4,1,0,100,0,0
95063,-98,4,1,0,100,0,0
95140,-97.609561752988,4,1,0,100,0,0
95217,-97.2222222222222,4,1,0,100,0,0
95294,-96.8379446640316,4,1,0,100,0,0
95371,-96.4566929133858,4,1,0,100,0,0
95448,-96.078431372549,4,1,0,100,0,0
95525,-95.703125,4,1,0,100,0,0
95602,-95.3307392996109,4,1,0,100,0,0
95679,-94.9612403100775,4,1,0,100,0,0
95756,-94.5945945945946,4,1,0,100,0,0
95832,-94.2307692307692,4,1,0,100,0,0
95909,-93.8697318007663,4,1,0,100,0,0
95986,-93.5114503816794,4,1,0,100,0,0
96063,-93.1558935361217,4,1,0,100,0,0
96140,-92.8030303030303,4,1,0,100,0,0
96217,-92.4528301886792,4,1,0,100,0,0
96294,-92.1052631578947,4,1,0,100,0,0
96371,-91.7602996254682,4,1,0,100,0,0
96448,-91.4179104477612,4,1,0,100,0,0
96525,-91.0780669144981,4,1,0,100,0,0
96602,-90.7407407407408,4,1,0,100,0,0
96679,-90.4059040590406,4,1,0,100,0,0
96756,-90.0735294117647,4,1,0,100,0,0
96832,-89.7435897435897,4,1,0,100,0,0
96909,-89.4160583941606,4,1,0,100,0,0
96986,-89.0909090909091,4,1,0,100,0,0
97063,-88.768115942029,4,1,0,100,0,0
97140,-88.4476534296029,4,1,0,100,0,0
97217,-88.1294964028777,4,1,0,100,0,0
97294,-87.8136200716846,4,1,0,100,0,0
97371,-87.5,4,1,0,100,0,0
97448,-87.1886120996441,4,1,0,100,0,0
97525,-86.8794326241135,4,1,0,100,0,0
97602,-86.5724381625442,4,1,0,100,0,0
97679,-86.2676056338028,4,1,0,100,0,0
97756,-85.9649122807018,4,1,0,100,0,0
97832,-85.6643356643357,4,1,0,100,0,0
97909,-85.3658536585366,4,1,0,100,0,0
97986,-85.0694444444445,4,1,0,100,0,0
98063,-84.7750865051903,4,1,0,100,0,0
98140,-84.4827586206897,4,1,0,100,0,0
98217,-84.192439862543,4,1,0,100,0,0
98294,-83.9041095890411,4,1,0,100,0,0
98371,-83.6177474402731,4,1,0,100,0,0
98448,-83.3333333333333,4,1,0,90,0,0
99679,-100,4,1,0,100,0,1
99756,-90.9090909090909,4,1,0,100,0,1
99910,-83.3333333333333,4,1,0,100,0,1
103371,-100,4,1,0,100,0,0
104602,-83.3333333333333,4,1,0,100,0,1
108294,-83.3333333333333,4,1,0,100,0,0
108368,-85,4,1,0,100,0,0
108445,-85.8585858585859,4,1,0,100,0,0
108522,-86.734693877551,4,1,0,100,0,0
108599,-87.6288659793814,4,1,0,100,0,0
108676,-88.5416666666667,4,1,0,100,0,0
108753,-89.4736842105263,4,1,0,100,0,0
108830,-90.4255319148936,4,1,0,100,0,0
108907,-91.3978494623656,4,1,0,100,0,0
109062,-92.3913043478261,4,1,0,100,0,0
109139,-93.4065934065934,4,1,0,100,0,0
109216,-94.4444444444444,4,1,0,100,0,0
109293,-95.5056179775281,4,1,0,100,0,0
109369,-96.1538461538461,4,1,0,100,0,0
109423,-97.0873786407767,4,1,0,100,0,0
109474,-98.0392156862745,4,1,0,100,0,0
109525,-99.009900990099,4,1,0,100,0,1
109628,-100,4,1,0,100,0,1
119371,-100,4,1,0,90,0,0
119756,-111.111111111111,4,1,0,90,0,0
124525,-107.913669064748,4,1,0,90,0,0
124907,-106.382978723404,4,1,0,90,0,0
125215,-103.448275862069,4,1,0,90,0,0
125369,-102.040816326531,4,1,0,90,0,0
125523,-100.671140939597,4,1,0,90,0,0
125676,-99.3377483443709,4,1,0,90,0,0
125830,-98.0392156862745,4,1,0,90,0,0
125984,-96.7741935483871,4,1,0,90,0,0
126138,-95.5414012738853,4,1,0,90,0,0
126292,-94.3396226415094,4,1,0,90,0,0
126371,-93.8967136150235,4,1,0,90,0,0
126446,-93.167701863354,4,1,0,90,0,0
126599,-92.0245398773006,4,1,0,90,0,0
126753,-90.9090909090909,4,1,0,90,0,0
126908,-91.4634146341463,4,1,0,90,0,0
126984,-92.0245398773006,4,1,0,90,0,0
127061,-92.5925925925926,4,1,0,90,0,0
127138,-93.167701863354,4,1,0,90,0,0
127215,-93.75,4,1,0,90,0,0
127292,-94.3396226415094,4,1,0,90,0,0
127369,-94.9367088607595,4,1,0,90,0,0
127446,-95.5414012738854,4,1,0,90,0,0
127523,-96.1538461538461,4,1,0,90,0,0
127600,-96.7741935483871,4,1,0,90,0,0
127677,-97.4025974025974,4,1,0,90,0,0
127754,-98.0392156862745,4,1,0,90,0,0
127831,-98.6842105263158,4,1,0,90,0,0
127907,-99.3377483443709,4,1,0,90,0,0
127984,-100,4,1,0,90,0,0

[HitObjects]
160,96,1218,5,0,0:0:0:0:
352,96,1833,1,8,0:0:0:0:
160,96,2294,1,0,0:0:0:0:
352,96,3064,1,8,0:0:0:0:
160,96,3679,1,0,0:0:0:0:
352,96,4294,1,8,0:0:0:0:
160,96,4756,1,0,0:0:0:0:
352,96,5371,1,8,0:0:0:0:
352,96,5525,1,8,0:0:0:0:
352,96,5833,1,8,0:0:0:0:
352,96,5910,1,8,0:0:0:0:
352,96,5987,1,8,0:0:0:0:
352,96,6064,1,8,0:0:0:0:
160,96,6141,1,0,0:0:0:0:
352,96,6756,1,8,0:0:0:0:
160,96,7218,1,0,0:0:0:0:
352,96,7987,1,8,0:0:0:0:
160,96,8602,1,0,0:0:0:0:
352,96,9218,1,8,0:0:0:0:
160,96,9679,1,0,0:0:0:0:
352,96,9833,1,8,0:0:0:0:
352,96,10141,1,8,0:0:0:0:
352,96,10294,1,8,0:0:0:0:
352,96,10371,1,8,0:0:0:0:
160,96,10448,1,0,0:0:0:0:
352,288,10756,1,12,0:0:0:0:
160,96,11064,1,0,0:0:0:0:
352,96,11371,1,8,0:0:0:0:
160,96,11525,1,0,0:0:0:0:
352,288,11679,1,12,0:0:0:0:
352,96,11987,1,8,0:0:0:0:
160,96,12141,1,0,0:0:0:0:
160,96,12448,1,0,0:0:0:0:
352,96,12602,1,8,0:0:0:0:
352,96,12679,1,8,0:0:0:0:
352,96,12756,1,8,0:0:0:0:
352,288,12910,1,12,0:0:0:0:
352,96,13141,1,8,0:0:0:0:
352,96,13218,1,8,0:0:0:0:
352,96,13371,1,8,0:0:0:0:
160,96,13525,1,0,0:0:0:0:
352,96,13833,1,8,0:0:0:0:
160,96,13987,1,0,0:0:0:0:
352,288,14141,1,12,0:0:0:0:
352,96,14448,1,8,0:0:0:0:
160,96,14602,1,0,0:0:0:0:
352,96,14756,1,8,0:0:0:0:
160,96,14910,1,0,0:0:0:0:
352,96,15064,1,8,0:0:0:0:
352,96,15141,1,8,0:0:0:0:
352,96,15218,1,8,0:0:0:0:
352,288,15371,1,12,0:0:0:0:
352,96,15602,1,8,0:0:0:0:
352,96,15679,1,8,0:0:0:0:
352,96,15833,1,8,0:0:0:0:
352,96,15910,1,8,0:0:0:0:
160,96,15987,1,0,0:0:0:0:
352,96,16294,1,8,0:0:0:0:
160,96,16371,1,0,0:0:0:0:
160,96,16448,1,0,0:0:0:0:
352,288,16602,1,12,0:0:0:0:
352,96,16910,1,8,0:0:0:0:
160,96,17064,1,0,0:0:0:0:
352,96,17218,1,8,0:0:0:0:
352,96,17294,1,8,0:0:0:0:
160,96,17371,1,0,0:0:0:0:
352,96,17525,1,8,0:0:0:0:
352,96,17602,1,8,0:0:0:0:
352,96,17679,1,8,0:0:0:0:
352,288,17833,1,12,0:0:0:0:
352,96,18064,1,8,0:0:0:0:
352,96,18141,1,8,0:0:0:0:
352,96,18294,1,8,0:0:0:0:
160,96,18448,1,0,0:0:0:0:
352,96,18756,1,8,0:0:0:0:
160,96,18833,1,0,0:0:0:0:
160,96,18910,1,0,0:0:0:0:
352,288,19064,1,12,0:0:0:0:
160,96,19218,1,0,0:0:0:0:
160,96,19294,1,0,0:0:0:0:
352,96,19371,1,8,0:0:0:0:
160,96,19525,1,0,0:0:0:0:
160,96,19679,1,8,0:0:0:0:
352,96,19833,1,0,0:0:0:0:
352,96,19910,1,8,0:0:0:0:
352,96,19987,1,8,0:0:0:0:
352,96,20141,1,8,0:0:0:0:
352,96,20192,1,8,0:0:0:0:
352,96,20243,1,8,0:0:0:0:
160,96,20294,1,0,0:0:0:0:
160,96,20371,1,0,0:0:0:0:
160,96,20448,1,0,0:0:0:0:
160,96,20525,1,0,0:0:0:0:
352,96,20602,1,8,0:0:0:0:
352,96,20705,1,8,0:0:0:0:
352,96,20807,1,8,0:0:0:0:
160,96,20910,1,4,0:0:0:0:
352,96,25833,1,8,0:0:0:0:
352,96,26141,1,8,0:0:0:0:
352,96,26294,1,8,0:0:0:0:
352,96,26448,1,8,0:0:0:0:
352,96,26756,1,8,0:0:0:0:
352,96,26910,1,8,0:0:0:0:
352,96,26987,1,8,0:0:0:0:
352,96,27064,1,8,0:0:0:0:
352,96,27218,1,8,0:0:0:0:
352,96,27371,1,8,0:0:0:0:
352,96,27679,1,8,0:0:0:0:
352,96,27910,1,8,0:0:0:0:
352,96,27987,1,8,0:0:0:0:
352,96,28141,1,8,0:0:0:0:
352,96,28294,1,8,0:0:0:0:
352,96,28371,1,8,0:0:0:0:
352,96,28448,1,8,0:0:0:0:
352,96,28525,1,8,0:0:0:0:
352,96,28602,1,8,0:0:0:0:
352,96,28679,1,8,0:0:0:0:
352,96,28756,1,8,0:0:0:0:
352,96,28833,1,8,0:0:0:0:
352,96,28910,1,8,0:0:0:0:
352,96,28987,1,8,0:0:0:0:
352,96,29064,1,8,0:0:0:0:
352,96,29141,1,8,0:0:0:0:
352,96,29218,1,8,0:0:0:0:
352,96,29294,1,8,0:0:0:0:
352,96,29371,1,8,0:0:0:0:
352,96,29448,1,8,0:0:0:0:
160,96,29525,1,0,0:0:0:0:
352,96,30141,1,8,0:0:0:0:
160,96,30294,1,0,0:0:0:0:
352,96,30371,1,8,0:0:0:0:
160,96,30448,1,0,0:0:0:0:
160,96,30525,1,0,0:0:0:0:
352,96,30602,1,8,0:0:0:0:
352,96,30679,1,8,0:0:0:0:
160,96,30756,1,0,0:0:0:0:
160,96,30910,1,0,0:0:0:0:
160,96,30987,1,0,0:0:0:0:
160,96,31064,1,0,0:0:0:0:
160,288,31218,1,4,0:0:0:0:
352,96,31371,1,8,0:0:0:0:
160,96,31679,1,0,0:0:0:0:
352,96,31833,1,8,0:0:0:0:
352,96,31987,1,8,0:0:0:0:
160,96,32141,1,0,0:0:0:0:
352,96,32294,1,8,0:0:0:0:
160,96,32602,1,0,0:0:0:0:
160,96,32756,1,0,0:0:0:0:
352,96,32833,1,8,0:0:0:0:
160,96,32910,1,0,0:0:0:0:
160,96,33064,1,0,0:0:0:0:
352,96,33218,1,8,0:0:0:0:
160,96,33525,1,0,0:0:0:0:
352,96,33679,1,8,0:0:0:0:
352,96,33833,1,8,0:0:0:0:
160,96,33987,1,0,0:0:0:0:
160,96,34064,1,0,0:0:0:0:
352,96,34141,1,8,0:0:0:0:
352,96,34448,1,8,0:0:0:0:
352,96,34602,1,8,0:0:0:0:
160,96,34679,1,0,0:0:0:0:
352,96,34756,1,8,0:0:0:0:
352,96,34910,1,8,0:0:0:0:
352,96,35064,1,8,0:0:0:0:
160,96,35218,1,0,0:0:0:0:
352,96,35371,1,8,0:0:0:0:
352,96,35525,1,8,0:0:0:0:
160,288,35679,1,4,0:0:0:0:
352,96,35987,1,8,0:0:0:0:
160,96,36141,1,0,0:0:0:0:
352,96,36294,1,8,0:0:0:0:
352,96,36448,1,8,0:0:0:0:
352,96,36525,1,8,0:0:0:0:
160,96,36602,1,0,0:0:0:0:
352,96,36756,1,8,0:0:0:0:
352,96,36910,1,8,0:0:0:0:
160,96,37064,1,0,0:0:0:0:
352,96,37218,1,8,0:0:0:0:
160,96,37525,1,0,0:0:0:0:
160,96,37679,1,0,0:0:0:0:
352,96,37756,1,8,0:0:0:0:
160,96,37833,1,0,0:0:0:0:
160,96,37987,1,0,0:0:0:0:
352,96,38141,1,8,0:0:0:0:
160,96,38448,1,0,0:0:0:0:
352,96,38602,1,8,0:0:0:0:
352,96,38756,1,8,0:0:0:0:
160,96,38910,1,0,0:0:0:0:
160,96,38987,1,0,0:0:0:0:
352,96,39064,1,8,0:0:0:0:
160,96,39218,1,0,0:0:0:0:
352,96,39371,1,8,0:0:0:0:
352,96,39525,1,8,0:0:0:0:
160,96,39602,1,0,0:0:0:0:
352,96,39679,1,8,0:0:0:0:
352,96,39833,1,8,0:0:0:0:
352,96,39987,1,8,0:0:0:0:
160,96,40141,1,0,0:0:0:0:
160,96,40218,1,0,0:0:0:0:
352,96,40294,1,8,0:0:0:0:
160,96,40371,1,0,0:0:0:0:
352,96,40448,1,8,0:0:0:0:
352,96,40525,1,8,0:0:0:0:
160,96,40602,1,0,0:0:0:0:
352,96,40756,1,8,0:0:0:0:
160,96,40910,1,0,0:0:0:0:
160,96,40987,1,0,0:0:0:0:
352,96,41064,1,8,0:0:0:0:
160,96,41218,1,0,0:0:0:0:
352,96,41448,1,8,0:0:0:0:
160,96,41525,1,0,0:0:0:0:
352,96,41679,1,8,0:0:0:0:
160,96,41833,1,0,0:0:0:0:
160,96,41910,1,0,0:0:0:0:
352,96,41987,1,8,0:0:0:0:
160,96,42141,1,0,0:0:0:0:
352,96,42294,1,8,0:0:0:0:
352,96,42371,1,8,0:0:0:0:
160,96,42448,1,0,0:0:0:0:
352,96,42602,1,8,0:0:0:0:
160,96,42756,1,0,0:0:0:0:
160,96,42833,1,0,0:0:0:0:
352,96,42910,1,8,0:0:0:0:
352,96,42987,1,8,0:0:0:0:
160,96,43064,1,0,0:0:0:0:
352,96,43294,1,8,0:0:0:0:
160,96,43371,1,0,0:0:0:0:
352,96,43525,1,8,0:0:0:0:
160,96,43679,1,0,0:0:0:0:
160,96,43756,1,0,0:0:0:0:
352,96,43833,1,8,0:0:0:0:
160,96,43987,1,0,0:0:0:0:
352,96,44141,1,8,0:0:0:0:
352,96,44218,1,8,0:0:0:0:
160,96,44294,1,0,0:0:0:0:
160,96,44371,1,0,0:0:0:0:
352,96,44448,1,8,0:0:0:0:
160,96,44602,1,0,0:0:0:0:
352,96,44756,1,8,0:0:0:0:
352,96,44833,1,8,0:0:0:0:
160,96,44910,1,0,0:0:0:0:
352,96,44987,1,8,0:0:0:0:
352,96,45064,1,8,0:0:0:0:
352,96,45141,1,8,0:0:0:0:
160,96,45218,1,0,0:0:0:0:
352,96,45371,1,8,0:0:0:0:
160,96,45525,1,0,0:0:0:0:
160,96,45602,1,0,0:0:0:0:
160,96,45679,1,0,0:0:0:0:
160,96,45756,1,0,0:0:0:0:
352,96,45833,1,8,0:0:0:0:
160,96,45910,1,0,0:0:0:0:
160,96,45987,1,0,0:0:0:0:
160,96,46064,1,0,0:0:0:0:
352,96,46141,1,8,0:0:0:0:
352,96,46218,1,8,0:0:0:0:
160,96,46294,1,0,0:0:0:0:
160,96,46371,1,0,0:0:0:0:
352,96,46448,1,8,0:0:0:0:
352,96,46525,1,8,0:0:0:0:
352,96,46602,1,8,0:0:0:0:
160,96,46679,1,0,0:0:0:0:
352,96,46756,1,8,0:0:0:0:
352,96,46910,1,8,0:0:0:0:
352,96,47064,1,8,0:0:0:0:
352,96,47218,1,8,0:0:0:0:
352,96,47371,1,8,0:0:0:0:
352,96,47525,1,8,0:0:0:0:
352,96,47679,1,8,0:0:0:0:
352,96,47833,1,8,0:0:0:0:
160,96,47987,1,0,0:0:0:0:
352,96,48064,1,8,0:0:0:0:
352,96,48141,1,8,0:0:0:0:
352,96,48218,1,8,0:0:0:0:
352,96,48294,1,8,0:0:0:0:
352,96,48371,1,8,0:0:0:0:
352,96,48448,1,8,0:0:0:0:
352,96,48525,1,8,0:0:0:0:
352,96,48602,1,8,0:0:0:0:
352,96,48679,1,8,0:0:0:0:
352,96,48756,1,8,0:0:0:0:
352,96,48833,1,8,0:0:0:0:
352,96,48910,1,8,0:0:0:0:
352,96,48987,1,8,0:0:0:0:
352,96,49064,1,8,0:0:0:0:
352,96,49141,1,8,0:0:0:0:
160,96,49218,1,0,0:0:0:0:
352,96,49371,1,8,0:0:0:0:
352,96,49410,1,8,0:0:0:0:
352,96,49525,1,8,0:0:0:0:
352,96,49564,1,8,0:0:0:0:
352,96,49679,1,8,0:0:0:0:
352,96,49756,1,8,0:0:0:0:
160,96,49833,1,0,0:0:0:0:
160,96,49987,1,0,0:0:0:0:
352,288,50141,1,12,0:0:0:0:
160,96,50448,1,0,0:0:0:0:
352,96,50551,1,8,0:0:0:0:
352,96,50653,1,8,0:0:0:0:
160,96,50756,1,0,0:0:0:0:
352,96,50859,1,8,0:0:0:0:
352,96,50961,1,8,0:0:0:0:
160,96,51064,1,0,0:0:0:0:
352,96,51218,1,8,0:0:0:0:
160,96,51294,1,0,0:0:0:0:
160,96,51371,1,0,0:0:0:0:
352,96,51525,1,8,0:0:0:0:
160,96,51679,1,0,0:0:0:0:
352,96,51782,1,8,0:0:0:0:
352,96,51884,1,8,0:0:0:0:
160,96,51987,1,0,0:0:0:0:
352,96,52141,1,8,0:0:0:0:
160,96,52218,1,0,0:0:0:0:
160,96,52294,1,0,0:0:0:0:
352,96,52371,1,8,0:0:0:0:
352,96,52448,1,8,0:0:0:0:
352,96,52525,1,8,0:0:0:0:
160,96,52602,1,0,0:0:0:0:
352,96,52756,1,8,0:0:0:0:
160,96,52910,1,0,0:0:0:0:
352,96,53012,1,8,0:0:0:0:
352,96,53115,1,8,0:0:0:0:
160,96,53218,1,0,0:0:0:0:
352,96,53320,1,8,0:0:0:0:
352,96,53423,1,8,0:0:0:0:
160,96,53525,1,0,0:0:0:0:
352,96,53679,1,8,0:0:0:0:
160,96,53756,1,0,0:0:0:0:
160,96,53833,1,0,0:0:0:0:
352,96,53987,1,8,0:0:0:0:
160,96,54141,1,0,0:0:0:0:
352,96,54243,1,8,0:0:0:0:
352,96,54346,1,8,0:0:0:0:
160,96,54448,1,0,0:0:0:0:
352,96,54602,1,8,0:0:0:0:
160,96,54679,1,0,0:0:0:0:
160,96,54756,1,0,0:0:0:0:
352,96,54910,1,8,0:0:0:0:
352,96,54987,1,8,0:0:0:0:
160,96,55064,1,0,0:0:0:0:
352,96,55141,1,8,0:0:0:0:
352,96,55218,1,8,0:0:0:0:
352,96,55294,1,8,0:0:0:0:
160,96,55371,1,0,0:0:0:0:
160,96,55525,1,0,0:0:0:0:
352,96,55679,1,8,0:0:0:0:
352,96,55833,1,8,0:0:0:0:
160,96,55910,1,0,0:0:0:0:
160,96,55987,1,0,0:0:0:0:
352,96,56064,1,8,0:0:0:0:
160,96,56141,1,0,0:0:0:0:
352,96,56294,1,8,0:0:0:0:
352,96,56448,1,8,0:0:0:0:
352,96,56525,1,8,0:0:0:0:
160,96,56602,1,0,0:0:0:0:
352,96,56679,1,8,0:0:0:0:
160,96,56737,1,0,0:0:0:0:
160,96,56794,1,0,0:0:0:0:
160,96,56852,1,0,0:0:0:0:
352,96,56910,1,8,0:0:0:0:
352,96,57064,1,8,0:0:0:0:
160,96,57141,1,0,0:0:0:0:
160,96,57218,1,0,0:0:0:0:
352,96,57294,1,8,0:0:0:0:
352,96,57371,1,8,0:0:0:0:
160,96,57448,1,0,0:0:0:0:
352,96,57525,1,8,0:0:0:0:
352,96,57679,1,8,0:0:0:0:
352,96,57756,1,8,0:0:0:0:
160,96,57833,1,0,0:0:0:0:
352,96,57910,1,8,0:0:0:0:
352,96,57968,1,8,0:0:0:0:
160,96,58025,1,0,0:0:0:0:
160,96,58083,1,0,0:0:0:0:
352,96,58141,1,8,0:0:0:0:
352,96,58294,1,8,0:0:0:0:
160,96,58371,1,0,0:0:0:0:
160,96,58448,1,0,0:0:0:0:
352,96,58525,1,8,0:0:0:0:
352,96,58602,1,8,0:0:0:0:
160,96,58679,1,0,0:0:0:0:
352,96,58756,1,8,0:0:0:0:
160,96,58833,1,0,0:0:0:0:
160,96,58910,1,0,0:0:0:0:
352,96,58987,1,8,0:0:0:0:
160,96,59064,1,0,0:0:0:0:
352,96,59218,1,8,0:0:0:0:
352,96,59371,1,8,0:0:0:0:
352,96,59525,1,8,0:0:0:0:
160,96,59679,1,0,0:0:0:0:
352,96,59833,1,8,0:0:0:0:
352,96,59910,1,8,0:0:0:0:
160,96,59987,1,0,0:0:0:0:
160,96,60064,1,0,0:0:0:0:
352,96,60141,1,8,0:0:0:0:
352,96,60192,1,8,0:0:0:0:
352,96,60243,1,8,0:0:0:0:
160,96,60294,1,0,0:0:0:0:
352,96,60448,1,8,0:0:0:0:
352,96,60602,1,8,0:0:0:0:
352,96,60756,1,8,0:0:0:0:
352,96,60910,1,8,0:0:0:0:
352,96,60987,1,8,0:0:0:0:
352,96,61064,1,8,0:0:0:0:
352,96,61141,1,8,0:0:0:0:
352,96,61218,1,8,0:0:0:0:
352,96,61294,1,8,0:0:0:0:
352,96,61371,1,8,0:0:0:0:
352,96,61448,1,8,0:0:0:0:
160,96,61525,1,0,0:0:0:0:
160,96,61576,1,0,0:0:0:0:
352,96,61628,1,0,0:0:0:0:
352,96,61679,1,8,0:0:0:0:
352,96,61833,1,8,0:0:0:0:
352,96,61884,1,8,0:0:0:0:
160,96,61935,1,8,0:0:0:0:
160,96,61987,1,0,0:0:0:0:
352,96,62141,1,8,0:0:0:0:
160,96,62371,1,0,0:0:0:0:
352,96,62448,1,8,0:0:0:0:
160,96,62602,1,0,0:0:0:0:
352,96,62756,1,8,0:0:0:0:
352,96,62833,1,8,0:0:0:0:
160,96,62910,1,0,0:0:0:0:
352,96,63064,1,8,0:0:0:0:
160,96,63102,1,0,0:0:0:0:
352,96,63218,1,8,0:0:0:0:
160,96,63256,1,0,0:0:0:0:
352,96,63371,1,8,0:0:0:0:
160,96,63525,1,0,0:0:0:0:
160,96,63602,1,0,0:0:0:0:
352,96,63679,1,8,0:0:0:0:
160,96,63833,1,0,0:0:0:0:
352,96,63987,1,8,0:0:0:0:
352,96,64038,1,8,0:0:0:0:
352,96,64089,1,8,0:0:0:0:
352,96,64141,1,8,0:0:0:0:
160,96,64294,1,0,0:0:0:0:
160,96,64346,1,0,0:0:0:0:
160,96,64397,1,0,0:0:0:0:
160,96,64448,1,0,0:0:0:0:
352,96,64602,1,8,0:0:0:0:
160,96,64833,1,0,0:0:0:0:
352,96,64910,1,8,0:0:0:0:
352,96,64987,1,8,0:0:0:0:
352,96,65064,1,8,0:0:0:0:
352,96,65141,1,8,0:0:0:0:
160,96,65218,1,0,0:0:0:0:
160,96,65371,1,0,0:0:0:0:
352,96,65525,1,8,0:0:0:0:
352,96,65602,1,8,0:0:0:0:
352,96,65756,1,8,0:0:0:0:
352,96,65910,1,8,0:0:0:0:
160,96,65987,1,0,0:0:0:0:
352,96,66141,1,8,0:0:0:0:
160,96,66294,1,0,0:0:0:0:
352,96,66371,1,8,0:0:0:0:
352,96,66448,1,8,0:0:0:0:
160,96,66602,1,0,0:0:0:0:
352,96,66756,1,8,0:0:0:0:
352,96,66910,1,8,0:0:0:0:
352,96,66987,1,8,0:0:0:0:
160,96,67064,1,0,0:0:0:0:
352,96,67141,1,8,0:0:0:0:
352,96,67218,1,8,0:0:0:0:
352,96,67294,1,8,0:0:0:0:
160,96,67371,1,0,0:0:0:0:
352,96,67525,1,8,0:0:0:0:
160,96,67679,1,0,0:0:0:0:
160,96,67833,1,0,0:0:0:0:
352,96,67910,1,8,0:0:0:0:
160,96,67987,1,0,0:0:0:0:
160,96,68141,1,0,0:0:0:0:
160,96,68294,1,0,0:0:0:0:
160,96,68371,1,0,0:0:0:0:
160,96,68448,1,0,0:0:0:0:
160,96,68525,1,0,0:0:0:0:
352,96,68602,1,8,0:0:0:0:
352,96,68756,1,8,0:0:0:0:
352,96,68833,1,8,0:0:0:0:
160,96,68910,1,0,0:0:0:0:
352,96,69064,1,8,0:0:0:0:
352,96,69141,1,8,0:0:0:0:
352,96,69294,1,8,0:0:0:0:
352,96,69371,1,8,0:0:0:0:
352,96,69448,1,8,0:0:0:0:
160,96,69525,1,0,0:0:0:0:
160,96,69679,1,0,0:0:0:0:
352,96,69833,1,8,0:0:0:0:
160,288,70141,1,4,0:0:0:0:
160,96,75064,1,0,0:0:0:0:
352,96,75371,1,8,0:0:0:0:
160,96,75525,1,0,0:0:0:0:
352,96,75679,1,8,0:0:0:0:
160,96,75987,1,0,0:0:0:0:
352,96,76141,1,8,0:0:0:0:
352,96,76218,1,8,0:0:0:0:
160,96,76294,1,0,0:0:0:0:
160,96,76448,1,0,0:0:0:0:
352,96,76602,1,8,0:0:0:0:
160,96,76756,1,0,0:0:0:0:
352,96,76910,1,8,0:0:0:0:
352,96,77218,1,8,0:0:0:0:
352,96,77371,1,8,0:0:0:0:
160,96,77525,1,0,0:0:0:0:
352,96,77602,1,8,0:0:0:0:
352,96,77679,1,8,0:0:0:0:
352,96,77756,1,8,0:0:0:0:
352,96,77833,1,8,0:0:0:0:
352,96,77987,1,8,0:0:0:0:
160,96,78141,1,0,0:0:0:0:
352,96,78218,1,8,0:0:0:0:
352,96,78294,1,8,0:0:0:0:
352,96,78371,1,8,0:0:0:0:
352,96,78448,1,8,0:0:0:0:
352,96,78525,1,8,0:0:0:0:
352,96,78602,1,8,0:0:0:0:
352,96,78679,1,8,0:0:0:0:
160,96,78756,1,0,0:0:0:0:
160,96,79064,1,0,0:0:0:0:
160,96,79218,1,0,0:0:0:0:
352,96,79371,1,8,0:0:0:0:
160,96,79525,1,0,0:0:0:0:
352,96,79602,1,8,0:0:0:0:
160,96,79679,1,0,0:0:0:0:
160,96,79756,1,0,0:0:0:0:
352,96,79833,1,8,0:0:0:0:
352,96,79910,1,8,0:0:0:0:
160,96,79987,1,0,0:0:0:0:
160,96,80141,1,0,0:0:0:0:
160,96,80218,1,0,0:0:0:0:
160,96,80294,1,0,0:0:0:0:
160,288,80448,1,4,0:0:0:0:
352,96,80602,1,8,0:0:0:0:
160,96,80910,1,0,0:0:0:0:
352,96,81064,1,8,0:0:0:0:
352,96,81218,1,8,0:0:0:0:
160,96,81371,1,0,0:0:0:0:
352,96,81525,1,8,0:0:0:0:
160,96,81833,1,0,0:0:0:0:
160,96,81987,1,0,0:0:0:0:
352,96,82064,1,8,0:0:0:0:
160,96,82141,1,0,0:0:0:0:
160,96,82294,1,0,0:0:0:0:
352,96,82448,1,8,0:0:0:0:
160,96,82756,1,0,0:0:0:0:
352,96,82910,1,8,0:0:0:0:
352,96,83064,1,8,0:0:0:0:
160,96,83218,1,0,0:0:0:0:
160,96,83294,1,0,0:0:0:0:
352,96,83371,1,8,0:0:0:0:
352,96,83679,1,8,0:0:0:0:
352,96,83833,1,8,0:0:0:0:
160,96,83910,1,0,0:0:0:0:
352,96,83987,1,8,0:0:0:0:
352,96,84141,1,8,0:0:0:0:
352,96,84294,1,8,0:0:0:0:
160,96,84448,1,0,0:0:0:0:
352,96,84602,1,8,0:0:0:0:
352,96,84756,1,8,0:0:0:0:
160,288,84910,1,4,0:0:0:0:
352,96,85218,1,8,0:0:0:0:
160,96,85371,1,0,0:0:0:0:
352,96,85525,1,8,0:0:0:0:
160,96,85679,1,0,0:0:0:0:
160,96,85756,1,0,0:0:0:0:
352,96,85833,1,8,0:0:0:0:
160,96,85987,1,0,0:0:0:0:
352,96,86141,1,8,0:0:0:0:
352,96,86294,1,8,0:0:0:0:
160,96,86448,1,0,0:0:0:0:
352,96,86756,1,8,0:0:0:0:
352,96,86910,1,8,0:0:0:0:
160,96,86987,1,0,0:0:0:0:
352,96,87064,1,8,0:0:0:0:
352,96,87218,1,8,0:0:0:0:
160,96,87371,1,0,0:0:0:0:
160,96,87679,1,0,0:0:0:0:
160,96,87833,1,0,0:0:0:0:
352,96,87987,1,8,0:0:0:0:
160,96,88141,1,0,0:0:0:0:
160,96,88218,1,0,0:0:0:0:
352,96,88294,1,8,0:0:0:0:
160,96,88448,1,0,0:0:0:0:
352,96,88602,1,8,0:0:0:0:
352,96,88756,1,8,0:0:0:0:
160,96,88833,1,0,0:0:0:0:
352,96,88910,1,8,0:0:0:0:
160,96,89064,1,0,0:0:0:0:
352,96,89218,1,8,0:0:0:0:
160,96,89371,1,0,0:0:0:0:
160,96,89448,1,0,0:0:0:0:
352,96,89525,1,8,0:0:0:0:
160,96,89602,1,0,0:0:0:0:
352,96,89679,1,8,0:0:0:0:
352,96,89756,1,8,0:0:0:0:
160,96,89833,1,0,0:0:0:0:
352,96,89987,1,8,0:0:0:0:
160,96,90141,1,0,0:0:0:0:
160,96,90218,1,0,0:0:0:0:
352,96,90294,1,8,0:0:0:0:
160,96,90448,1,0,0:0:0:0:
352,96,90679,1,8,0:0:0:0:
160,96,90756,1,0,0:0:0:0:
352,96,90910,1,8,0:0:0:0:
160,96,91064,1,0,0:0:0:0:
160,96,91141,1,0,0:0:0:0:
352,96,91218,1,8,0:0:0:0:
160,96,91371,1,0,0:0:0:0:
352,96,91525,1,8,0:0:0:0:
352,96,91602,1,8,0:0:0:0:
160,96,91679,1,0,0:0:0:0:
352,96,91833,1,8,0:0:0:0:
160,96,91987,1,0,0:0:0:0:
160,96,92064,1,0,0:0:0:0:
352,96,92141,1,8,0:0:0:0:
352,96,92218,1,8,0:0:0:0:
160,96,92294,1,0,0:0:0:0:
352,96,92525,1,8,0:0:0:0:
160,96,92602,1,0,0:0:0:0:
352,96,92756,1,8,0:0:0:0:
160,96,92910,1,0,0:0:0:0:
160,96,92987,1,0,0:0:0:0:
352,96,93064,1,8,0:0:0:0:
160,96,93218,1,0,0:0:0:0:
352,96,93371,1,8,0:0:0:0:
352,96,93448,1,8,0:0:0:0:
160,96,93525,1,0,0:0:0:0:
160,96,93602,1,0,0:0:0:0:
352,96,93679,1,8,0:0:0:0:
160,96,93833,1,0,0:0:0:0:
352,96,93987,1,8,0:0:0:0:
352,96,94064,1,8,0:0:0:0:
160,96,94141,1,0,0:0:0:0:
352,96,94218,1,8,0:0:0:0:
352,96,94294,1,8,0:0:0:0:
352,96,94371,1,8,0:0:0:0:
160,96,94448,1,0,0:0:0:0:
352,96,94602,1,8,0:0:0:0:
160,96,94756,1,0,0:0:0:0:
160,96,94833,1,0,0:0:0:0:
160,96,94910,1,0,0:0:0:0:
160,96,94987,1,0,0:0:0:0:
352,96,95064,1,8,0:0:0:0:
160,96,95141,1,0,0:0:0:0:
160,96,95218,1,0,0:0:0:0:
160,96,95294,1,0,0:0:0:0:
352,96,95371,1,8,0:0:0:0:
352,96,95448,1,8,0:0:0:0:
160,96,95525,1,0,0:0:0:0:
160,96,95602,1,0,0:0:0:0:
352,96,95679,1,8,0:0:0:0:
352,96,95756,1,8,0:0:0:0:
352,96,95833,1,8,0:0:0:0:
160,96,95910,1,0,0:0:0:0:
352,96,95987,1,8,0:0:0:0:
352,96,96141,1,8,0:0:0:0:
352,96,96294,1,8,0:0:0:0:
352,96,96448,1,8,0:0:0:0:
352,96,96602,1,8,0:0:0:0:
352,96,96756,1,8,0:0:0:0:
352,96,96910,1,8,0:0:0:0:
352,96,97064,1,8,0:0:0:0:
160,96,97218,1,0,0:0:0:0:
352,96,97294,1,8,0:0:0:0:
352,96,97371,1,8,0:0:0:0:
352,96,97448,1,8,0:0:0:0:
352,96,97525,1,8,0:0:0:0:
352,96,97602,1,8,0:0:0:0:
352,96,97679,1,8,0:0:0:0:
352,96,97756,1,8,0:0:0:0:
352,96,97833,1,8,0:0:0:0:
352,96,97910,1,8,0:0:0:0:
352,96,97987,1,8,0:0:0:0:
352,96,98064,1,8,0:0:0:0:
352,96,98141,1,8,0:0:0:0:
352,96,98218,1,8,0:0:0:0:
352,96,98294,1,8,0:0:0:0:
352,96,98371,1,8,0:0:0:0:
160,96,98448,1,0,0:0:0:0:
352,96,98602,1,8,0:0:0:0:
352,96,98641,1,8,0:0:0:0:
352,96,98756,1,8,0:0:0:0:
352,96,98794,1,8,0:0:0:0:
352,96,98910,1,8,0:0:0:0:
352,96,98987,1,8,0:0:0:0:
160,96,99064,1,0,0:0:0:0:
160,96,99218,1,0,0:0:0:0:
352,288,99371,5,12,0:0:0:0:
160,96,99679,5,0,0:0:0:0:
352,96,99833,1,8,0:0:0:0:
160,288,99987,1,4,0:0:0:0:
160,288,100218,1,4,0:0:0:0:
160,288,100448,1,4,0:0:0:0:
352,288,100602,1,12,0:0:0:0:
160,96,100910,5,0,0:0:0:0:
352,96,101064,1,8,0:0:0:0:
160,288,101218,1,4,0:0:0:0:
160,288,101448,1,4,0:0:0:0:
160,288,101679,1,4,0:0:0:0:
352,288,101833,1,12,0:0:0:0:
160,96,102141,5,0,0:0:0:0:
352,96,102294,1,8,0:0:0:0:
160,288,102448,1,4,0:0:0:0:
160,288,102679,1,4,0:0:0:0:
160,288,102910,1,4,0:0:0:0:
352,288,103064,1,12,0:0:0:0:
160,96,103371,1,0,0:0:0:0:
160,96,103525,1,0,0:0:0:0:
160,96,103602,1,0,0:0:0:0:
352,96,103679,1,8,0:0:0:0:
352,96,103833,1,8,0:0:0:0:
352,96,103910,1,8,0:0:0:0:
160,96,103987,1,0,0:0:0:0:
352,96,104064,1,8,0:0:0:0:
160,96,104141,1,0,0:0:0:0:
160,96,104218,1,0,0:0:0:0:
352,96,104294,1,8,0:0:0:0:
352,96,104448,1,8,0:0:0:0:
160,288,104602,5,4,0:0:0:0:
160,288,104756,1,4,0:0:0:0:
352,288,104910,1,12,0:0:0:0:
160,288,105141,1,4,0:0:0:0:
160,288,105371,1,4,0:0:0:0:
352,288,105525,1,12,0:0:0:0:
160,96,105833,5,0,0:0:0:0:
160,96,105987,1,0,0:0:0:0:
352,288,106141,1,12,0:0:0:0:
160,288,106371,1,4,0:0:0:0:
352,96,106525,1,8,0:0:0:0:
160,96,106602,1,0,0:0:0:0:
352,288,106756,1,12,0:0:0:0:
352,96,106910,1,8,0:0:0:0:
352,96,106987,1,8,0:0:0:0:
160,96,107064,5,0,0:0:0:0:
160,96,107218,1,0,0:0:0:0:
352,288,107371,1,12,0:0:0:0:
160,96,107525,1,0,0:0:0:0:
160,96,107602,1,0,0:0:0:0:
352,96,107756,1,8,0:0:0:0:
160,96,107833,1,0,0:0:0:0:
352,288,107987,1,12,0:0:0:0:
352,96,108141,1,8,0:0:0:0:
352,96,108218,1,8,0:0:0:0:
160,96,108294,1,0,0:0:0:0:
352,96,108448,1,8,0:0:0:0:
352,96,108602,1,8,0:0:0:0:
352,96,108756,1,8,0:0:0:0:
160,96,108910,1,0,0:0:0:0:
352,96,109064,1,8,0:0:0:0:
352,96,109141,1,8,0:0:0:0:
160,96,109218,1,0,0:0:0:0:
160,96,109294,1,0,0:0:0:0:
352,96,109371,1,8,0:0:0:0:
352,96,109423,1,8,0:0:0:0:
352,96,109474,1,8,0:0:0:0:
160,96,109525,1,0,0:0:0:0:
352,96,109679,1,8,0:0:0:0:
160,288,109833,1,4,0:0:0:0:
160,288,110141,1,4,0:0:0:0:
160,288,110448,1,4,0:0:0:0:
160,288,110756,1,4,0:0:0:0:
160,96,111064,1,0,0:0:0:0:
160,96,111115,1,0,0:0:0:0:
352,96,111166,1,0,0:0:0:0:
352,96,111218,1,8,0:0:0:0:
352,96,111371,1,8,0:0:0:0:
352,96,111423,1,8,0:0:0:0:
160,96,111474,1,8,0:0:0:0:
160,96,111525,1,0,0:0:0:0:
352,288,111679,1,12,0:0:0:0:
160,96,111987,1,0,0:0:0:0:
352,96,112141,1,8,0:0:0:0:
160,288,112294,1,4,0:0:0:0:
160,288,112602,1,4,0:0:0:0:
160,288,112910,1,4,0:0:0:0:
160,288,113218,1,4,0:0:0:0:
160,96,113525,1,0,0:0:0:0:
352,96,113602,1,8,0:0:0:0:
352,96,113679,1,8,0:0:0:0:
352,96,113756,1,8,0:0:0:0:
160,96,113833,1,0,0:0:0:0:
160,96,113884,1,0,0:0:0:0:
160,96,113935,1,0,0:0:0:0:
160,96,113987,1,0,0:0:0:0:
352,288,114141,1,12,0:0:0:0:
160,288,114448,1,4,0:0:0:0:
160,288,114602,1,4,0:0:0:0:
352,288,114756,1,12,0:0:0:0:
160,288,115064,1,4,0:0:0:0:
352,288,115371,1,12,0:0:0:0:
160,288,115679,1,4,0:0:0:0:
352,288,115987,1,12,0:0:0:0:
160,96,116294,1,0,0:0:0:0:
352,96,116346,1,8,0:0:0:0:
352,96,116397,1,8,0:0:0:0:
160,96,116448,1,0,0:0:0:0:
352,96,116602,1,8,0:0:0:0:
160,96,116653,1,0,0:0:0:0:
160,96,116705,1,0,0:0:0:0:
352,96,116756,1,8,0:0:0:0:
160,96,116910,1,0,0:0:0:0:
160,96,117064,1,0,0:0:0:0:
352,96,117141,1,8,0:0:0:0:
160,96,117218,1,0,0:0:0:0:
160,96,117371,1,0,0:0:0:0:
160,96,117525,1,0,0:0:0:0:
160,96,117602,1,0,0:0:0:0:
160,96,117679,1,0,0:0:0:0:
160,96,117756,1,0,0:0:0:0:
352,96,117833,1,8,0:0:0:0:
352,96,117987,1,8,0:0:0:0:
352,96,118064,1,8,0:0:0:0:
160,96,118141,1,0,0:0:0:0:
352,96,118294,1,8,0:0:0:0:
352,96,118371,1,8,0:0:0:0:
352,96,118525,1,8,0:0:0:0:
352,96,118602,1,8,0:0:0:0:
352,96,118679,1,8,0:0:0:0:
160,96,118756,1,0,0:0:0:0:
160,96,118910,1,0,0:0:0:0:
352,96,119064,1,8,0:0:0:0:
160,288,119371,1,4,0:0:0:0:
160,96,119833,1,0,0:0:0:0:
352,96,119987,1,8,0:0:0:0:
352,96,120294,1,8,0:0:0:0:
160,96,120448,1,0,0:0:0:0:
352,96,120602,1,8,0:0:0:0:
160,96,120756,1,0,0:0:0:0:
160,96,120910,1,0,0:0:0:0:
352,96,121218,1,8,0:0:0:0:
352,96,121371,1,8,0:0:0:0:
352,96,121448,1,8,0:0:0:0:
352,96,121525,1,8,0:0:0:0:
352,96,121679,1,8,0:0:0:0:
160,96,121833,1,0,0:0:0:0:
160,96,122141,1,0,0:0:0:0:
160,96,122294,1,0,0:0:0:0:
352,96,122448,1,8,0:0:0:0:
352,96,122756,1,8,0:0:0:0:
160,96,122910,1,0,0:0:0:0:
352,96,123064,1,8,0:0:0:0:
160,96,123218,1,0,0:0:0:0:
160,96,123294,1,0,0:0:0:0:
352,96,123371,1,8,0:0:0:0:
352,96,123525,1,8,0:0:0:0:
352,96,123679,1,8,0:0:0:0:
352,96,123987,1,8,0:0:0:0:
352,96,124141,1,8,0:0:0:0:
352,96,124218,1,8,0:0:0:0:
160,96,124294,1,0,0:0:0:0:
160,96,124602,1,0,0:0:0:0:
352,96,124910,1,8,0:0:0:0:
352,96,125218,1,8,0:0:0:0:
160,96,125371,1,0,0:0:0:0:
352,96,125525,1,8,0:0:0:0:
352,96,125679,1,8,0:0:0:0:
160,96,125833,1,0,0:0:0:0:
160,96,125987,1,0,0:0:0:0:
352,96,126141,1,8,0:0:0:0:
160,96,126294,1,0,0:0:0:0:
352,96,126371,1,8,0:0:0:0:
352,96,126448,1,8,0:0:0:0:
352,96,126602,1,8,0:0:0:0:
160,96,126756,1,0,0:0:0:0:
352,96,126910,1,8,0:0:0:0:
160,96,126987,1,0,0:0:0:0:
352,96,127064,1,8,0:0:0:0:
160,96,127218,1,0,0:0:0:0:
352,96,127371,1,8,0:0:0:0:
160,96,127525,1,0,0:0:0:0:
352,96,127679,1,8,0:0:0:0:
352,96,127756,1,8,0:0:0:0:
352,96,127833,1,8,0:0:0:0:
352,96,127910,1,8,0:0:0:0:
160,96,127987,1,0,0:0:0:0:
160,96,128141,1,0,0:0:0:0:
160,96,128294,1,0,0:0:0:0:
352,96,128371,1,8,0:0:0:0:
352,96,128448,1,8,0:0:0:0:
160,96,128602,1,0,0:0:0:0:
160,96,128679,1,0,0:0:0:0:
160,96,128756,1,0,0:0:0:0:
160,96,128833,1,0,0:0:0:0:
352,96,128910,1,8,0:0:0:0:
352,96,129012,1,8,0:0:0:0:
352,96,129115,1,8,0:0:0:0:
160,288,129218,1,4,0:0:0:0:
